  0
SECTION
  2
HEADER
  9
$ACADVER
  1
AC1015
  9
$ACADMAINTVER
 70
     6
  9
$DWGCODEPAGE
  3
DOS932
  9
$INSBASE
 10
0.0
 20
0.0
 30
0.0
  9
$EXTMIN
 10
0.0
 20
0.0
 30
0.0
  9
$EXTMAX
 10
210.0
 20
297.0
 30
0.0
  9
$LIMMIN
 10
0.0
 20
0.0
  9
$LIMMAX
 10
210.0
 20
297.0
  9
$ORTHOMODE
 70
     0
  9
$REGENMODE
 70
     1
  9
$FILLMODE
 70
     1
  9
$QTEXTMODE
 70
     0
  9
$MIRRTEXT
 70
     1
  9
$LTSCALE
 40
1.0
  9
$ATTMODE
 70
     1
  9
$TEXTSIZE
 40
3.5
  9
$TRACEWID
 40
1.0
  9
$TEXTSTYLE
  7
Standard
  9
$CLAYER
  8
0
  9
$CELTYPE
  6
ByLayer
  9
$CECOLOR
 62
   256
  9
$CELTSCALE
 40
1.0
  9
$DISPSILH
 70
     0
  9
$DIMSCALE
 40
1.0
  9
$DIMASZ
 40
3.0
  9
$DIMEXO
 40
1.0
  9
$DIMDLI
 40
3.75
  9
$DIMRND
 40
0.0
  9
$DIMDLE
 40
0.0
  9
$DIMEXE
 40
1.0
  9
$DIMTP
 40
0.0
  9
$DIMTM
 40
0.0
  9
$DIMTXT
 40
3.5
  9
$DIMCEN
 40
2.5
  9
$DIMTSZ
 40
0.0
  9
$DIMTOL
 70
     0
  9
$DIMLIM
 70
     0
  9
$DIMTIH
 70
     1
  9
$DIMTOH
 70
     1
  9
$DIMSE1
 70
     0
  9
$DIMSE2
 70
     0
  9
$DIMTAD
 70
     1
  9
$DIMZIN
 70
     0
  9
$DIMBLK
  1

  9
$DIMASO
 70
     1
  9
$DIMSHO
 70
     1
  9
$DIMPOST
  1

  9
$DIMAPOST
  1

  9
$DIMALT
 70
     0
  9
$DIMALTD
 70
     3
  9
$DIMALTF
 40
0.0393700787
  9
$DIMLFAC
 40
1.0
  9
$DIMTOFL
 70
     1
  9
$DIMTVP
 40
0.0
  9
$DIMTIX
 70
     0
  9
$DIMSOXD
 70
     0
  9
$DIMSAH
 70
     0
  9
$DIMBLK1
  1

  9
$DIMBLK2
  1

  9
$DIMSTYLE
  2
ISO-25
  9
$DIMCLRD
 70
     0
  9
$DIMCLRE
 70
     0
  9
$DIMCLRT
 70
     0
  9
$DIMTFAC
 40
1.0
  9
$DIMGAP
 40
1.524
  9
$DIMJUST
 70
     0
  9
$DIMSD1
 70
     0
  9
$DIMSD2
 70
     0
  9
$DIMTOLJ
 70
     0
  9
$DIMTZIN
 70
     0
  9
$DIMALTZ
 70
     0
  9
$DIMALTTZ
 70
     0
  9
$DIMUPT
 70
     0
  9
$DIMDEC
 70
     1
  9
$DIMTDEC
 70
     3
  9
$DIMALTU
 70
     2
  9
$DIMALTTD
 70
     3
  9
$DIMTXSTY
  7
Standard
  9
$DIMAUNIT
 70
     0
  9
$DIMADEC
 70
     2
  9
$DIMALTRND
 40
0.0
  9
$DIMAZIN
 70
     0
  9
$DIMDSEP
 70
    44
  9
$DIMATFIT
 70
     3
  9
$DIMFRAC
 70
     0
  9
$DIMLDRBLK
  1

  9
$DIMLUNIT
 70
     2
  9
$DIMLWD
 70
    -2
  9
$DIMLWE
 70
    -2
  9
$DIMTMOVE
 70
     0
  9
$LUNITS
 70
     2
  9
$LUPREC
 70
     1
  9
$SKETCHINC
 40
1.0
  9
$FILLETRAD
 40
10.0
  9
$AUNITS
 70
     0
  9
$AUPREC
 70
     2
  9
$MENU
  1
.
  9
$ELEVATION
 40
0.0
  9
$PELEVATION
 40
0.0
  9
$THICKNESS
 40
0.0
  9
$LIMCHECK
 70
     0
  9
$CHAMFERA
 40
0.0
  9
$CHAMFERB
 40
0.0
  9
$CHAMFERC
 40
0.0
  9
$CHAMFERD
 40
0.0
  9
$SKPOLY
 70
     0
  9
$TDCREATE
 40
2457819.574971759
  9
$TDUCREATE
 40
2457819.199971759
  9
$TDUPDATE
 40
2457819.57497338
  9
$TDUUPDATE
 40
2457819.19997338
  9
$TDINDWG
 40
0.0000000116
  9
$TDUSRTIMER
 40
0.0000000116
  9
$USRTIMER
 70
     1
  9
$ANGBASE
 50
0.0
  9
$ANGDIR
 70
     0
  9
$PDMODE
 70
     0
  9
$PDSIZE
 40
-1.0
  9
$PLINEWID
 40
0.0
  9
$SPLFRAME
 70
     0
  9
$SPLINETYPE
 70
     6
  9
$SPLINESEGS
 70
     8
  9
$HANDSEED
  5
1E3
  9
$SURFTAB1
 70
     6
  9
$SURFTAB2
 70
     6
  9
$SURFTYPE
 70
     6
  9
$SURFU
 70
     6
  9
$SURFV
 70
     6
  9
$UCSBASE
  2

  9
$UCSNAME
  2

  9
$UCSORG
 10
0.0
 20
0.0
 30
0.0
  9
$UCSXDIR
 10
1.0
 20
0.0
 30
0.0
  9
$UCSYDIR
 10
0.0
 20
1.0
 30
0.0
  9
$UCSORTHOREF
  2

  9
$UCSORTHOVIEW
 70
     0
  9
$UCSORGTOP
 10
0.0
 20
0.0
 30
0.0
  9
$UCSORGBOTTOM
 10
0.0
 20
0.0
 30
0.0
  9
$UCSORGLEFT
 10
0.0
 20
0.0
 30
0.0
  9
$UCSORGRIGHT
 10
0.0
 20
0.0
 30
0.0
  9
$UCSORGFRONT
 10
0.0
 20
0.0
 30
0.0
  9
$UCSORGBACK
 10
0.0
 20
0.0
 30
0.0
  9
$PUCSBASE
  2

  9
$PUCSNAME
  2

  9
$PUCSORG
 10
0.0
 20
0.0
 30
0.0
  9
$PUCSXDIR
 10
1.0
 20
0.0
 30
0.0
  9
$PUCSYDIR
 10
0.0
 20
1.0
 30
0.0
  9
$PUCSORTHOREF
  2

  9
$PUCSORTHOVIEW
 70
     0
  9
$PUCSORGTOP
 10
0.0
 20
0.0
 30
0.0
  9
$PUCSORGBOTTOM
 10
0.0
 20
0.0
 30
0.0
  9
$PUCSORGLEFT
 10
0.0
 20
0.0
 30
0.0
  9
$PUCSORGRIGHT
 10
0.0
 20
0.0
 30
0.0
  9
$PUCSORGFRONT
 10
0.0
 20
0.0
 30
0.0
  9
$PUCSORGBACK
 10
0.0
 20
0.0
 30
0.0
  9
$USERI1
 70
     0
  9
$USERI2
 70
     0
  9
$USERI3
 70
     0
  9
$USERI4
 70
     0
  9
$USERI5
 70
     0
  9
$USERR1
 40
0.0
  9
$USERR2
 40
0.0
  9
$USERR3
 40
0.0
  9
$USERR4
 40
0.0
  9
$USERR5
 40
0.0
  9
$WORLDVIEW
 70
     1
  9
$SHADEDGE
 70
     3
  9
$SHADEDIF
 70
    70
  9
$TILEMODE
 70
     1
  9
$MAXACTVP
 70
    64
  9
$PINSBASE
 10
0.0
 20
0.0
 30
0.0
  9
$PLIMCHECK
 70
     0
  9
$PEXTMIN
 10
1.0000000000E+20
 20
1.0000000000E+20
 30
1.0000000000E+20
  9
$PEXTMAX
 10
-1.0000000000E+20
 20
-1.0000000000E+20
 30
-1.0000000000E+20
  9
$PLIMMIN
 10
0.0
 20
0.0
  9
$PLIMMAX
 10
420.0
 20
297.0
  9
$UNITMODE
 70
     0
  9
$VISRETAIN
 70
     1
  9
$PLINEGEN
 70
     0
  9
$PSLTSCALE
 70
     1
  9
$TREEDEPTH
 70
  3020
  9
$CMLSTYLE
  2
Standard
  9
$CMLJUST
 70
     0
  9
$CMLSCALE
 40
20.0
  9
$PROXYGRAPHICS
 70
     1
  9
$MEASUREMENT
 70
     1
  9
$CELWEIGHT
370
    -1
  9
$ENDCAPS
280
     0
  9
$JOINSTYLE
280
     0
  9
$LWDISPLAY
290
     1
  9
$INSUNITS
 70
     4
  9
$HYPERLINKBASE
  1

  9
$STYLESHEET
  1

  9
$XEDIT
290
     1
  9
$CEPSNTYPE
380
     0
  9
$PSTYLEMODE
290
     1
  9
$FINGERPRINTGUID
  2
{AB2351FB-C801-4D7B-863D-E1FB30F64DF7}
  9
$VERSIONGUID
  2
{FAEB1C32-E019-11D5-929B-00C0DF256EC4}
  9
$EXTNAMES
290
     1
  9
$PSVPSCALE
 40
0.0
  9
$OLESTARTUP
290
     0
  0
ENDSEC
  0
SECTION
  2
CLASSES
  0
CLASS
  1
ACDBDICTIONARYWDFLT
  2
AcDbDictionaryWithDefault
  3
ObjectDBX Classes
 90
        0
280
     0
281
     0
  0
CLASS
  1
VISUALSTYLE
  2
AcDbVisualStyle
  3
ObjectDBX Classes
 90
     4095
280
     0
281
     0
  0
CLASS
  1
MATERIAL
  2
AcDbMaterial
  3
ObjectDBX Classes
 90
     1153
280
     0
281
     0
  0
CLASS
  1
SCALE
  2
AcDbScale
  3
ObjectDBX Classes
 90
     1153
280
     0
281
     0
  0
CLASS
  1
TABLESTYLE
  2
AcDbTableStyle
  3
ObjectDBX Classes
 90
     4095
280
     0
281
     0
  0
CLASS
  1
MLEADERSTYLE
  2
AcDbMLeaderStyle
  3
ACDB_MLEADERSTYLE_CLASS
 90
     4095
280
     0
281
     0
  0
CLASS
  1
SUN
  2
AcDbSun
  3
SCENEOE
 90
     1153
280
     0
281
     0
  0
CLASS
  1
ACDBPLACEHOLDER
  2
AcDbPlaceHolder
  3
ObjectDBX Classes
 90
        0
280
     0
281
     0
  0
CLASS
  1
LAYOUT
  2
AcDbLayout
  3
ObjectDBX Classes
 90
        0
280
     0
281
     0
  0
ENDSEC
  0
SECTION
  2
TABLES
  0
TABLE
  2
VPORT
  5
8
330
0
100
AcDbSymbolTable
 70
     1
  0
VPORT
  5
29
330
8
100
AcDbSymbolTableRecord
100
AcDbViewportTableRecord
  2
*Active
 70
     0
 10
0.0
 20
0.0
 11
1.0
 21
1.0
 12
105.0
 22
148.5
 13
0.0
 23
0.0
 14
10.0
 24
10.0
 15
10.0
 25
10.0
 16
0.0
 26
0.0
 36
1.0
 17
0.0
 27
0.0
 37
0.0
 40
297.0
 41
0.7070707071
 42
50.0
 43
0.0
 44
0.0
 50
0.0
 51
0.0
 71
     0
 72
  2000
 73
     1
 74
     3
 75
     0
 76
     0
 77
     0
 78
     0
281
     0
 65
     1
110
0.0
120
0.0
130
0.0
111
1.0
121
0.0
131
0.0
112
0.0
122
1.0
132
0.0
 79
     0
146
0.0
  0
ENDTAB
  0
TABLE
  2
LTYPE
  5
5
330
0
100
AcDbSymbolTable
 70
     6
  0
LTYPE
  5
14
330
5
100
AcDbSymbolTableRecord
100
AcDbLinetypeTableRecord
  2
ByBlock
 70
     0
  3

 72
    65
 73
     0
 40
0.0
  0
LTYPE
  5
15
330
5
100
AcDbSymbolTableRecord
100
AcDbLinetypeTableRecord
  2
ByLayer
 70
     0
  3

 72
    65
 73
     0
 40
0.0
  0
LTYPE
  5
16
330
5
100
AcDbSymbolTableRecord
100
AcDbLinetypeTableRecord
  2
Continuous
 70
     0
  3
Solid line
 72
    65
 73
     0
 40
0.0
  0
LTYPE
  5
6E
330
5
100
AcDbSymbolTableRecord
100
AcDbLinetypeTableRecord
  2
HIDDEN
 70
     0
  3
Hidden __ __ __ __ __ __ __ __ __ __ __ __ __ __
 72
    65
 73
     2
 40
1.905
 49
1.27
 74
     0
 49
-0.635
 74
     0
  0
LTYPE
  5
6F
330
5
100
AcDbSymbolTableRecord
100
AcDbLinetypeTableRecord
  2
PHANTOM
 70
     0
  3
Phantom ______  __  __  ______  __  __  ______
 72
    65
 73
     6
 40
12.7
 49
6.35
 74
     0
 49
-1.27
 74
     0
 49
1.27
 74
     0
 49
-1.27
 74
     0
 49
1.27
 74
     0
 49
-1.27
 74
     0
  0
LTYPE
  5
70
330
5
100
AcDbSymbolTableRecord
100
AcDbLinetypeTableRecord
  2
CENTER
 70
     0
  3
Center ____ _ ____ _ ____ _ ____ _ ____ _ ____
 72
    65
 73
     4
 40
10.16
 49
6.35
 74
     0
 49
-1.27
 74
     0
 49
1.27
 74
     0
 49
-1.27
 74
     0
  0
LTYPE
  5
71
330
5
100
AcDbSymbolTableRecord
100
AcDbLinetypeTableRecord
  2
CENTERX2
 70
     0
  3
Center (2x) ________  __  ________  __  _____
 72
    65
 73
     4
 40
20.32
 49
12.7
 74
     0
 49
-2.54
 74
     0
 49
2.54
 74
     0
 49
-2.54
 74
     0
  0
LTYPE
  5
72
330
5
100
AcDbSymbolTableRecord
100
AcDbLinetypeTableRecord
  2
DOT2
 70
     0
  3
Dot (.5x) ........................................
 72
    65
 73
     2
 40
0.635
 49
0.0
 74
     0
 49
-0.635
 74
     0
  0
ENDTAB
  0
TABLE
  2
LAYER
  5
2
330
0
100
AcDbSymbolTable
 70
     1
  0
LAYER
  5
10
330
2
100
AcDbSymbolTableRecord
100
AcDbLayerTableRecord
  2
0
 70
     0
 62
     7
  6
Continuous
370
    -3
390
F
  0
ENDTAB
  0
TABLE
  2
STYLE
  5
3
330
0
100
AcDbSymbolTable
 70
     2
  0
STYLE
  5
11
330
3
100
AcDbSymbolTableRecord
100
AcDbTextStyleTableRecord
  2
Standard
 70
     0
 40
0.0
 41
1.0
 50
0.0
 71
     0
 42
3.5
  3
txt
  4
bigfont
  0
STYLE
  5
7B
330
3
100
AcDbSymbolTableRecord
100
AcDbTextStyleTableRecord
  2
SLDTEXTSTYLE0
 70
     0
 40
0.0
 41
0.7
 50
0.0
 71
     0
 42
3.5
  3
TXT
  4
bigfont
  0
ENDTAB
  0
TABLE
  2
VIEW
  5
6
330
0
100
AcDbSymbolTable
 70
     0
  0
ENDTAB
  0
TABLE
  2
UCS
  5
7
330
0
100
AcDbSymbolTable
 70
     0
  0
ENDTAB
  0
TABLE
  2
APPID
  5
9
330
0
100
AcDbSymbolTable
 70
     1
  0
APPID
  5
12
330
9
100
AcDbSymbolTableRecord
100
AcDbRegAppTableRecord
  2
ACAD
 70
     0
  0
ENDTAB
  0
TABLE
  2
DIMSTYLE
  5
A
330
0
100
AcDbSymbolTable
 70
     7
100
AcDbDimStyleTable
  0
DIMSTYLE
105
27
330
A
100
AcDbSymbolTableRecord
100
AcDbDimStyleTableRecord
  2
ISO-25
 70
     0
 41
2.5
 42
0.625
 43
3.75
 44
1.25
 73
     0
 74
     0
 77
     1
 78
     8
140
2.5
141
2.5
143
0.0393700787
147
0.625
171
     3
172
     1
178
     0
271
     2
272
     2
274
     3
278
    44
283
     0
284
     8
340
11
  0
DIMSTYLE
105
EF
102
{ACAD_REACTORS
330
EE
330
F9
330
103
330
10D
330
117
330
174
330
18B
330
195
330
1D1
102
}
330
A
100
AcDbSymbolTableRecord
100
AcDbDimStyleTableRecord
  2
SLDDIMSTYLE0
 70
     0
 41
3.0
 44
0.0
 45
0.000000001
 73
     0
 74
     0
 77
     3
 78
    12
 79
     3
140
3.5
147
0.875
173
     1
178
     0
271
     1
272
     3
276
     2
284
    12
340
7B
  0
DIMSTYLE
105
122
102
{ACAD_REACTORS
330
121
102
}
330
A
100
AcDbSymbolTableRecord
100
AcDbDimStyleTableRecord
  2
SLDDIMSTYLE1
 70
     0
  3
<>
 41
3.0
 44
0.0
 45
0.000000001
 78
    12
 79
     3
140
3.5
141
0.0
147
0.875
173
     1
178
     0
271
     1
272
     3
276
     2
284
    12
340
7B
  0
DIMSTYLE
105
12B
102
{ACAD_REACTORS
330
12A
102
}
330
A
100
AcDbSymbolTableRecord
100
AcDbDimStyleTableRecord
  2
SLDDIMSTYLE2
 70
     0
 41
3.0
 44
0.0
 45
0.000000001
 78
    12
 79
     3
140
3.5
141
0.0
147
0.875
173
     1
178
     0
271
     1
272
     3
276
     2
284
    12
340
7B
  0
DIMSTYLE
105
17F
102
{ACAD_REACTORS
330
17E
102
}
330
A
100
AcDbSymbolTableRecord
100
AcDbDimStyleTableRecord
  2
SLDDIMSTYLE3
 70
     0
 41
3.0
 44
0.0
 45
0.000000001
 47
0.01
 48
0.01
 71
     1
 73
     0
 74
     0
 77
     3
 78
    12
 79
     3
140
3.5
147
0.875
173
     1
178
     0
271
     1
272
     2
276
     2
284
     8
340
7B
  0
DIMSTYLE
105
1B4
102
{ACAD_REACTORS
330
1B3
330
1C3
102
}
330
A
100
AcDbSymbolTableRecord
100
AcDbDimStyleTableRecord
  2
SLDDIMSTYLE4
 70
     0
 41
3.0
 44
0.0
 45
0.000000001
 73
     0
 74
     0
 77
     3
 78
    12
 79
     3
140
3.5
147
0.875
172
     1
173
     1
178
     0
271
     1
272
     3
276
     2
284
    12
289
     0
340
7B
  0
DIMSTYLE
105
1E1
330
A
100
AcDbSymbolTableRecord
100
AcDbDimStyleTableRecord
  2
SLDDIMSTYLE5
 70
     0
 41
3.0
 44
0.0
 45
0.000000001
146
3.0
147
0.0
173
     1
178
     0
271
     0
272
     0
276
     2
340
11
  0
ENDTAB
  0
TABLE
  2
BLOCK_RECORD
  5
1
330
0
100
AcDbSymbolTable
 70
    18
  0
BLOCK_RECORD
  5
1F
330
1
100
AcDbSymbolTableRecord
100
AcDbBlockTableRecord
  2
*Model_Space
340
22
  0
BLOCK_RECORD
  5
1B
330
1
100
AcDbSymbolTableRecord
100
AcDbBlockTableRecord
  2
*Paper_Space
340
1E
  0
BLOCK_RECORD
  5
23
330
1
100
AcDbSymbolTableRecord
100
AcDbBlockTableRecord
  2
*Paper_Space0
340
26
  0
BLOCK_RECORD
  5
F0
330
1
100
AcDbSymbolTableRecord
100
AcDbBlockTableRecord
  2
_D
340
0
  0
BLOCK_RECORD
  5
FA
330
1
100
AcDbSymbolTableRecord
100
AcDbBlockTableRecord
  2
_D_1
340
0
  0
BLOCK_RECORD
  5
104
330
1
100
AcDbSymbolTableRecord
100
AcDbBlockTableRecord
  2
_D_2
340
0
  0
BLOCK_RECORD
  5
10E
330
1
100
AcDbSymbolTableRecord
100
AcDbBlockTableRecord
  2
_D_3
340
0
  0
BLOCK_RECORD
  5
118
330
1
100
AcDbSymbolTableRecord
100
AcDbBlockTableRecord
  2
_D_4
340
0
  0
BLOCK_RECORD
  5
123
330
1
100
AcDbSymbolTableRecord
100
AcDbBlockTableRecord
  2
_D_5
340
0
  0
BLOCK_RECORD
  5
12C
330
1
100
AcDbSymbolTableRecord
100
AcDbBlockTableRecord
  2
_D_6
340
0
  0
BLOCK_RECORD
  5
138
330
1
100
AcDbSymbolTableRecord
100
AcDbBlockTableRecord
  2
SW_CENTERMARKSYMBOL_0
340
0
102
{BLKREFS
331
143
102
}
  0
BLOCK_RECORD
  5
144
330
1
100
AcDbSymbolTableRecord
100
AcDbBlockTableRecord
  2
SW_CENTERMARKSYMBOL_1
340
0
102
{BLKREFS
331
14F
102
}
  0
BLOCK_RECORD
  5
175
330
1
100
AcDbSymbolTableRecord
100
AcDbBlockTableRecord
  2
_D_7
340
0
  0
BLOCK_RECORD
  5
180
330
1
100
AcDbSymbolTableRecord
100
AcDbBlockTableRecord
  2
_D_8
340
0
  0
BLOCK_RECORD
  5
18C
330
1
100
AcDbSymbolTableRecord
100
AcDbBlockTableRecord
  2
_D_9
340
0
  0
BLOCK_RECORD
  5
196
330
1
100
AcDbSymbolTableRecord
100
AcDbBlockTableRecord
  2
_D_10
340
0
  0
BLOCK_RECORD
  5
1B5
330
1
100
AcDbSymbolTableRecord
100
AcDbBlockTableRecord
  2
_D_11
340
0
  0
BLOCK_RECORD
  5
1C4
330
1
100
AcDbSymbolTableRecord
100
AcDbBlockTableRecord
  2
_D_12
340
0
  0
BLOCK_RECORD
  5
1D2
330
1
100
AcDbSymbolTableRecord
100
AcDbBlockTableRecord
  2
_D_13
340
0
  0
BLOCK_RECORD
  5
1DB
330
1
100
AcDbSymbolTableRecord
100
AcDbBlockTableRecord
  2
SW_NOTE_0
340
0
102
{BLKREFS
331
1E0
102
}
  0
ENDTAB
  0
ENDSEC
  0
SECTION
  2
BLOCKS
  0
BLOCK
  5
20
330
1F
100
AcDbEntity
  8
0
100
AcDbBlockBegin
  2
*Model_Space
 70
     0
 10
0.0
 20
0.0
 30
0.0
  3
*Model_Space
  1

  0
ENDBLK
  5
21
330
1F
100
AcDbEntity
  8
0
100
AcDbBlockEnd
  0
BLOCK
  5
1C
330
1B
100
AcDbEntity
 67
     1
  8
0
100
AcDbBlockBegin
  2
*Paper_Space
 70
     0
 10
0.0
 20
0.0
 30
0.0
  3
*Paper_Space
  1

  0
ENDBLK
  5
1D
330
1B
100
AcDbEntity
 67
     1
  8
0
100
AcDbBlockEnd
  0
BLOCK
  5
24
330
23
100
AcDbEntity
  8
0
100
AcDbBlockBegin
  2
*Paper_Space0
 70
     0
 10
0.0
 20
0.0
 30
0.0
  3
*Paper_Space0
  1

  0
ENDBLK
  5
25
330
23
100
AcDbEntity
  8
0
100
AcDbBlockEnd
  0
BLOCK
  5
F1
330
F0
100
AcDbEntity
  8
0
100
AcDbBlockBegin
  2
_D
 70
     0
 10
0.0
 20
0.0
 30
0.0
  3
_D
  1

  0
SOLID
  5
F3
330
F0
100
AcDbEntity
  8
0
  6
Continuous
 62
     7
370
     0
100
AcDbTrace
 10
143.6832931747
 20
134.8844632739
 30
0.0
 11
144.4332931747
 21
137.8844632739
 31
0.0
 12
142.9332931747
 22
137.8844632739
 32
0.0
 13
142.9332931747
 23
137.8844632739
 33
0.0
  0
SOLID
  5
F4
330
F0
100
AcDbEntity
  8
0
  6
Continuous
 62
     7
370
     0
100
AcDbTrace
 10
143.6832931747
 20
162.9844632739
 30
0.0
 11
142.9332931747
 21
159.9844632739
 31
0.0
 12
144.4332931747
 22
159.9844632739
 32
0.0
 13
144.4332931747
 23
159.9844632739
 33
0.0
  0
LINE
  5
F5
330
F0
100
AcDbEntity
  8
0
  6
Continuous
 62
     7
370
     0
100
AcDbLine
 10
128.6832931747
 20
134.8844632739
 30
0.0
 11
144.6832931747
 21
134.8844632739
 31
0.0
  0
LINE
  5
F6
330
F0
100
AcDbEntity
  8
0
  6
Continuous
 62
     7
370
     0
100
AcDbLine
 10
116.9332931747
 20
162.9844632739
 30
0.0
 11
144.6832931747
 21
162.9844632739
 31
0.0
  0
LINE
  5
F7
330
F0
100
AcDbEntity
  8
0
  6
Continuous
 62
     7
370
     0
100
AcDbLine
 10
143.6832931747
 20
134.8844632739
 30
0.0
 11
143.6832931747
 21
162.9844632739
 31
0.0
  0
MTEXT
  5
F8
330
F0
100
AcDbEntity
  8
0
  6
Continuous
 62
     7
370
     0
100
AcDbMText
 10
139.1715563184
 20
144.8608522789
 30
0.0
 40
3.5
 41
0.0
 71
     1
 72
     1
  1
28.1
  7
SLDTEXTSTYLE0
 11
-1.608122649676637E-16
 21
1.0
 31
0.0
 73
     1
 44
1.0
  0
ENDBLK
  5
F2
330
F0
100
AcDbEntity
  8
0
100
AcDbBlockEnd
  0
BLOCK
  5
FB
330
FA
100
AcDbEntity
  8
0
100
AcDbBlockBegin
  2
_D_1
 70
     0
 10
0.0
 20
0.0
 30
0.0
  3
_D_1
  1

  0
SOLID
  5
FD
330
FA
100
AcDbEntity
  8
0
  6
Continuous
 62
     7
370
     0
100
AcDbTrace
 10
56.6832931747
 20
179.3630497078
 30
0.0
 11
59.6832931747
 21
178.6130497078
 31
0.0
 12
59.6832931747
 22
180.1130497078
 32
0.0
 13
59.6832931747
 23
180.1130497078
 33
0.0
  0
SOLID
  5
FE
330
FA
100
AcDbEntity
  8
0
  6
Continuous
 62
     7
370
     0
100
AcDbTrace
 10
75.1832931747
 20
179.3630497078
 30
0.0
 11
72.1832931747
 21
180.1130497078
 31
0.0
 12
72.1832931747
 22
178.6130497078
 32
0.0
 13
72.1832931747
 23
178.6130497078
 33
0.0
  0
LINE
  5
FF
330
FA
100
AcDbEntity
  8
0
  6
Continuous
 62
     7
370
     0
100
AcDbLine
 10
56.6832931747
 20
168.8844632739
 30
0.0
 11
56.6832931747
 21
180.3630497078
 31
0.0
  0
LINE
  5
100
330
FA
100
AcDbEntity
  8
0
  6
Continuous
 62
     7
370
     0
100
AcDbLine
 10
75.1832931747
 20
170.7344632739
 30
0.0
 11
75.1832931747
 21
180.3630497078
 31
0.0
  0
LINE
  5
101
330
FA
100
AcDbEntity
  8
0
  6
Continuous
 62
     7
370
     0
100
AcDbLine
 10
56.6832931747
 20
179.3630497078
 30
0.0
 11
75.1832931747
 21
179.3630497078
 31
0.0
  0
MTEXT
  5
102
330
FA
100
AcDbEntity
  8
0
  6
Continuous
 62
     7
370
     0
100
AcDbMText
 10
61.8596821798
 20
183.8747865641
 30
0.0
 40
3.5
 41
0.0
 71
     1
 72
     1
  1
18.5
  7
SLDTEXTSTYLE0
 73
     1
 44
1.0
  0
ENDBLK
  5
FC
330
FA
100
AcDbEntity
  8
0
100
AcDbBlockEnd
  0
BLOCK
  5
105
330
104
100
AcDbEntity
  8
0
100
AcDbBlockBegin
  2
_D_2
 70
     0
 10
0.0
 20
0.0
 30
0.0
  3
_D_2
  1

  0
SOLID
  5
107
330
104
100
AcDbEntity
  8
0
  6
Continuous
 62
     7
370
     0
100
AcDbTrace
 10
75.1832931747
 20
179.3630497078
 30
0.0
 11
78.1832931747
 21
178.6130497078
 31
0.0
 12
78.1832931747
 22
180.1130497078
 32
0.0
 13
78.1832931747
 23
180.1130497078
 33
0.0
  0
SOLID
  5
108
330
104
100
AcDbEntity
  8
0
  6
Continuous
 62
     7
370
     0
100
AcDbTrace
 10
109.1832931747
 20
179.3630497078
 30
0.0
 11
106.1832931747
 21
180.1130497078
 31
0.0
 12
106.1832931747
 22
178.6130497078
 32
0.0
 13
106.1832931747
 23
178.6130497078
 33
0.0
  0
LINE
  5
109
330
104
100
AcDbEntity
  8
0
  6
Continuous
 62
     7
370
     0
100
AcDbLine
 10
75.1832931747
 20
170.7344632739
 30
0.0
 11
75.1832931747
 21
180.3630497078
 31
0.0
  0
LINE
  5
10A
330
104
100
AcDbEntity
  8
0
  6
Continuous
 62
     7
370
     0
100
AcDbLine
 10
109.1832931747
 20
170.7344632739
 30
0.0
 11
109.1832931747
 21
180.3630497078
 31
0.0
  0
LINE
  5
10B
330
104
100
AcDbEntity
  8
0
  6
Continuous
 62
     7
370
     0
100
AcDbLine
 10
75.1832931747
 20
179.3630497078
 30
0.0
 11
109.1832931747
 21
179.3630497078
 31
0.0
  0
MTEXT
  5
10C
330
104
100
AcDbEntity
  8
0
  6
Continuous
 62
     7
370
     0
100
AcDbMText
 10
90.1464876772
 20
183.8747865641
 30
0.0
 40
3.5
 41
0.0
 71
     1
 72
     1
  1
34
  7
SLDTEXTSTYLE0
 73
     1
 44
1.0
  0
ENDBLK
  5
106
330
104
100
AcDbEntity
  8
0
100
AcDbBlockEnd
  0
BLOCK
  5
10F
330
10E
100
AcDbEntity
  8
0
100
AcDbBlockBegin
  2
_D_3
 70
     0
 10
0.0
 20
0.0
 30
0.0
  3
_D_3
  1

  0
SOLID
  5
111
330
10E
100
AcDbEntity
  8
0
  6
Continuous
 62
     7
370
     0
100
AcDbTrace
 10
109.1832931747
 20
179.3630497078
 30
0.0
 11
112.1832931747
 21
178.6130497078
 31
0.0
 12
112.1832931747
 22
180.1130497078
 32
0.0
 13
112.1832931747
 23
180.1130497078
 33
0.0
  0
SOLID
  5
112
330
10E
100
AcDbEntity
  8
0
  6
Continuous
 62
     7
370
     0
100
AcDbTrace
 10
127.6832931747
 20
179.3630497078
 30
0.0
 11
124.6832931747
 21
180.1130497078
 31
0.0
 12
124.6832931747
 22
178.6130497078
 32
0.0
 13
124.6832931747
 23
178.6130497078
 33
0.0
  0
LINE
  5
113
330
10E
100
AcDbEntity
  8
0
  6
Continuous
 62
     7
370
     0
100
AcDbLine
 10
109.1832931747
 20
170.7344632739
 30
0.0
 11
109.1832931747
 21
180.3630497078
 31
0.0
  0
LINE
  5
114
330
10E
100
AcDbEntity
  8
0
  6
Continuous
 62
     7
370
     0
100
AcDbLine
 10
127.6832931747
 20
168.8844632739
 30
0.0
 11
127.6832931747
 21
180.3630497078
 31
0.0
  0
LINE
  5
115
330
10E
100
AcDbEntity
  8
0
  6
Continuous
 62
     7
370
     0
100
AcDbLine
 10
109.1832931747
 20
179.3630497078
 30
0.0
 11
127.6832931747
 21
179.3630497078
 31
0.0
  0
MTEXT
  5
116
330
10E
100
AcDbEntity
  8
0
  6
Continuous
 62
     7
370
     0
100
AcDbMText
 10
114.3596821798
 20
183.8747865641
 30
0.0
 40
3.5
 41
0.0
 71
     1
 72
     1
  1
18.5
  7
SLDTEXTSTYLE0
 73
     1
 44
1.0
  0
ENDBLK
  5
110
330
10E
100
AcDbEntity
  8
0
100
AcDbBlockEnd
  0
BLOCK
  5
119
330
118
100
AcDbEntity
  8
0
100
AcDbBlockBegin
  2
_D_4
 70
     0
 10
0.0
 20
0.0
 30
0.0
  3
_D_4
  1

  0
SOLID
  5
11B
330
118
100
AcDbEntity
  8
0
  6
Continuous
 62
     7
370
     0
100
AcDbTrace
 10
46.6832931747
 20
167.8844632739
 30
0.0
 11
45.9332931747
 21
164.8844632739
 31
0.0
 12
47.4332931747
 22
164.8844632739
 32
0.0
 13
47.4332931747
 23
164.8844632739
 33
0.0
  0
SOLID
  5
11C
330
118
100
AcDbEntity
  8
0
  6
Continuous
 62
     7
370
     0
100
AcDbTrace
 10
46.6832931747
 20
134.8844632739
 30
0.0
 11
47.4332931747
 21
137.8844632739
 31
0.0
 12
45.9332931747
 22
137.8844632739
 32
0.0
 13
45.9332931747
 23
137.8844632739
 33
0.0
  0
LINE
  5
11D
330
118
100
AcDbEntity
  8
0
  6
Continuous
 62
     7
370
     0
100
AcDbLine
 10
55.6832931747
 20
167.8844632739
 30
0.0
 11
45.6832931747
 21
167.8844632739
 31
0.0
  0
LINE
  5
11E
330
118
100
AcDbEntity
  8
0
  6
Continuous
 62
     7
370
     0
100
AcDbLine
 10
55.6832931747
 20
134.8844632739
 30
0.0
 11
45.6832931747
 21
134.8844632739
 31
0.0
  0
LINE
  5
11F
330
118
100
AcDbEntity
  8
0
  6
Continuous
 62
     7
370
     0
100
AcDbLine
 10
46.6832931747
 20
167.8844632739
 30
0.0
 11
46.6832931747
 21
134.8844632739
 31
0.0
  0
MTEXT
  5
120
330
118
100
AcDbEntity
  8
0
  6
Continuous
 62
     7
370
     0
100
AcDbMText
 10
42.1715563184
 20
149.3476577764
 30
0.0
 40
3.5
 41
0.0
 71
     1
 72
     1
  1
33
  7
SLDTEXTSTYLE0
 11
-7.044195017643634E-15
 21
1.0
 31
0.0
 73
     1
 44
1.0
  0
ENDBLK
  5
11A
330
118
100
AcDbEntity
  8
0
100
AcDbBlockEnd
  0
BLOCK
  5
124
330
123
100
AcDbEntity
  8
0
100
AcDbBlockBegin
  2
_D_5
 70
     0
 10
0.0
 20
0.0
 30
0.0
  3
_D_5
  1

  0
SOLID
  5
126
330
123
100
AcDbEntity
  8
0
  6
Continuous
 62
     7
370
     0
100
AcDbTrace
 10
121.0708579346
 20
148.7323621883
 30
0.0
 11
121.6296412983
 21
145.6909379903
 31
0.0
 12
122.9951605252
 22
146.3117094789
 32
0.0
 13
122.9951605252
 23
146.3117094789
 33
0.0
  0
LINE
  5
127
330
123
100
AcDbEntity
  8
0
  6
Continuous
 62
     7
370
     0
100
AcDbLine
 10
121.0708579346
 20
148.7323621883
 30
0.0
 11
134.9669742828
 21
118.1648918686
 31
0.0
  0
LINE
  5
128
330
123
100
AcDbEntity
  8
0
  6
Continuous
 62
     7
370
     0
100
AcDbLine
 10
134.9669742828
 20
118.1648918686
 30
0.0
 11
150.8121120667
 21
118.1648918686
 31
0.0
  0
MTEXT
  5
129
330
123
100
AcDbEntity
  8
0
  6
Continuous
 62
     7
370
     0
100
AcDbMText
 10
136.5544742828
 20
122.676628725
 30
0.0
 40
3.5
 41
0.0
 71
     1
 72
     1
  1
4-Rc1/8
  7
SLDTEXTSTYLE0
 73
     1
 44
1.0
  0
ENDBLK
  5
125
330
123
100
AcDbEntity
  8
0
100
AcDbBlockEnd
  0
BLOCK
  5
12D
330
12C
100
AcDbEntity
  8
0
100
AcDbBlockBegin
  2
_D_6
 70
     0
 10
0.0
 20
0.0
 30
0.0
  3
_D_6
  1

  0
SOLID
  5
12F
330
12C
100
AcDbEntity
  8
0
  6
Continuous
 62
     7
370
     0
100
AcDbTrace
 10
110.2785091571
 20
158.8780047081
 30
0.0
 11
110.3269336331
 21
155.7860546649
 31
0.0
 12
111.7762719504
 22
156.1726014822
 32
0.0
 13
111.7762719504
 23
156.1726014822
 33
0.0
  0
LINE
  5
130
330
12C
100
AcDbEntity
  8
0
  6
Continuous
 62
     7
370
     0
100
AcDbLine
 10
110.2785091571
 20
158.8780047081
 30
0.0
 11
125.6662775906
 21
101.1823222972
 31
0.0
  0
LINE
  5
131
330
12C
100
AcDbEntity
  8
0
  6
Continuous
 62
     7
370
     0
100
AcDbLine
 10
125.6662775906
 20
101.1823222972
 30
0.0
 11
171.656142232
 21
101.1823222972
 31
0.0
  0
MTEXT
  5
132
330
12C
100
AcDbEntity
  8
0
  6
Continuous
 62
     7
370
     0
100
AcDbMText
 10
127.2537775906
 20
105.6940596192
 30
0.0
 40
3.5
 41
0.0
 71
     1
 72
     1
  1
2-
  7
SLDTEXTSTYLE0
 73
     1
 44
1.0
  0
MTEXT
  5
133
330
12C
100
AcDbEntity
  8
0
  6
Continuous
 62
     7
370
     0
100
AcDbMText
 10
131.3273885856
 20
105.6940596192
 30
0.0
 40
3.5
 41
0.0
 71
     1
 72
     1
  1
%%c
  7
SLDTEXTSTYLE0
 73
     1
 44
1.0
  0
MTEXT
  5
134
330
12C
100
AcDbEntity
  8
0
  6
Continuous
 62
     7
370
     0
100
AcDbMText
 10
135.1973193335
 20
105.6940596192
 30
0.0
 40
3.5
 41
0.0
 71
     1
 72
     1
  1
4.5,
  7
SLDTEXTSTYLE0
 73
     1
 44
1.0
  0
MTEXT
  5
135
330
12C
100
AcDbEntity
  8
0
  6
Continuous
 62
     7
370
     0
100
AcDbMText
 10
143.3445413234
 20
105.6940596192
 30
0.0
 40
3.5
 41
0.0
 71
     1
 72
     1
  1
%%c
  7
SLDTEXTSTYLE0
 73
     1
 44
1.0
  0
MTEXT
  5
136
330
12C
100
AcDbEntity
  8
0
  6
Continuous
 62
     7
370
     0
100
AcDbMText
 10
147.2144716056
 20
105.6940596192
 30
0.0
 40
3.5
 41
0.0
 71
     1
 72
     1
  1
8.5
  7
SLDTEXTSTYLE0
 73
     1
 44
1.0
  0
MTEXT
  5
137
330
12C
100
AcDbEntity
  8
0
  6
Continuous
 62
     7
370
     0
100
AcDbMText
 10
153.3248883309
 20
105.6940596192
 30
0.0
 40
3.5
 41
0.0
 71
     1
 72
     1
  1
ザグリ深6
  7
SLDTEXTSTYLE0
 73
     1
 44
1.0
  0
ENDBLK
  5
12E
330
12C
100
AcDbEntity
  8
0
100
AcDbBlockEnd
  0
BLOCK
  5
139
330
138
100
AcDbEntity
  8
0
100
AcDbBlockBegin
  2
SW_CENTERMARKSYMBOL_0
 70
     0
 10
0.0
 20
0.0
 30
0.0
  3
SW_CENTERMARKSYMBOL_0
  1

  0
LINE
  5
13B
330
138
100
AcDbEntity
  8
0
  6
Continuous
 62
     0
370
     0
100
AcDbLine
 10
0.0
 20
0.0
 30
0.0
 11
0.0
 21
2.5
 31
0.0
  0
LINE
  5
13C
330
138
100
AcDbEntity
  8
0
  6
Continuous
 62
     0
370
     0
100
AcDbLine
 10
0.0
 20
0.0
 30
0.0
 11
-2.5
 21
0.0
 31
0.0
  0
LINE
  5
13D
330
138
100
AcDbEntity
  8
0
  6
Continuous
 62
     0
370
     0
100
AcDbLine
 10
0.0
 20
0.0
 30
0.0
 11
0.0
 21
-2.5
 31
0.0
  0
LINE
  5
13E
330
138
100
AcDbEntity
  8
0
  6
Continuous
 62
     0
370
     0
100
AcDbLine
 10
0.0
 20
0.0
 30
0.0
 11
2.5
 21
0.0
 31
0.0
  0
LINE
  5
13F
330
138
100
AcDbEntity
  8
0
  6
Continuous
 62
     0
370
     0
100
AcDbLine
 10
0.0
 20
5.0
 30
0.0
 11
0.0
 21
6.75
 31
0.0
  0
LINE
  5
140
330
138
100
AcDbEntity
  8
0
  6
Continuous
 62
     0
370
     0
100
AcDbLine
 10
-5.0
 20
0.0
 30
0.0
 11
-6.75
 21
0.0
 31
0.0
  0
LINE
  5
141
330
138
100
AcDbEntity
  8
0
  6
Continuous
 62
     0
370
     0
100
AcDbLine
 10
0.0
 20
-5.0
 30
0.0
 11
0.0
 21
-6.75
 31
0.0
  0
LINE
  5
142
330
138
100
AcDbEntity
  8
0
  6
Continuous
 62
     0
370
     0
100
AcDbLine
 10
5.0
 20
0.0
 30
0.0
 11
6.75
 21
0.0
 31
0.0
  0
ENDBLK
  5
13A
330
138
100
AcDbEntity
  8
0
100
AcDbBlockEnd
  0
BLOCK
  5
145
330
144
100
AcDbEntity
  8
0
100
AcDbBlockBegin
  2
SW_CENTERMARKSYMBOL_1
 70
     0
 10
0.0
 20
0.0
 30
0.0
  3
SW_CENTERMARKSYMBOL_1
  1

  0
LINE
  5
147
330
144
100
AcDbEntity
  8
0
  6
Continuous
 62
     0
370
     0
100
AcDbLine
 10
0.0
 20
0.0
 30
0.0
 11
0.0
 21
2.5
 31
0.0
  0
LINE
  5
148
330
144
100
AcDbEntity
  8
0
  6
Continuous
 62
     0
370
     0
100
AcDbLine
 10
0.0
 20
0.0
 30
0.0
 11
-2.5
 21
0.0
 31
0.0
  0
LINE
  5
149
330
144
100
AcDbEntity
  8
0
  6
Continuous
 62
     0
370
     0
100
AcDbLine
 10
0.0
 20
0.0
 30
0.0
 11
0.0
 21
-2.5
 31
0.0
  0
LINE
  5
14A
330
144
100
AcDbEntity
  8
0
  6
Continuous
 62
     0
370
     0
100
AcDbLine
 10
0.0
 20
0.0
 30
0.0
 11
2.5
 21
0.0
 31
0.0
  0
LINE
  5
14B
330
144
100
AcDbEntity
  8
0
  6
Continuous
 62
     0
370
     0
100
AcDbLine
 10
0.0
 20
5.0
 30
0.0
 11
0.0
 21
6.75
 31
0.0
  0
LINE
  5
14C
330
144
100
AcDbEntity
  8
0
  6
Continuous
 62
     0
370
     0
100
AcDbLine
 10
-5.0
 20
0.0
 30
0.0
 11
-6.75
 21
0.0
 31
0.0
  0
LINE
  5
14D
330
144
100
AcDbEntity
  8
0
  6
Continuous
 62
     0
370
     0
100
AcDbLine
 10
0.0
 20
-5.0
 30
0.0
 11
0.0
 21
-6.75
 31
0.0
  0
LINE
  5
14E
330
144
100
AcDbEntity
  8
0
  6
Continuous
 62
     0
370
     0
100
AcDbLine
 10
5.0
 20
0.0
 30
0.0
 11
6.75
 21
0.0
 31
0.0
  0
ENDBLK
  5
146
330
144
100
AcDbEntity
  8
0
100
AcDbBlockEnd
  0
BLOCK
  5
176
330
175
100
AcDbEntity
  8
0
100
AcDbBlockBegin
  2
_D_7
 70
     0
 10
0.0
 20
0.0
 30
0.0
  3
_D_7
  1

  0
SOLID
  5
178
330
175
100
AcDbEntity
  8
0
  6
Continuous
 62
     7
370
     0
100
AcDbTrace
 10
56.6832931747
 20
247.854550479
 30
0.0
 11
59.6832931747
 21
247.104550479
 31
0.0
 12
59.6832931747
 22
248.604550479
 32
0.0
 13
59.6832931747
 23
248.604550479
 33
0.0
  0
SOLID
  5
179
330
175
100
AcDbEntity
  8
0
  6
Continuous
 62
     7
370
     0
100
AcDbTrace
 10
127.6832931747
 20
247.854550479
 30
0.0
 11
124.6832931747
 21
248.604550479
 31
0.0
 12
124.6832931747
 22
247.104550479
 32
0.0
 13
124.6832931747
 23
247.104550479
 33
0.0
  0
LINE
  5
17A
330
175
100
AcDbEntity
  8
0
  6
Continuous
 62
     7
370
     0
100
AcDbLine
 10
56.6832931747
 20
222.4031123768
 30
0.0
 11
56.6832931747
 21
248.854550479
 31
0.0
  0
LINE
  5
17B
330
175
100
AcDbEntity
  8
0
  6
Continuous
 62
     7
370
     0
100
AcDbLine
 10
127.6832931747
 20
222.4031123768
 30
0.0
 11
127.6832931747
 21
248.854550479
 31
0.0
  0
LINE
  5
17C
330
175
100
AcDbEntity
  8
0
  6
Continuous
 62
     7
370
     0
100
AcDbLine
 10
56.6832931747
 20
247.854550479
 30
0.0
 11
127.6832931747
 21
247.854550479
 31
0.0
  0
MTEXT
  5
17D
330
175
100
AcDbEntity
  8
0
  6
Continuous
 62
     7
370
     0
100
AcDbMText
 10
90.1464876772
 20
252.3662873354
 30
0.0
 40
3.5
 41
0.0
 71
     1
 72
     1
  1
71
  7
SLDTEXTSTYLE0
 73
     1
 44
1.0
  0
ENDBLK
  5
177
330
175
100
AcDbEntity
  8
0
100
AcDbBlockEnd
  0
BLOCK
  5
181
330
180
100
AcDbEntity
  8
0
100
AcDbBlockBegin
  2
_D_8
 70
     0
 10
0.0
 20
0.0
 30
0.0
  3
_D_8
  1

  0
SOLID
  5
183
330
180
100
AcDbEntity
  8
0
  6
Continuous
 62
     7
370
     0
100
AcDbTrace
 10
79.1832931747
 20
239.3367769915
 30
0.0
 11
82.1832931747
 21
238.5867769915
 31
0.0
 12
82.1832931747
 22
240.0867769915
 32
0.0
 13
82.1832931747
 23
240.0867769915
 33
0.0
  0
SOLID
  5
184
330
180
100
AcDbEntity
  8
0
  6
Continuous
 62
     7
370
     0
100
AcDbTrace
 10
105.1832931747
 20
239.3367769915
 30
0.0
 11
102.1832931747
 21
240.0867769915
 31
0.0
 12
102.1832931747
 22
238.5867769915
 32
0.0
 13
102.1832931747
 23
238.5867769915
 33
0.0
  0
LINE
  5
185
330
180
100
AcDbEntity
  8
0
  6
Continuous
 62
     7
370
     0
100
AcDbLine
 10
79.1832931747
 20
235.9031123768
 30
0.0
 11
79.1832931747
 21
240.3367769915
 31
0.0
  0
LINE
  5
186
330
180
100
AcDbEntity
  8
0
  6
Continuous
 62
     7
370
     0
100
AcDbLine
 10
105.1832931747
 20
234.4031123768
 30
0.0
 11
105.1832931747
 21
240.3367769915
 31
0.0
  0
LINE
  5
187
330
180
100
AcDbEntity
  8
0
  6
Continuous
 62
     7
370
     0
100
AcDbLine
 10
79.1832931747
 20
239.3367769915
 30
0.0
 11
105.1832931747
 21
239.3367769915
 31
0.0
  0
MTEXT
  5
188
330
180
100
AcDbEntity
  8
0
  6
Continuous
 62
     7
370
     0
100
AcDbMText
 10
85.4618347769
 20
243.8485138479
 30
0.0
 40
3.5
 41
0.0
 71
     1
 72
     1
  1
26
  7
SLDTEXTSTYLE0
 73
     1
 44
1.0
  0
MTEXT
  5
189
330
180
100
AcDbEntity
  8
0
  6
Continuous
 62
     7
370
     0
100
AcDbMText
 10
91.5041957719
 20
243.8485138479
 30
0.0
 40
3.5
 41
0.0
 71
     1
 72
     1
  1

  7
SLDTEXTSTYLE0
 73
     1
 44
1.0
  0
MTEXT
  5
18A
330
180
100
AcDbEntity
  8
0
  6
Continuous
 62
     7
370
     0
100
AcDbMText
 10
91.5722515022
 20
242.2732634543
 30
0.0
 40
2.1
 41
0.0
 71
     1
 72
     1
  1
±0.01
  7
SLDTEXTSTYLE0
 73
     1
 44
1.0
  0
ENDBLK
  5
182
330
180
100
AcDbEntity
  8
0
100
AcDbBlockEnd
  0
BLOCK
  5
18D
330
18C
100
AcDbEntity
  8
0
100
AcDbBlockBegin
  2
_D_9
 70
     0
 10
0.0
 20
0.0
 30
0.0
  3
_D_9
  1

  0
SOLID
  5
18F
330
18C
100
AcDbEntity
  8
0
  6
Continuous
 62
     7
370
     0
100
AcDbTrace
 10
56.6832931747
 20
239.3367769915
 30
0.0
 11
59.6832931747
 21
238.5867769915
 31
0.0
 12
59.6832931747
 22
240.0867769915
 32
0.0
 13
59.6832931747
 23
240.0867769915
 33
0.0
  0
SOLID
  5
190
330
18C
100
AcDbEntity
  8
0
  6
Continuous
 62
     7
370
     0
100
AcDbTrace
 10
79.1832931747
 20
239.3367769915
 30
0.0
 11
76.1832931747
 21
240.0867769915
 31
0.0
 12
76.1832931747
 22
238.5867769915
 32
0.0
 13
76.1832931747
 23
238.5867769915
 33
0.0
  0
LINE
  5
191
330
18C
100
AcDbEntity
  8
0
  6
Continuous
 62
     7
370
     0
100
AcDbLine
 10
56.6832931747
 20
222.4031123768
 30
0.0
 11
56.6832931747
 21
240.3367769915
 31
0.0
  0
LINE
  5
192
330
18C
100
AcDbEntity
  8
0
  6
Continuous
 62
     7
370
     0
100
AcDbLine
 10
79.1832931747
 20
232.4031123768
 30
0.0
 11
79.1832931747
 21
240.3367769915
 31
0.0
  0
LINE
  5
193
330
18C
100
AcDbEntity
  8
0
  6
Continuous
 62
     7
370
     0
100
AcDbLine
 10
56.6832931747
 20
239.3367769915
 30
0.0
 11
79.1832931747
 21
239.3367769915
 31
0.0
  0
MTEXT
  5
194
330
18C
100
AcDbEntity
  8
0
  6
Continuous
 62
     7
370
     0
100
AcDbMText
 10
63.8596821798
 20
243.8485138479
 30
0.0
 40
3.5
 41
0.0
 71
     1
 72
     1
  1
22.5
  7
SLDTEXTSTYLE0
 73
     1
 44
1.0
  0
ENDBLK
  5
18E
330
18C
100
AcDbEntity
  8
0
100
AcDbBlockEnd
  0
BLOCK
  5
197
330
196
100
AcDbEntity
  8
0
100
AcDbBlockBegin
  2
_D_10
 70
     0
 10
0.0
 20
0.0
 30
0.0
  3
_D_10
  1

  0
SOLID
  5
199
330
196
100
AcDbEntity
  8
0
  6
Continuous
 62
     7
370
     0
100
AcDbTrace
 10
105.1832931747
 20
239.3367769915
 30
0.0
 11
108.1832931747
 21
238.5867769915
 31
0.0
 12
108.1832931747
 22
240.0867769915
 32
0.0
 13
108.1832931747
 23
240.0867769915
 33
0.0
  0
SOLID
  5
19A
330
196
100
AcDbEntity
  8
0
  6
Continuous
 62
     7
370
     0
100
AcDbTrace
 10
127.6832931747
 20
239.3367769915
 30
0.0
 11
124.6832931747
 21
240.0867769915
 31
0.0
 12
124.6832931747
 22
238.5867769915
 32
0.0
 13
124.6832931747
 23
238.5867769915
 33
0.0
  0
LINE
  5
19B
330
196
100
AcDbEntity
  8
0
  6
Continuous
 62
     7
370
     0
100
AcDbLine
 10
105.1832931747
 20
234.4031123768
 30
0.0
 11
105.1832931747
 21
240.3367769915
 31
0.0
  0
LINE
  5
19C
330
196
100
AcDbEntity
  8
0
  6
Continuous
 62
     7
370
     0
100
AcDbLine
 10
127.6832931747
 20
222.4031123768
 30
0.0
 11
127.6832931747
 21
240.3367769915
 31
0.0
  0
LINE
  5
19D
330
196
100
AcDbEntity
  8
0
  6
Continuous
 62
     7
370
     0
100
AcDbLine
 10
105.1832931747
 20
239.3367769915
 30
0.0
 11
127.6832931747
 21
239.3367769915
 31
0.0
  0
MTEXT
  5
19E
330
196
100
AcDbEntity
  8
0
  6
Continuous
 62
     7
370
     0
100
AcDbMText
 10
112.3596821798
 20
243.8485138479
 30
0.0
 40
3.5
 41
0.0
 71
     1
 72
     1
  1
22.5
  7
SLDTEXTSTYLE0
 73
     1
 44
1.0
  0
ENDBLK
  5
198
330
196
100
AcDbEntity
  8
0
100
AcDbBlockEnd
  0
BLOCK
  5
1B6
330
1B5
100
AcDbEntity
  8
0
100
AcDbBlockBegin
  2
_D_11
 70
     0
 10
0.0
 20
0.0
 30
0.0
  3
_D_11
  1

  0
ARC
  5
1B8
330
1B5
100
AcDbEntity
  8
0
  6
Continuous
 62
     7
370
     0
100
AcDbCircle
 10
149.8634778481
 20
245.4399179562
 30
0.0
 40
5.672469721325925
100
AcDbArc
 50
153.4349488229
 51
206.5650511771
  0
ARC
  5
1B9
330
1B5
100
AcDbEntity
  8
0
  6
Continuous
 62
     7
370
     0
100
AcDbCircle
 10
145.6229915429
 20
245.4399179562
 30
0.0
 40
5.672469721325899
100
AcDbArc
 50
333.4349488229
 51
26.5650511771
  0
SOLID
  5
1BA
330
1B5
100
AcDbEntity
  8
0
  6
Continuous
 62
     7
370
     0
100
AcDbTrace
 10
157.2487143818
 20
242.9031123768
 30
0.0
 11
154.2487143818
 21
243.6531123768
 31
0.0
 12
154.2487143818
 22
242.1531123768
 32
0.0
 13
154.2487143818
 23
242.1531123768
 33
0.0
  0
SOLID
  5
1BB
330
1B5
100
AcDbEntity
  8
0
  6
Continuous
 62
     7
370
     0
100
AcDbTrace
 10
161.2487143818
 20
242.9031123768
 30
0.0
 11
164.2487143818
 21
242.1531123768
 31
0.0
 12
164.2487143818
 22
243.6531123768
 32
0.0
 13
164.2487143818
 23
243.6531123768
 33
0.0
  0
LINE
  5
1BC
330
1B5
100
AcDbEntity
  8
0
  6
Continuous
 62
     7
370
     0
100
AcDbLine
 10
157.2487143818
 20
232.4031123768
 30
0.0
 11
157.2487143818
 21
243.9031123768
 31
0.0
  0
LINE
  5
1BD
330
1B5
100
AcDbEntity
  8
0
  6
Continuous
 62
     7
370
     0
100
AcDbLine
 10
161.2487143818
 20
232.4031123768
 30
0.0
 11
161.2487143818
 21
243.9031123768
 31
0.0
  0
LINE
  5
1BE
330
1B5
100
AcDbEntity
  8
0
  6
Continuous
 62
     7
370
     0
100
AcDbLine
 10
157.2487143818
 20
242.9031123768
 30
0.0
 11
144.1910081129
 21
242.9031123768
 31
0.0
  0
LINE
  5
1BF
330
1B5
100
AcDbEntity
  8
0
  6
Continuous
 62
     7
370
     0
100
AcDbLine
 10
157.2487143818
 20
242.9031123768
 30
0.0
 11
161.2487143818
 21
242.9031123768
 31
0.0
  0
LINE
  5
1C0
330
1B5
100
AcDbEntity
  8
0
  6
Continuous
 62
     7
370
     0
100
AcDbLine
 10
161.2487143818
 20
242.9031123768
 30
0.0
 11
166.2487143818
 21
242.9031123768
 31
0.0
  0
MTEXT
  5
1C1
330
1B5
100
AcDbEntity
  8
0
  6
Continuous
 62
     7
370
     0
100
AcDbMText
 10
144.7898666892
 20
247.4148496988
 30
0.0
 40
3.5
 41
0.0
 71
     1
 72
     1
  1
%%c
  7
SLDTEXTSTYLE0
 73
     1
 44
1.0
  0
MTEXT
  5
1C2
330
1B5
100
AcDbEntity
  8
0
  6
Continuous
 62
     7
370
     0
100
AcDbMText
 10
148.6597972043
 20
247.4148496988
 30
0.0
 40
3.5
 41
0.0
 71
     1
 72
     1
  1
4
  7
SLDTEXTSTYLE0
 73
     1
 44
1.0
  0
ENDBLK
  5
1B7
330
1B5
100
AcDbEntity
  8
0
100
AcDbBlockEnd
  0
BLOCK
  5
1C5
330
1C4
100
AcDbEntity
  8
0
100
AcDbBlockBegin
  2
_D_12
 70
     0
 10
0.0
 20
0.0
 30
0.0
  3
_D_12
  1

  0
ARC
  5
1C7
330
1C4
100
AcDbEntity
  8
0
  6
Continuous
 62
     7
370
     0
100
AcDbCircle
 10
187.4537186866
 20
243.9215149509
 30
0.0
 40
4.554435549315953
100
AcDbArc
 50
243.4349488229
 51
296.5650511771
  0
ARC
  5
1C8
330
1C4
100
AcDbEntity
  8
0
  6
Continuous
 62
     7
370
     0
100
AcDbCircle
 10
187.4537186866
 20
241.8847096863
 30
0.0
 40
4.554435549315978
100
AcDbArc
 50
63.4349488229
 51
116.5650511771
  0
SOLID
  5
1C9
330
1C4
100
AcDbEntity
  8
0
  6
Continuous
 62
     7
370
     0
100
AcDbTrace
 10
189.490524184
 20
228.4031123768
 30
0.0
 11
188.740524184
 21
225.4031123768
 31
0.0
 12
190.240524184
 22
225.4031123768
 32
0.0
 13
190.240524184
 23
225.4031123768
 33
0.0
  0
SOLID
  5
1CA
330
1C4
100
AcDbEntity
  8
0
  6
Continuous
 62
     7
370
     0
100
AcDbTrace
 10
189.490524184
 20
232.9031123768
 30
0.0
 11
190.240524184
 21
235.9031123768
 31
0.0
 12
188.740524184
 22
235.9031123768
 32
0.0
 13
188.740524184
 23
235.9031123768
 33
0.0
  0
LINE
  5
1CB
330
1C4
100
AcDbEntity
  8
0
  6
Continuous
 62
     7
370
     0
100
AcDbLine
 10
182.3487143818
 20
228.4031123768
 30
0.0
 11
190.490524184
 21
228.4031123768
 31
0.0
  0
LINE
  5
1CC
330
1C4
100
AcDbEntity
  8
0
  6
Continuous
 62
     7
370
     0
100
AcDbLine
 10
161.8467905931
 20
232.9031123768
 30
0.0
 11
190.490524184
 21
232.9031123768
 31
0.0
  0
LINE
  5
1CD
330
1C4
100
AcDbEntity
  8
0
  6
Continuous
 62
     7
370
     0
100
AcDbLine
 10
189.490524184
 20
228.4031123768
 30
0.0
 11
189.490524184
 21
223.4031123768
 31
0.0
  0
LINE
  5
1CE
330
1C4
100
AcDbEntity
  8
0
  6
Continuous
 62
     7
370
     0
100
AcDbLine
 10
189.490524184
 20
228.4031123768
 30
0.0
 11
189.490524184
 21
232.9031123768
 31
0.0
  0
LINE
  5
1CF
330
1C4
100
AcDbEntity
  8
0
  6
Continuous
 62
     7
370
     0
100
AcDbLine
 10
189.490524184
 20
232.9031123768
 30
0.0
 11
189.490524184
 21
246.4391453552
 31
0.0
  0
MTEXT
  5
1D0
330
1C4
100
AcDbEntity
  8
0
  6
Continuous
 62
     7
370
     0
100
AcDbMText
 10
184.9787873277
 20
239.8479039559
 30
0.0
 40
3.5
 41
0.0
 71
     1
 72
     1
  1
4.5
  7
SLDTEXTSTYLE0
 11
-3.491481338843133E-15
 21
1.0
 31
0.0
 73
     1
 44
1.0
  0
ENDBLK
  5
1C6
330
1C4
100
AcDbEntity
  8
0
100
AcDbBlockEnd
  0
BLOCK
  5
1D3
330
1D2
100
AcDbEntity
  8
0
100
AcDbBlockBegin
  2
_D_13
 70
     0
 10
0.0
 20
0.0
 30
0.0
  3
_D_13
  1

  0
SOLID
  5
1D5
330
1D2
100
AcDbEntity
  8
0
  6
Continuous
 62
     7
370
     0
100
AcDbTrace
 10
189.490524184
 20
228.4031123768
 30
0.0
 11
188.740524184
 21
225.4031123768
 31
0.0
 12
190.240524184
 22
225.4031123768
 32
0.0
 13
190.240524184
 23
225.4031123768
 33
0.0
  0
SOLID
  5
1D6
330
1D2
100
AcDbEntity
  8
0
  6
Continuous
 62
     7
370
     0
100
AcDbTrace
 10
189.490524184
 20
205.4031123768
 30
0.0
 11
190.240524184
 21
208.4031123768
 31
0.0
 12
188.740524184
 22
208.4031123768
 32
0.0
 13
188.740524184
 23
208.4031123768
 33
0.0
  0
LINE
  5
1D7
330
1D2
100
AcDbEntity
  8
0
  6
Continuous
 62
     7
370
     0
100
AcDbLine
 10
182.3487143818
 20
228.4031123768
 30
0.0
 11
190.490524184
 21
228.4031123768
 31
0.0
  0
LINE
  5
1D8
330
1D2
100
AcDbEntity
  8
0
  6
Continuous
 62
     7
370
     0
100
AcDbLine
 10
182.3487143818
 20
205.4031123768
 30
0.0
 11
190.490524184
 21
205.4031123768
 31
0.0
  0
LINE
  5
1D9
330
1D2
100
AcDbEntity
  8
0
  6
Continuous
 62
     7
370
     0
100
AcDbLine
 10
189.490524184
 20
228.4031123768
 30
0.0
 11
189.490524184
 21
205.4031123768
 31
0.0
  0
MTEXT
  5
1DA
330
1D2
100
AcDbEntity
  8
0
  6
Continuous
 62
     7
370
     0
100
AcDbMText
 10
184.9787873277
 20
214.8663068793
 30
0.0
 40
3.5
 41
0.0
 71
     1
 72
     1
  1
23
  7
SLDTEXTSTYLE0
 11
-1.059690869644414E-14
 21
1.0
 31
0.0
 73
     1
 44
1.0
  0
ENDBLK
  5
1D4
330
1D2
100
AcDbEntity
  8
0
100
AcDbBlockEnd
  0
BLOCK
  5
1DC
330
1DB
100
AcDbEntity
  8
0
100
AcDbBlockBegin
  2
SW_NOTE_0
 70
     0
 10
0.0
 20
0.0
 30
0.0
  3
SW_NOTE_0
  1

  0
LINE
  5
1DE
330
1DB
100
AcDbEntity
  8
0
  6
Continuous
 62
     0
370
     0
100
AcDbLine
 10
24.3129649098
 20
0.0
 30
0.0
 11
0.0
 21
0.0
 31
0.0
  0
MTEXT
  5
1DF
330
1DB
100
AcDbEntity
  8
0
  6
Continuous
 62
     0
370
     0
100
AcDbMText
 10
0.4301398569
 20
4.6197194611
 30
0.0
 40
3.5
 41
0.0
 71
     1
 72
     1
  1
2-ノックピン
  7
SLDTEXTSTYLE0
 73
     1
 44
1.0
  0
ENDBLK
  5
1DD
330
1DB
100
AcDbEntity
  8
0
100
AcDbBlockEnd
  0
ENDSEC
  0
SECTION
  2
ENTITIES
  0
LINE
  5
73
330
1F
100
AcDbEntity
  8
0
  6
Continuous
 62
     7
370
     0
100
AcDbLine
 10
20.2604743903
 20
285.0
 30
0.0
 11
196.7604743903
 21
285.0
 31
0.0
  0
LINE
  5
74
330
1F
100
AcDbEntity
  8
0
  6
Continuous
 62
     7
370
     0
100
AcDbLine
 10
20.2604743903
 20
285.0
 30
0.0
 11
20.2604743903
 21
10.0
 31
0.0
  0
LINE
  5
75
330
1F
100
AcDbEntity
  8
0
  6
Continuous
 62
     7
370
     0
100
AcDbLine
 10
20.2604743903
 20
10.0
 30
0.0
 11
196.7604743903
 21
10.0
 31
0.0
  0
LINE
  5
76
330
1F
100
AcDbEntity
  8
0
  6
Continuous
 62
     7
370
     0
100
AcDbLine
 10
196.7604743903
 20
285.0
 30
0.0
 11
196.7604743903
 21
10.0
 31
0.0
  0
LINE
  5
77
330
1F
100
AcDbEntity
  8
0
  6
Continuous
 62
     7
370
     0
100
AcDbLine
 10
127.0104743903
 20
50.75
 30
0.0
 11
196.7604743903
 21
50.75
 31
0.0
  0
LINE
  5
78
330
1F
100
AcDbEntity
  8
0
  6
Continuous
 62
     7
370
     0
100
AcDbLine
 10
127.0104743903
 20
50.75
 30
0.0
 11
127.0104743903
 21
10.0
 31
0.0
  0
LINE
  5
79
330
1F
100
AcDbEntity
  8
0
  6
Continuous
 62
     7
370
     0
100
AcDbLine
 10
127.0104743903
 20
22.75
 30
0.0
 11
196.7604743903
 21
22.75
 31
0.0
  0
LINE
  5
7A
330
1F
100
AcDbEntity
  8
0
  6
Continuous
 62
     7
370
     0
100
AcDbLine
 10
127.0104743903
 20
36.75
 30
0.0
 11
196.7604743903
 21
36.75
 31
0.0
  0
MTEXT
  5
7C
330
1F
100
AcDbEntity
  8
0
  6
Continuous
 62
     7
370
     0
100
AcDbMText
 10
162.2887155641
 20
30.4171582345
 30
0.0
 40
4.2333333333
 41
0.0
 71
     2
 72
     1
  1
OX-60AA
  7
SLDTEXTSTYLE0
 73
     1
 44
1.0
  0
MTEXT
  5
7D
330
1F
100
AcDbEntity
  8
0
  6
Continuous
 62
     7
370
     0
100
AcDbMText
 10
160.3171784291
 20
43.9409718514
 30
0.0
 40
4.2333333333
 41
0.0
 71
     2
 72
     1
  1
エアーオプション(OX用)
  7
SLDTEXTSTYLE0
 73
     1
 44
1.0
  0
MTEXT
  5
7E
330
1F
100
AcDbEntity
  8
0
  6
Continuous
 62
     7
370
     0
100
AcDbMText
 10
162.5569766187
 20
16.8228189052
 30
0.0
 40
4.2333333333
 41
0.0
 71
     2
 72
     1
  1
140342
  7
SLDTEXTSTYLE0
 73
     1
 44
1.0
  0
ARC
  5
7F
330
1F
100
AcDbEntity
  8
0
  6
Continuous
 62
     7
370
     0
100
AcDbCircle
 10
119.1832931747
 20
160.2344632739
 30
0.0
 40
5.000000000000009
100
AcDbArc
 50
239.6389124015
 51
294.8481316436
  0
ARC
  5
80
330
1F
100
AcDbEntity
  8
0
  6
Continuous
 62
     7
370
     0
100
AcDbCircle
 10
99.1832931747
 20
160.2344632739
 30
0.0
 40
4.999999999999998
100
AcDbArc
 50
242.3669333483
 51
289.3016260982
  0
ARC
  5
81
330
1F
100
AcDbEntity
  8
0
  6
Continuous
 62
     7
370
     0
100
AcDbCircle
 10
85.1832931747
 20
160.2344632739
 30
0.0
 40
4.999999999999997
100
AcDbArc
 50
239.3066405874
 51
292.1713253415
  0
ARC
  5
82
330
1F
100
AcDbEntity
  8
0
  6
Continuous
 62
     7
370
     0
100
AcDbCircle
 10
65.1832931747
 20
160.2344632739
 30
0.0
 40
4.999999999999996
100
AcDbArc
 50
239.3066405874
 51
292.1713253416
  0
SPLINE
  5
83
330
1F
100
AcDbEntity
  8
0
  6
Continuous
 62
     7
370
     0
100
AcDbSpline
210
0.0
220
0.0
230
1.0
 70
     8
 71
     3
 72
    14
 73
    10
 74
     0
 42
0.000000001
 43
0.00000001
 40
0.0
 40
0.0
 40
0.0
 40
0.0
 40
0.1361475433664041
 40
0.2673360075656068
 40
0.3913282165175344
 40
0.5064285640525635
 40
0.7056530122323893
 40
0.8631150648677532
 40
1.0
 40
1.0
 40
1.0
 40
1.0
 10
117.350456636178
 20
149.9851505211696
 30
0.0
 10
117.5261356733397
 20
149.9725934041246
 30
0.0
 10
117.8710947614475
 20
149.9479365542518
 30
0.0
 10
118.4237237937335
 20
149.9086126819522
 30
0.0
 10
118.9610099245831
 20
149.8704442897792
 30
0.0
 10
119.6031493903635
 20
149.8250789077367
 30
0.0
 10
120.2821306358131
 20
149.7765285179586
 30
0.0
 10
120.9461378300313
 20
149.7318367349082
 30
0.0
 10
121.2843763595407
 20
149.7037400356415
 30
0.0
 10
121.441672887432
 20
149.6906737736568
 30
0.0
  0
SPLINE
  5
84
330
1F
100
AcDbEntity
  8
0
  6
Continuous
 62
     7
370
     0
100
AcDbSpline
210
0.0
220
0.0
230
1.0
 70
     8
 71
     3
 72
    14
 73
    10
 74
     0
 42
0.000000001
 43
0.00000001
 40
0.0
 40
0.0
 40
0.0
 40
0.0
 40
0.167800036881209
 40
0.3415888895509249
 40
0.5016473914653536
 40
0.645240152785916
 40
0.7886684470983676
 40
0.9540508473541619
 40
1.0
 40
1.0
 40
1.0
 40
1.0
 10
120.9386525263662
 20
149.7308733812675
 30
0.0
 10
120.7474113084698
 20
149.7172122979183
 30
0.0
 10
120.3581034366017
 20
149.6894025645117
 30
0.0
 10
119.7255901313951
 20
149.644432581224
 30
0.0
 10
119.1122586529481
 20
149.6008891064793
 30
0.0
 10
118.5376803680935
 20
149.5604205491298
 30
0.0
 10
117.9776861472117
 20
149.5202930739895
 30
0.0
 10
117.5470395342365
 20
149.4920502099388
 30
0.0
 10
117.3280777722658
 20
149.4742644581857
 30
0.0
 10
117.2804696073408
 20
149.4703973583088
 30
0.0
  0
SPLINE
  5
85
330
1F
100
AcDbEntity
  8
0
  6
Continuous
 62
     7
370
     0
100
AcDbSpline
210
0.0
220
0.0
230
1.0
 70
     8
 71
     3
 72
    18
 73
    14
 74
     0
 42
0.000000001
 43
0.00000001
 40
0.0
 40
0.0
 40
0.0
 40
0.0
 40
0.088408157986497
 40
0.1735961105719931
 40
0.2541111351333671
 40
0.3288521999125026
 40
0.4582196938382206
 40
0.5604685283922658
 40
0.6567543658585928
 40
0.7577137411316907
 40
0.8614788792839365
 40
0.9623237588419373
 40
0.9999999999999999
 40
0.9999999999999999
 40
0.9999999999999999
 40
0.9999999999999999
 10
117.350456636178
 20
151.4851516983614
 30
0.0
 10
117.5261371651334
 20
151.472594690386
 30
0.0
 10
117.8710991824911
 20
151.4479380546795
 30
0.0
 10
118.4237072440468
 20
151.4086126491459
 30
0.0
 10
118.9610665538068
 20
151.3704496010386
 30
0.0
 10
119.6028949455858
 20
151.3250614690372
 30
0.0
 10
120.2837206084998
 20
151.2766252914417
 30
0.0
 10
120.9570742095152
 20
151.2305359069135
 30
0.0
 10
121.5036984924978
 20
151.1876639726953
 30
0.0
 10
121.9687035154002
 20
151.1388412874913
 30
0.0
 10
122.3117611570973
 20
151.0995068193814
 30
0.0
 10
122.529638455713
 20
151.0407581991649
 30
0.0
 10
122.5179469381532
 20
151.0596234164968
 30
0.0
 10
122.5147669722909
 20
151.0647545508251
 30
0.0
  0
SPLINE
  5
86
330
1F
100
AcDbEntity
  8
0
  6
Continuous
 62
     7
370
     0
100
AcDbSpline
210
0.0
220
0.0
230
1.0
 70
     8
 71
     3
 72
    16
 73
    12
 74
     0
 42
0.000000001
 43
0.00000001
 40
0.0
 40
0.0
 40
0.0
 40
0.0
 40
0.1068486789092502
 40
0.2175107867141076
 40
0.3194299507120123
 40
0.4108643576001046
 40
0.502194059067219
 40
0.6075032592856211
 40
0.7305482960571849
 40
0.8732403742514395
 40
0.9999999999999999
 40
0.9999999999999999
 40
0.9999999999999999
 40
0.9999999999999999
 10
120.9386525263662
 20
151.2308726958141
 30
0.0
 10
120.7474054766248
 20
151.2172115674281
 30
0.0
 10
120.3580857707505
 20
151.1894017450422
 30
0.0
 10
119.7256615531101
 20
151.1444324527468
 30
0.0
 10
119.1120248561038
 20
151.1008964111398
 30
0.0
 10
118.5384553806861
 20
151.0604009804761
 30
0.0
 10
117.9745987081513
 20
151.020377007361
 30
0.0
 10
117.3827296533914
 20
150.9799235235069
 30
0.0
 10
116.7683824031076
 20
150.9313395987602
 30
0.0
 10
116.2291090570636
 20
150.8760908563017
 30
0.0
 10
115.9758996676093
 20
150.8334071740334
 30
0.0
 10
115.856781001913
 20
150.8133272580013
 30
0.0
  0
SPLINE
  5
87
330
1F
100
AcDbEntity
  8
0
  6
Continuous
 62
     7
370
     0
100
AcDbSpline
210
0.0
220
0.0
230
1.0
 70
     8
 71
     3
 72
     9
 73
     5
 74
     0
 42
0.000000001
 43
0.00000001
 40
0.0
 40
0.0
 40
0.0
 40
0.0
 40
0.1845646379465127
 40
1.0
 40
1.0
 40
1.0
 40
1.0
 10
116.4708783438081
 20
150.0680810711488
 30
0.0
 10
116.5149233504989
 20
150.0620151627859
 30
0.0
 10
116.7535660676567
 20
150.0291491250098
 30
0.0
 10
117.0823525290188
 20
150.0049132834261
 30
0.0
 10
117.350456636178
 20
149.9851505211696
 30
0.0
  0
SPLINE
  5
88
330
1F
100
AcDbEntity
  8
0
  6
Continuous
 62
     7
370
     0
100
AcDbSpline
210
0.0
220
0.0
230
1.0
 70
     8
 71
     3
 72
    18
 73
    14
 74
     0
 42
0.000000001
 43
0.00000001
 40
0.0
 40
0.0
 40
0.0
 40
0.0
 40
0.0884081594556184
 40
0.1735961134567244
 40
0.2541111393560558
 40
0.3288521859196984
 40
0.4582197009577205
 40
0.5604685372108844
 40
0.6567543762772401
 40
0.7577137532280293
 40
0.861478893104591
 40
0.9623237582158529
 40
1.0
 40
1.0
 40
1.0
 40
1.0
 10
117.350456636178
 20
152.9851510129079
 30
0.0
 10
117.5261371637057
 20
152.9725939846596
 30
0.0
 10
117.8710991782601
 20
152.9479373091456
 30
0.0
 10
118.4237072598851
 20
152.908612188597
 30
0.0
 10
118.9610664561688
 20
152.8704481496928
 30
0.0
 10
119.6028951438568
 20
152.8250642457918
 30
0.0
 10
120.2837205087142
 20
152.7766237290935
 30
0.0
 10
120.9570742234029
 20
152.7305354323427
 30
0.0
 10
121.5036984879313
 20
152.6876631819587
 30
0.0
 10
121.9687035196868
 20
152.6388408216438
 30
0.0
 10
122.3117611264682
 20
152.59950535619
 30
0.0
 10
122.5296384599421
 20
152.5407595839943
 30
0.0
 10
122.5179469393485
 20
152.5596246376181
 30
0.0
 10
122.5147669722909
 20
152.5647557280168
 30
0.0
  0
SPLINE
  5
89
330
1F
100
AcDbEntity
  8
0
  6
Continuous
 62
     7
370
     0
100
AcDbSpline
210
0.0
220
0.0
230
1.0
 70
     8
 71
     3
 72
    31
 73
    27
 74
     0
 42
0.000000001
 43
0.00000001
 40
0.0
 40
0.0
 40
0.0
 40
0.0
 40
0.0570666385427835
 40
0.1161699742432061
 40
0.1706038060539732
 40
0.2194378518902006
 40
0.2682159646185279
 40
0.3244603855790451
 40
0.3901772986113247
 40
0.4663874663606851
 40
0.5374781398592389
 40
0.5983554907987023
 40
0.6249006129366127
 40
0.6453270315864241
 40
0.6597824609356661
 40
0.6701880015214583
 40
0.6763475534850208
 40
0.6773516658338113
 40
0.6789689120889251
 40
0.6845343699587125
 40
0.7052829276550343
 40
0.7391811218330975
 40
0.7864561203368613
 40
0.8468254697666336
 40
0.9189577367229266
 40
1.0
 40
1.0
 40
1.0
 40
1.0
 10
120.9386525263662
 20
152.7308738730058
 30
0.0
 10
120.7474053522431
 20
152.7172119804547
 30
0.0
 10
120.3580854297931
 20
152.6894006050818
 30
0.0
 10
119.7256631947303
 20
152.6444316501813
 30
0.0
 10
119.1120194662876
 20
152.6008965012501
 30
0.0
 10
118.5384732949085
 20
152.5603976365399
 30
0.0
 10
117.9745275567794
 20
152.520386954276
 30
0.0
 10
117.38306273301
 20
152.4798869471891
 30
0.0
 10
116.7668114300747
 20
152.4315035344831
 30
0.0
 10
116.2270627257463
 20
152.3744988161829
 30
0.0
 10
115.8365367246646
 20
152.315543050704
 30
0.0
 10
115.6228419669846
 20
152.2611916119151
 30
0.0
 10
115.5173937882835
 20
152.2009439811252
 30
0.0
 10
115.452109323722
 20
152.1480726435929
 30
0.0
 10
115.4010401281818
 20
152.0282553276347
 30
0.0
 10
115.4042800754786
 20
151.9424714261074
 30
0.0
 10
115.4176278616237
 20
151.8965000771726
 30
0.0
 10
115.4259813207829
 20
151.8761064975496
 30
0.0
 10
115.4307948115534
 20
151.8654279197563
 30
0.0
 10
115.4450560218315
 20
151.838700465942
 30
0.0
 10
115.478763345812
 20
151.8004156984629
 30
0.0
 10
115.5657438471005
 20
151.7456158959006
 30
0.0
 10
115.747199681744
 20
151.6829607752132
 30
0.0
 10
116.0796569985794
 20
151.6146575878706
 30
0.0
 10
116.6026408194554
 20
151.5448006509654
 30
0.0
 10
117.0917019781825
 20
151.5057910643465
 30
0.0
 10
117.350456636178
 20
151.4851516983614
 30
0.0
  0
SPLINE
  5
8A
330
1F
100
AcDbEntity
  8
0
  6
Continuous
 62
     7
370
     0
100
AcDbSpline
210
0.0
220
0.0
230
1.0
 70
     8
 71
     3
 72
    18
 73
    14
 74
     0
 42
0.000000001
 43
0.00000001
 40
0.0
 40
0.0
 40
0.0
 40
0.0
 40
0.0884081420884575
 40
0.1735961150849256
 40
0.2541111412196694
 40
0.3288521880018421
 40
0.4582196844555715
 40
0.5604685385596391
 40
0.6567543779075183
 40
0.7577137363970978
 40
0.8614788765770512
 40
0.9623237581056939
 40
0.9999999999999999
 40
0.9999999999999999
 40
0.9999999999999999
 40
0.9999999999999999
 10
117.350456636178
 20
154.4851503274545
 30
0.0
 10
117.5261371893377
 20
154.4725943152825
 30
0.0
 10
117.8710993252232
 20
154.447939629837
 30
0.0
 10
118.4237071689455
 20
154.4086107297982
 30
0.0
 10
118.961066474701
 20
154.3704477554902
 30
0.0
 10
119.6028950622335
 20
154.3250629582589
 30
0.0
 10
120.2837206748196
 20
154.2766263245757
 30
0.0
 10
120.9570741529156
 20
154.2305341634241
 30
0.0
 10
121.5036984392944
 20
154.1876621157085
 30
0.0
 10
121.9687035689152
 20
154.1388424386214
 30
0.0
 10
122.3117611483445
 20
154.0995071326513
 30
0.0
 10
122.5296384563972
 20
154.0407587048549
 30
0.0
 10
122.5179469382995
 20
154.0596239112184
 30
0.0
 10
122.5147669722909
 20
154.0647550425634
 30
0.0
  0
SPLINE
  5
8B
330
1F
100
AcDbEntity
  8
0
  6
Continuous
 62
     7
370
     0
100
AcDbSpline
210
0.0
220
0.0
230
1.0
 70
     8
 71
     3
 72
    31
 73
    27
 74
     0
 42
0.000000001
 43
0.00000001
 40
0.0
 40
0.0
 40
0.0
 40
0.0
 40
0.0570666279399308
 40
0.1161699748744197
 40
0.1706038066371603
 40
0.219437852430302
 40
0.2682159651155929
 40
0.3244603860264861
 40
0.3901772883112478
 40
0.4663874675320659
 40
0.537478140967897
 40
0.5983554752121261
 40
0.6249006230712589
 40
0.6453270417030482
 40
0.6597823660023596
 40
0.6701880244179953
 40
0.6763475763761233
 40
0.677351688724028
 40
0.6789688704764134
 40
0.6845343727467837
 40
0.7052829304247992
 40
0.7391811245729544
 40
0.786456123035008
 40
0.8468254724115171
 40
0.9189577251969188
 40
1.0
 40
1.0
 40
1.0
 40
1.0
 10
120.9386525263662
 20
154.2308731875524
 30
0.0
 10
120.7474053280128
 20
154.2172122813194
 30
0.0
 10
120.3580852817873
 20
154.1894029084663
 30
0.0
 10
119.725663285401
 20
154.1444302209929
 30
0.0
 10
119.1120194547864
 20
154.100895996814
 30
0.0
 10
118.5384732994967
 20
154.0603968721006
 30
0.0
 10
117.9745275487167
 20
154.0203864247607
 30
0.0
 10
117.3830628040756
 20
153.9798855916116
 30
0.0
 10
116.7668112990111
 20
153.9315060051254
 30
0.0
 10
116.2270627784069
 20
153.8744977236561
 30
0.0
 10
115.8365367905493
 20
153.8155410960112
 30
0.0
 10
115.6228418685968
 20
153.7611944461359
 30
0.0
 10
115.5173937922632
 20
153.70094316247
 30
0.0
 10
115.4521095435447
 20
153.6480712930897
 30
0.0
 10
115.401039981379
 20
153.5282568253423
 30
0.0
 10
115.4042799943576
 20
153.4424704962816
 30
0.0
 10
115.4176278889046
 20
153.396499856418
 30
0.0
 10
115.4259812417226
 20
153.3761056696605
 30
0.0
 10
115.4307950618102
 20
153.3654313025841
 30
0.0
 10
115.4450555944478
 20
153.3386936081264
 30
0.0
 10
115.4787636072136
 20
153.3004190398649
 30
0.0
 10
115.5657437262911
 20
153.2456133482739
 30
0.0
 10
115.7471997365146
 20
153.1829609405584
 30
0.0
 10
116.0796569166663
 20
153.1146560106492
 30
0.0
 10
116.6026409636224
 20
153.0448030743299
 30
0.0
 10
117.0917020010772
 20
153.0057914567402
 30
0.0
 10
117.350456636178
 20
152.9851510129079
 30
0.0
  0
SPLINE
  5
8C
330
1F
100
AcDbEntity
  8
0
  6
Continuous
 62
     7
370
     0
100
AcDbSpline
210
0.0
220
0.0
230
1.0
 70
     8
 71
     3
 72
    16
 73
    12
 74
     0
 42
0.000000001
 43
0.00000001
 40
0.0
 40
0.0
 40
0.0
 40
0.0
 40
0.1157044278008086
 40
0.2271944026392472
 40
0.332568669657283
 40
0.430386250415089
 40
0.5996963254308584
 40
0.7335147779902059
 40
0.8595291411790035
 40
0.9916600102429768
 40
1.0
 40
1.0
 40
1.0
 40
1.0
 10
117.350456636178
 20
155.9851515046463
 30
0.0
 10
117.5261364916489
 20
155.9725944627151
 30
0.0
 10
117.8710971865689
 20
155.9479377603338
 30
0.0
 10
118.4237147155604
 20
155.9086128321303
 30
0.0
 10
118.9610410076339
 20
155.8704481193341
 30
0.0
 10
119.6030098568957
 20
155.8250670689319
 30
0.0
 10
120.283002178085
 20
155.7765888758306
 30
0.0
 10
120.959058813346
 20
155.7306357731517
 30
0.0
 10
121.4965853064051
 20
155.6873051456565
 30
0.0
 10
121.8351513501288
 20
155.655489934405
 30
0.0
 10
121.958153321288
 20
155.6390040253316
 30
0.0
 10
121.9654561539764
 20
155.6380252293453
 30
0.0
  0
SPLINE
  5
8D
330
1F
100
AcDbEntity
  8
0
  6
Continuous
 62
     7
370
     0
100
AcDbSpline
210
0.0
220
0.0
230
1.0
 70
     8
 71
     3
 72
    11
 73
     7
 74
     0
 42
0.000000001
 43
0.00000001
 40
0.0
 40
0.0
 40
0.0
 40
0.0
 40
0.1012815125177459
 40
0.479013263594642
 40
0.9170587953391096
 40
1.0
 40
1.0
 40
1.0
 40
1.0
 10
117.6072110941286
 20
155.4947654656276
 30
0.0
 10
117.5459067447297
 20
155.4904988623604
 30
0.0
 10
117.2559664017383
 20
155.4703198632057
 30
0.0
 10
116.7767849631632
 20
155.4311967677853
 30
0.0
 10
116.3517117536104
 20
155.3907100365114
 30
0.0
 10
116.1849013652576
 20
155.364130283553
 30
0.0
 10
116.1583451142187
 20
155.3598987809524
 30
0.0
  0
SPLINE
  5
8E
330
1F
100
AcDbEntity
  8
0
  6
Continuous
 62
     7
370
     0
100
AcDbSpline
210
0.0
220
0.0
230
1.0
 70
     8
 71
     3
 72
    11
 73
     7
 74
     0
 42
0.000000001
 43
0.00000001
 40
0.0
 40
0.0
 40
0.0
 40
0.0
 40
0.0451138341873748
 40
0.315062421674245
 40
0.6376101149483389
 40
1.0
 40
1.0
 40
1.0
 40
1.0
 10
115.703394036519
 20
154.7037373236522
 30
0.0
 10
115.7159751258023
 20
154.6991319295994
 30
0.0
 10
115.8038379405754
 20
154.666969143412
 30
0.0
 10
116.0856615520858
 20
154.6155773945644
 30
0.0
 10
116.6007978869969
 20
154.5445193703714
 30
0.0
 10
117.0910642709022
 20
154.5056928429433
 30
0.0
 10
117.350456636178
 20
154.4851503274545
 30
0.0
  0
LINE
  5
8F
330
1F
100
AcDbEntity
  8
0
  6
Continuous
 62
     7
370
     0
100
AcDbLine
 10
116.8576379826
 20
156.028202822
 30
0.0
 11
117.3504566362
 21
155.9851515046
 31
0.0
  0
SPLINE
  5
90
330
1F
100
AcDbEntity
  8
0
  6
Continuous
 62
     7
370
     0
100
AcDbSpline
210
0.0
220
0.0
230
1.0
 70
     8
 71
     3
 72
    12
 73
     8
 74
     0
 42
0.000000001
 43
0.00000001
 40
0.0
 40
0.0
 40
0.0
 40
0.0
 40
0.1076638853427114
 40
0.3769919719431639
 40
0.6246716304858664
 40
0.9032546488620432
 40
1.0
 40
1.0
 40
1.0
 40
1.0
 10
118.4190934111948
 20
149.0507136038646
 30
0.0
 10
118.4920889603331
 20
149.055860158964
 30
0.0
 10
118.7476875384929
 20
149.0738811503991
 30
0.0
 10
119.1908682238333
 20
149.1052513619437
 30
0.0
 10
119.7466896646578
 20
149.1446725952226
 30
0.0
 10
120.1813248148366
 20
149.1755547046243
 30
0.0
 10
120.4215111638308
 20
149.1926999772946
 30
0.0
 10
120.4834220518941
 20
149.1971193752393
 30
0.0
  0
SPLINE
  5
91
330
1F
100
AcDbEntity
  8
0
  6
Continuous
 62
     7
370
     0
100
AcDbSpline
210
0.0
220
0.0
230
1.0
 70
     8
 71
     3
 72
    19
 73
    15
 74
     0
 42
0.000000001
 43
0.00000001
 40
0.0
 40
0.0
 40
0.0
 40
0.0
 40
0.0946946923706956
 40
0.2128398680102261
 40
0.2788766701857457
 40
0.3511229591259285
 40
0.429033402993119
 40
0.5116505817554585
 40
0.5976082581330677
 40
0.685217354702812
 40
0.8088623918524998
 40
0.9149576023888878
 40
0.9997840289971404
 40
1.0
 40
1.0
 40
1.0
 40
1.0
 10
122.0187129040832
 20
150.1347823939428
 30
0.0
 10
121.864830272739
 20
150.1516997925857
 30
0.0
 10
121.5189570445315
 20
150.1897240662179
 30
0.0
 10
120.9212248356846
 20
150.2335984921657
 30
0.0
 10
120.3274576785775
 20
150.275070960806
 30
0.0
 10
119.7994326181802
 20
150.3123897594007
 30
0.0
 10
119.2154449919465
 20
150.3536893177545
 30
0.0
 10
118.5959098922301
 20
150.3975621163171
 30
0.0
 10
117.9717100150493
 20
150.4422587941607
 30
0.0
 10
117.2934491674216
 20
150.4894131772504
 30
0.0
 10
116.6697308069267
 20
150.5404540535581
 30
0.0
 10
116.2157366363756
 20
150.5919921522242
 30
0.0
 10
115.9984540747202
 20
150.6249357085976
 30
0.0
 10
115.9513107576348
 20
150.6342215208165
 30
0.0
 10
115.9511910339469
 20
150.6342451027736
 30
0.0
  0
SPLINE
  5
92
330
1F
100
AcDbEntity
  8
0
  6
Continuous
 62
     7
370
     0
100
AcDbSpline
210
0.0
220
0.0
230
1.0
 70
     8
 71
     3
 72
    18
 73
    14
 74
     0
 42
0.000000001
 43
0.00000001
 40
0.0
 40
0.0
 40
0.0
 40
0.0
 40
0.003917155798817
 40
0.1084687806260573
 40
0.2074552969101381
 40
0.2985617783026996
 40
0.382345216388795
 40
0.4765824151419992
 40
0.5838713728552563
 40
0.7055042268480155
 40
0.8392681814577012
 40
0.9609036913675825
 40
1.0
 40
1.0
 40
1.0
 40
1.0
 10
117.4287827273483
 20
150.4808078459606
 30
0.0
 10
117.4353868500539
 20
150.4813333910227
 30
0.0
 10
117.6182596214656
 20
150.495886100943
 30
0.0
 10
118.0289766460062
 20
150.5224912848857
 30
0.0
 10
118.6190774401372
 20
150.5649605898435
 30
0.0
 10
119.1898389738867
 20
150.6051396718626
 30
0.0
 10
119.7484718991104
 20
150.6447918837833
 30
0.0
 10
120.3277566193609
 20
150.6860552945557
 30
0.0
 10
120.9471770478936
 20
150.7298427262663
 30
0.0
 10
121.5715600449565
 20
150.7764449055922
 30
0.0
 10
122.0980932972678
 20
150.8333151161741
 30
0.0
 10
122.4317509128134
 20
150.8751358637806
 30
0.0
 10
122.5544579254129
 20
150.9095885497146
 30
0.0
 10
122.5843051036472
 20
150.9179687998399
 30
0.0
  0
SPLINE
  5
93
330
1F
100
AcDbEntity
  8
0
  6
Continuous
 62
     7
370
     0
100
AcDbSpline
210
0.0
220
0.0
230
1.0
 70
     8
 71
     3
 72
    23
 73
    19
 74
     0
 42
0.000000001
 43
0.00000001
 40
0.0
 40
0.0
 40
0.0
 40
0.0
 40
0.0437762421923688
 40
0.1074839547086418
 40
0.1767135598573181
 40
0.2544631088972417
 40
0.3424006300790833
 40
0.391552977254128
 40
0.4453271415289701
 40
0.5033172479448377
 40
0.5648106724484774
 40
0.628790462203432
 40
0.6939994573171551
 40
0.7860306098774829
 40
0.86499913121856
 40
0.9281369245839226
 40
0.974740793979325
 40
1.0
 40
1.0
 40
1.0
 40
1.0
 10
122.824474569189
 20
151.4558243504867
 30
0.0
 10
122.7837608983756
 20
151.4788326512648
 30
0.0
 10
122.6837964854756
 20
151.5353250095601
 30
0.0
 10
122.4419067030715
 20
151.5784414281174
 30
0.0
 10
122.0710773426947
 20
151.6325177386589
 30
0.0
 10
121.5314258990866
 20
151.6878545129984
 30
0.0
 10
120.9224703503772
 20
151.7336487729715
 30
0.0
 10
120.3271816942526
 20
151.7750616431239
 30
0.0
 10
119.7995135693296
 20
151.8123922292617
 30
0.0
 10
119.2154304518826
 20
151.8536854412686
 30
0.0
 10
118.5958761451737
 20
151.8975715041182
 30
0.0
 10
117.9718686783798
 20
151.942231120753
 30
0.0
 10
117.2927315160564
 20
151.9895292940948
 30
0.0
 10
116.6734183395973
 20
152.0398719900468
 30
0.0
 10
116.2052076461662
 20
152.0936487980117
 30
0.0
 10
115.954946468131
 20
152.1313731686706
 30
0.0
 10
115.8447817406013
 20
152.1564847518079
 30
0.0
 10
115.8340124416077
 20
152.1562253873284
 30
0.0
 10
115.8302271326656
 20
152.156134223114
 30
0.0
  0
LWPOLYLINE
  5
94
330
1F
100
AcDbEntity
  8
0
  6
Continuous
 62
     7
370
     0
100
AcDbPolyline
 90
       37
 70
   128
 43
0.0
 10
117.4287827273
 20
151.9808071605
 10
117.448636662
 20
151.9823829583
 10
118.041227903
 20
152.0240577809
 10
118.6390475889
 20
152.0662280671
 10
119.2047068437
 20
152.1062451354
 10
119.7249846121
 20
152.1431441358
 10
120.2962504288
 20
152.1837647013
 10
120.9098672082
 20
152.2275461755
 10
121.5318472644
 20
152.2761798403
 10
122.096567746
 20
152.334525337
 10
122.4912492146
 20
152.3935171715
 10
122.7443473002
 20
152.4600210539
 10
122.8811902513
 20
152.5406251601
 10
122.9152338167
 20
152.5802995018
 10
122.9271957239
 20
152.5993022076
 10
122.9367231538
 20
152.6176157347
 10
122.9554464629
 20
152.6715393118
 10
122.9608220568
 20
152.7576419464
 10
122.927441593
 20
152.8618047885
 10
122.8658401927
 20
152.935451915
 10
122.6945103665
 20
153.0198278777
 10
122.4375193527
 20
153.0774804703
 10
122.0685591509
 20
153.1296419851
 10
121.5352279653
 20
153.1846365831
 10
120.7964898606
 20
153.2421308509
 10
120.3378358444
 20
153.2744104914
 10
119.8109568616
 20
153.3115777127
 10
119.227077212
 20
153.3528744183
 10
118.6074217369
 20
153.3968253932
 10
117.9823087116
 20
153.4412979088
 10
117.3871917238
 20
153.4837755314
 10
117.3871917238
 20
153.4837755314
 10
116.669985797
 20
153.5434770337
 10
116.2031082024
 20
153.5959775499
 10
115.9515505245
 20
153.634174814
 10
115.8474975785
 20
153.6547253779
 10
115.8302271327
 20
153.6561354003
  0
LWPOLYLINE
  5
95
330
1F
100
AcDbEntity
  8
0
  6
Continuous
 62
     7
370
     0
100
AcDbPolyline
 90
       34
 70
   128
 43
0.0
 10
117.448636662
 20
153.4823822729
 10
118.041227903
 20
153.5240589581
 10
118.6390475889
 20
153.5662273816
 10
119.2047068437
 20
153.60624445
 10
119.7249846121
 20
153.6431434504
 10
120.2962504288
 20
153.6837658784
 10
120.9098672082
 20
153.7275473527
 10
121.5318472644
 20
153.7761791549
 10
122.096567746
 20
153.8345246515
 10
122.4912492146
 20
153.8935164861
 10
122.7443473002
 20
153.9600203685
 10
122.8811902513
 20
154.0406263373
 10
122.9152338167
 20
154.0802988163
 10
122.9271957239
 20
154.0993015221
 10
122.9367231538
 20
154.1176150493
 10
122.9554464629
 20
154.1715386263
 10
122.9608220568
 20
154.257641261
 10
122.927441593
 20
154.361804103
 10
122.8658401927
 20
154.4354530922
 10
122.6945103665
 20
154.5198290548
 10
122.4375193527
 20
154.5774816475
 10
122.0685591509
 20
154.6296431623
 10
121.5352279653
 20
154.6846377603
 10
120.7964898606
 20
154.7421320281
 10
120.3378358444
 20
154.7744098059
 10
119.8109568616
 20
154.8115788899
 10
119.227077212
 20
154.8528755955
 10
118.6074217369
 20
154.8968265704
 10
117.9823087116
 20
154.9412972233
 10
117.3871917238
 20
154.9837767086
 10
117.3871917238
 20
154.9837767086
 10
116.669985797
 20
155.0434763483
 10
116.2031082024
 20
155.0959787271
 10
115.9747032037
 20
155.1306574545
  0
SPLINE
  5
96
330
1F
100
AcDbEntity
  8
0
  6
Continuous
 62
     7
370
     0
100
AcDbSpline
210
0.0
220
0.0
230
1.0
 70
     8
 71
     3
 72
    17
 73
    13
 74
     0
 42
0.000000001
 43
0.00000001
 40
0.0
 40
0.0
 40
0.0
 40
0.0
 40
0.0044674958219619
 40
0.1237080803389442
 40
0.2366016874972934
 40
0.3405081558327732
 40
0.436062731352153
 40
0.5435397665598105
 40
0.6659022650009956
 40
0.8046239025702909
 40
0.9571809973195856
 40
1.0
 40
1.0
 40
1.0
 40
1.0
 10
117.4287827273483
 20
154.9808076522455
 30
0.0
 10
117.4353868504867
 20
154.9813331972609
 30
0.0
 10
117.6182596338833
 20
154.9958859058877
 30
0.0
 10
118.0289747771749
 20
155.0224912928707
 30
0.0
 10
118.6190834293216
 20
155.0649597497247
 30
0.0
 10
119.1898193279217
 20
155.1051415985071
 30
0.0
 10
119.7485423524196
 20
155.1447840861482
 30
0.0
 10
120.3274381450191
 20
155.1860894732991
 30
0.0
 10
120.9486230630159
 20
155.2296864663061
 30
0.0
 10
121.5651213706937
 20
155.2771396283409
 30
0.0
 10
121.9990777742647
 20
155.3186428894854
 30
0.0
 10
122.1789657341657
 20
155.3466049630426
 30
0.0
 10
122.2183903267259
 20
155.3527331850633
 30
0.0
  0
SPLINE
  5
97
330
1F
100
AcDbEntity
  8
0
  6
Continuous
 62
     7
370
     0
100
AcDbSpline
210
0.0
220
0.0
230
1.0
 70
     8
 71
     3
 72
    14
 73
    10
 74
     0
 42
0.000000001
 43
0.00000001
 40
0.0
 40
0.0
 40
0.0
 40
0.0
 40
0.1377058787494086
 40
0.2656654221682184
 40
0.405657058454316
 40
0.5566241631046112
 40
0.7167115439721481
 40
0.8832717749383008
 40
1.0
 40
1.0
 40
1.0
 40
1.0
 10
121.240855525958
 20
156.2075476101741
 30
0.0
 10
121.0967672860706
 20
156.2190978652569
 30
0.0
 10
120.8187888625871
 20
156.2413808891958
 30
0.0
 10
120.3255590144154
 20
156.2750249317936
 30
0.0
 10
119.8000759111002
 20
156.3124010556984
 30
0.0
 10
119.2149630173467
 20
156.3536908837728
 30
0.0
 10
118.5972294872767
 20
156.3975361805008
 30
0.0
 10
118.0340671932242
 20
156.4375823184576
 30
0.0
 10
117.7076157505336
 20
156.4608989751807
 30
0.0
 10
117.5731023361558
 20
156.4705065391168
 30
0.0
  0
SPLINE
  5
98
330
1F
100
AcDbEntity
  8
0
  6
Continuous
 62
     7
370
     0
100
AcDbSpline
210
0.0
220
0.0
230
1.0
 70
     8
 71
     3
 72
    14
 73
    10
 74
     0
 42
0.000000001
 43
0.00000001
 40
0.0
 40
0.0
 40
0.0
 40
0.0
 40
0.2800811145001019
 40
0.4188959706598318
 40
0.5577651599685391
 40
0.6919747443044719
 40
0.8134784985937309
 40
0.9164917260537979
 40
1.0
 40
1.0
 40
1.0
 40
1.0
 10
95.7719684632147
 20
152.1096183858022
 30
0.0
 10
95.70399563034486
 20
152.097888502543
 30
0.0
 10
95.60233384620659
 20
152.080345010393
 30
0.0
 10
95.47078422651708
 20
151.974003446793
 30
0.0
 10
95.41098876233225
 20
151.8530313370522
 30
0.0
 10
95.41674859670923
 20
151.7175445520846
 30
0.0
 10
95.48127224472958
 20
151.6129266740757
 30
0.0
 10
95.56835642396263
 20
151.554623754301
 30
0.0
 10
95.62797526717527
 20
151.5452938587119
 30
0.0
 10
95.65466745361931
 20
151.5411167345152
 30
0.0
  0
SPLINE
  5
99
330
1F
100
AcDbEntity
  8
0
  6
Continuous
 62
     7
370
     0
100
AcDbSpline
210
0.0
220
0.0
230
1.0
 70
     8
 71
     3
 72
    14
 73
    10
 74
     0
 42
0.000000001
 43
0.00000001
 40
0.0
 40
0.0
 40
0.0
 40
0.0
 40
0.2800812890139002
 40
0.4188961115238561
 40
0.5577652671696186
 40
0.6919748189721302
 40
0.8134785438079576
 40
0.9164917462968369
 40
1.0
 40
1.0
 40
1.0
 40
1.0
 10
95.7719684632147
 20
153.609619562994
 30
0.0
 10
95.70399565031744
 20
153.5978888584464
 30
0.0
 10
95.60233392520809
 20
153.5803441429899
 30
0.0
 10
95.47078422241988
 20
153.4740028041646
 30
0.0
 10
95.41098876339336
 20
153.3530306405079
 30
0.0
 10
95.41674859645693
 20
153.2175438692684
 30
0.0
 10
95.48127224478354
 20
153.1129259880582
 30
0.0
 10
95.5683564239528
 20
153.0546230689501
 30
0.0
 10
95.62797526717223
 20
153.0452931732902
 30
0.0
 10
95.65466745361931
 20
153.0411160490617
 30
0.0
  0
SPLINE
  5
9A
330
1F
100
AcDbEntity
  8
0
  6
Continuous
 62
     7
370
     0
100
AcDbSpline
210
0.0
220
0.0
230
1.0
 70
     8
 71
     3
 72
     9
 73
     5
 74
     0
 42
0.000000001
 43
0.00000001
 40
0.0
 40
0.0
 40
0.0
 40
0.0
 40
0.3039509901452636
 40
1.0
 40
1.0
 40
1.0
 40
1.0
 10
95.62159851730115
 20
151.5540323159799
 30
0.0
 10
95.6156691797489
 20
151.5471385038986
 30
0.0
 10
95.59616163496541
 20
151.524457833972
 30
0.0
 10
95.67220686478399
 20
151.5039195568321
 30
0.0
 10
95.72513807170338
 20
151.4896239093647
 30
0.0
  0
SPLINE
  5
9B
330
1F
100
AcDbEntity
  8
0
  6
Continuous
 62
     7
370
     0
100
AcDbSpline
210
0.0
220
0.0
230
1.0
 70
     8
 71
     3
 72
     9
 73
     5
 74
     0
 42
0.000000001
 43
0.00000001
 40
0.0
 40
0.0
 40
0.0
 40
0.0
 40
0.3039511167700872
 40
1.0
 40
1.0
 40
1.0
 40
1.0
 10
95.62159851730115
 20
153.0540334931717
 30
0.0
 10
95.61566917703352
 20
153.0471389251992
 30
0.0
 10
95.5961616314432
 20
153.0244557778373
 30
0.0
 10
95.67220686901592
 20
153.0039194055515
 30
0.0
 10
95.72513807170338
 20
152.9896250865564
 30
0.0
  0
SPLINE
  5
9C
330
1F
100
AcDbEntity
  8
0
  6
Continuous
 62
     7
370
     0
100
AcDbSpline
210
0.0
220
0.0
230
1.0
 70
     8
 71
     3
 72
     9
 73
     5
 74
     0
 42
0.000000001
 43
0.00000001
 40
0.0
 40
0.0
 40
0.0
 40
0.0
 40
0.3039511167700872
 40
1.0
 40
1.0
 40
1.0
 40
1.0
 10
95.62159851730115
 20
154.5540328077182
 30
0.0
 10
95.61566917703352
 20
154.5471382397457
 30
0.0
 10
95.5961616314432
 20
154.5244550923839
 30
0.0
 10
95.67220686901592
 20
154.5039187200981
 30
0.0
 10
95.72513807170338
 20
154.489624401103
 30
0.0
  0
SPLINE
  5
9D
330
1F
100
AcDbEntity
  8
0
  6
Continuous
 62
     7
370
     0
100
AcDbSpline
210
0.0
220
0.0
230
1.0
 70
     8
 71
     3
 72
    21
 73
    17
 74
     0
 42
0.000000001
 43
0.00000001
 40
0.0
 40
0.0
 40
0.0
 40
0.0
 40
0.0229259571417514
 40
0.1115082751904056
 40
0.2038514946777366
 40
0.2915975769600841
 40
0.3710244946770634
 40
0.4413450998321697
 40
0.5096810280479755
 40
0.5542306275292787
 40
0.6066962507694451
 40
0.6689438263153321
 40
0.7413294403099396
 40
0.8236201536525847
 40
0.9149756046930412
 40
0.9999999999999999
 40
0.9999999999999999
 40
0.9999999999999999
 40
0.9999999999999999
 10
101.8090055843467
 20
149.9729520580873
 30
0.0
 10
101.7758625031731
 20
149.9763254862665
 30
0.0
 10
101.6146597322999
 20
149.9927333141016
 30
0.0
 10
101.2495682171609
 20
150.021416976323
 30
0.0
 10
100.7318078641371
 20
150.0631295831836
 30
0.0
 10
100.1834226901654
 20
150.1042592112576
 30
0.0
 10
99.65992391247887
 20
150.1420633994893
 30
0.0
 10
99.17034325292728
 20
150.176062656138
 30
0.0
 10
98.75937576957287
 20
150.2036170983039
 30
0.0
 10
98.39447321388924
 20
150.227324647775
 30
0.0
 10
98.05045029468683
 20
150.2491165207295
 30
0.0
 10
97.66150403705409
 20
150.2765894394263
 30
0.0
 10
97.23746290266541
 20
150.3097211111296
 30
0.0
 10
96.80446152444674
 20
150.3483766716445
 30
0.0
 10
96.40595010666051
 20
150.3894141588675
 30
0.0
 10
96.21113915753457
 20
150.4160867552051
 30
0.0
 10
96.11722999789066
 20
150.4289443544254
 30
0.0
  0
SPLINE
  5
9E
330
1F
100
AcDbEntity
  8
0
  6
Continuous
 62
     7
370
     0
100
AcDbSpline
210
0.0
220
0.0
230
1.0
 70
     8
 71
     3
 72
    19
 73
    15
 74
     0
 42
0.000000001
 43
0.00000001
 40
0.0
 40
0.0
 40
0.0
 40
0.0
 40
0.0361139857698805
 40
0.1529565968749373
 40
0.2086577351766878
 40
0.2590350648865228
 40
0.3133303931375752
 40
0.4013052082833184
 40
0.4959904352087153
 40
0.5999180539689322
 40
0.7085729931129439
 40
0.8199621107990539
 40
0.9323114814227894
 40
1.0
 40
1.0
 40
1.0
 40
1.0
 10
97.43415085204191
 20
150.2949940911636
 30
0.0
 10
97.49178487839555
 20
150.299693990972
 30
0.0
 10
97.7358871104623
 20
150.31959987134
 30
0.0
 10
98.1346624317977
 20
150.349228932388
 30
0.0
 10
98.55957905623917
 20
150.3801737737815
 30
0.0
 10
98.87257982282485
 20
150.4023722127558
 30
0.0
 10
99.25096488675005
 20
150.4285785489386
 30
0.0
 10
99.71726403063134
 20
150.4600894580032
 30
0.0
 10
100.2690724872173
 20
150.4946249940587
 30
0.0
 10
100.8306280207175
 20
150.5340860226829
 30
0.0
 10
101.373478790763
 20
150.5785003781402
 30
0.0
 10
101.8557425685056
 20
150.6254074459675
 30
0.0
 10
102.2148483420213
 20
150.6666256961747
 30
0.0
 10
102.3696962511813
 20
150.6919057341829
 30
0.0
 10
102.4279141386623
 20
150.7014102242098
 30
0.0
  0
SPLINE
  5
9F
330
1F
100
AcDbEntity
  8
0
  6
Continuous
 62
     7
370
     0
100
AcDbSpline
210
0.0
220
0.0
230
1.0
 70
     8
 71
     3
 72
    25
 73
    21
 74
     0
 42
0.000000001
 43
0.00000001
 40
0.0
 40
0.0
 40
0.0
 40
0.0
 40
0.0374995028787777
 40
0.1003863178081865
 40
0.1631630274990739
 40
0.2249399992130791
 40
0.2876509789137659
 40
0.3530244517504711
 40
0.4151434265756811
 40
0.4713729445669736
 40
0.5211557244666793
 40
0.5695334718723772
 40
0.6010719220991059
 40
0.6382144312462771
 40
0.6822819893376223
 40
0.7335266851683079
 40
0.7917835852773253
 40
0.8564577634987909
 40
0.9264203447632977
 40
1.0
 40
1.0
 40
1.0
 40
1.0
 10
102.7695251216764
 20
151.298134674798
 30
0.0
 10
102.7290750629428
 20
151.3183617051562
 30
0.0
 10
102.620790095419
 20
151.3725095455802
 30
0.0
 10
102.4204220117273
 20
151.3997074122024
 30
0.0
 10
102.1074014421278
 20
151.4459033308973
 30
0.0
 10
101.7169626738895
 20
151.4831045865769
 30
0.0
 10
101.2532246812552
 20
151.521579009129
 30
0.0
 10
100.7308624567318
 20
151.5630870336709
 30
0.0
 10
100.1836453177374
 20
151.6042676873235
 30
0.0
 10
99.65987415114192
 20
151.6420629110059
 30
0.0
 10
99.17035523976898
 20
151.6760643227292
 30
0.0
 10
98.75937520018938
 20
151.7036179580791
 30
0.0
 10
98.39447014192733
 20
151.7273264643642
 30
0.0
 10
98.05046807507001
 20
151.7491146196901
 30
0.0
 10
97.66141731882384
 20
151.7765908920501
 30
0.0
 10
97.23786564794568
 20
151.8097117298082
 30
0.0
 10
96.80265693607907
 20
151.8484280696975
 30
0.0
 10
96.39247923918104
 20
151.8913871241577
 30
0.0
 10
96.03756780616017
 20
151.936801529466
 30
0.0
 10
95.89756496833964
 20
151.964917734731
 30
0.0
 10
95.82579960651941
 20
151.9793300829038
 30
0.0
  0
LWPOLYLINE
  5
A0
330
1F
100
AcDbEntity
  8
0
  6
Continuous
 62
     7
370
     0
100
AcDbPolyline
 90
       40
 70
   128
 43
0.0
 10
97.434150852
 20
151.7949952684
 10
97.6097410133
 20
151.8091942123
 10
98.2511158621
 20
151.8576602391
 10
98.5710596254
 20
151.8809004626
 10
98.8652346244
 20
151.9017732642
 10
99.1848915403
 20
151.9239331535
 10
99.7022607883
 20
151.9586677603
 10
100.2468591144
 20
151.9938680283
 10
100.814267393
 20
152.0339186243
 10
101.3568400925
 20
152.0783408485
 10
101.8422239979
 20
152.1252906821
 10
102.243789803
 20
152.1728700898
 10
102.5337030699
 20
152.2178082667
 10
102.701371867
 20
152.2557503483
 10
102.8029745033
 20
152.2954973332
 10
102.881111536
 20
152.352445846
 10
102.9298429897
 20
152.4177092067
 10
102.961640205
 20
152.5281622014
 10
102.9571605434
 20
152.5966479383
 10
102.9348749255
 20
152.662231674
 10
102.8528337886
 20
152.7607059977
 10
102.646082971
 20
152.8535942487
 10
102.4063782354
 20
152.9022372267
 10
102.0926016902
 20
152.9446366183
 10
101.7079487031
 20
152.9830424986
 10
101.2503992354
 20
153.0215191594
 10
100.7141418343
 20
153.0639949194
 10
100.1616449615
 20
153.1056101374
 10
99.6381382977
 20
153.1433752678
 10
99.1659493705
 20
153.1761764488
 10
98.7075225969
 20
153.2069045059
 10
98.4128987005
 20
153.2260562233
 10
98.0735303422
 20
153.2480168096
 10
97.6861490456
 20
153.2752691708
 10
97.2634259199
 20
153.3083571992
 10
96.8289681298
 20
153.347012674
 10
96.4168322792
 20
153.3900677166
 10
96.0685984285
 20
153.4352554879
 10
95.8257996065
 20
153.4793293975
 10
95.8257996065
 20
153.4793293975
  0
LWPOLYLINE
  5
A1
330
1F
100
AcDbEntity
  8
0
  6
Continuous
 62
     7
370
     0
100
AcDbPolyline
 90
       40
 70
   128
 43
0.0
 10
97.434150852
 20
153.2949945829
 10
97.6097410133
 20
153.3091953895
 10
98.2511158621
 20
153.3576595537
 10
98.5710596254
 20
153.3809016398
 10
98.8652346244
 20
153.4017725787
 10
99.1848915403
 20
153.4239343307
 10
99.7022607883
 20
153.4586689375
 10
100.2468591144
 20
153.4938692055
 10
100.814267393
 20
153.5339198015
 10
101.3568400925
 20
153.578340163
 10
101.8422239979
 20
153.6252899966
 10
102.243789803
 20
153.6728694043
 10
102.5337030699
 20
153.7178075812
 10
102.701371867
 20
153.7557496629
 10
102.8029745033
 20
153.7954985104
 10
102.881111536
 20
153.8524451605
 10
102.9298429897
 20
153.9177085213
 10
102.961640205
 20
154.028161516
 10
102.9571605434
 20
154.0966472528
 10
102.9348749255
 20
154.1622309885
 10
102.8528337886
 20
154.2607071749
 10
102.646082971
 20
154.3535954259
 10
102.4063782354
 20
154.4022365413
 10
102.0926016902
 20
154.4446377955
 10
101.7079487031
 20
154.4830418131
 10
101.2503992354
 20
154.521518474
 10
100.7141418343
 20
154.5639960966
 10
100.1616449615
 20
154.6056094519
 10
99.6381382977
 20
154.6433764449
 10
99.1659493705
 20
154.676177626
 10
98.7075225969
 20
154.7069038204
 10
98.4128987005
 20
154.7260574005
 10
98.0735303422
 20
154.7480179868
 10
97.6861490456
 20
154.775270348
 10
97.2634259199
 20
154.8083583764
 10
96.8289681298
 20
154.8470119885
 10
96.4168322792
 20
154.8900670312
 10
96.0685984285
 20
154.9352548025
 10
95.8257996065
 20
154.979328712
 10
95.8257996065
 20
154.979328712
  0
SPLINE
  5
A2
330
1F
100
AcDbEntity
  8
0
  6
Continuous
 62
     7
370
     0
100
AcDbSpline
210
0.0
220
0.0
230
1.0
 70
     8
 71
     3
 72
    19
 73
    15
 74
     0
 42
0.000000001
 43
0.00000001
 40
0.0
 40
0.0
 40
0.0
 40
0.0
 40
0.0370156032491878
 40
0.1567752931051608
 40
0.2138670594098734
 40
0.2655021262071632
 40
0.3211529628536826
 40
0.4113241467851823
 40
0.5083732738398002
 40
0.6148955371860251
 40
0.7262631426352609
 40
0.8404331878033265
 40
0.9555874594698044
 40
0.9999999999999999
 40
0.9999999999999999
 40
0.9999999999999999
 40
0.9999999999999999
 10
97.43415085204191
 20
154.7949938974485
 30
0.0
 10
97.49178487943234
 20
154.799693788035
 30
0.0
 10
97.73588711589026
 20
154.8195996293445
 30
0.0
 10
98.13466236710256
 20
154.8492293141209
 30
0.0
 10
98.55957919892634
 20
154.880172688757
 30
0.0
 10
98.87257951357887
 20
154.9023751668505
 30
0.0
 10
99.2509657211901
 20
154.9285768797618
 30
0.0
 10
99.71725946078526
 20
154.9600897623722
 30
0.0
 10
100.2690913150624
 20
154.9946246985351
 30
0.0
 10
100.8305489086689
 20
155.0340856453037
 30
0.0
 10
101.3737912533797
 20
155.0785010775336
 30
0.0
 10
101.8545414555161
 20
155.1254037733396
 30
0.0
 10
102.1881800853855
 20
155.1631901404086
 30
0.0
 10
102.3238858170586
 20
155.1850539958288
 30
0.0
 10
102.3616570567364
 20
155.1911394051418
 30
0.0
  0
SPLINE
  5
A3
330
1F
100
AcDbEntity
  8
0
  6
Continuous
 62
     7
370
     0
100
AcDbSpline
210
0.0
220
0.0
230
1.0
 70
     8
 71
     3
 72
    18
 73
    14
 74
     0
 42
0.000000001
 43
0.00000001
 40
0.0
 40
0.0
 40
0.0
 40
0.0
 40
0.0935471823668327
 40
0.2264188268960471
 40
0.3526757011806917
 40
0.4669622489559718
 40
0.5681457955457724
 40
0.6664736122807108
 40
0.7305755417895763
 40
0.8060677262824133
 40
0.8956350792148422
 40
0.9997899712982188
 40
1.0
 40
1.0
 40
1.0
 40
1.0
 10
101.5862099414343
 20
155.9932800880775
 30
0.0
 10
101.4768419542253
 20
156.0025856910564
 30
0.0
 10
101.2121309203137
 20
156.0251086966321
 30
0.0
 10
100.7294872720936
 20
156.0631191939745
 30
0.0
 10
100.183970871354
 20
156.104259906106
 30
0.0
 10
99.65979623652535
 20
156.1420643057541
 30
0.0
 10
99.1703902512554
 20
156.1760640992817
 30
0.0
 10
98.75931994227673
 20
156.2036166036163
 30
0.0
 10
98.39460113096807
 20
156.2273293157146
 30
0.0
 10
98.04982810033982
 20
156.2490993832562
 30
0.0
 10
97.66449238292732
 20
156.2766630342439
 30
0.0
 10
97.39054941687105
 20
156.2969880370496
 30
0.0
 10
97.26291211360724
 20
156.308403635543
 30
0.0
 10
97.26265525050707
 20
156.3084266088113
 30
0.0
  0
SPLINE
  5
A4
330
1F
100
AcDbEntity
  8
0
  6
Continuous
 62
     7
370
     0
100
AcDbSpline
210
0.0
220
0.0
230
1.0
 70
     8
 71
     3
 72
    19
 73
    15
 74
     0
 42
0.000000001
 43
0.00000001
 40
0.0
 40
0.0
 40
0.0
 40
0.0
 40
0.0250636000856345
 40
0.1371056857169125
 40
0.2355955750034876
 40
0.3203236965569396
 40
0.391759548120779
 40
0.452451936960584
 40
0.5451645388889683
 40
0.6387442413439269
 40
0.7444944704458888
 40
0.8613707535294064
 40
0.9852173965307611
 40
1.0
 40
1.0
 40
1.0
 40
1.0
 10
96.67426101468749
 20
149.8605488739118
 30
0.0
 10
96.70193118362461
 20
149.8575865618813
 30
0.0
 10
96.85329561144286
 20
149.8413817939763
 30
0.0
 10
97.17438638666498
 20
149.813645274678
 30
0.0
 10
97.59675412173245
 20
149.7800258934931
 30
0.0
 10
97.98859203913294
 20
149.7521741968029
 30
0.0
 10
98.33406092267697
 20
149.7301497124159
 30
0.0
 10
98.70003071944564
 20
149.7064610801598
 30
0.0
 10
99.10846633550686
 20
149.6791191083084
 30
0.0
 10
99.59207431133117
 20
149.6455963442835
 30
0.0
 10
100.108777112633
 20
149.6084518189238
 30
0.0
 10
100.6453368507919
 20
149.5680460836729
 30
0.0
 10
101.028488455456
 20
149.538255929257
 30
0.0
 10
101.2035557879692
 20
149.5236018224115
 30
0.0
 10
101.2222239335651
 20
149.5220391950712
 30
0.0
  0
SPLINE
  5
A5
330
1F
100
AcDbEntity
  8
0
  6
Continuous
 62
     7
370
     0
100
AcDbSpline
210
0.0
220
0.0
230
1.0
 70
     8
 71
     3
 72
    15
 73
    11
 74
     0
 42
0.000000001
 43
0.00000001
 40
0.0
 40
0.0
 40
0.0
 40
0.0
 40
0.0680868023817506
 40
0.2402115773976737
 40
0.3970155245843521
 40
0.5427746338113537
 40
0.6326504868066364
 40
0.715975587699654
 40
0.8108469492897431
 40
1.0
 40
1.0
 40
1.0
 40
1.0
 10
100.9312089120621
 20
149.5452477536306
 30
0.0
 10
100.8644094263349
 20
149.5397434424696
 30
0.0
 10
100.6287395274031
 20
149.5203241244784
 30
0.0
 10
100.1858378166186
 20
149.4905778066839
 30
0.0
 10
99.6433832062685
 20
149.4562486165871
 30
0.0
 10
99.18326934436867
 20
149.425123031667
 30
0.0
 10
98.81076360034211
 20
149.3992654093908
 30
0.0
 10
98.50073677716922
 20
149.3772096842946
 30
0.0
 10
98.08108554571024
 20
149.3467354629787
 30
0.0
 10
97.7768286496249
 20
149.3234145607424
 30
0.0
 10
97.57420127816744
 20
149.3078834316835
 30
0.0
  0
SPLINE
  5
A6
330
1F
100
AcDbEntity
  8
0
  6
Continuous
 62
     7
370
     0
100
AcDbSpline
210
0.0
220
0.0
230
1.0
 70
     8
 71
     3
 72
    25
 73
    21
 74
     0
 42
0.000000001
 43
0.00000001
 40
0.0
 40
0.0
 40
0.0
 40
0.0
 40
0.0747773119432345
 40
0.1455890447544062
 40
0.2108622192537052
 40
0.2695578750992018
 40
0.3211539471051174
 40
0.3655405931534025
 40
0.4029638089484771
 40
0.4347588419258164
 40
0.4833283435546746
 40
0.5323520945472856
 40
0.587751639137646
 40
0.64897979391631
 40
0.7138595497136333
 40
0.7763241995299086
 40
0.8372846932163838
 40
0.8989862188423036
 40
0.9603114409048807
 40
1.0
 40
1.0
 40
1.0
 40
1.0
 10
95.72513807170338
 20
151.4896239093647
 30
0.0
 10
95.80164685578946
 20
151.4742375026727
 30
0.0
 10
95.95060702165995
 20
151.4442806588883
 30
0.0
 10
96.31519384125563
 20
151.3971864156601
 30
0.0
 10
96.73192215826958
 20
151.3530941221446
 30
0.0
 10
97.17120490650206
 20
151.3136489437405
 30
0.0
 10
97.5974390022976
 20
151.2800236109958
 30
0.0
 10
97.98845023957409
 20
151.2521758220392
 30
0.0
 10
98.33408779944538
 20
151.2301515777796
 30
0.0
 10
98.7000276327868
 20
151.2064591022065
 30
0.0
 10
99.10841772891177
 20
151.1791206036129
 30
0.0
 10
99.5922784728176
 20
151.1455882239149
 30
0.0
 10
100.1078612847645
 20
151.1084839187378
 30
0.0
 10
100.6492385882228
 20
151.0679058996002
 30
0.0
 10
101.169897825218
 20
151.0266328348276
 30
0.0
 10
101.6287509050084
 20
150.9890603259446
 30
0.0
 10
102.0106032411359
 20
150.9522981915179
 30
0.0
 10
102.2994435038602
 20
150.9175218261251
 30
0.0
 10
102.5024364677192
 20
150.8721450283166
 30
0.0
 10
102.5077113846143
 20
150.8796689436062
 30
0.0
 10
102.509783912229
 20
150.8826251081333
 30
0.0
  0
SPLINE
  5
A7
330
1F
100
AcDbEntity
  8
0
  6
Continuous
 62
     7
370
     0
100
AcDbSpline
210
0.0
220
0.0
230
1.0
 70
     8
 71
     3
 72
    19
 73
    15
 74
     0
 42
0.000000001
 43
0.00000001
 40
0.0
 40
0.0
 40
0.0
 40
0.0
 40
0.0403793121379526
 40
0.1424590819149984
 40
0.2354527118796182
 40
0.3218961267975556
 40
0.3751976027243552
 40
0.4246141112895694
 40
0.4808781848061613
 40
0.598035730839933
 40
0.7508741416888682
 40
0.8395465537807094
 40
0.9406652987751021
 40
1.0
 40
1.0
 40
1.0
 40
1.0
 10
100.9312089120621
 20
151.0452470681772
 30
0.0
 10
100.8644094711091
 20
151.0397435264688
 30
0.0
 10
100.6287396063504
 20
151.0203269129224
 30
0.0
 10
100.1858351312236
 20
150.9905758981469
 30
0.0
 10
99.64339209460033
 20
150.9562485037988
 30
0.0
 10
99.18324360520977
 20
150.9251214379698
 30
0.0
 10
98.81081821477497
 20
150.8992665710442
 30
0.0
 10
98.50053555949759
 20
150.8772022223554
 30
0.0
 10
98.07276940017587
 20
150.8460812354474
 30
0.0
 10
97.47118901461499
 20
150.8005057218795
 30
0.0
 10
96.87929569673503
 20
150.7526579985071
 30
0.0
 10
96.41129246527595
 20
150.7111145034164
 30
0.0
 10
96.11551385186242
 20
150.677916065838
 30
0.0
 10
95.99058664815892
 20
150.6554539854224
 30
0.0
 10
95.94438933372743
 20
150.6471476457224
 30
0.0
  0
SPLINE
  5
A8
330
1F
100
AcDbEntity
  8
0
  6
Continuous
 62
     7
370
     0
100
AcDbSpline
210
0.0
220
0.0
230
1.0
 70
     8
 71
     3
 72
    25
 73
    21
 74
     0
 42
0.000000001
 43
0.00000001
 40
0.0
 40
0.0
 40
0.0
 40
0.0
 40
0.0747773239829887
 40
0.1455890559412766
 40
0.2108622296544005
 40
0.269557884792944
 40
0.3211539427291659
 40
0.3655406010975092
 40
0.4029638164418441
 40
0.4347588365555801
 40
0.4833283506504566
 40
0.5323520875031618
 40
0.5877516452530037
 40
0.6489797992942122
 40
0.7138595408980593
 40
0.7763242025156314
 40
0.8372846832483869
 40
0.8989862081311498
 40
0.960311441382905
 40
1.0
 40
1.0
 40
1.0
 40
1.0
 10
95.72513807170338
 20
152.9896250865564
 30
0.0
 10
95.80164685001002
 20
152.9742378979589
 30
0.0
 10
95.95060699209023
 20
152.944279534351
 30
0.0
 10
96.31519383733311
 20
152.897185743979
 30
0.0
 10
96.7319221776512
 20
152.8530937353684
 30
0.0
 10
97.17120481021169
 20
152.8136472418892
 30
0.0
 10
97.59743915393564
 20
152.780026059721
 30
0.0
 10
97.98845018007978
 20
152.752174777229
 30
0.0
 10
98.33408771191094
 20
152.7301501252018
 30
0.0
 10
98.7000278123525
 20
152.7064618244828
 30
0.0
 10
99.10841752160891
 20
152.6791180840375
 30
0.0
 10
99.592278671142
 20
152.6455910286506
 30
0.0
 10
100.1078611776366
 20
152.6084823314818
 30
0.0
 10
100.6492385233943
 20
152.5679046754512
 30
0.0
 10
101.1698979678373
 20
152.5266354706123
 30
0.0
 10
101.6287507810885
 20
152.4890581969461
 30
0.0
 10
102.010603297995
 20
152.4523000808638
 30
0.0
 10
102.2994435240691
 20
152.4175234677939
 30
0.0
 10
102.5024364583037
 20
152.3721439946522
 30
0.0
 10
102.5077113821341
 20
152.379668160182
 30
0.0
 10
102.509783912229
 20
152.3826244226799
 30
0.0
  0
SPLINE
  5
A9
330
1F
100
AcDbEntity
  8
0
  6
Continuous
 62
     7
370
     0
100
AcDbSpline
210
0.0
220
0.0
230
1.0
 70
     8
 71
     3
 72
    20
 73
    16
 74
     0
 42
0.000000001
 43
0.00000001
 40
0.0
 40
0.0
 40
0.0
 40
0.0
 40
0.0342503655651797
 40
0.1208360092781369
 40
0.1997146808689644
 40
0.2730373405400061
 40
0.3182484880063007
 40
0.3601643265454252
 40
0.4078884145649603
 40
0.5072632817411774
 40
0.6369031999844421
 40
0.7121165300014555
 40
0.797887034702424
 40
0.8942636291665623
 40
0.9999999999999999
 40
0.9999999999999999
 40
0.9999999999999999
 40
0.9999999999999999
 10
100.9312089120621
 20
152.5452463827238
 30
0.0
 10
100.8644094767492
 20
152.5397427756091
 30
0.0
 10
100.6287396655794
 20
152.5203259340835
 30
0.0
 10
100.1858348838688
 20
152.4905785742651
 30
0.0
 10
99.64339244293343
 20
152.4562468807498
 30
0.0
 10
99.18324284531705
 20
152.4251212814166
 30
0.0
 10
98.81081985614301
 20
152.3992650004747
 30
0.0
 10
98.50052971833645
 20
152.3772047331329
 30
0.0
 10
98.07280546673456
 20
152.3460782421089
 30
0.0
 10
97.47084723782618
 20
152.3005090920765
 30
0.0
 10
96.88065862062989
 20
152.2526446845201
 30
0.0
 10
96.40837543388348
 20
152.2111471506037
 30
0.0
 10
96.06457735740874
 20
152.1705367508828
 30
0.0
 10
95.77411242498354
 20
152.1230413712916
 30
0.0
 10
95.68376264352008
 20
152.0892341776891
 30
0.0
 10
95.63649572037406
 20
152.0715477815971
 30
0.0
  0
SPLINE
  5
AA
330
1F
100
AcDbEntity
  8
0
  6
Continuous
 62
     7
370
     0
100
AcDbSpline
210
0.0
220
0.0
230
1.0
 70
     8
 71
     3
 72
    25
 73
    21
 74
     0
 42
0.000000001
 43
0.00000001
 40
0.0
 40
0.0
 40
0.0
 40
0.0
 40
0.0747773120309259
 40
0.1455890449251385
 40
0.2108622195009835
 40
0.2695578892779378
 40
0.3211539478961092
 40
0.3655405939964467
 40
0.4029638220741033
 40
0.4347588426080768
 40
0.4833283442938925
 40
0.5323520953439936
 40
0.5877516399993212
 40
0.6489798086644794
 40
0.7138595511258474
 40
0.7763242010153751
 40
0.8372846947733387
 40
0.8989862204716159
 40
0.9603114426061092
 40
1.0
 40
1.0
 40
1.0
 40
1.0
 10
95.72513807170338
 20
154.489624401103
 30
0.0
 10
95.8016468574322
 20
154.474238022435
 30
0.0
 10
95.95060702650106
 20
154.4442812332126
 30
0.0
 10
96.31519382367208
 20
154.3971866074359
 30
0.0
 10
96.73192224569455
 20
154.3530955961931
 30
0.0
 10
97.17120476191133
 20
154.3136463205771
 30
0.0
 10
97.59743905941613
 20
154.280024429209
 30
0.0
 10
97.98845033359738
 20
154.2521772532239
 30
0.0
 10
98.33408764479042
 20
154.2301489364185
 30
0.0
 10
98.7000277493436
 20
154.2064608373989
 30
0.0
 10
99.10841770718555
 20
154.1791207431951
 30
0.0
 10
99.59227846947726
 20
154.1455886671062
 30
0.0
 10
100.1078613738856
 20
154.1084851280463
 30
0.0
 10
100.6492384238265
 20
154.067903167655
 30
0.0
 10
101.1698979112084
 20
154.0266341770179
 30
0.0
 10
101.6287508913305
 20
153.9890605816317
 30
0.0
 10
102.010603244834
 20
153.952298809683
 30
0.0
 10
102.2994435027915
 20
153.9175220455628
 30
0.0
 10
102.5024364659253
 20
153.8721463317096
 30
0.0
 10
102.5077113841481
 20
153.8796683271082
 30
0.0
 10
102.509783912229
 20
153.8826237372265
 30
0.0
  0
SPLINE
  5
AB
330
1F
100
AcDbEntity
  8
0
  6
Continuous
 62
     7
370
     0
100
AcDbSpline
210
0.0
220
0.0
230
1.0
 70
     8
 71
     3
 72
    20
 73
    16
 74
     0
 42
0.000000001
 43
0.00000001
 40
0.0
 40
0.0
 40
0.0
 40
0.0
 40
0.0342503649295036
 40
0.1208360243097035
 40
0.199714677604389
 40
0.2730373359145851
 40
0.3182484825417748
 40
0.3601643390110016
 40
0.4078884261447925
 40
0.5072632727424394
 40
0.6369032064029553
 40
0.7121165350240327
 40
0.7978870381331273
 40
0.8942636120204525
 40
1.0
 40
1.0
 40
1.0
 40
1.0
 10
100.9312089120621
 20
154.0452475599155
 30
0.0
 10
100.8644094726499
 20
154.0397440180346
 30
0.0
 10
100.6287396133271
 20
154.0203274038794
 30
0.0
 10
100.1858350520941
 20
153.9905763987461
 30
0.0
 10
99.64339234705524
 20
153.9562489672675
 30
0.0
 10
99.18324287538577
 20
153.9251220114329
 30
0.0
 10
98.81081976321352
 20
153.8992668893903
 30
0.0
 10
98.5005298100173
 20
153.8772033499789
 30
0.0
 10
98.07280549820332
 20
153.8460776771244
 30
0.0
 10
97.47084708083698
 20
153.8005116230999
 30
0.0
 10
96.88065868237578
 20
153.7526434145668
 30
0.0
 10
96.40837542298476
 20
153.7111467355342
 30
0.0
 10
96.06457740112604
 20
153.6705353459539
 30
0.0
 10
95.77411236764502
 20
153.623043713807
 30
0.0
 10
95.68376262938504
 20
153.589234534326
 30
0.0
 10
95.63649572037406
 20
153.5715470961437
 30
0.0
  0
SPLINE
  5
AC
330
1F
100
AcDbEntity
  8
0
  6
Continuous
 62
     7
370
     0
100
AcDbSpline
210
0.0
220
0.0
230
1.0
 70
     8
 71
     3
 72
    21
 73
    17
 74
     0
 42
0.000000001
 43
0.00000001
 40
0.0
 40
0.0
 40
0.0
 40
0.0
 40
0.0310621042560476
 40
0.1174506777043585
 40
0.1933900465029673
 40
0.2587185444476865
 40
0.3137982293036627
 40
0.3605943252342458
 40
0.4320791719127995
 40
0.5042325851821705
 40
0.5857699248354684
 40
0.6758858434670683
 40
0.7713761878481269
 40
0.8633120048236154
 40
0.9530339604742609
 40
0.9999999999999999
 40
0.9999999999999999
 40
0.9999999999999999
 40
0.9999999999999999
 10
96.62312348909921
 20
155.8659459403858
 30
0.0
 10
96.66732741218348
 20
155.8611832550611
 30
0.0
 10
96.8344693636959
 20
155.8431747964435
 30
0.0
 10
97.17376865434777
 20
155.8136473211587
 30
0.0
 10
97.59688681615862
 20
155.7800237262024
 30
0.0
 10
97.98856514218261
 20
155.7521755605773
 30
0.0
 10
98.3340644818734
 20
155.7301514078904
 30
0.0
 10
98.70003661426287
 20
155.7064588621477
 30
0.0
 10
99.1084171210717
 20
155.6791206603715
 30
0.0
 10
99.59227016045456
 20
155.6455870528837
 30
0.0
 10
100.1079021474074
 20
155.6084880842574
 30
0.0
 10
100.6490633822602
 20
155.5678871433401
 30
0.0
 10
101.1705817535192
 20
155.5267051036466
 30
0.0
 10
101.6263342875336
 20
155.4888146348471
 30
0.0
 10
101.9561762537445
 20
155.4589248562001
 30
0.0
 10
102.0983378671476
 20
155.4396659482709
 30
0.0
 10
102.1471846436734
 20
155.433048581253
 30
0.0
  0
SPLINE
  5
AD
330
1F
100
AcDbEntity
  8
0
  6
Continuous
 62
     7
370
     0
100
AcDbSpline
210
0.0
220
0.0
230
1.0
 70
     8
 71
     3
 72
    13
 73
     9
 74
     0
 42
0.000000001
 43
0.00000001
 40
0.0
 40
0.0
 40
0.0
 40
0.0
 40
0.0266445571101982
 40
0.2552186950769951
 40
0.5534061289273099
 40
0.7264058275509623
 40
0.9236882556163548
 40
1.0
 40
1.0
 40
1.0
 40
1.0
 10
98.269590973633
 20
155.3602992496595
 30
0.0
 10
98.24336719741464
 20
155.3583945488437
 30
0.0
 10
97.99217901219693
 20
155.340150100092
 30
0.0
 10
97.47246957634475
 20
155.300491503087
 30
0.0
 10
96.87866224348268
 20
155.2526675964305
 30
0.0
 10
96.41228753458365
 20
155.2110970762753
 30
0.0
 10
96.1364329831902
 20
155.1806649708097
 30
0.0
 10
96.02559161858909
 20
155.1610578417386
 30
0.0
 10
95.99467539765186
 20
155.1555889598236
 30
0.0
  0
SPLINE
  5
AE
330
1F
100
AcDbEntity
  8
0
  6
Continuous
 62
     7
370
     0
100
AcDbSpline
210
0.0
220
0.0
230
1.0
 70
     8
 71
     3
 72
     9
 73
     5
 74
     0
 42
0.000000001
 43
0.00000001
 40
0.0
 40
0.0
 40
0.0
 40
0.0
 40
0.6859433667345576
 40
1.0
 40
1.0
 40
1.0
 40
1.0
 10
95.82579960651941
 20
151.9793300829038
 30
0.0
 10
95.7736832477363
 20
151.9933760287384
 30
0.0
 10
95.69770560685438
 20
152.0138528589195
 30
0.0
 10
95.71597007168334
 20
152.036536355771
 30
0.0
 10
95.72170614801593
 20
152.0436602584228
 30
0.0
  0
SPLINE
  5
AF
330
1F
100
AcDbEntity
  8
0
  6
Continuous
 62
     7
370
     0
100
AcDbSpline
210
0.0
220
0.0
230
1.0
 70
     8
 71
     3
 72
     9
 73
     5
 74
     0
 42
0.000000001
 43
0.00000001
 40
0.0
 40
0.0
 40
0.0
 40
0.0
 40
0.6859433667345576
 40
1.0
 40
1.0
 40
1.0
 40
1.0
 10
95.82579960651941
 20
153.4793293974504
 30
0.0
 10
95.7736832477363
 20
153.493375343285
 30
0.0
 10
95.69770560685438
 20
153.5138521734661
 30
0.0
 10
95.71597007168334
 20
153.5365356703176
 30
0.0
 10
95.72170614801593
 20
153.5436595729694
 30
0.0
  0
SPLINE
  5
B0
330
1F
100
AcDbEntity
  8
0
  6
Continuous
 62
     7
370
     0
100
AcDbSpline
210
0.0
220
0.0
230
1.0
 70
     8
 71
     3
 72
    18
 73
    14
 74
     0
 42
0.000000001
 43
0.00000001
 40
0.0
 40
0.0
 40
0.0
 40
0.0
 40
0.0821023732488492
 40
0.2147391953928427
 40
0.3346224088270547
 40
0.4397314385950664
 40
0.5292487932197277
 40
0.6032193540437225
 40
0.662375030252803
 40
0.7091585047070706
 40
0.8091761089224249
 40
0.9331900765802738
 40
1.0
 40
1.0
 40
1.0
 40
1.0
 10
82.57182906918473
 20
149.9650712064609
 30
0.0
 10
82.66785305589622
 20
149.9558256068529
 30
0.0
 10
82.91900430559687
 20
149.9316436917364
 30
0.0
 10
83.41774711713677
 20
149.8901112465495
 30
0.0
 10
83.99232505231949
 20
149.8454427260997
 30
0.0
 10
84.53137507849337
 20
149.806441924243
 30
0.0
 10
85.00273173789506
 20
149.7742931541171
 30
0.0
 10
85.39548215684079
 20
149.7487124181472
 30
0.0
 10
85.71046785184106
 20
149.7293590262521
 30
0.0
 10
86.06676945588089
 20
149.7062808733415
 30
0.0
 10
86.52028891716334
 20
149.6743967993148
 30
0.0
 10
86.98906401339632
 20
149.6385155718631
 30
0.0
 10
87.24321970798192
 20
149.6148415692951
 30
0.0
 10
87.33220291860647
 20
149.6065529934272
 30
0.0
  0
SPLINE
  5
B1
330
1F
100
AcDbEntity
  8
0
  6
Continuous
 62
     7
370
     0
100
AcDbSpline
210
0.0
220
0.0
230
1.0
 70
     8
 71
     3
 72
    14
 73
    10
 74
     0
 42
0.000000001
 43
0.00000001
 40
0.0
 40
0.0
 40
0.0
 40
0.0
 40
0.0645940308777411
 40
0.2441974728371659
 40
0.3988885072671661
 40
0.5379017473797312
 40
0.687235671078579
 40
0.8558417728613106
 40
1.0
 40
1.0
 40
1.0
 40
1.0
 10
86.93113630242891
 20
149.6414012215242
 30
0.0
 10
86.86518169215283
 20
149.6358871438146
 30
0.0
 10
86.61584055439567
 20
149.6150411953049
 30
0.0
 10
86.14458752610302
 20
149.5799048094831
 30
0.0
 10
85.57470933234652
 20
149.5395265900402
 30
0.0
 10
85.0279065665411
 20
149.5031140800523
 30
0.0
 10
84.46916936970702
 20
149.4689100832783
 30
0.0
 10
83.91578170638721
 20
149.4313267931856
 30
0.0
 10
83.57803387596896
 20
149.4043339150333
 30
0.0
 10
83.42236034177489
 20
149.3918924532041
 30
0.0
  0
SPLINE
  5
B2
330
1F
100
AcDbEntity
  8
0
  6
Continuous
 62
     7
370
     0
100
AcDbSpline
210
0.0
220
0.0
230
1.0
 70
     8
 71
     3
 72
    21
 73
    17
 74
     0
 42
0.000000001
 43
0.00000001
 40
0.0
 40
0.0
 40
0.0
 40
0.0
 40
0.0914679054002881
 40
0.1768940089252851
 40
0.2541060201616692
 40
0.3218025671177347
 40
0.3794571360363742
 40
0.4270986185250124
 40
0.4651984375514513
 40
0.4953298277355435
 40
0.559747189927374
 40
0.6396196399840884
 40
0.7340909803498673
 40
0.8367704499101218
 40
0.9248437327621152
 40
1.0
 40
1.0
 40
1.0
 40
1.0
 10
82.35425442062564
 20
151.4855745188102
 30
0.0
 10
82.51846598165393
 20
151.4696498560022
 30
0.0
 10
82.83604230763466
 20
151.4388524147296
 30
0.0
 10
83.41626595654947
 20
151.3901636406252
 30
0.0
 10
83.9926558552577
 20
151.3454301313355
 30
0.0
 10
84.5313020701028
 20
151.3064440321762
 30
0.0
 10
85.00275400945385
 20
151.2742911546315
 30
0.0
 10
85.39545699139853
 20
151.2487140760075
 30
0.0
 10
85.71052852130434
 20
151.2293604580311
 30
0.0
 10
86.06651358847803
 20
151.2062805381618
 30
0.0
 10
86.5227774137602
 20
151.1743795445223
 30
0.0
 10
87.10540285931438
 20
151.128746584026
 30
0.0
 10
87.69757008961574
 20
151.0747934713407
 30
0.0
 10
88.17585295798357
 20
151.0220849362204
 30
0.0
 10
88.47118029565587
 20
150.9770695851641
 30
0.0
 10
88.51207912858145
 20
150.973272072994
 30
0.0
 10
88.53091029986984
 20
150.9715235731706
 30
0.0
  0
SPLINE
  5
B3
330
1F
100
AcDbEntity
  8
0
  6
Continuous
 62
     7
370
     0
100
AcDbSpline
210
0.0
220
0.0
230
1.0
 70
     8
 71
     3
 72
    18
 73
    14
 74
     0
 42
0.000000001
 43
0.00000001
 40
0.0
 40
0.0
 40
0.0
 40
0.0
 40
0.0399079270192442
 40
0.1508717349091024
 40
0.2464440103759858
 40
0.3323301234693344
 40
0.4245926515775552
 40
0.528762029359229
 40
0.6448807337614233
 40
0.76326768335565
 40
0.8796575172048277
 40
0.992096908623668
 40
1.0
 40
1.0
 40
1.0
 40
1.0
 10
86.93113630242891
 20
151.1414005360708
 30
0.0
 10
86.86518132736741
 20
151.1358864219335
 30
0.0
 10
86.6158388468969
 20
151.1150403387485
 30
0.0
 10
86.14460916589843
 20
151.0799062825663
 30
0.0
 10
85.57464517508548
 20
151.0395286476389
 30
0.0
 10
85.02812635429628
 20
151.0031117871543
 30
0.0
 10
84.46822828753432
 20
150.9689262556853
 30
0.0
 10
83.86755067521065
 20
150.9276860374617
 30
0.0
 10
83.26262206257856
 20
150.8804070708373
 30
0.0
 10
82.70575440534456
 20
150.8309992834585
 30
0.0
 10
82.25310616309586
 20
150.7804560497198
 30
0.0
 10
81.99654730195286
 20
150.75270170314
 30
0.0
 10
81.90562456768158
 20
150.7332796494175
 30
0.0
 10
81.89965352021403
 20
150.7320041707859
 30
0.0
  0
SPLINE
  5
B4
330
1F
100
AcDbEntity
  8
0
  6
Continuous
 62
     7
370
     0
100
AcDbSpline
210
0.0
220
0.0
230
1.0
 70
     8
 71
     3
 72
    21
 73
    17
 74
     0
 42
0.000000001
 43
0.00000001
 40
0.0
 40
0.0
 40
0.0
 40
0.0
 40
0.0914679043936353
 40
0.1768940069784729
 40
0.2541060333775055
 40
0.3218025637374708
 40
0.3794571320215912
 40
0.4270986286668325
 40
0.4651984472739627
 40
0.495329837126443
 40
0.5597471835402253
 40
0.6396196484549156
 40
0.7340909718500119
 40
0.836770455486124
 40
0.9248437373688244
 40
1.0
 40
1.0
 40
1.0
 40
1.0
 10
82.35425442062564
 20
152.985575696002
 30
0.0
 10
82.51846597532845
 20
152.9696509385703
 30
0.0
 10
82.83604228907602
 20
152.9388533143007
 30
0.0
 10
83.41626605893501
 20
152.8901657994015
 30
0.0
 10
83.99265568760738
 20
152.8454281701898
 30
0.0
 10
84.53130213978339
 20
152.8064455971883
 30
0.0
 10
85.00275409633657
 20
152.7742930550174
 30
0.0
 10
85.39545691737901
 20
152.7487128662201
 30
0.0
 10
85.71052853229084
 20
152.7293599458323
 30
0.0
 10
86.06651352280498
 20
152.7062794495643
 30
0.0
 10
86.52277759237727
 20
152.6743823466419
 30
0.0
 10
87.10540267742151
 20
152.628744039213
 30
0.0
 10
87.6975702402373
 20
152.5747963626297
 30
0.0
 10
88.17585289930317
 20
152.522083605906
 30
0.0
 10
88.47118029916967
 20
152.4770684722398
 30
0.0
 10
88.51207913003913
 20
152.4732725281448
 30
0.0
 10
88.53091029986984
 20
152.4715247503624
 30
0.0
  0
SPLINE
  5
B5
330
1F
100
AcDbEntity
  8
0
  6
Continuous
 62
     7
370
     0
100
AcDbSpline
210
0.0
220
0.0
230
1.0
 70
     8
 71
     3
 72
    27
 73
    23
 74
     0
 42
0.000000001
 43
0.00000001
 40
0.0
 40
0.0
 40
0.0
 40
0.0
 40
0.0239514013554957
 40
0.0905481267248195
 40
0.147907374782592
 40
0.1994533157113115
 40
0.2548261536035992
 40
0.3173450917686035
 40
0.387035611717148
 40
0.4580874690017686
 40
0.5279406985404949
 40
0.5954230319770069
 40
0.6609711369659584
 40
0.6937083770665143
 40
0.7269632041906182
 40
0.743120696377438
 40
0.7568509138494602
 40
0.7733420774621779
 40
0.808793596395198
 40
0.8594203975959132
 40
0.9239503322028155
 40
0.9999999999999999
 40
0.9999999999999999
 40
0.9999999999999999
 40
0.9999999999999999
 10
86.93113630242891
 20
152.6414017132625
 30
0.0
 10
86.86518132620785
 20
152.6358868900516
 30
0.0
 10
86.61583894091875
 20
152.6150381345421
 30
0.0
 10
86.14460957391364
 20
152.5799058927413
 30
0.0
 10
85.57464389461695
 20
152.5395284075223
 30
0.0
 10
85.02813079933463
 20
152.5031092411629
 30
0.0
 10
84.46820949744678
 20
152.4689336674348
 30
0.0
 10
83.86763432608785
 20
152.4276625170742
 30
0.0
 10
83.26226842601339
 20
152.3805116998298
 30
0.0
 10
82.70708779862464
 20
152.3306105659116
 30
0.0
 10
82.24829796687878
 20
152.2818524376313
 30
0.0
 10
81.90381599349367
 20
152.2358750770139
 30
0.0
 10
81.7056706984069
 20
152.2001019212654
 30
0.0
 10
81.55259424525383
 20
152.1423038142046
 30
0.0
 10
81.46388850155053
 20
152.0674460399045
 30
0.0
 10
81.4182045997343
 20
151.9902879416802
 30
0.0
 10
81.39898720482033
 20
151.889094089577
 30
0.0
 10
81.41797601754678
 20
151.791766734654
 30
0.0
 10
81.48227633717387
 20
151.7005365029746
 30
0.0
 10
81.63749428199539
 20
151.6109741864662
 30
0.0
 10
81.9097810982289
 20
151.5377504719605
 30
0.0
 10
82.19821803421497
 20
151.5038913598373
 30
0.0
 10
82.35425442062564
 20
151.4855745188102
 30
0.0
  0
SPLINE
  5
B6
330
1F
100
AcDbEntity
  8
0
  6
Continuous
 62
     7
370
     0
100
AcDbSpline
210
0.0
220
0.0
230
1.0
 70
     8
 71
     3
 72
    21
 73
    17
 74
     0
 42
0.000000001
 43
0.00000001
 40
0.0
 40
0.0
 40
0.0
 40
0.0
 40
0.0914679051013358
 40
0.1768940083471275
 40
0.2541060193311531
 40
0.3218025660659602
 40
0.3794571347961623
 40
0.4270986318100128
 40
0.4651984507119268
 40
0.4953298264062903
 40
0.55974718838758
 40
0.639619653920255
 40
0.7340909780462898
 40
0.8367704624768479
 40
0.9248437330077549
 40
1.0
 40
1.0
 40
1.0
 40
1.0
 10
82.35425442062564
 20
154.4855750105486
 30
0.0
 10
82.5184659818217
 20
154.46965035031
 30
0.0
 10
82.83604230812689
 20
154.4388529140066
 30
0.0
 10
83.4162659548036
 20
154.3901641056259
 30
0.0
 10
83.99265586081663
 20
154.3454307082077
 30
0.0
 10
84.53130205322991
 20
154.3064442655097
 30
0.0
 10
85.00275409853371
 20
154.2742923951433
 30
0.0
 10
85.39545693537828
 20
154.2487124720608
 30
0.0
 10
85.7105284405379
 20
154.2293584163325
 30
0.0
 10
86.06651371139546
 20
154.2062823831711
 30
0.0
 10
86.52277745575044
 20
154.1743801049654
 30
0.0
 10
87.1054027116927
 20
154.1287438471199
 30
0.0
 10
87.6975702327631
 20
154.0747957669728
 30
0.0
 10
88.17585286796853
 20
154.0220819558465
 30
0.0
 10
88.47118031931485
 20
153.9770707499969
 30
0.0
 10
88.51207913508988
 20
153.9732727770281
 30
0.0
 10
88.53091029986984
 20
153.9715240649089
 30
0.0
  0
SPLINE
  5
B7
330
1F
100
AcDbEntity
  8
0
  6
Continuous
 62
     7
370
     0
100
AcDbSpline
210
0.0
220
0.0
230
1.0
 70
     8
 71
     3
 72
    27
 73
    23
 74
     0
 42
0.000000001
 43
0.00000001
 40
0.0
 40
0.0
 40
0.0
 40
0.0
 40
0.0239513877318613
 40
0.0905481245803336
 40
0.1479073711535707
 40
0.1994532983687723
 40
0.2548261465444278
 40
0.3173450830913567
 40
0.3870356012362156
 40
0.4580874566819174
 40
0.5279406844127468
 40
0.595423016102724
 40
0.6609711193952014
 40
0.6937083309048051
 40
0.7269631571682287
 40
0.7431207255973804
 40
0.7568509427140458
 40
0.7733421058999498
 40
0.8087936239154362
 40
0.8594204238058607
 40
0.9239503341710846
 40
0.9999999999999999
 40
0.9999999999999999
 40
0.9999999999999999
 40
0.9999999999999999
 10
86.93113630242891
 20
154.1414010278091
 30
0.0
 10
86.86518131742051
 20
154.1358869537976
 30
0.0
 10
86.61583876298931
 20
154.1150410192685
 30
0.0
 10
86.1446096658331
 20
154.0799043972801
 30
0.0
 10
85.57464398054084
 20
154.0395270445
 30
0.0
 10
85.02813063781548
 20
154.0031116783415
 30
0.0
 10
84.46820959747846
 20
153.968932001965
 30
0.0
 10
83.86763430616423
 20
153.9276621453361
 30
0.0
 10
83.2622684320668
 20
153.8805109165963
 30
0.0
 10
82.70708779571162
 20
153.8306099362447
 30
0.0
 10
82.2482979723332
 20
153.7818516303653
 30
0.0
 10
81.90381597540473
 20
153.7358748039611
 30
0.0
 10
81.70567078292706
 20
153.7001000689653
 30
0.0
 10
81.55259422009601
 20
153.642305197718
 30
0.0
 10
81.46388830481561
 20
153.5674483015048
 30
0.0
 10
81.41820468239573
 20
153.4902869900571
 30
0.0
 10
81.39898718964112
 20
153.3890935350007
 30
0.0
 10
81.41797602719855
 20
153.291765954947
 30
0.0
 10
81.48227633696771
 20
153.2005359447928
 30
0.0
 10
81.63749423113401
 20
153.1109729922426
 30
0.0
 10
81.90978118107454
 20
153.0377524248848
 30
0.0
 10
82.19821804704058
 20
153.0038928112655
 30
0.0
 10
82.35425442062564
 20
152.985575696002
 30
0.0
  0
SPLINE
  5
B8
330
1F
100
AcDbEntity
  8
0
  6
Continuous
 62
     7
370
     0
100
AcDbSpline
210
0.0
220
0.0
230
1.0
 70
     8
 71
     3
 72
    19
 73
    15
 74
     0
 42
0.000000001
 43
0.00000001
 40
0.0
 40
0.0
 40
0.0
 40
0.0
 40
0.030185640608948
 40
0.1447499723976886
 40
0.2482984846725053
 40
0.3390858313057133
 40
0.4164059929407374
 40
0.4802976534765954
 40
0.5313930555622753
 40
0.5718020531952651
 40
0.658191729225128
 40
0.7653081160085977
 40
0.8920029729635071
 40
0.9999999999999999
 40
0.9999999999999999
 40
0.9999999999999999
 40
0.9999999999999999
 10
82.7430666943664
 20
155.9489323697195
 30
0.0
 10
82.78456820133387
 20
155.9449743776569
 30
0.0
 10
82.98358143632953
 20
155.9259945173572
 30
0.0
 10
83.41975050492381
 20
155.890042238468
 30
0.0
 10
83.9918796198489
 20
155.8454559478795
 30
0.0
 10
84.53146697972448
 20
155.8064413332079
 30
0.0
 10
85.0027219635141
 20
155.7742914338156
 30
0.0
 10
85.39545888583461
 20
155.7487139024868
 30
0.0
 10
85.71053964187901
 20
155.7293599635735
 30
0.0
 10
86.06646197766295
 20
155.706281689057
 30
0.0
 10
86.52328626635045
 20
155.6743661599592
 30
0.0
 10
87.10286661831883
 20
155.6288121224637
 30
0.0
 10
87.66080314355273
 20
155.5788330396997
 30
0.0
 10
87.93354818579338
 20
155.5470690473681
 30
0.0
 10
88.05905595027156
 20
155.532452364932
 30
0.0
  0
SPLINE
  5
B9
330
1F
100
AcDbEntity
  8
0
  6
Continuous
 62
     7
370
     0
100
AcDbSpline
210
0.0
220
0.0
230
1.0
 70
     8
 71
     3
 72
    12
 73
     8
 74
     0
 42
0.000000001
 43
0.00000001
 40
0.0
 40
0.0
 40
0.0
 40
0.0
 40
0.0108165824017229
 40
0.2899139928038409
 40
0.5744633559623762
 40
0.8542124923996054
 40
0.9999999999999999
 40
0.9999999999999999
 40
0.9999999999999999
 40
0.9999999999999999
 10
83.92300396763034
 20
155.4306588075266
 30
0.0
 10
83.91439375239024
 20
155.430068336403
 30
0.0
 10
83.68361643415369
 20
155.4142420952942
 30
0.0
 10
83.26404176654704
 20
155.3802848825391
 30
0.0
 10
82.7096935848051
 20
155.3307294436021
 30
0.0
 10
82.30711001941016
 20
155.2889386084303
 30
0.0
 10
82.13483638212841
 20
155.2650588649429
 30
0.0
 10
82.07581597917027
 20
155.2568777403936
 30
0.0
  0
SPLINE
  5
BA
330
1F
100
AcDbEntity
  8
0
  6
Continuous
 62
     7
370
     0
100
AcDbSpline
210
0.0
220
0.0
230
1.0
 70
     8
 71
     3
 72
     9
 73
     5
 74
     0
 42
0.000000001
 43
0.00000001
 40
0.0
 40
0.0
 40
0.0
 40
0.0
 40
0.4259373187674666
 40
1.0
 40
1.0
 40
1.0
 40
1.0
 10
81.6670892348165
 20
154.6142111471996
 30
0.0
 10
81.74280419280784
 20
154.5899844188078
 30
0.0
 10
81.92056499153392
 20
154.5331057953006
 30
0.0
 10
82.1960873288986
 20
154.5029095487859
 30
0.0
 10
82.35425442062564
 20
154.4855750105486
 30
0.0
  0
SPLINE
  5
BB
330
1F
100
AcDbEntity
  8
0
  6
Continuous
 62
     7
370
     0
100
AcDbSpline
210
0.0
220
0.0
230
1.0
 70
     8
 71
     3
 72
    19
 73
    15
 74
     0
 42
0.000000001
 43
0.00000001
 40
0.0
 40
0.0
 40
0.0
 40
0.0
 40
0.0678150653580117
 40
0.1509945260034865
 40
0.2429611209175788
 40
0.3589288018723569
 40
0.4260370314947119
 40
0.5019265011833048
 40
0.5862590745977837
 40
0.6780476395178361
 40
0.7755955281843926
 40
0.8765584120065301
 40
0.9895815136167063
 40
1.0
 40
1.0
 40
1.0
 40
1.0
 10
87.91268743179984
 20
150.0526267043457
 30
0.0
 10
87.8043931729131
 20
150.0641263167696
 30
0.0
 10
87.56326916598076
 20
150.0897309301104
 30
0.0
 10
87.08906826015782
 20
150.1314146638408
 30
0.0
 10
86.46539091352822
 20
150.1805691575778
 30
0.0
 10
85.81900107895773
 20
150.2237495760927
 30
0.0
 10
85.19650337901169
 20
150.2622910853407
 30
0.0
 10
84.64923716598817
 20
150.2993771581109
 30
0.0
 10
84.057692354185
 20
150.3418912302423
 30
0.0
 10
83.45254396084985
 20
150.3887227857236
 30
0.0
 10
82.87885438909696
 20
150.4375241963375
 30
0.0
 10
82.3559942136456
 20
150.4854760675287
 30
0.0
 10
82.09502884478493
 20
150.5187566033619
 30
0.0
 10
82.02920188650893
 20
150.5239945038
 30
0.0
 10
82.02364608250804
 20
150.524436583291
 30
0.0
  0
SPLINE
  5
BC
330
1F
100
AcDbEntity
  8
0
  6
Continuous
 62
     7
370
     0
100
AcDbSpline
210
0.0
220
0.0
230
1.0
 70
     8
 71
     3
 72
    17
 73
    13
 74
     0
 42
0.000000001
 43
0.00000001
 40
0.0
 40
0.0
 40
0.0
 40
0.0
 40
0.1018918537812907
 40
0.1918732130268851
 40
0.2764604942233706
 40
0.3728683230336088
 40
0.4814856250955488
 40
0.5987058849988026
 40
0.715390071338755
 40
0.8289302071815531
 40
0.941833686774264
 40
1.0
 40
1.0
 40
1.0
 40
1.0
 10
83.43118927978225
 20
150.3913673511848
 30
0.0
 10
83.61321795052696
 20
150.4057358610392
 30
0.0
 10
83.95599732515458
 20
150.4327932954645
 30
0.0
 10
84.49843038028929
 20
150.4697032982717
 30
0.0
 10
85.04244196167286
 20
150.5030090233976
 30
0.0
 10
85.62947865935965
 20
150.5420145161364
 30
0.0
 10
86.26925909693858
 20
150.5874772015023
 30
0.0
 10
86.90917929852107
 20
150.6367400676525
 30
0.0
 10
87.49376823380369
 20
150.6858421075062
 30
0.0
 10
87.98242084833713
 20
150.7316919660935
 30
0.0
 10
88.31776629992929
 20
150.7675801722875
 30
0.0
 10
88.45518339675152
 20
150.7946622821905
 30
0.0
 10
88.50190728508181
 20
150.8038706085786
 30
0.0
  0
SPLINE
  5
BD
330
1F
100
AcDbEntity
  8
0
  6
Continuous
 62
     7
370
     0
100
AcDbSpline
210
0.0
220
0.0
230
1.0
 70
     8
 71
     3
 72
    23
 73
    19
 74
     0
 42
0.000000001
 43
0.00000001
 40
0.0
 40
0.0
 40
0.0
 40
0.0
 40
0.0482682820903624
 40
0.1139412582560012
 40
0.1787511196123037
 40
0.2418418915936135
 40
0.302206665457996
 40
0.3689484423770221
 40
0.453108213546852
 40
0.5018098158640751
 40
0.5568841292469762
 40
0.6180857504425666
 40
0.6846983148749883
 40
0.7554905211231999
 40
0.8287610610595724
 40
0.9107838904965849
 40
0.9741594024028305
 40
1.0
 40
1.0
 40
1.0
 40
1.0
 10
88.7977812492872
 20
151.3792230687246
 30
0.0
 10
88.74330887532524
 20
151.4063263507283
 30
0.0
 10
88.61472234685094
 20
151.4703058818122
 30
0.0
 10
88.38193616168098
 20
151.4945717259345
 30
0.0
 10
88.02490190361408
 20
151.5431763441176
 30
0.0
 10
87.59513684845626
 20
151.5862891997727
 30
0.0
 10
87.09066146006285
 20
151.6314604857907
 30
0.0
 10
86.46480793708017
 20
151.6805535175619
 30
0.0
 10
85.8190911494208
 20
151.7237552993478
 30
0.0
 10
85.19648830775573
 20
151.7622875067018
 30
0.0
 10
84.64921256356665
 20
151.7993840397395
 30
0.0
 10
84.05782713722817
 20
151.841859382564
 30
0.0
 10
83.45197034201084
 20
151.8888523054315
 30
0.0
 10
82.88117422477768
 20
151.9369976095081
 30
0.0
 10
82.34656333334497
 20
151.987613124259
 30
0.0
 10
82.0415687589587
 20
152.022018211073
 30
0.0
 10
81.89638493848983
 20
152.0417975344936
 30
0.0
 10
81.88408199667988
 20
152.0298791207025
 30
0.0
 10
81.88051856659598
 20
152.0264270655021
 30
0.0
  0
LWPOLYLINE
  5
BE
330
1F
100
AcDbEntity
  8
0
  6
Continuous
 62
     7
370
     0
100
AcDbPolyline
 90
       35
 70
   128
 43
0.0
 10
83.4311892798
 20
151.8913666657
 10
83.9867753496
 20
151.9340678058
 10
84.5111257916
 20
151.9699330381
 10
85.0194770431
 20
152.0020226888
 10
85.602844931
 20
152.0406613997
 10
86.2460605388
 20
152.0864079646
 10
86.8992706349
 20
152.1366695813
 10
87.483775202
 20
152.1858303747
 10
87.9693314021
 20
152.2313496969
 10
88.3543194325
 20
152.2768820576
 10
88.6148722896
 20
152.3245266578
 10
88.7645146398
 20
152.3716739318
 10
88.8586273471
 20
152.4275979898
 10
88.9111497493
 20
152.4836915485
 10
88.956893753
 20
152.5884429864
 10
88.9615051968
 20
152.6607061676
 10
88.9449311474
 20
152.7357726297
 10
88.8585565665
 20
152.8527970365
 10
88.630811177
 20
152.9518282912
 10
88.3628922568
 20
152.9985005907
 10
88.0073363481
 20
153.0428836993
 10
87.5769968664
 20
153.0871867142
 10
87.0986882185
 20
153.1298003099
 10
86.5083596257
 20
153.1760348878
 10
85.7002337983
 20
153.2308208696
 10
85.2174990398
 20
153.2614334426
 10
84.6717216594
 20
153.2982001952
 10
84.0806880554
 20
153.3407318345
 10
83.4757381638
 20
153.3876015744
 10
82.8998809268
 20
153.4362706295
 10
82.4007879531
 20
153.483352711
 10
82.4007879531
 20
153.483352711
 10
82.0408671682
 20
153.5230177394
 10
81.8965224137
 20
153.5349181793
 10
81.8805185666
 20
153.52642638
  0
LWPOLYLINE
  5
BF
330
1F
100
AcDbEntity
  8
0
  6
Continuous
 62
     7
370
     0
100
AcDbPolyline
 90
       35
 70
   128
 43
0.0
 10
83.4311892798
 20
153.3913678429
 10
83.9867753496
 20
153.4340671203
 10
84.5111257916
 20
153.4699323527
 10
85.0194770431
 20
153.5020220033
 10
85.602844931
 20
153.5406607143
 10
86.2460605388
 20
153.5864072791
 10
86.8992706349
 20
153.6366707585
 10
87.483775202
 20
153.6858315519
 10
87.9693314021
 20
153.7313490114
 10
88.3543194325
 20
153.7768832347
 10
88.6148722896
 20
153.8245259724
 10
88.7645146398
 20
153.8716732464
 10
88.8586273471
 20
153.9275973044
 10
88.9111497493
 20
153.983690863
 10
88.956893753
 20
154.0884441636
 10
88.9615051968
 20
154.1607054821
 10
88.9449311474
 20
154.2357738069
 10
88.8585565665
 20
154.3527963511
 10
88.630811177
 20
154.4518276057
 10
88.3628922568
 20
154.4985017679
 10
88.0073363481
 20
154.5428830139
 10
87.5769968664
 20
154.5871860287
 10
87.0986882185
 20
154.6297996245
 10
86.5083596257
 20
154.676036065
 10
85.7002337983
 20
154.7308220468
 10
85.2174990398
 20
154.7614346198
 10
84.6717216594
 20
154.7981995098
 10
84.0806880554
 20
154.8407311491
 10
83.4757381638
 20
154.8876027516
 10
82.8998809268
 20
154.9362699441
 10
82.4007879531
 20
154.9833520255
 10
82.4007879531
 20
154.9833520255
 10
82.0408671682
 20
155.023017054
 10
81.8965224137
 20
155.0349193565
 10
81.8805185666
 20
155.0264275572
  0
SPLINE
  5
C0
330
1F
100
AcDbEntity
  8
0
  6
Continuous
 62
     7
370
     0
100
AcDbSpline
210
0.0
220
0.0
230
1.0
 70
     8
 71
     3
 72
    16
 73
    12
 74
     0
 42
0.000000001
 43
0.00000001
 40
0.0
 40
0.0
 40
0.0
 40
0.0
 40
0.1103199203310001
 40
0.2077441397277342
 40
0.2993280860095825
 40
0.4037103441163504
 40
0.5213119891135267
 40
0.6482281905835099
 40
0.7745639768554817
 40
0.8974956506757497
 40
1.0
 40
1.0
 40
1.0
 40
1.0
 10
83.43118927978225
 20
154.8913671574697
 30
0.0
 10
83.61321769613015
 20
154.9057364083147
 30
0.0
 10
83.95599655824985
 20
154.9327952354635
 30
0.0
 10
84.49843270889534
 20
154.9697054005244
 30
0.0
 10
85.04243310350058
 20
155.0030087172906
 30
0.0
 10
85.62951946485164
 20
155.0420117089289
 30
0.0
 10
86.269080039972
 20
155.0874894431468
 30
0.0
 10
86.90990208476771
 20
155.1366894041576
 30
0.0
 10
87.49112255137115
 20
155.1860267210133
 30
0.0
 10
87.96536592602149
 20
155.228633631107
 30
0.0
 10
88.19001182533923
 20
155.2567474921606
 30
0.0
 10
88.29215691030271
 20
155.2695306888923
 30
0.0
  0
SPLINE
  5
C1
330
1F
100
AcDbEntity
  8
0
  6
Continuous
 62
     7
370
     0
100
AcDbSpline
210
0.0
220
0.0
230
1.0
 70
     8
 71
     3
 72
    15
 73
    11
 74
     0
 42
0.000000001
 43
0.00000001
 40
0.0
 40
0.0
 40
0.0
 40
0.0
 40
0.0910930569709015
 40
0.2453322804307198
 40
0.4398242216258026
 40
0.5523728780958108
 40
0.6796487721593948
 40
0.8210848108244753
 40
0.9750253956677395
 40
1.0
 40
1.0
 40
1.0
 40
1.0
 10
87.41101748846717
 20
156.1019728831157
 30
0.0
 10
87.3089175378375
 20
156.1112626801768
 30
0.0
 10
87.0339414358955
 20
156.1362820084717
 30
0.0
 10
86.46256859271512
 20
156.1805723818408
 30
0.0
 10
85.81936401901297
 20
156.2237536663865
 30
0.0
 10
85.19659131641849
 20
156.2622844848381
 30
0.0
 10
84.64838129464468
 20
156.2993998760455
 30
0.0
 10
84.0615446429706
 20
156.3417886655475
 30
0.0
 10
83.62517549286895
 20
156.3748529235808
 30
0.0
 10
83.41690234857293
 20
156.3925603890815
 30
0.0
 10
83.38782969467587
 20
156.39503215767
 30
0.0
  0
SPLINE
  5
C2
330
1F
100
AcDbEntity
  8
0
  6
Continuous
 62
     7
370
     0
100
AcDbSpline
210
0.0
220
0.0
230
1.0
 70
     8
 71
     3
 72
    18
 73
    14
 74
     0
 42
0.000000001
 43
0.00000001
 40
0.0
 40
0.0
 40
0.0
 40
0.0
 40
0.0821022791722749
 40
0.214739000284083
 40
0.334622412982253
 40
0.4397313068560346
 40
0.5292486905547632
 40
0.6032193631927064
 40
0.6623749713899387
 40
0.7091587194642202
 40
0.8091761051165025
 40
0.9331901909940591
 40
0.9999999999999999
 40
0.9999999999999999
 40
0.9999999999999999
 40
0.9999999999999999
 10
62.57183044754214
 20
149.9650712064609
 30
0.0
 10
62.667854114671
 20
149.9558256080418
 30
0.0
 10
62.91900458808961
 20
149.9316436902978
 30
0.0
 10
63.41774699261918
 20
149.8901111629146
 30
0.0
 10
63.99232503673519
 20
149.845442813314
 30
0.0
 10
64.53137485972574
 20
149.8064418881563
 30
0.0
 10
65.00273140779204
 20
149.7742931244722
 30
0.0
 10
65.3954818469336
 20
149.7487124740139
 30
0.0
 10
65.71046793455491
 20
149.7293589388397
 30
0.0
 10
66.06676957528707
 20
149.7062810212092
 30
0.0
 10
66.52028879486929
 20
149.6743966653412
 30
0.0
 10
66.98906391077934
 20
149.6385156406595
 30
0.0
 10
67.24321909194755
 20
149.6148415764995
 30
0.0
 10
67.33220196865744
 20
149.6065529934272
 30
0.0
  0
SPLINE
  5
C3
330
1F
100
AcDbEntity
  8
0
  6
Continuous
 62
     7
370
     0
100
AcDbSpline
210
0.0
220
0.0
230
1.0
 70
     8
 71
     3
 72
    14
 73
    10
 74
     0
 42
0.000000001
 43
0.00000001
 40
0.0
 40
0.0
 40
0.0
 40
0.0
 40
0.0645939452166891
 40
0.2441970916368397
 40
0.3988884217965547
 40
0.5379017057152655
 40
0.6872356764725347
 40
0.8558419523200153
 40
1.0
 40
1.0
 40
1.0
 40
1.0
 10
66.93113535247988
 20
149.6414012215242
 30
0.0
 10
66.86518089840062
 20
149.6358871450102
 30
0.0
 10
66.61584040971205
 20
149.6150412059167
 30
0.0
 10
66.14458776865173
 20
149.5799047049316
 30
0.0
 10
65.57470959941641
 20
149.539526635426
 30
0.0
 10
65.02790654657265
 20
149.5031140762233
 30
0.0
 10
64.46916923219379
 20
149.4689100620882
 30
0.0
 10
63.91578154593576
 20
149.4313268485669
 30
0.0
 10
63.57803400052861
 20
149.4043339220513
 30
0.0
 10
63.42236078880973
 20
149.3918924532041
 30
0.0
  0
SPLINE
  5
C4
330
1F
100
AcDbEntity
  8
0
  6
Continuous
 62
     7
370
     0
100
AcDbSpline
210
0.0
220
0.0
230
1.0
 70
     8
 71
     3
 72
    21
 73
    17
 74
     0
 42
0.000000001
 43
0.00000001
 40
0.0
 40
0.0
 40
0.0
 40
0.0
 40
0.0914679101912027
 40
0.1768939253745856
 40
0.2541060439156997
 40
0.3218024849065866
 40
0.3794570568450625
 40
0.4270985983706556
 40
0.465198363214655
 40
0.4953299214183416
 40
0.5597471252945727
 40
0.6396196297339302
 40
0.7340909750479379
 40
0.8367704499863473
 40
0.9248437050813096
 40
1.0
 40
1.0
 40
1.0
 40
1.0
 10
62.35425486766047
 20
151.4855745188102
 30
0.0
 10
62.51846646964989
 20
151.4696498659435
 30
0.0
 10
62.8360427082153
 20
151.4388524600561
 30
0.0
 10
63.41626576948234
 20
151.3901635536691
 30
0.0
 10
63.99265585288662
 20
151.3454302193195
 30
0.0
 10
64.53130184843566
 20
151.306443995916
 30
0.0
 10
65.00275368016004
 20
151.2742911250495
 30
0.0
 10
65.3954566808143
 20
151.2487141317819
 30
0.0
 10
65.71052860552878
 20
151.2293603708449
 30
0.0
 10
66.06651370070992
 20
151.2062806850651
 30
0.0
 10
66.52277734200953
 20
151.1743794201775
 30
0.0
 10
67.10540282437731
 20
151.1287466335459
 30
0.0
 10
67.69756994068021
 20
151.0747934574217
 30
0.0
 10
68.1758533066277
 20
151.0220849507132
 30
0.0
 10
68.47117901070985
 20
150.9770695748564
 30
0.0
 10
68.51207918424248
 20
150.9732720701857
 30
0.0
 10
68.53091097973532
 20
150.9715235731706
 30
0.0
  0
SPLINE
  5
C5
330
1F
100
AcDbEntity
  8
0
  6
Continuous
 62
     7
370
     0
100
AcDbSpline
210
0.0
220
0.0
230
1.0
 70
     8
 71
     3
 72
    18
 73
    14
 74
     0
 42
0.000000001
 43
0.00000001
 40
0.0
 40
0.0
 40
0.0
 40
0.0
 40
0.0399078661242734
 40
0.1508714692579019
 40
0.2464439083447262
 40
0.332330031347632
 40
0.4245925701011222
 40
0.5287620346176677
 40
0.6448807524176617
 40
0.763267715671399
 40
0.8796575629496596
 40
0.99209696734178
 40
1.0
 40
1.0
 40
1.0
 40
1.0
 10
66.93113535247988
 20
151.1414005360708
 30
0.0
 10
66.86518053361185
 20
151.1358864231308
 30
0.0
 10
66.61583870219765
 20
151.1150403493689
 30
0.0
 10
66.14460940866553
 20
151.0799061779113
 30
0.0
 10
65.57464544130049
 20
151.0395286933405
 30
0.0
 10
65.02812633684076
 20
151.0031117822482
 30
0.0
 10
64.46822813891305
 20
150.9689262391118
 30
0.0
 10
63.8675502831571
 20
150.9276860603237
 30
0.0
 10
63.26262170541484
 20
150.880407063076
 30
0.0
 10
62.70575345367205
 20
150.8309993013155
 30
0.0
 10
62.2531073612826
 20
150.7804559882166
 30
0.0
 10
61.99654320470613
 20
150.7527018440748
 30
0.0
 10
61.90562469517863
 20
150.7332796496649
 30
0.0
 10
61.89965396724887
 20
150.7320041707859
 30
0.0
  0
SPLINE
  5
C6
330
1F
100
AcDbEntity
  8
0
  6
Continuous
 62
     7
370
     0
100
AcDbSpline
210
0.0
220
0.0
230
1.0
 70
     8
 71
     3
 72
    21
 73
    17
 74
     0
 42
0.000000001
 43
0.00000001
 40
0.0
 40
0.0
 40
0.0
 40
0.0
 40
0.09146790918456
 40
0.1768939234277937
 40
0.2541060571315431
 40
0.3218024815263121
 40
0.3794570528302752
 40
0.4270986085124593
 40
0.4651983729371548
 40
0.495329930809231
 40
0.5597471189073843
 40
0.6396196382047165
 40
0.7340909665480512
 40
0.8367704555623304
 40
0.9248437096880097
 40
1.0
 40
1.0
 40
1.0
 40
1.0
 10
62.35425486766047
 20
152.985575696002
 30
0.0
 10
62.51846646332443
 20
152.9696509485116
 30
0.0
 10
62.83604268965667
 20
152.9388533596274
 30
0.0
 10
63.41626587186769
 20
152.8901657124441
 30
0.0
 10
63.99265568523618
 20
152.845428258173
 30
0.0
 10
64.53130191811648
 20
152.8064455609295
 30
0.0
 10
65.00275376704255
 20
152.7742930254343
 30
0.0
 10
65.39545660679497
 20
152.7487129219958
 30
0.0
 10
65.71052861651533
 20
152.7293598586469
 30
0.0
 10
66.06651363503654
 20
152.7062795964648
 30
0.0
 10
66.5227775206268
 20
152.6743822222971
 30
0.0
 10
67.10540264248436
 20
152.6287440887317
 30
0.0
 10
67.69757009130181
 20
152.5747963487109
 30
0.0
 10
68.17585324794739
 20
152.5220836203989
 30
0.0
 10
68.47117901422364
 20
152.4770684619324
 30
0.0
 10
68.51207918570019
 20
152.4732725253365
 30
0.0
 10
68.53091097973532
 20
152.4715247503624
 30
0.0
  0
SPLINE
  5
C7
330
1F
100
AcDbEntity
  8
0
  6
Continuous
 62
     7
370
     0
100
AcDbSpline
210
0.0
220
0.0
230
1.0
 70
     8
 71
     3
 72
    27
 73
    23
 74
     0
 42
0.000000001
 43
0.00000001
 40
0.0
 40
0.0
 40
0.0
 40
0.0
 40
0.0239513628238164
 40
0.0905479597872088
 40
0.1479073012913664
 40
0.1994532438963921
 40
0.254826083589439
 40
0.3173450686294838
 40
0.3870355908444074
 40
0.4580874504396788
 40
0.5279406822500757
 40
0.5954230178811554
 40
0.6609710892131245
 40
0.693708330378316
 40
0.7269631585838876
 40
0.7431206512961591
 40
0.7568508692146966
 40
0.7733420278183124
 40
0.8087935479042381
 40
0.8594203791694984
 40
0.9239502751367197
 40
0.9999999999999999
 40
0.9999999999999999
 40
0.9999999999999999
 40
0.9999999999999999
 10
66.93113535247988
 20
152.6414017132625
 30
0.0
 10
66.8651805324499
 20
152.635886891249
 30
0.0
 10
66.61583879620814
 20
152.6150381451635
 30
0.0
 10
66.14460981682261
 20
152.579905788083
 30
0.0
 10
65.5746441604084
 20
152.5395284532398
 30
0.0
 10
65.02813078332197
 20
152.5031092362044
 30
0.0
 10
64.46820934264221
 20
152.4689336510887
 30
0.0
 10
63.86763396172254
 20
152.4276625389102
 30
0.0
 10
63.26226795208073
 20
152.3805116963212
 30
0.0
 10
62.70708728732664
 20
152.3306105677228
 30
0.0
 10
62.24829757694411
 20
152.2818524339958
 30
0.0
 10
61.90381523581682
 20
152.2358750972993
 30
0.0
 10
61.70567124891357
 20
152.2001019020223
 30
0.0
 10
61.55259465082831
 20
152.1423038145905
 30
0.0
 10
61.46388899661093
 20
152.0674460408541
 30
0.0
 10
61.41820497553776
 20
151.9902879400529
 30
0.0
 10
61.3989878978802
 20
151.8890941073227
 30
0.0
 10
61.41797477794626
 20
151.7917667075986
 30
0.0
 10
61.48227602188862
 20
151.7005364763067
 30
0.0
 10
61.63749513948752
 20
151.6109742582151
 30
0.0
 10
61.90978023015355
 20
151.5377504025469
 30
0.0
 10
62.19821795685851
 20
151.5038913428304
 30
0.0
 10
62.35425486766047
 20
151.4855745188102
 30
0.0
  0
SPLINE
  5
C8
330
1F
100
AcDbEntity
  8
0
  6
Continuous
 62
     7
370
     0
100
AcDbSpline
210
0.0
220
0.0
230
1.0
 70
     8
 71
     3
 72
    21
 73
    17
 74
     0
 42
0.000000001
 43
0.00000001
 40
0.0
 40
0.0
 40
0.0
 40
0.0
 40
0.091467909892246
 40
0.1768939247964197
 40
0.2541060430851713
 40
0.3218024838547969
 40
0.3794570556048327
 40
0.4270986116556189
 40
0.4651983763750917
 40
0.4953299200891265
 40
0.5597471237548142
 40
0.639619643670119
 40
0.7340909727443772
 40
0.8367704625530862
 40
0.9248437053269529
 40
1.0
 40
1.0
 40
1.0
 40
1.0
 10
62.35425486766047
 20
154.4855750105486
 30
0.0
 10
62.51846646981767
 20
154.4696503602512
 30
0.0
 10
62.83604270870755
 20
154.438852959333
 30
0.0
 10
63.41626576773645
 20
154.3901640186699
 30
0.0
 10
63.99265585844554
 20
154.3454307961916
 30
0.0
 10
64.5313018315628
 20
154.3064442292501
 30
0.0
 10
65.00275376923979
 20
154.2742923655613
 30
0.0
 10
65.39545662479405
 20
154.2487125278348
 30
0.0
 10
65.71052852476318
 20
154.2293583291519
 30
0.0
 10
66.06651382362588
 20
154.2062825300626
 30
0.0
 10
66.52277738400005
 20
154.1743799806223
 30
0.0
 10
67.1054026767555
 20
154.1287438966381
 30
0.0
 10
67.69757008382764
 20
154.0747957530542
 30
0.0
 10
68.17585321661274
 20
154.0220819703393
 30
0.0
 10
68.47117903436889
 20
153.9770707396895
 30
0.0
 10
68.51207919075092
 20
153.97327277422
 30
0.0
 10
68.53091097973532
 20
153.9715240649089
 30
0.0
  0
SPLINE
  5
C9
330
1F
100
AcDbEntity
  8
0
  6
Continuous
 62
     7
370
     0
100
AcDbSpline
210
0.0
220
0.0
230
1.0
 70
     8
 71
     3
 72
    27
 73
    23
 74
     0
 42
0.000000001
 43
0.00000001
 40
0.0
 40
0.0
 40
0.0
 40
0.0
 40
0.0239513492001614
 40
0.0905479576427326
 40
0.1479072976623528
 40
0.1994532265538607
 40
0.2548260765302762
 40
0.317345059952245
 40
0.3870355803634836
 40
0.4580874381198367
 40
0.5279406681223374
 40
0.5954230020068829
 40
0.6609710716423793
 40
0.6937082842166179
 40
0.7269631115615095
 40
0.7431206805161156
 40
0.7568508980792964
 40
0.7733420562560988
 40
0.8087935754244909
 40
0.8594204053794603
 40
0.9239502771049897
 40
1.0
 40
1.0
 40
1.0
 40
1.0
 10
66.93113535247988
 20
154.1414010278091
 30
0.0
 10
66.86518052366254
 20
154.135886954995
 30
0.0
 10
66.6158386182785
 20
154.1150410298893
 30
0.0
 10
66.14460990874255
 20
154.0799042926173
 30
0.0
 10
65.5746442463323
 20
154.0395270902168
 30
0.0
 10
65.02813062180283
 20
154.0031116733825
 30
0.0
 10
64.46820944267391
 20
153.9689319856182
 30
0.0
 10
63.86763394179892
 20
153.9276621671721
 30
0.0
 10
63.26226795813414
 20
153.8805109130877
 30
0.0
 10
62.70708728441362
 20
153.830609938056
 30
0.0
 10
62.24829758239853
 20
153.7818516267298
 30
0.0
 10
61.90381521772787
 20
153.7358748242465
 30
0.0
 10
61.70567133343356
 20
153.7001000497229
 30
0.0
 10
61.55259462567052
 20
153.6423051981039
 30
0.0
 10
61.46388879987611
 20
153.5674483024544
 30
0.0
 10
61.41820505819882
 20
153.4902869884298
 30
0.0
 10
61.39898788270094
 20
153.3890935527463
 30
0.0
 10
61.41797478759807
 20
153.2917659278916
 30
0.0
 10
61.48227602168241
 20
153.2005359181251
 30
0.0
 10
61.63749508862607
 20
153.110973063991
 30
0.0
 10
61.90978031299925
 20
153.0377523554721
 30
0.0
 10
62.19821796968407
 20
153.003892794259
 30
0.0
 10
62.35425486766047
 20
152.985575696002
 30
0.0
  0
SPLINE
  5
CA
330
1F
100
AcDbEntity
  8
0
  6
Continuous
 62
     7
370
     0
100
AcDbSpline
210
0.0
220
0.0
230
1.0
 70
     8
 71
     3
 72
    19
 73
    15
 74
     0
 42
0.000000001
 43
0.00000001
 40
0.0
 40
0.0
 40
0.0
 40
0.0
 40
0.0301856409938186
 40
0.1447498497682645
 40
0.2482985018452572
 40
0.3390857027715539
 40
0.4164058653924196
 40
0.4802976025704269
 40
0.5313929299676102
 40
0.5718021513291732
 40
0.6581916116196489
 40
0.7653080670904947
 40
0.8920029256607792
 40
1.0
 40
1.0
 40
1.0
 40
1.0
 10
62.74306714140124
 20
155.9489323697195
 30
0.0
 10
62.78456865239482
 20
155.9449743787002
 30
0.0
 10
62.98358173555938
 20
155.9259945397251
 30
0.0
 10
63.41975030393343
 20
155.8900421468448
 30
0.0
 10
63.99187962232686
 20
155.8454560368395
 30
0.0
 10
64.53146675709102
 20
155.8064412967364
 30
0.0
 10
65.0027216343467
 20
155.7742914042769
 30
0.0
 10
65.39545857520046
 20
155.7487139582554
 30
0.0
 10
65.71053972612059
 20
155.7293598763824
 30
0.0
 10
66.06646208964389
 20
155.7062818359913
 30
0.0
 10
66.52328619307407
 20
155.6743660354053
 30
0.0
 10
67.10286658235066
 20
155.6288121732509
 30
0.0
 10
67.66080308322431
 20
155.5788330182849
 30
0.0
 10
67.93354845320258
 20
155.5470690429173
 30
0.0
 10
68.05905639730639
 20
155.532452364932
 30
0.0
  0
SPLINE
  5
CB
330
1F
100
AcDbEntity
  8
0
  6
Continuous
 62
     7
370
     0
100
AcDbSpline
210
0.0
220
0.0
230
1.0
 70
     8
 71
     3
 72
    12
 73
     8
 74
     0
 42
0.000000001
 43
0.00000001
 40
0.0
 40
0.0
 40
0.0
 40
0.0
 40
0.0108169376836586
 40
0.2899142478432267
 40
0.574463508801051
 40
0.8542125447616518
 40
1.0
 40
1.0
 40
1.0
 40
1.0
 10
63.92300441466517
 20
155.4306588075266
 30
0.0
 10
63.91439388787909
 20
155.4300683368625
 30
0.0
 10
63.68361559648797
 20
155.4142426139581
 30
0.0
 10
63.26404156636932
 20
155.3802846530044
 30
0.0
 10
62.70969302394451
 20
155.3307295054658
 30
0.0
 10
62.30710954398444
 20
155.2889386012706
 30
0.0
 10
62.13483590010204
 20
155.2650588631159
 30
0.0
 10
62.07581549488253
 20
155.2568777403936
 30
0.0
  0
SPLINE
  5
CC
330
1F
100
AcDbEntity
  8
0
  6
Continuous
 62
     7
370
     0
100
AcDbSpline
210
0.0
220
0.0
230
1.0
 70
     8
 71
     3
 72
     9
 73
     5
 74
     0
 42
0.000000001
 43
0.00000001
 40
0.0
 40
0.0
 40
0.0
 40
0.0
 40
0.4259369667082846
 40
0.9999999999999999
 40
0.9999999999999999
 40
0.9999999999999999
 40
0.9999999999999999
 10
61.66708968185134
 20
154.6142111471996
 30
0.0
 10
61.74280425266195
 20
154.5899844155308
 30
0.0
 10
61.92056428930716
 20
154.5331057373168
 30
0.0
 10
62.19608729517203
 20
154.5029095343929
 30
0.0
 10
62.35425486766047
 20
154.4855750105486
 30
0.0
  0
SPLINE
  5
CD
330
1F
100
AcDbEntity
  8
0
  6
Continuous
 62
     7
370
     0
100
AcDbSpline
210
0.0
220
0.0
230
1.0
 70
     8
 71
     3
 72
    19
 73
    15
 74
     0
 42
0.000000001
 43
0.00000001
 40
0.0
 40
0.0
 40
0.0
 40
0.0
 40
0.0678151518593784
 40
0.1509946103430772
 40
0.2429611456397302
 40
0.3589287614534261
 40
0.4260371817265897
 40
0.5019263929746731
 40
0.5862590266796124
 40
0.678047589214144
 40
0.775595475345499
 40
0.8765584446870082
 40
0.9895815433597929
 40
1.0
 40
1.0
 40
1.0
 40
1.0
 10
67.91268787883467
 20
150.0526267043457
 30
0.0
 10
67.80439327836193
 20
150.0641263132871
 30
0.0
 10
67.56326868375001
 20
150.0897309005159
 30
0.0
 10
67.08906791789964
 20
150.1314146558343
 30
0.0
 10
66.46539091529537
 20
150.1805691401462
 30
0.0
 10
65.81900093652155
 20
150.2237496963341
 30
0.0
 10
65.19650349317664
 20
150.2622909397992
 30
0.0
 10
64.64923734376171
 20
150.2993772832696
 30
0.0
 10
64.05769292240754
 20
150.3418911887007
 30
0.0
 10
63.45254443812001
 20
150.388722791871
 30
0.0
 10
62.87885455148942
 20
150.437524221522
 30
0.0
 10
62.35599482541911
 20
150.4854760417928
 30
0.0
 10
62.0950253067906
 20
150.5187565871207
 30
0.0
 10
62.02920201011496
 20
150.5239945035918
 30
0.0
 10
62.02364652954287
 20
150.524436583291
 30
0.0
  0
SPLINE
  5
CE
330
1F
100
AcDbEntity
  8
0
  6
Continuous
 62
     7
370
     0
100
AcDbSpline
210
0.0
220
0.0
230
1.0
 70
     8
 71
     3
 72
    17
 73
    13
 74
     0
 42
0.000000001
 43
0.00000001
 40
0.0
 40
0.0
 40
0.0
 40
0.0
 40
0.1018918597481273
 40
0.1918730768441433
 40
0.2764603629941011
 40
0.3728684270678946
 40
0.4814855107750335
 40
0.59870591851528
 40
0.715389984963988
 40
0.8289301274557517
 40
0.941833635225877
 40
0.9999999999999999
 40
0.9999999999999999
 40
0.9999999999999999
 40
0.9999999999999999
 10
63.43118972681708
 20
150.3913673511848
 30
0.0
 10
63.61321840469498
 20
150.4057358541857
 30
0.0
 10
63.9559975293929
 20
150.4327932549165
 30
0.0
 10
64.49843016800457
 20
150.4697033260927
 30
0.0
 10
65.04244193491225
 20
150.5030090830504
 30
0.0
 10
65.62947870341625
 20
150.5420143806784
 30
0.0
 10
66.26925920847951
 20
150.5874773282738
 30
0.0
 10
66.90917944444202
 20
150.6367399739134
 30
0.0
 10
67.4937678076819
 20
150.6858421533084
 30
0.0
 10
67.98242047096912
 20
150.7316919603199
 30
0.0
 10
68.31776577986012
 20
150.7675801875937
 30
0.0
 10
68.4551835837426
 20
150.7946622831869
 30
0.0
 10
68.50190773211665
 20
150.8038706085786
 30
0.0
  0
SPLINE
  5
CF
330
1F
100
AcDbEntity
  8
0
  6
Continuous
 62
     7
370
     0
100
AcDbSpline
210
0.0
220
0.0
230
1.0
 70
     8
 71
     3
 72
    23
 73
    19
 74
     0
 42
0.000000001
 43
0.00000001
 40
0.0
 40
0.0
 40
0.0
 40
0.0
 40
0.0482682572108803
 40
0.1139412422523605
 40
0.1787511415556593
 40
0.2418419448899874
 40
0.3022067181092353
 40
0.3689484527841366
 40
0.4531081779677604
 40
0.5018099193888743
 40
0.5568840460597305
 40
0.6180857119456707
 40
0.684698275666186
 40
0.755490481157822
 40
0.8287610842782742
 40
0.9107839128386865
 40
0.9741594026789959
 40
1.0
 40
1.0
 40
1.0
 40
1.0
 10
68.79778146349139
 20
151.3792230687246
 30
0.0
 10
68.74330937422263
 20
151.4063263510929
 30
0.0
 10
68.61472346957213
 20
151.470305907029
 30
0.0
 10
68.38193681835689
 20
151.4945717298873
 30
0.0
 10
68.02490185952344
 20
151.5431763440717
 30
0.0
 10
67.59513640228916
 20
151.5862891870603
 30
0.0
 10
67.09066107598146
 20
151.6314604746444
 30
0.0
 10
66.46480795438906
 20
151.6805535012859
 30
0.0
 10
65.81909100452961
 20
151.7237554194114
 30
0.0
 10
65.19648842331874
 20
151.7622873612088
 30
0.0
 10
64.64921273771985
 20
151.7993841648465
 30
0.0
 10
64.05782772106902
 20
151.8418593410498
 30
0.0
 10
63.4519707545233
 20
151.8888523113569
 30
0.0
 10
62.88117464965826
 20
151.936997635377
 30
0.0
 10
62.34656287264895
 20
151.9876130969849
 30
0.0
 10
62.04156787343045
 20
152.022018210073
 30
0.0
 10
61.89638548177315
 20
152.0417975324748
 30
0.0
 10
61.8840824659936
 20
152.0298791208908
 30
0.0
 10
61.88051901363082
 20
152.0264270655021
 30
0.0
  0
LWPOLYLINE
  5
D0
330
1F
100
AcDbEntity
  8
0
  6
Continuous
 62
     7
370
     0
100
AcDbPolyline
 90
       35
 70
   128
 43
0.0
 10
63.4311897268
 20
151.8913666657
 10
63.9867757966
 20
151.9340678058
 10
64.5111253073
 20
151.9699330381
 10
65.0194765588
 20
152.0020226888
 10
65.6028458437
 20
152.0406613997
 10
66.2460600545
 20
152.0864079646
 10
66.8992710819
 20
152.1366695813
 10
67.4837747177
 20
152.1858303747
 10
67.9693309178
 20
152.2313496969
 10
68.3543191811
 20
152.2768820576
 10
68.6148715725
 20
152.3245266578
 10
68.7645146211
 20
152.3716739318
 10
68.8586266299
 20
152.4275979898
 10
68.9111494979
 20
152.4836915485
 10
68.9568942001
 20
152.5884429864
 10
68.9615042468
 20
152.6607061676
 10
68.9449304303
 20
152.7357726297
 10
68.8585558494
 20
152.8527970365
 10
68.6308120897
 20
152.9518282912
 10
68.3628929367
 20
152.9985005907
 10
68.0073363294
 20
153.0428836993
 10
67.5769963821
 20
153.0871867142
 10
67.0986877342
 20
153.1298003099
 10
66.5083596071
 20
153.1760348878
 10
65.7002342453
 20
153.2308208696
 10
65.2174980899
 20
153.2614334426
 10
64.6717225721
 20
153.2982001952
 10
64.0806885024
 20
153.3407318345
 10
63.4757386109
 20
153.3876015744
 10
62.8998813739
 20
153.4362706295
 10
62.4007874688
 20
153.483352711
 10
62.4007874688
 20
153.483352711
 10
62.0408666839
 20
153.5230177394
 10
61.8965228608
 20
153.5349181793
 10
61.8805190136
 20
153.52642638
  0
LWPOLYLINE
  5
D1
330
1F
100
AcDbEntity
  8
0
  6
Continuous
 62
     7
370
     0
100
AcDbPolyline
 90
       35
 70
   128
 43
0.0
 10
63.4311897268
 20
153.3913678429
 10
63.9867757966
 20
153.4340671203
 10
64.5111253073
 20
153.4699323527
 10
65.0194765588
 20
153.5020220033
 10
65.6028458437
 20
153.5406607143
 10
66.2460600545
 20
153.5864072791
 10
66.8992710819
 20
153.6366707585
 10
67.4837747177
 20
153.6858315519
 10
67.9693309178
 20
153.7313490114
 10
68.3543191811
 20
153.7768832347
 10
68.6148715725
 20
153.8245259724
 10
68.7645146211
 20
153.8716732464
 10
68.8586266299
 20
153.9275973044
 10
68.9111494979
 20
153.983690863
 10
68.9568942001
 20
154.0884441636
 10
68.9615042468
 20
154.1607054821
 10
68.9449304303
 20
154.2357738069
 10
68.8585558494
 20
154.3527963511
 10
68.6308120897
 20
154.4518276057
 10
68.3628929367
 20
154.4985017679
 10
68.0073363294
 20
154.5428830139
 10
67.5769963821
 20
154.5871860287
 10
67.0986877342
 20
154.6297996245
 10
66.5083596071
 20
154.676036065
 10
65.7002342453
 20
154.7308220468
 10
65.2174980899
 20
154.7614346198
 10
64.6717225721
 20
154.7981995098
 10
64.0806885024
 20
154.8407311491
 10
63.4757386109
 20
154.8876027516
 10
62.8998813739
 20
154.9362699441
 10
62.4007874688
 20
154.9833520255
 10
62.4007874688
 20
154.9833520255
 10
62.0408666839
 20
155.023017054
 10
61.8965228608
 20
155.0349193565
 10
61.8805190136
 20
155.0264275572
  0
SPLINE
  5
D2
330
1F
100
AcDbEntity
  8
0
  6
Continuous
 62
     7
370
     0
100
AcDbSpline
210
0.0
220
0.0
230
1.0
 70
     8
 71
     3
 72
    16
 73
    12
 74
     0
 42
0.000000001
 43
0.00000001
 40
0.0
 40
0.0
 40
0.0
 40
0.0
 40
0.1103199279242592
 40
0.207743994413874
 40
0.2993279469993946
 40
0.4037104609015785
 40
0.5213118706902541
 40
0.6482282335289512
 40
0.7745638912901406
 40
0.8974955735717275
 40
1.0
 40
1.0
 40
1.0
 40
1.0
 10
63.43118972681708
 20
154.8913671574697
 30
0.0
 10
63.61321815030395
 20
154.905736401461
 30
0.0
 10
63.95599676250523
 20
154.9327951949141
 30
0.0
 10
64.49843249655022
 20
154.9697054283469
 30
0.0
 10
65.04243307693855
 20
155.0030087769323
 30
0.0
 10
65.6295195080262
 20
155.0420115735097
 30
0.0
 10
66.26908015602375
 20
155.0874895697025
 30
0.0
 10
66.9099022145101
 20
155.1366893111479
 30
0.0
 10
67.49112219025517
 20
155.1860267637416
 30
0.0
 10
67.96536539429583
 20
155.2286336424884
 30
0.0
 10
68.19001178022161
 20
155.2567474924434
 30
0.0
 10
68.2921571245069
 20
155.2695306888923
 30
0.0
  0
SPLINE
  5
D3
330
1F
100
AcDbEntity
  8
0
  6
Continuous
 62
     7
370
     0
100
AcDbSpline
210
0.0
220
0.0
230
1.0
 70
     8
 71
     3
 72
    15
 73
    11
 74
     0
 42
0.000000001
 43
0.00000001
 40
0.0
 40
0.0
 40
0.0
 40
0.0
 40
0.0910932156623638
 40
0.2453323206794166
 40
0.4398241293510418
 40
0.5523730920975762
 40
0.6796485374944595
 40
0.8210846603489744
 40
0.9750252227700871
 40
1.0
 40
1.0
 40
1.0
 40
1.0
 10
67.411017935502
 20
156.1019728831157
 30
0.0
 10
67.30891765395363
 20
156.1112626762415
 30
0.0
 10
67.0339410946989
 20
156.1362819544567
 30
0.0
 10
66.46256869157467
 20
156.1805723767856
 30
0.0
 10
65.81936386808074
 20
156.2237537855777
 30
0.0
 10
65.19659142316728
 20
156.2622843377028
 30
0.0
 10
64.64838152738622
 20
156.2994000103932
 30
0.0
 10
64.06154498519264
 20
156.3417885830423
 30
0.0
 10
63.62517631911112
 20
156.3748530441978
 30
0.0
 10
63.41690217997195
 20
156.3925603906644
 30
0.0
 10
63.38782921038813
 20
156.39503215767
 30
0.0
  0
CIRCLE
  5
D4
330
1F
100
AcDbEntity
  8
0
  6
Continuous
 62
     7
370
     0
100
AcDbCircle
 10
85.1832931747
 20
152.8844632739
 30
0.0
 40
4.561013500000001
  0
CIRCLE
  5
D5
330
1F
100
AcDbEntity
  8
0
  6
Continuous
 62
     7
370
     0
100
AcDbCircle
 10
85.1832931747
 20
152.8844632739
 30
0.0
 40
4.342497152542819
  0
CIRCLE
  5
D6
330
1F
100
AcDbEntity
  8
0
  6
Continuous
 62
     7
370
     0
100
AcDbCircle
 10
65.1832931747
 20
152.8844632739
 30
0.0
 40
4.561013499999987
  0
CIRCLE
  5
D7
330
1F
100
AcDbEntity
  8
0
  6
Continuous
 62
     7
370
     0
100
AcDbCircle
 10
65.1832931747
 20
152.8844632739
 30
0.0
 40
4.342497152542819
  0
CIRCLE
  5
D8
330
1F
100
AcDbEntity
  8
0
  6
Continuous
 62
     7
370
     0
100
AcDbCircle
 10
119.1832931747
 20
152.8844632739
 30
0.0
 40
4.561013500000001
  0
CIRCLE
  5
D9
330
1F
100
AcDbEntity
  8
0
  6
Continuous
 62
     7
370
     0
100
AcDbCircle
 10
119.1832931747
 20
152.8844632739
 30
0.0
 40
4.342497152542805
  0
LINE
  5
DA
330
1F
100
AcDbEntity
  8
0
  6
Continuous
 62
     7
370
     0
100
AcDbLine
 10
125.6832940092
 20
134.8844632446
 30
0.0
 11
125.6832940092
 21
167.8844644628
 31
0.0
  0
LINE
  5
DB
330
1F
100
AcDbEntity
  8
0
  6
Continuous
 62
     7
370
     0
100
AcDbLine
 10
125.6832940092
 20
167.8844644628
 30
0.0
 11
127.683294337
 21
167.8844644628
 31
0.0
  0
LINE
  5
DC
330
1F
100
AcDbEntity
  8
0
  6
Continuous
 62
     7
370
     0
100
AcDbLine
 10
127.683294337
 20
167.8844644628
 30
0.0
 11
127.683294337
 21
134.8844632446
 31
0.0
  0
LINE
  5
DD
330
1F
100
AcDbEntity
  8
0
  6
Continuous
 62
     7
370
     0
100
AcDbLine
 10
127.683294337
 20
134.8844632446
 30
0.0
 11
125.6832940092
 21
134.8844632446
 31
0.0
  0
LINE
  5
DE
330
1F
100
AcDbEntity
  8
0
  6
Continuous
 62
     7
370
     0
100
AcDbLine
 10
58.6832923403
 20
167.8844644628
 30
0.0
 11
58.6832923403
 21
134.8844632446
 31
0.0
  0
LINE
  5
DF
330
1F
100
AcDbEntity
  8
0
  6
Continuous
 62
     7
370
     0
100
AcDbLine
 10
56.6832920124
 20
134.8844632446
 30
0.0
 11
56.6832920124
 21
167.8844644628
 31
0.0
  0
LINE
  5
E0
330
1F
100
AcDbEntity
  8
0
  6
Continuous
 62
     7
370
     0
100
AcDbLine
 10
56.6832920124
 20
167.8844644628
 30
0.0
 11
58.6832923403
 21
167.8844644628
 31
0.0
  0
LINE
  5
E1
330
1F
100
AcDbEntity
  8
0
  6
Continuous
 62
     7
370
     0
100
AcDbLine
 10
58.6832923403
 20
134.8844632446
 30
0.0
 11
56.6832920124
 21
134.8844632446
 31
0.0
  0
CIRCLE
  5
E2
330
1F
100
AcDbEntity
  8
0
  6
Continuous
 62
     7
370
     0
100
AcDbCircle
 10
99.1832931747
 20
152.8844632739
 30
0.0
 40
4.561013499999987
  0
LINE
  5
E3
330
1F
100
AcDbEntity
  8
0
  6
Continuous
 62
     7
370
     0
100
AcDbLine
 10
125.6832940092
 20
167.8844644628
 30
0.0
 11
58.6832923403
 21
167.8844644628
 31
0.0
  0
LINE
  5
E4
330
1F
100
AcDbEntity
  8
0
  6
Continuous
 62
     7
370
     0
100
AcDbLine
 10
58.6832923403
 20
134.8844632446
 30
0.0
 11
125.6832940092
 21
134.8844632446
 31
0.0
  0
CIRCLE
  5
E5
330
1F
100
AcDbEntity
  8
0
  6
Continuous
 62
     7
370
     0
100
AcDbCircle
 10
109.1832931747
 20
162.9844632739
 30
0.0
 40
4.249999999999986
  0
CIRCLE
  5
E6
330
1F
100
AcDbEntity
  8
0
  6
Continuous
 62
     7
370
     0
100
AcDbCircle
 10
75.1832931747
 20
162.9844632739
 30
0.0
 40
4.249999999999986
  0
CIRCLE
  5
E7
330
1F
100
AcDbEntity
  8
0
  6
Continuous
 62
     7
370
     0
100
AcDbCircle
 10
99.1832931747
 20
152.8844632739
 30
0.0
 40
4.342497152542805
  0
CIRCLE
  5
E8
330
1F
100
AcDbEntity
  8
0
  6
Continuous
 62
     7
370
     0
100
AcDbCircle
 10
109.1832931747
 20
162.9844632739
 30
0.0
 40
2.25
  0
CIRCLE
  5
E9
330
1F
100
AcDbEntity
  8
0
  6
Continuous
 62
     7
370
     0
100
AcDbCircle
 10
75.1832931747
 20
162.9844632739
 30
0.0
 40
2.25
  0
CIRCLE
  5
EA
330
1F
100
AcDbEntity
  8
0
  6
Continuous
 62
     7
370
     0
100
AcDbCircle
 10
85.1832931747
 20
152.8844632739
 30
0.0
 40
3.950000000000017
  0
CIRCLE
  5
EB
330
1F
100
AcDbEntity
  8
0
  6
Continuous
 62
     7
370
     0
100
AcDbCircle
 10
119.1832931747
 20
152.8844632739
 30
0.0
 40
3.950000000000003
  0
CIRCLE
  5
EC
330
1F
100
AcDbEntity
  8
0
  6
Continuous
 62
     7
370
     0
100
AcDbCircle
 10
65.1832931747
 20
152.8844632739
 30
0.0
 40
3.949999999999989
  0
CIRCLE
  5
ED
330
1F
100
AcDbEntity
  8
0
  6
Continuous
 62
     7
370
     0
100
AcDbCircle
 10
99.1832931747
 20
152.8844632739
 30
0.0
 40
3.950000000000003
  0
DIMENSION
  5
EE
330
1F
100
AcDbEntity
  8
0
  6
Continuous
 62
     7
370
     0
100
AcDbDimension
  2
_D
 10
143.6832931747
 20
162.9844632739
 30
0.0
 11
143.6832931747
 21
148.9344632739
 31
0.0
 70
   160
  1
<>
 71
     2
 42
-1.0
  3
SLDDIMSTYLE0
100
AcDbAlignedDimension
 13
127.6832931747
 23
134.8844632739
 33
0.0
 14
115.9332931747
 24
162.9844632739
 34
0.0
 50
90.0
100
AcDbRotatedDimension
  0
DIMENSION
  5
F9
330
1F
100
AcDbEntity
  8
0
  6
Continuous
 62
     7
370
     0
100
AcDbDimension
  2
_D_1
 10
75.1832931747
 20
179.3630497078
 30
0.0
 11
65.9332931747
 21
179.3630497078
 31
0.0
 70
   160
  1
<>
 71
     2
 42
-1.0
  3
SLDDIMSTYLE0
100
AcDbAlignedDimension
 13
56.6832931747
 23
167.8844632739
 33
0.0
 14
75.1832931747
 24
169.7344632739
 34
0.0
100
AcDbRotatedDimension
  0
DIMENSION
  5
103
330
1F
100
AcDbEntity
  8
0
  6
Continuous
 62
     7
370
     0
100
AcDbDimension
  2
_D_2
 10
109.1832931747
 20
179.3630497078
 30
0.0
 11
92.1832931747
 21
179.3630497078
 31
0.0
 70
   160
  1
<>
 71
     2
 42
-1.0
  3
SLDDIMSTYLE0
100
AcDbAlignedDimension
 13
75.1832931747
 23
169.7344632739
 33
0.0
 14
109.1832931747
 24
169.7344632739
 34
0.0
100
AcDbRotatedDimension
  0
DIMENSION
  5
10D
330
1F
100
AcDbEntity
  8
0
  6
Continuous
 62
     7
370
     0
100
AcDbDimension
  2
_D_3
 10
127.6832931747
 20
179.3630497078
 30
0.0
 11
118.4332931747
 21
179.3630497078
 31
0.0
 70
   160
  1
<>
 71
     2
 42
-1.0
  3
SLDDIMSTYLE0
100
AcDbAlignedDimension
 13
109.1832931747
 23
169.7344632739
 33
0.0
 14
127.6832931747
 24
167.8844632739
 34
0.0
100
AcDbRotatedDimension
  0
DIMENSION
  5
117
330
1F
100
AcDbEntity
  8
0
  6
Continuous
 62
     7
370
     0
100
AcDbDimension
  2
_D_4
 10
46.6832931747
 20
134.8844632739
 30
0.0
 11
46.6832931747
 21
151.3844632739
 31
0.0
 70
   160
  1
<>
 71
     2
 42
-1.0
  3
SLDDIMSTYLE0
100
AcDbAlignedDimension
 13
56.6832931747
 23
167.8844632739
 33
0.0
 14
56.6832931747
 24
134.8844632739
 34
0.0
 50
90.0
100
AcDbRotatedDimension
  0
DIMENSION
  5
121
330
1F
100
AcDbEntity
  8
0
  6
Continuous
 62
     7
370
     0
100
AcDbDimension
  2
_D_5
 10
117.2957284149
 20
157.0365643594
 30
0.0
 11
143.6832931747
 21
120.2016973661
 31
0.0
 70
   163
  1
4-Rc1/8
 71
     1
 42
-1.0
  3
SLDDIMSTYLE1
100
AcDbDiametricDimension
 15
121.0708579346
 25
148.7323621883
 35
0.0
 40
0.0
  0
DIMENSION
  5
12A
330
1F
100
AcDbEntity
  8
0
  6
Continuous
 62
     7
370
     0
100
AcDbDimension
  2
_D_6
 10
108.0880771923
 20
167.0909218396
 30
0.0
 11
149.4549599113
 21
103.7191278766
 31
0.0
 70
   163
  1
2-%%c4.5,<>ザグリ深6
 71
     1
 42
-1.0
  3
SLDDIMSTYLE2
100
AcDbDiametricDimension
 15
110.2785091571
 25
158.8780047081
 35
0.0
 40
0.0
  0
INSERT
  5
143
330
1F
100
AcDbEntity
  8
0
  6
Continuous
 62
     7
370
     0
100
AcDbBlockReference
  2
SW_CENTERMARKSYMBOL_0
 10
75.1832931747
 20
162.9844632739
 30
0.0
  0
INSERT
  5
14F
330
1F
100
AcDbEntity
  8
0
  6
Continuous
 62
     7
370
     0
100
AcDbBlockReference
  2
SW_CENTERMARKSYMBOL_1
 10
109.1832931747
 20
162.9844632739
 30
0.0
  0
LINE
  5
150
330
1F
100
AcDbEntity
  8
0
  6
Continuous
 62
     7
370
     0
100
AcDbLine
 10
107.1832928395
 20
231.403112645
 30
0.0
 11
106.7813694065
 21
232.9031119596
 31
0.0
  0
LINE
  5
151
330
1F
100
AcDbEntity
  8
0
  6
Continuous
 62
     7
370
     0
100
AcDbLine
 10
103.5852165481
 20
232.9031119596
 30
0.0
 11
103.1832931151
 21
231.403112645
 31
0.0
  0
LINE
  5
152
330
1F
100
AcDbEntity
  8
0
  6
Continuous
 62
     7
370
     0
100
AcDbLine
 10
103.1832931151
 20
231.403112645
 30
0.0
 11
103.1832931151
 21
228.4031121533
 31
0.0
  0
LINE
  5
153
330
1F
100
AcDbEntity
  8
0
  6
Continuous
 62
     7
370
     0
100
AcDbLine
 10
107.1832928395
 20
228.4031121533
 30
0.0
 11
107.1832928395
 21
231.403112645
 31
0.0
  0
LINE
  5
154
330
1F
100
AcDbEntity
  8
0
  6
Continuous
 62
     7
370
     0
100
AcDbLine
 10
81.1832932343
 20
231.403112645
 30
0.0
 11
80.7813698014
 21
232.9031119596
 31
0.0
  0
LINE
  5
155
330
1F
100
AcDbEntity
  8
0
  6
Continuous
 62
     7
370
     0
100
AcDbLine
 10
77.585216943
 20
232.9031119596
 30
0.0
 11
77.18329351
 21
231.403112645
 31
0.0
  0
LINE
  5
156
330
1F
100
AcDbEntity
  8
0
  6
Continuous
 62
     7
370
     0
100
AcDbLine
 10
77.18329351
 20
231.403112645
 30
0.0
 11
77.18329351
 21
228.4031121533
 31
0.0
  0
LINE
  5
157
330
1F
100
AcDbEntity
  8
0
  6
Continuous
 62
     7
370
     0
100
AcDbLine
 10
81.1832932343
 20
228.4031121533
 30
0.0
 11
81.1832932343
 21
231.403112645
 31
0.0
  0
LINE
  5
158
330
1F
100
AcDbEntity
  8
0
  6
Continuous
 62
     7
370
     0
100
AcDbLine
 10
103.5852165481
 20
232.9031119596
 30
0.0
 11
106.7813694065
 21
232.9031119596
 31
0.0
  0
LINE
  5
159
330
1F
100
AcDbEntity
  8
0
  6
Continuous
 62
     7
370
     0
100
AcDbLine
 10
103.1832931151
 20
231.403112645
 30
0.0
 11
107.1832928395
 21
231.403112645
 31
0.0
  0
LINE
  5
15A
330
1F
100
AcDbEntity
  8
0
  6
Continuous
 62
     7
370
     0
100
AcDbLine
 10
77.585216943
 20
232.9031119596
 30
0.0
 11
80.7813698014
 21
232.9031119596
 31
0.0
  0
LINE
  5
15B
330
1F
100
AcDbEntity
  8
0
  6
Continuous
 62
     7
370
     0
100
AcDbLine
 10
77.18329351
 20
231.403112645
 30
0.0
 11
81.1832932343
 21
231.403112645
 31
0.0
  0
LINE
  5
15C
330
1F
100
AcDbEntity
  8
0
  6
Continuous
 62
     7
370
     0
100
AcDbLine
 10
127.683294337
 20
207.4031124364
 30
0.0
 11
127.683294337
 21
221.4031124029
 31
0.0
  0
LINE
  5
15D
330
1F
100
AcDbEntity
  8
0
  6
Continuous
 62
     7
370
     0
100
AcDbLine
 10
125.6832940092
 20
205.4031121086
 30
0.0
 11
127.683294337
 21
207.4031124364
 31
0.0
  0
LINE
  5
15E
330
1F
100
AcDbEntity
  8
0
  6
Continuous
 62
     7
370
     0
100
AcDbLine
 10
125.6832940092
 20
205.4031121086
 30
0.0
 11
58.6832923403
 21
205.4031121086
 31
0.0
  0
LINE
  5
15F
330
1F
100
AcDbEntity
  8
0
  6
Continuous
 62
     7
370
     0
100
AcDbLine
 10
56.6832920124
 20
207.4031124364
 30
0.0
 11
58.6832923403
 21
205.4031121086
 31
0.0
  0
LINE
  5
160
330
1F
100
AcDbEntity
  8
0
  6
Continuous
 62
     7
370
     0
100
AcDbLine
 10
56.6832920124
 20
207.4031124364
 30
0.0
 11
56.6832920124
 21
221.4031124029
 31
0.0
  0
LINE
  5
161
330
1F
100
AcDbEntity
  8
0
  6
Continuous
 62
     7
370
     0
100
AcDbLine
 10
63.6832931598
 20
228.4031121533
 30
0.0
 11
56.6832920124
 21
221.4031124029
 31
0.0
  0
LINE
  5
162
330
1F
100
AcDbEntity
  8
0
  6
Continuous
 62
     7
370
     0
100
AcDbLine
 10
120.6832931896
 20
228.4031121533
 30
0.0
 11
63.6832931598
 21
228.4031121533
 31
0.0
  0
CIRCLE
  5
163
330
1F
100
AcDbEntity
  8
0
  6
Continuous
 62
     7
370
     0
100
AcDbCircle
 10
99.1832931747
 20
218.4031123768
 30
0.0
 40
6.000000000000043
  0
CIRCLE
  5
164
330
1F
100
AcDbEntity
  8
0
  6
Continuous
 62
     7
370
     0
100
AcDbCircle
 10
119.1832931747
 20
218.4031123768
 30
0.0
 40
6.000000000000057
  0
CIRCLE
  5
165
330
1F
100
AcDbEntity
  8
0
  6
Continuous
 62
     7
370
     0
100
AcDbCircle
 10
85.1832931747
 20
218.4031123768
 30
0.0
 40
6.000000000000057
  0
CIRCLE
  5
166
330
1F
100
AcDbEntity
  8
0
  6
Continuous
 62
     7
370
     0
100
AcDbCircle
 10
65.1832931747
 20
218.4031123768
 30
0.0
 40
6.000000000000028
  0
LINE
  5
167
330
1F
100
AcDbEntity
  8
0
  6
Continuous
 62
     7
370
     0
100
AcDbLine
 10
127.683294337
 20
221.4031124029
 30
0.0
 11
120.6832931896
 21
228.4031121533
 31
0.0
  0
CIRCLE
  5
168
330
1F
100
AcDbEntity
  8
0
  6
Continuous
 62
     7
370
     0
100
AcDbCircle
 10
99.1832931747
 20
218.4031123768
 30
0.0
 40
5.5
  0
CIRCLE
  5
169
330
1F
100
AcDbEntity
  8
0
  6
Continuous
 62
     7
370
     0
100
AcDbCircle
 10
85.1832931747
 20
218.4031123768
 30
0.0
 40
5.5
  0
CIRCLE
  5
16A
330
1F
100
AcDbEntity
  8
0
  6
Continuous
 62
     7
370
     0
100
AcDbCircle
 10
119.1832931747
 20
218.4031123768
 30
0.0
 40
5.5
  0
CIRCLE
  5
16B
330
1F
100
AcDbEntity
  8
0
  6
Continuous
 62
     7
370
     0
100
AcDbCircle
 10
65.1832931747
 20
218.4031123768
 30
0.0
 40
5.5
  0
CIRCLE
  5
16C
330
1F
100
AcDbEntity
  8
0
  6
Continuous
 62
     7
370
     0
100
AcDbCircle
 10
99.1832931747
 20
218.4031123768
 30
0.0
 40
4.500000000000014
  0
CIRCLE
  5
16D
330
1F
100
AcDbEntity
  8
0
  6
Continuous
 62
     7
370
     0
100
AcDbCircle
 10
119.1832931747
 20
218.4031123768
 30
0.0
 40
4.500000000000014
  0
CIRCLE
  5
16E
330
1F
100
AcDbEntity
  8
0
  6
Continuous
 62
     7
370
     0
100
AcDbCircle
 10
85.1832931747
 20
218.4031123768
 30
0.0
 40
4.499999999999986
  0
CIRCLE
  5
16F
330
1F
100
AcDbEntity
  8
0
  6
Continuous
 62
     7
370
     0
100
AcDbCircle
 10
119.1832931747
 20
218.4031123768
 30
0.0
 40
3.5
  0
CIRCLE
  5
170
330
1F
100
AcDbEntity
  8
0
  6
Continuous
 62
     7
370
     0
100
AcDbCircle
 10
85.1832931747
 20
218.4031123768
 30
0.0
 40
3.5
  0
CIRCLE
  5
171
330
1F
100
AcDbEntity
  8
0
  6
Continuous
 62
     7
370
     0
100
AcDbCircle
 10
65.1832931747
 20
218.4031123768
 30
0.0
 40
4.5
  0
CIRCLE
  5
172
330
1F
100
AcDbEntity
  8
0
  6
Continuous
 62
     7
370
     0
100
AcDbCircle
 10
99.1832931747
 20
218.4031123768
 30
0.0
 40
3.5
  0
CIRCLE
  5
173
330
1F
100
AcDbEntity
  8
0
  6
Continuous
 62
     7
370
     0
100
AcDbCircle
 10
65.1832931747
 20
218.4031123768
 30
0.0
 40
3.5
  0
DIMENSION
  5
174
330
1F
100
AcDbEntity
  8
0
  6
Continuous
 62
     7
370
     0
100
AcDbDimension
  2
_D_7
 10
127.6832931747
 20
247.854550479
 30
0.0
 11
92.1832931747
 21
247.854550479
 31
0.0
 70
   160
  1
<>
 71
     2
 42
-1.0
  3
SLDDIMSTYLE0
100
AcDbAlignedDimension
 13
56.6832931747
 23
221.4031123768
 33
0.0
 14
127.6832931747
 24
221.4031123768
 34
0.0
100
AcDbRotatedDimension
  0
DIMENSION
  5
17E
330
1F
100
AcDbEntity
  8
0
  6
Continuous
 62
     7
370
     0
100
AcDbDimension
  2
_D_8
 10
105.1832931747
 20
239.3367769915
 30
0.0
 11
92.1832931747
 21
239.3367769915
 31
0.0
 70
   160
  1
<>
 71
     2
 42
-1.0
  3
SLDDIMSTYLE3
100
AcDbAlignedDimension
 13
79.1832931747
 23
234.9031123768
 33
0.0
 14
105.1832931747
 24
233.4031123768
 34
0.0
100
AcDbRotatedDimension
  0
DIMENSION
  5
18B
330
1F
100
AcDbEntity
  8
0
  6
Continuous
 62
     7
370
     0
100
AcDbDimension
  2
_D_9
 10
79.1832931747
 20
239.3367769915
 30
0.0
 11
67.9332931747
 21
239.3367769915
 31
0.0
 70
   160
  1
<>
 71
     2
 42
-1.0
  3
SLDDIMSTYLE0
100
AcDbAlignedDimension
 13
56.6832931747
 23
221.4031123768
 33
0.0
 14
79.1832931747
 24
231.4031123768
 34
0.0
100
AcDbRotatedDimension
  0
DIMENSION
  5
195
330
1F
100
AcDbEntity
  8
0
  6
Continuous
 62
     7
370
     0
100
AcDbDimension
  2
_D_10
 10
127.6832931747
 20
239.3367769915
 30
0.0
 11
116.4332931747
 21
239.3367769915
 31
0.0
 70
   160
  1
<>
 71
     2
 42
-1.0
  3
SLDDIMSTYLE0
100
AcDbAlignedDimension
 13
105.1832931747
 23
233.4031123768
 33
0.0
 14
127.6832931747
 24
221.4031123768
 34
0.0
100
AcDbRotatedDimension
  0
LINE
  5
19F
330
1F
100
AcDbEntity
  8
0
  6
CENTERX2
 62
     7
370
     0
100
AcDbLine
 10
79.1832931747
 20
231.4031123768
 30
0.0
 11
79.1832931747
 21
234.9031123768
 31
0.0
  0
LINE
  5
1A0
330
1F
100
AcDbEntity
  8
0
  6
CENTERX2
 62
     7
370
     0
100
AcDbLine
 10
79.1832931747
 20
222.9031123768
 30
0.0
 11
79.1832931747
 21
231.4031123768
 31
0.0
  0
LINE
  5
1A1
330
1F
100
AcDbEntity
  8
0
  6
CENTERX2
 62
     7
370
     0
100
AcDbLine
 10
105.1832931747
 20
222.9031123768
 30
0.0
 11
105.1832931747
 21
233.4031123768
 31
0.0
  0
LINE
  5
1A2
330
1F
100
AcDbEntity
  8
0
  6
CENTERX2
 62
     7
370
     0
100
AcDbLine
 10
92.1832931747
 20
201.5319195105
 30
0.0
 11
92.1832931747
 21
233.9685261584
 31
0.0
  0
LINE
  5
1A3
330
1F
100
AcDbEntity
  8
0
  6
Continuous
 62
     7
370
     0
100
AcDbLine
 10
161.2487136309
 20
231.403112645
 30
0.0
 11
160.846790198
 21
232.9031119596
 31
0.0
  0
LINE
  5
1A4
330
1F
100
AcDbEntity
  8
0
  6
Continuous
 62
     7
370
     0
100
AcDbLine
 10
157.6506382709
 20
232.9031119596
 30
0.0
 11
157.2487148379
 21
231.403112645
 31
0.0
  0
LINE
  5
1A5
330
1F
100
AcDbEntity
  8
0
  6
Continuous
 62
     7
370
     0
100
AcDbLine
 10
157.2487148379
 20
231.403112645
 30
0.0
 11
157.2487148379
 21
228.4031121533
 31
0.0
  0
LINE
  5
1A6
330
1F
100
AcDbEntity
  8
0
  6
Continuous
 62
     7
370
     0
100
AcDbLine
 10
161.2487136309
 20
228.4031121533
 30
0.0
 11
161.2487136309
 21
231.403112645
 31
0.0
  0
LINE
  5
1A7
330
1F
100
AcDbEntity
  8
0
  6
Continuous
 62
     7
370
     0
100
AcDbLine
 10
157.6506382709
 20
232.9031119596
 30
0.0
 11
160.846790198
 21
232.9031119596
 31
0.0
  0
LINE
  5
1A8
330
1F
100
AcDbEntity
  8
0
  6
Continuous
 62
     7
370
     0
100
AcDbLine
 10
157.2487148379
 20
231.403112645
 30
0.0
 11
161.2487136309
 21
231.403112645
 31
0.0
  0
LINE
  5
1A9
330
1F
100
AcDbEntity
  8
0
  6
Continuous
 62
     7
370
     0
100
AcDbLine
 10
148.3487131928
 20
228.4031121533
 30
0.0
 11
181.348714411
 21
228.4031121533
 31
0.0
  0
LINE
  5
1AA
330
1F
100
AcDbEntity
  8
0
  6
Continuous
 62
     7
370
     0
100
AcDbLine
 10
181.348714411
 20
228.4031121533
 30
0.0
 11
181.348714411
 21
221.4031124029
 31
0.0
  0
LINE
  5
1AB
330
1F
100
AcDbEntity
  8
0
  6
Continuous
 62
     7
370
     0
100
AcDbLine
 10
181.348714411
 20
221.4031124029
 30
0.0
 11
148.3487131928
 21
221.4031124029
 31
0.0
  0
LINE
  5
1AC
330
1F
100
AcDbEntity
  8
0
  6
Continuous
 62
     7
370
     0
100
AcDbLine
 10
148.3487131928
 20
221.4031124029
 30
0.0
 11
148.3487131928
 21
228.4031121533
 31
0.0
  0
LINE
  5
1AD
330
1F
100
AcDbEntity
  8
0
  6
Continuous
 62
     7
370
     0
100
AcDbLine
 10
148.3487131928
 20
207.4031124364
 30
0.0
 11
181.348714411
 21
207.4031124364
 31
0.0
  0
LINE
  5
1AE
330
1F
100
AcDbEntity
  8
0
  6
Continuous
 62
     7
370
     0
100
AcDbLine
 10
148.3487131928
 20
207.4031124364
 30
0.0
 11
148.3487131928
 21
221.4031124029
 31
0.0
  0
LINE
  5
1AF
330
1F
100
AcDbEntity
  8
0
  6
Continuous
 62
     7
370
     0
100
AcDbLine
 10
181.348714411
 20
207.4031124364
 30
0.0
 11
181.348714411
 21
221.4031124029
 31
0.0
  0
LINE
  5
1B0
330
1F
100
AcDbEntity
  8
0
  6
Continuous
 62
     7
370
     0
100
AcDbLine
 10
181.348714411
 20
205.4031121086
 30
0.0
 11
148.3487131928
 21
205.4031121086
 31
0.0
  0
LINE
  5
1B1
330
1F
100
AcDbEntity
  8
0
  6
Continuous
 62
     7
370
     0
100
AcDbLine
 10
148.3487131928
 20
205.4031121086
 30
0.0
 11
148.3487131928
 21
207.4031124364
 31
0.0
  0
LINE
  5
1B2
330
1F
100
AcDbEntity
  8
0
  6
Continuous
 62
     7
370
     0
100
AcDbLine
 10
181.348714411
 20
207.4031124364
 30
0.0
 11
181.348714411
 21
205.4031121086
 31
0.0
  0
DIMENSION
  5
1B3
330
1F
100
AcDbEntity
  8
0
  6
Continuous
 62
     7
370
     0
100
AcDbDimension
  2
_D_11
 10
161.2487143818
 20
242.9031123768
 30
0.0
 11
147.7432346955
 21
242.9031123768
 31
0.0
 70
   160
  1
(%%c<>)
 71
     2
 42
-1.0
  3
SLDDIMSTYLE4
100
AcDbAlignedDimension
 13
157.2487143818
 23
231.4031123768
 33
0.0
 14
161.2487143818
 24
231.4031123768
 34
0.0
 50
0.0
100
AcDbRotatedDimension
  0
DIMENSION
  5
1C3
330
1F
100
AcDbEntity
  8
0
  6
Continuous
 62
     7
370
     0
100
AcDbDimension
  2
_D_12
 10
189.490524184
 20
232.9031123768
 30
0.0
 11
189.490524184
 21
242.9031123768
 31
0.0
 70
   160
  1
(<>)
 71
     2
 42
-1.0
  3
SLDDIMSTYLE4
100
AcDbAlignedDimension
 13
181.3487143818
 23
228.4031123768
 33
0.0
 14
160.8467905931
 24
232.9031123768
 34
0.0
 50
90.0
100
AcDbRotatedDimension
  0
DIMENSION
  5
1D1
330
1F
100
AcDbEntity
  8
0
  6
Continuous
 62
     7
370
     0
100
AcDbDimension
  2
_D_13
 10
189.490524184
 20
205.4031123768
 30
0.0
 11
189.490524184
 21
216.9031123768
 31
0.0
 70
   160
  1
<>
 71
     2
 42
-1.0
  3
SLDDIMSTYLE0
100
AcDbAlignedDimension
 13
181.3487143818
 23
228.4031123768
 33
0.0
 14
181.3487143818
 24
205.4031123768
 34
0.0
 50
90.0
100
AcDbRotatedDimension
  0
INSERT
  5
1E0
330
1F
100
AcDbEntity
  8
0
  6
Continuous
 62
     7
370
     0
100
AcDbBlockReference
  2
SW_NOTE_0
 10
170.7998712999
 20
253.0289577227
 30
0.0
  0
LEADER
  5
1E2
330
1F
100
AcDbEntity
  8
0
  6
Continuous
 62
     7
370
     0
100
AcDbLeader
  3
SLDDIMSTYLE5
 76
     2
 10
159.5201463662
 20
230.4640487607
 30
0.0
 10
170.7998712999
 20
253.0289577227
 30
0.0
  0
ENDSEC
  0
SECTION
  2
OBJECTS
  0
DICTIONARY
  5
C
330
0
100
AcDbDictionary
281
     1
  3
ACAD_GROUP
350
D
  3
ACAD_LAYOUT
350
1A
  3
ACAD_MLINESTYLE
350
17
  3
ACAD_PLOTSETTINGS
350
19
  3
ACAD_PLOTSTYLENAME
350
E
  3
ACAD_SCALELIST
350
47
  0
DICTIONARY
  5
D
102
{ACAD_REACTORS
330
C
102
}
330
C
100
AcDbDictionary
281
     1
  0
DICTIONARY
  5
1A
102
{ACAD_REACTORS
330
C
102
}
330
C
100
AcDbDictionary
281
     1
  3
Layout1
350
1E
  3
Layout2
350
26
  3
Model
350
22
  0
DICTIONARY
  5
17
102
{ACAD_REACTORS
330
C
102
}
330
C
100
AcDbDictionary
281
     1
  3
Standard
350
18
  0
DICTIONARY
  5
19
102
{ACAD_REACTORS
330
C
102
}
330
C
100
AcDbDictionary
281
     1
  0
ACDBDICTIONARYWDFLT
  5
E
102
{ACAD_REACTORS
330
C
102
}
330
C
100
AcDbDictionary
281
     1
  3
Normal
350
F
100
AcDbDictionaryWithDefault
340
F
  0
DICTIONARY
  5
47
102
{ACAD_REACTORS
330
C
102
}
330
C
100
AcDbDictionary
281
     1
  3
A0
350
48
  3
A1
350
49
  3
A2
350
4A
  3
A3
350
4B
  3
A4
350
4C
  3
A5
350
4D
  3
A6
350
4E
  3
A7
350
4F
  3
A8
350
50
  3
A9
350
51
  3
B0
350
52
  3
B1
350
53
  3
B2
350
54
  3
B3
350
55
  3
B4
350
56
  3
B5
350
57
  3
B6
350
58
  3
B7
350
59
  3
B8
350
5A
  3
B9
350
5B
  3
C0
350
5C
  3
C1
350
5D
  3
C2
350
5E
  3
C3
350
5F
  3
C4
350
60
  3
C5
350
61
  3
C6
350
62
  3
C7
350
63
  3
C8
350
64
  3
C9
350
65
  3
D0
350
66
  3
D1
350
67
  3
D2
350
68
  0
LAYOUT
  5
1E
102
{ACAD_REACTORS
330
1A
102
}
330
1A
100
AcDbPlotSettings
  1

  2
none_device
  4

  6

 40
0.0
 41
0.0
 42
0.0
 43
0.0
 44
0.0
 45
0.0
 46
0.0
 47
0.0
 48
0.0
 49
0.0
140
0.0
141
0.0
142
1.0
143
1.0
 70
   688
 72
     1
 73
     0
 74
     5
  7

 75
    16
147
1.0
148
0.0
149
0.0
100
AcDbLayout
  1
Layout1
 70
     1
 71
     1
 10
0.0
 20
0.0
 11
420.0
 21
297.0
 12
0.0
 22
0.0
 32
0.0
 14
1.0000000000E+20
 24
1.0000000000E+20
 34
1.0000000000E+20
 15
-1.0000000000E+20
 25
-1.0000000000E+20
 35
-1.0000000000E+20
146
0.0
 13
0.0
 23
0.0
 33
0.0
 16
1.0
 26
0.0
 36
0.0
 17
0.0
 27
1.0
 37
0.0
 76
     0
330
1B
  0
LAYOUT
  5
26
102
{ACAD_REACTORS
330
1A
102
}
330
1A
100
AcDbPlotSettings
  1

  2
none_device
  4

  6

 40
0.0
 41
0.0
 42
0.0
 43
0.0
 44
0.0
 45
0.0
 46
0.0
 47
0.0
 48
0.0
 49
0.0
140
0.0
141
0.0
142
1.0
143
1.0
 70
   688
 72
     1
 73
     0
 74
     5
  7

 75
    16
147
1.0
148
0.0
149
0.0
100
AcDbLayout
  1
Layout2
 70
     1
 71
     2
 10
0.0
 20
0.0
 11
0.0
 21
0.0
 12
0.0
 22
0.0
 32
0.0
 14
0.0
 24
0.0
 34
0.0
 15
0.0
 25
0.0
 35
0.0
146
0.0
 13
0.0
 23
0.0
 33
0.0
 16
1.0
 26
0.0
 36
0.0
 17
0.0
 27
1.0
 37
0.0
 76
     0
330
23
  0
LAYOUT
  5
22
102
{ACAD_REACTORS
330
1A
102
}
330
1A
100
AcDbPlotSettings
  1

  2
none_device
  4
Letter_(8.50_x_11.00_Inches)
  6

 40
6.35
 41
6.35
 42
6.35000508
 43
6.35000508
 44
215.9
 45
279.4
 46
0.0
 47
0.0
 48
0.0
 49
0.0
140
0.0
141
0.0
142
1.0
143
1.0
 70
  1712
 72
     1
 73
     0
 74
     0
  7

 75
     0
147
1.0
148
0.0
149
0.0
100
AcDbLayout
  1
Model
 70
     1
 71
     0
 10
0.0
 20
0.0
 11
210.0
 21
297.0
 12
0.0
 22
0.0
 32
0.0
 14
0.0
 24
0.0
 34
0.0
 15
210.0
 25
297.0
 35
0.0
146
0.0
 13
0.0
 23
0.0
 33
0.0
 16
1.0
 26
0.0
 36
0.0
 17
0.0
 27
1.0
 37
0.0
 76
     0
330
1F
331
29
  0
MLINESTYLE
  5
18
102
{ACAD_REACTORS
330
17
102
}
330
17
100
AcDbMlineStyle
  2
Standard
 70
     0
  3

 62
   256
 51
90.0
 52
90.0
 71
     2
 49
0.5
 62
   256
  6
BYLAYER
 49
-0.5
 62
   256
  6
BYLAYER
  0
ACDBPLACEHOLDER
  5
F
102
{ACAD_REACTORS
330
E
102
}
330
E
  0
SCALE
  5
48
102
{ACAD_REACTORS
330
47
102
}
330
47
100
AcDbScale
 70
     0
300
1:1
140
1.0
141
1.0
290
     1
  0
SCALE
  5
49
102
{ACAD_REACTORS
330
47
102
}
330
47
100
AcDbScale
 70
     0
300
1:2
140
1.0
141
2.0
290
     0
  0
SCALE
  5
4A
102
{ACAD_REACTORS
330
47
102
}
330
47
100
AcDbScale
 70
     0
300
1:4
140
1.0
141
4.0
290
     0
  0
SCALE
  5
4B
102
{ACAD_REACTORS
330
47
102
}
330
47
100
AcDbScale
 70
     0
300
1:5
140
1.0
141
5.0
290
     0
  0
SCALE
  5
4C
102
{ACAD_REACTORS
330
47
102
}
330
47
100
AcDbScale
 70
     0
300
1:8
140
1.0
141
8.0
290
     0
  0
SCALE
  5
4D
102
{ACAD_REACTORS
330
47
102
}
330
47
100
AcDbScale
 70
     0
300
1:10
140
1.0
141
10.0
290
     0
  0
SCALE
  5
4E
102
{ACAD_REACTORS
330
47
102
}
330
47
100
AcDbScale
 70
     0
300
1:16
140
1.0
141
16.0
290
     0
  0
SCALE
  5
4F
102
{ACAD_REACTORS
330
47
102
}
330
47
100
AcDbScale
 70
     0
300
1:20
140
1.0
141
20.0
290
     0
  0
SCALE
  5
50
102
{ACAD_REACTORS
330
47
102
}
330
47
100
AcDbScale
 70
     0
300
1:30
140
1.0
141
30.0
290
     0
  0
SCALE
  5
51
102
{ACAD_REACTORS
330
47
102
}
330
47
100
AcDbScale
 70
     0
300
1:40
140
1.0
141
40.0
290
     0
  0
SCALE
  5
52
102
{ACAD_REACTORS
330
47
102
}
330
47
100
AcDbScale
 70
     0
300
1:50
140
1.0
141
50.0
290
     0
  0
SCALE
  5
53
102
{ACAD_REACTORS
330
47
102
}
330
47
100
AcDbScale
 70
     0
300
1:100
140
1.0
141
100.0
290
     0
  0
SCALE
  5
54
102
{ACAD_REACTORS
330
47
102
}
330
47
100
AcDbScale
 70
     0
300
2:1
140
2.0
141
1.0
290
     0
  0
SCALE
  5
55
102
{ACAD_REACTORS
330
47
102
}
330
47
100
AcDbScale
 70
     0
300
4:1
140
4.0
141
1.0
290
     0
  0
SCALE
  5
56
102
{ACAD_REACTORS
330
47
102
}
330
47
100
AcDbScale
 70
     0
300
8:1
140
8.0
141
1.0
290
     0
  0
SCALE
  5
57
102
{ACAD_REACTORS
330
47
102
}
330
47
100
AcDbScale
 70
     0
300
10:1
140
10.0
141
1.0
290
     0
  0
SCALE
  5
58
102
{ACAD_REACTORS
330
47
102
}
330
47
100
AcDbScale
 70
     0
300
100:1
140
100.0
141
1.0
290
     0
  0
SCALE
  5
59
102
{ACAD_REACTORS
330
47
102
}
330
47
100
AcDbScale
 70
     0
300
1/128" = 1'-0"
140
0.0078125
141
12.0
290
     0
  0
SCALE
  5
5A
102
{ACAD_REACTORS
330
47
102
}
330
47
100
AcDbScale
 70
     0
300
1/64" = 1'-0"
140
0.015625
141
12.0
290
     0
  0
SCALE
  5
5B
102
{ACAD_REACTORS
330
47
102
}
330
47
100
AcDbScale
 70
     0
300
1/32" = 1'-0"
140
0.03125
141
12.0
290
     0
  0
SCALE
  5
5C
102
{ACAD_REACTORS
330
47
102
}
330
47
100
AcDbScale
 70
     0
300
1/16" = 1'-0"
140
0.0625
141
12.0
290
     0
  0
SCALE
  5
5D
102
{ACAD_REACTORS
330
47
102
}
330
47
100
AcDbScale
 70
     0
300
3/32" = 1'-0"
140
0.09375
141
12.0
290
     0
  0
SCALE
  5
5E
102
{ACAD_REACTORS
330
47
102
}
330
47
100
AcDbScale
 70
     0
300
1/8" = 1'-0"
140
0.125
141
12.0
290
     0
  0
SCALE
  5
5F
102
{ACAD_REACTORS
330
47
102
}
330
47
100
AcDbScale
 70
     0
300
3/16" = 1'-0"
140
0.1875
141
12.0
290
     0
  0
SCALE
  5
60
102
{ACAD_REACTORS
330
47
102
}
330
47
100
AcDbScale
 70
     0
300
1/4" = 1'-0"
140
0.25
141
12.0
290
     0
  0
SCALE
  5
61
102
{ACAD_REACTORS
330
47
102
}
330
47
100
AcDbScale
 70
     0
300
3/8" = 1'-0"
140
0.375
141
12.0
290
     0
  0
SCALE
  5
62
102
{ACAD_REACTORS
330
47
102
}
330
47
100
AcDbScale
 70
     0
300
1/2" = 1'-0"
140
0.5
141
12.0
290
     0
  0
SCALE
  5
63
102
{ACAD_REACTORS
330
47
102
}
330
47
100
AcDbScale
 70
     0
300
3/4" = 1'-0"
140
0.75
141
12.0
290
     0
  0
SCALE
  5
64
102
{ACAD_REACTORS
330
47
102
}
330
47
100
AcDbScale
 70
     0
300
1" = 1'-0"
140
1.0
141
12.0
290
     0
  0
SCALE
  5
65
102
{ACAD_REACTORS
330
47
102
}
330
47
100
AcDbScale
 70
     0
300
1-1/2" = 1'-0"
140
1.5
141
12.0
290
     0
  0
SCALE
  5
66
102
{ACAD_REACTORS
330
47
102
}
330
47
100
AcDbScale
 70
     0
300
3" = 1'-0"
140
3.0
141
12.0
290
     0
  0
SCALE
  5
67
102
{ACAD_REACTORS
330
47
102
}
330
47
100
AcDbScale
 70
     0
300
6" = 1'-0"
140
6.0
141
12.0
290
     0
  0
SCALE
  5
68
102
{ACAD_REACTORS
330
47
102
}
330
47
100
AcDbScale
 70
     0
300
1'-0" = 1'-0"
140
12.0
141
12.0
290
     0
  0
ENDSEC
  0
EOF
