  0
SECTION
  2
HEADER
  9
$ACADVER
  1
AC1015
  9
$ACADMAINTVER
 70
     6
  9
$DWGCODEPAGE
  3
DOS932
  9
$INSBASE
 10
0.0
 20
0.0
 30
0.0
  9
$EXTMIN
 10
0.0
 20
0.0
 30
0.0
  9
$EXTMAX
 10
210.0
 20
297.0
 30
0.0
  9
$LIMMIN
 10
0.0
 20
0.0
  9
$LIMMAX
 10
210.0
 20
297.0
  9
$ORTHOMODE
 70
     0
  9
$REGENMODE
 70
     1
  9
$FILLMODE
 70
     1
  9
$QTEXTMODE
 70
     0
  9
$MIRRTEXT
 70
     1
  9
$LTSCALE
 40
1.0
  9
$ATTMODE
 70
     1
  9
$TEXTSIZE
 40
3.5
  9
$TRACEWID
 40
1.0
  9
$TEXTSTYLE
  7
Standard
  9
$CLAYER
  8
0
  9
$CELTYPE
  6
ByLayer
  9
$CECOLOR
 62
   256
  9
$CELTSCALE
 40
1.0
  9
$DISPSILH
 70
     0
  9
$DIMSCALE
 40
1.0
  9
$DIMASZ
 40
3.0
  9
$DIMEXO
 40
1.0
  9
$DIMDLI
 40
3.75
  9
$DIMRND
 40
0.0
  9
$DIMDLE
 40
0.0
  9
$DIMEXE
 40
1.0
  9
$DIMTP
 40
0.0
  9
$DIMTM
 40
0.0
  9
$DIMTXT
 40
3.5
  9
$DIMCEN
 40
2.5
  9
$DIMTSZ
 40
0.0
  9
$DIMTOL
 70
     0
  9
$DIMLIM
 70
     0
  9
$DIMTIH
 70
     1
  9
$DIMTOH
 70
     1
  9
$DIMSE1
 70
     0
  9
$DIMSE2
 70
     0
  9
$DIMTAD
 70
     1
  9
$DIMZIN
 70
     0
  9
$DIMBLK
  1

  9
$DIMASO
 70
     1
  9
$DIMSHO
 70
     1
  9
$DIMPOST
  1

  9
$DIMAPOST
  1

  9
$DIMALT
 70
     0
  9
$DIMALTD
 70
     3
  9
$DIMALTF
 40
0.0393700787
  9
$DIMLFAC
 40
1.0
  9
$DIMTOFL
 70
     1
  9
$DIMTVP
 40
0.0
  9
$DIMTIX
 70
     0
  9
$DIMSOXD
 70
     0
  9
$DIMSAH
 70
     0
  9
$DIMBLK1
  1

  9
$DIMBLK2
  1

  9
$DIMSTYLE
  2
ISO-25
  9
$DIMCLRD
 70
     0
  9
$DIMCLRE
 70
     0
  9
$DIMCLRT
 70
     0
  9
$DIMTFAC
 40
1.0
  9
$DIMGAP
 40
1.524
  9
$DIMJUST
 70
     0
  9
$DIMSD1
 70
     0
  9
$DIMSD2
 70
     0
  9
$DIMTOLJ
 70
     0
  9
$DIMTZIN
 70
     0
  9
$DIMALTZ
 70
     0
  9
$DIMALTTZ
 70
     0
  9
$DIMUPT
 70
     0
  9
$DIMDEC
 70
     1
  9
$DIMTDEC
 70
     3
  9
$DIMALTU
 70
     2
  9
$DIMALTTD
 70
     3
  9
$DIMTXSTY
  7
Standard
  9
$DIMAUNIT
 70
     0
  9
$DIMADEC
 70
     2
  9
$DIMALTRND
 40
0.0
  9
$DIMAZIN
 70
     0
  9
$DIMDSEP
 70
    44
  9
$DIMATFIT
 70
     3
  9
$DIMFRAC
 70
     0
  9
$DIMLDRBLK
  1

  9
$DIMLUNIT
 70
     2
  9
$DIMLWD
 70
    -2
  9
$DIMLWE
 70
    -2
  9
$DIMTMOVE
 70
     0
  9
$LUNITS
 70
     2
  9
$LUPREC
 70
     1
  9
$SKETCHINC
 40
1.0
  9
$FILLETRAD
 40
10.0
  9
$AUNITS
 70
     0
  9
$AUPREC
 70
     2
  9
$MENU
  1
.
  9
$ELEVATION
 40
0.0
  9
$PELEVATION
 40
0.0
  9
$THICKNESS
 40
0.0
  9
$LIMCHECK
 70
     0
  9
$CHAMFERA
 40
0.0
  9
$CHAMFERB
 40
0.0
  9
$CHAMFERC
 40
0.0
  9
$CHAMFERD
 40
0.0
  9
$SKPOLY
 70
     0
  9
$TDCREATE
 40
2457819.570011273
  9
$TDUCREATE
 40
2457819.195011273
  9
$TDUPDATE
 40
2457819.570014884
  9
$TDUUPDATE
 40
2457819.195014884
  9
$TDINDWG
 40
0.0000000116
  9
$TDUSRTIMER
 40
0.0000000116
  9
$USRTIMER
 70
     1
  9
$ANGBASE
 50
0.0
  9
$ANGDIR
 70
     0
  9
$PDMODE
 70
     0
  9
$PDSIZE
 40
-1.0
  9
$PLINEWID
 40
0.0
  9
$SPLFRAME
 70
     0
  9
$SPLINETYPE
 70
     6
  9
$SPLINESEGS
 70
     8
  9
$HANDSEED
  5
2B1
  9
$SURFTAB1
 70
     6
  9
$SURFTAB2
 70
     6
  9
$SURFTYPE
 70
     6
  9
$SURFU
 70
     6
  9
$SURFV
 70
     6
  9
$UCSBASE
  2

  9
$UCSNAME
  2

  9
$UCSORG
 10
0.0
 20
0.0
 30
0.0
  9
$UCSXDIR
 10
1.0
 20
0.0
 30
0.0
  9
$UCSYDIR
 10
0.0
 20
1.0
 30
0.0
  9
$UCSORTHOREF
  2

  9
$UCSORTHOVIEW
 70
     0
  9
$UCSORGTOP
 10
0.0
 20
0.0
 30
0.0
  9
$UCSORGBOTTOM
 10
0.0
 20
0.0
 30
0.0
  9
$UCSORGLEFT
 10
0.0
 20
0.0
 30
0.0
  9
$UCSORGRIGHT
 10
0.0
 20
0.0
 30
0.0
  9
$UCSORGFRONT
 10
0.0
 20
0.0
 30
0.0
  9
$UCSORGBACK
 10
0.0
 20
0.0
 30
0.0
  9
$PUCSBASE
  2

  9
$PUCSNAME
  2

  9
$PUCSORG
 10
0.0
 20
0.0
 30
0.0
  9
$PUCSXDIR
 10
1.0
 20
0.0
 30
0.0
  9
$PUCSYDIR
 10
0.0
 20
1.0
 30
0.0
  9
$PUCSORTHOREF
  2

  9
$PUCSORTHOVIEW
 70
     0
  9
$PUCSORGTOP
 10
0.0
 20
0.0
 30
0.0
  9
$PUCSORGBOTTOM
 10
0.0
 20
0.0
 30
0.0
  9
$PUCSORGLEFT
 10
0.0
 20
0.0
 30
0.0
  9
$PUCSORGRIGHT
 10
0.0
 20
0.0
 30
0.0
  9
$PUCSORGFRONT
 10
0.0
 20
0.0
 30
0.0
  9
$PUCSORGBACK
 10
0.0
 20
0.0
 30
0.0
  9
$USERI1
 70
     0
  9
$USERI2
 70
     0
  9
$USERI3
 70
     0
  9
$USERI4
 70
     0
  9
$USERI5
 70
     0
  9
$USERR1
 40
0.0
  9
$USERR2
 40
0.0
  9
$USERR3
 40
0.0
  9
$USERR4
 40
0.0
  9
$USERR5
 40
0.0
  9
$WORLDVIEW
 70
     1
  9
$SHADEDGE
 70
     3
  9
$SHADEDIF
 70
    70
  9
$TILEMODE
 70
     1
  9
$MAXACTVP
 70
    64
  9
$PINSBASE
 10
0.0
 20
0.0
 30
0.0
  9
$PLIMCHECK
 70
     0
  9
$PEXTMIN
 10
1.0000000000E+20
 20
1.0000000000E+20
 30
1.0000000000E+20
  9
$PEXTMAX
 10
-1.0000000000E+20
 20
-1.0000000000E+20
 30
-1.0000000000E+20
  9
$PLIMMIN
 10
0.0
 20
0.0
  9
$PLIMMAX
 10
420.0
 20
297.0
  9
$UNITMODE
 70
     0
  9
$VISRETAIN
 70
     1
  9
$PLINEGEN
 70
     0
  9
$PSLTSCALE
 70
     1
  9
$TREEDEPTH
 70
  3020
  9
$CMLSTYLE
  2
Standard
  9
$CMLJUST
 70
     0
  9
$CMLSCALE
 40
20.0
  9
$PROXYGRAPHICS
 70
     1
  9
$MEASUREMENT
 70
     1
  9
$CELWEIGHT
370
    -1
  9
$ENDCAPS
280
     0
  9
$JOINSTYLE
280
     0
  9
$LWDISPLAY
290
     1
  9
$INSUNITS
 70
     4
  9
$HYPERLINKBASE
  1

  9
$STYLESHEET
  1

  9
$XEDIT
290
     1
  9
$CEPSNTYPE
380
     0
  9
$PSTYLEMODE
290
     1
  9
$FINGERPRINTGUID
  2
{965A760C-A098-4CD5-BAF7-5669DA046441}
  9
$VERSIONGUID
  2
{FAEB1C32-E019-11D5-929B-00C0DF256EC4}
  9
$EXTNAMES
290
     1
  9
$PSVPSCALE
 40
0.0
  9
$OLESTARTUP
290
     0
  0
ENDSEC
  0
SECTION
  2
CLASSES
  0
CLASS
  1
ACDBDICTIONARYWDFLT
  2
AcDbDictionaryWithDefault
  3
ObjectDBX Classes
 90
        0
280
     0
281
     0
  0
CLASS
  1
VISUALSTYLE
  2
AcDbVisualStyle
  3
ObjectDBX Classes
 90
     4095
280
     0
281
     0
  0
CLASS
  1
MATERIAL
  2
AcDbMaterial
  3
ObjectDBX Classes
 90
     1153
280
     0
281
     0
  0
CLASS
  1
SCALE
  2
AcDbScale
  3
ObjectDBX Classes
 90
     1153
280
     0
281
     0
  0
CLASS
  1
TABLESTYLE
  2
AcDbTableStyle
  3
ObjectDBX Classes
 90
     4095
280
     0
281
     0
  0
CLASS
  1
MLEADERSTYLE
  2
AcDbMLeaderStyle
  3
ACDB_MLEADERSTYLE_CLASS
 90
     4095
280
     0
281
     0
  0
CLASS
  1
SUN
  2
AcDbSun
  3
SCENEOE
 90
     1153
280
     0
281
     0
  0
CLASS
  1
ACDBPLACEHOLDER
  2
AcDbPlaceHolder
  3
ObjectDBX Classes
 90
        0
280
     0
281
     0
  0
CLASS
  1
LAYOUT
  2
AcDbLayout
  3
ObjectDBX Classes
 90
        0
280
     0
281
     0
  0
ENDSEC
  0
SECTION
  2
TABLES
  0
TABLE
  2
VPORT
  5
8
330
0
100
AcDbSymbolTable
 70
     1
  0
VPORT
  5
29
330
8
100
AcDbSymbolTableRecord
100
AcDbViewportTableRecord
  2
*Active
 70
     0
 10
0.0
 20
0.0
 11
1.0
 21
1.0
 12
105.0
 22
148.5
 13
0.0
 23
0.0
 14
10.0
 24
10.0
 15
10.0
 25
10.0
 16
0.0
 26
0.0
 36
1.0
 17
0.0
 27
0.0
 37
0.0
 40
297.0
 41
0.7070707071
 42
50.0
 43
0.0
 44
0.0
 50
0.0
 51
0.0
 71
     0
 72
  2000
 73
     1
 74
     3
 75
     0
 76
     0
 77
     0
 78
     0
281
     0
 65
     1
110
0.0
120
0.0
130
0.0
111
1.0
121
0.0
131
0.0
112
0.0
122
1.0
132
0.0
 79
     0
146
0.0
  0
ENDTAB
  0
TABLE
  2
LTYPE
  5
5
330
0
100
AcDbSymbolTable
 70
     6
  0
LTYPE
  5
14
330
5
100
AcDbSymbolTableRecord
100
AcDbLinetypeTableRecord
  2
ByBlock
 70
     0
  3

 72
    65
 73
     0
 40
0.0
  0
LTYPE
  5
15
330
5
100
AcDbSymbolTableRecord
100
AcDbLinetypeTableRecord
  2
ByLayer
 70
     0
  3

 72
    65
 73
     0
 40
0.0
  0
LTYPE
  5
16
330
5
100
AcDbSymbolTableRecord
100
AcDbLinetypeTableRecord
  2
Continuous
 70
     0
  3
Solid line
 72
    65
 73
     0
 40
0.0
  0
LTYPE
  5
6E
330
5
100
AcDbSymbolTableRecord
100
AcDbLinetypeTableRecord
  2
HIDDEN
 70
     0
  3
Hidden __ __ __ __ __ __ __ __ __ __ __ __ __ __
 72
    65
 73
     2
 40
1.905
 49
1.27
 74
     0
 49
-0.635
 74
     0
  0
LTYPE
  5
6F
330
5
100
AcDbSymbolTableRecord
100
AcDbLinetypeTableRecord
  2
PHANTOM
 70
     0
  3
Phantom ______  __  __  ______  __  __  ______
 72
    65
 73
     6
 40
12.7
 49
6.35
 74
     0
 49
-1.27
 74
     0
 49
1.27
 74
     0
 49
-1.27
 74
     0
 49
1.27
 74
     0
 49
-1.27
 74
     0
  0
LTYPE
  5
70
330
5
100
AcDbSymbolTableRecord
100
AcDbLinetypeTableRecord
  2
CENTER
 70
     0
  3
Center ____ _ ____ _ ____ _ ____ _ ____ _ ____
 72
    65
 73
     4
 40
10.16
 49
6.35
 74
     0
 49
-1.27
 74
     0
 49
1.27
 74
     0
 49
-1.27
 74
     0
  0
LTYPE
  5
71
330
5
100
AcDbSymbolTableRecord
100
AcDbLinetypeTableRecord
  2
CENTERX2
 70
     0
  3
Center (2x) ________  __  ________  __  _____
 72
    65
 73
     4
 40
20.32
 49
12.7
 74
     0
 49
-2.54
 74
     0
 49
2.54
 74
     0
 49
-2.54
 74
     0
  0
LTYPE
  5
72
330
5
100
AcDbSymbolTableRecord
100
AcDbLinetypeTableRecord
  2
DOT2
 70
     0
  3
Dot (.5x) ........................................
 72
    65
 73
     2
 40
0.635
 49
0.0
 74
     0
 49
-0.635
 74
     0
  0
ENDTAB
  0
TABLE
  2
LAYER
  5
2
330
0
100
AcDbSymbolTable
 70
     1
  0
LAYER
  5
10
330
2
100
AcDbSymbolTableRecord
100
AcDbLayerTableRecord
  2
0
 70
     0
 62
     7
  6
Continuous
370
    -3
390
F
  0
ENDTAB
  0
TABLE
  2
STYLE
  5
3
330
0
100
AcDbSymbolTable
 70
     2
  0
STYLE
  5
11
330
3
100
AcDbSymbolTableRecord
100
AcDbTextStyleTableRecord
  2
Standard
 70
     0
 40
0.0
 41
1.0
 50
0.0
 71
     0
 42
3.5
  3
txt
  4
bigfont
  0
STYLE
  5
7B
330
3
100
AcDbSymbolTableRecord
100
AcDbTextStyleTableRecord
  2
SLDTEXTSTYLE0
 70
     0
 40
0.0
 41
0.7
 50
0.0
 71
     0
 42
3.5
  3
TXT
  4
bigfont
  0
ENDTAB
  0
TABLE
  2
VIEW
  5
6
330
0
100
AcDbSymbolTable
 70
     0
  0
ENDTAB
  0
TABLE
  2
UCS
  5
7
330
0
100
AcDbSymbolTable
 70
     0
  0
ENDTAB
  0
TABLE
  2
APPID
  5
9
330
0
100
AcDbSymbolTable
 70
     1
  0
APPID
  5
12
330
9
100
AcDbSymbolTableRecord
100
AcDbRegAppTableRecord
  2
ACAD
 70
     0
  0
ENDTAB
  0
TABLE
  2
DIMSTYLE
  5
A
330
0
100
AcDbSymbolTable
 70
     7
100
AcDbDimStyleTable
  0
DIMSTYLE
105
27
330
A
100
AcDbSymbolTableRecord
100
AcDbDimStyleTableRecord
  2
ISO-25
 70
     0
 41
2.5
 42
0.625
 43
3.75
 44
1.25
 73
     0
 74
     0
 77
     1
 78
     8
140
2.5
141
2.5
143
0.0393700787
147
0.625
171
     3
172
     1
178
     0
271
     2
272
     2
274
     3
278
    44
283
     0
284
     8
340
11
  0
DIMSTYLE
105
108
102
{ACAD_REACTORS
330
107
330
11F
330
129
330
133
330
235
330
23F
330
249
330
291
102
}
330
A
100
AcDbSymbolTableRecord
100
AcDbDimStyleTableRecord
  2
SLDDIMSTYLE0
 70
     0
 41
3.0
 44
0.0
 45
0.000000001
 73
     0
 74
     0
 77
     3
 78
    12
 79
     3
140
3.5
147
0.875
173
     1
178
     0
271
     1
272
     3
276
     2
284
    12
340
7B
  0
DIMSTYLE
105
113
102
{ACAD_REACTORS
330
112
330
282
330
29B
102
}
330
A
100
AcDbSymbolTableRecord
100
AcDbDimStyleTableRecord
  2
SLDDIMSTYLE1
 70
     0
 41
3.0
 44
0.0
 45
0.000000001
 73
     0
 74
     0
 77
     3
 78
    12
 79
     3
140
3.5
147
0.875
172
     1
173
     1
178
     0
271
     1
272
     3
276
     2
284
    12
289
     0
340
7B
  0
DIMSTYLE
105
13E
102
{ACAD_REACTORS
330
13D
102
}
330
A
100
AcDbSymbolTableRecord
100
AcDbDimStyleTableRecord
  2
SLDDIMSTYLE2
 70
     0
  3
<>
 41
3.0
 44
0.0
 45
0.000000001
 78
    12
 79
     3
140
3.5
141
0.0
147
0.875
173
     1
178
     0
271
     1
272
     3
276
     2
284
    12
340
7B
  0
DIMSTYLE
105
147
102
{ACAD_REACTORS
330
146
102
}
330
A
100
AcDbSymbolTableRecord
100
AcDbDimStyleTableRecord
  2
SLDDIMSTYLE3
 70
     0
 41
3.0
 44
0.0
 45
0.000000001
 78
    12
 79
     3
140
3.5
141
0.0
147
0.875
173
     1
178
     0
271
     1
272
     3
276
     2
284
    12
340
7B
  0
DIMSTYLE
105
229
102
{ACAD_REACTORS
330
228
102
}
330
A
100
AcDbSymbolTableRecord
100
AcDbDimStyleTableRecord
  2
SLDDIMSTYLE4
 70
     0
 41
3.0
 44
0.0
 45
0.000000001
 47
0.01
 48
0.01
 71
     1
 73
     0
 74
     0
 77
     3
 78
    12
 79
     3
140
3.5
147
0.875
173
     1
178
     0
271
     1
272
     2
276
     2
284
     8
340
7B
  0
DIMSTYLE
105
2AF
330
A
100
AcDbSymbolTableRecord
100
AcDbDimStyleTableRecord
  2
SLDDIMSTYLE5
 70
     0
 41
3.0
 44
0.0
 45
0.000000001
146
3.0
147
0.0
173
     1
178
     0
271
     0
272
     0
276
     2
340
11
  0
ENDTAB
  0
TABLE
  2
BLOCK_RECORD
  5
1
330
0
100
AcDbSymbolTable
 70
    18
  0
BLOCK_RECORD
  5
1F
330
1
100
AcDbSymbolTableRecord
100
AcDbBlockTableRecord
  2
*Model_Space
340
22
  0
BLOCK_RECORD
  5
1B
330
1
100
AcDbSymbolTableRecord
100
AcDbBlockTableRecord
  2
*Paper_Space
340
1E
  0
BLOCK_RECORD
  5
23
330
1
100
AcDbSymbolTableRecord
100
AcDbBlockTableRecord
  2
*Paper_Space0
340
26
  0
BLOCK_RECORD
  5
109
330
1
100
AcDbSymbolTableRecord
100
AcDbBlockTableRecord
  2
_D
340
0
  0
BLOCK_RECORD
  5
114
330
1
100
AcDbSymbolTableRecord
100
AcDbBlockTableRecord
  2
_D_1
340
0
  0
BLOCK_RECORD
  5
120
330
1
100
AcDbSymbolTableRecord
100
AcDbBlockTableRecord
  2
_D_2
340
0
  0
BLOCK_RECORD
  5
12A
330
1
100
AcDbSymbolTableRecord
100
AcDbBlockTableRecord
  2
_D_3
340
0
  0
BLOCK_RECORD
  5
134
330
1
100
AcDbSymbolTableRecord
100
AcDbBlockTableRecord
  2
_D_4
340
0
  0
BLOCK_RECORD
  5
13F
330
1
100
AcDbSymbolTableRecord
100
AcDbBlockTableRecord
  2
_D_5
340
0
  0
BLOCK_RECORD
  5
148
330
1
100
AcDbSymbolTableRecord
100
AcDbBlockTableRecord
  2
_D_6
340
0
  0
BLOCK_RECORD
  5
154
330
1
100
AcDbSymbolTableRecord
100
AcDbBlockTableRecord
  2
SW_CENTERMARKSYMBOL_0
340
0
102
{BLKREFS
331
15F
102
}
  0
BLOCK_RECORD
  5
160
330
1
100
AcDbSymbolTableRecord
100
AcDbBlockTableRecord
  2
SW_CENTERMARKSYMBOL_1
340
0
102
{BLKREFS
331
16B
102
}
  0
BLOCK_RECORD
  5
22A
330
1
100
AcDbSymbolTableRecord
100
AcDbBlockTableRecord
  2
_D_7
340
0
  0
BLOCK_RECORD
  5
236
330
1
100
AcDbSymbolTableRecord
100
AcDbBlockTableRecord
  2
_D_8
340
0
  0
BLOCK_RECORD
  5
240
330
1
100
AcDbSymbolTableRecord
100
AcDbBlockTableRecord
  2
_D_9
340
0
  0
BLOCK_RECORD
  5
24A
330
1
100
AcDbSymbolTableRecord
100
AcDbBlockTableRecord
  2
_D_10
340
0
  0
BLOCK_RECORD
  5
283
330
1
100
AcDbSymbolTableRecord
100
AcDbBlockTableRecord
  2
_D_11
340
0
  0
BLOCK_RECORD
  5
292
330
1
100
AcDbSymbolTableRecord
100
AcDbBlockTableRecord
  2
_D_12
340
0
  0
BLOCK_RECORD
  5
29C
330
1
100
AcDbSymbolTableRecord
100
AcDbBlockTableRecord
  2
_D_13
340
0
  0
BLOCK_RECORD
  5
2A9
330
1
100
AcDbSymbolTableRecord
100
AcDbBlockTableRecord
  2
SW_NOTE_0
340
0
102
{BLKREFS
331
2AE
102
}
  0
ENDTAB
  0
ENDSEC
  0
SECTION
  2
BLOCKS
  0
BLOCK
  5
20
330
1F
100
AcDbEntity
  8
0
100
AcDbBlockBegin
  2
*Model_Space
 70
     0
 10
0.0
 20
0.0
 30
0.0
  3
*Model_Space
  1

  0
ENDBLK
  5
21
330
1F
100
AcDbEntity
  8
0
100
AcDbBlockEnd
  0
BLOCK
  5
1C
330
1B
100
AcDbEntity
 67
     1
  8
0
100
AcDbBlockBegin
  2
*Paper_Space
 70
     0
 10
0.0
 20
0.0
 30
0.0
  3
*Paper_Space
  1

  0
ENDBLK
  5
1D
330
1B
100
AcDbEntity
 67
     1
  8
0
100
AcDbBlockEnd
  0
BLOCK
  5
24
330
23
100
AcDbEntity
  8
0
100
AcDbBlockBegin
  2
*Paper_Space0
 70
     0
 10
0.0
 20
0.0
 30
0.0
  3
*Paper_Space0
  1

  0
ENDBLK
  5
25
330
23
100
AcDbEntity
  8
0
100
AcDbBlockEnd
  0
BLOCK
  5
10A
330
109
100
AcDbEntity
  8
0
100
AcDbBlockBegin
  2
_D
 70
     0
 10
0.0
 20
0.0
 30
0.0
  3
_D
  1

  0
SOLID
  5
10C
330
109
100
AcDbEntity
  8
0
  6
Continuous
 62
     7
370
     0
100
AcDbTrace
 10
58.0773972283
 20
136.8281374597
 30
0.0
 11
57.3273972283
 21
133.8281374597
 31
0.0
 12
58.8273972283
 22
133.8281374597
 32
0.0
 13
58.8273972283
 23
133.8281374597
 33
0.0
  0
SOLID
  5
10D
330
109
100
AcDbEntity
  8
0
  6
Continuous
 62
     7
370
     0
100
AcDbTrace
 10
58.0773972283
 20
111.2281374597
 30
0.0
 11
58.8273972283
 21
114.2281374597
 31
0.0
 12
57.3273972283
 22
114.2281374597
 32
0.0
 13
57.3273972283
 23
114.2281374597
 33
0.0
  0
LINE
  5
10E
330
109
100
AcDbEntity
  8
0
  6
Continuous
 62
     7
370
     0
100
AcDbLine
 10
72.8273972283
 20
136.8281374597
 30
0.0
 11
57.0773972283
 21
136.8281374597
 31
0.0
  0
LINE
  5
10F
330
109
100
AcDbEntity
  8
0
  6
Continuous
 62
     7
370
     0
100
AcDbLine
 10
67.0773972283
 20
111.2281374597
 30
0.0
 11
57.0773972283
 21
111.2281374597
 31
0.0
  0
LINE
  5
110
330
109
100
AcDbEntity
  8
0
  6
Continuous
 62
     7
370
     0
100
AcDbLine
 10
58.0773972283
 20
136.8281374597
 30
0.0
 11
58.0773972283
 21
111.2281374597
 31
0.0
  0
MTEXT
  5
111
330
109
100
AcDbEntity
  8
0
  6
Continuous
 62
     7
370
     0
100
AcDbMText
 10
53.5656603719
 20
119.9545264647
 30
0.0
 40
3.5
 41
0.0
 71
     1
 72
     1
  1
25.6
  7
SLDTEXTSTYLE0
 11
-7.044195017643634E-15
 21
1.0
 31
0.0
 73
     1
 44
1.0
  0
ENDBLK
  5
10B
330
109
100
AcDbEntity
  8
0
100
AcDbBlockEnd
  0
BLOCK
  5
115
330
114
100
AcDbEntity
  8
0
100
AcDbBlockBegin
  2
_D_1
 70
     0
 10
0.0
 20
0.0
 30
0.0
  3
_D_1
  1

  0
SOLID
  5
117
330
114
100
AcDbEntity
  8
0
  6
Continuous
 62
     7
370
     0
100
AcDbTrace
 10
152.0605226688
 20
111.2281374597
 30
0.0
 11
151.3105226688
 21
108.2281374597
 31
0.0
 12
152.8105226688
 22
108.2281374597
 32
0.0
 13
152.8105226688
 23
108.2281374597
 33
0.0
  0
SOLID
  5
118
330
114
100
AcDbEntity
  8
0
  6
Continuous
 62
     7
370
     0
100
AcDbTrace
 10
152.0605226688
 20
126.3281374597
 30
0.0
 11
152.8105226688
 21
129.3281374597
 31
0.0
 12
151.3105226688
 22
129.3281374597
 32
0.0
 13
151.3105226688
 23
129.3281374597
 33
0.0
  0
LINE
  5
119
330
114
100
AcDbEntity
  8
0
  6
Continuous
 62
     7
370
     0
100
AcDbLine
 10
140.0773972283
 20
111.2281374597
 30
0.0
 11
153.0605226688
 21
111.2281374597
 31
0.0
  0
LINE
  5
11A
330
114
100
AcDbEntity
  8
0
  6
Continuous
 62
     7
370
     0
100
AcDbLine
 10
128.3273972283
 20
126.3281374597
 30
0.0
 11
153.0605226688
 21
126.3281374597
 31
0.0
  0
LINE
  5
11B
330
114
100
AcDbEntity
  8
0
  6
Continuous
 62
     7
370
     0
100
AcDbLine
 10
152.0605226688
 20
111.2281374597
 30
0.0
 11
152.0605226688
 21
106.2281374597
 31
0.0
  0
LINE
  5
11C
330
114
100
AcDbEntity
  8
0
  6
Continuous
 62
     7
370
     0
100
AcDbLine
 10
152.0605226688
 20
111.2281374597
 30
0.0
 11
152.0605226688
 21
126.3281374597
 31
0.0
  0
LINE
  5
11D
330
114
100
AcDbEntity
  8
0
  6
Continuous
 62
     7
370
     0
100
AcDbLine
 10
152.0605226688
 20
126.3281374597
 30
0.0
 11
152.0605226688
 21
131.3281374597
 31
0.0
  0
MTEXT
  5
11E
330
114
100
AcDbEntity
  8
0
  6
Continuous
 62
     7
370
     0
100
AcDbMText
 10
147.5487858125
 20
114.7045264647
 30
0.0
 40
3.5
 41
0.0
 71
     1
 72
     1
  1
15.1
  7
SLDTEXTSTYLE0
 11
-1.608122649676637E-16
 21
1.0
 31
0.0
 73
     1
 44
1.0
  0
ENDBLK
  5
116
330
114
100
AcDbEntity
  8
0
100
AcDbBlockEnd
  0
BLOCK
  5
121
330
120
100
AcDbEntity
  8
0
100
AcDbBlockBegin
  2
_D_2
 70
     0
 10
0.0
 20
0.0
 30
0.0
  3
_D_2
  1

  0
SOLID
  5
123
330
120
100
AcDbEntity
  8
0
  6
Continuous
 62
     7
370
     0
100
AcDbTrace
 10
68.0773972283
 20
146.8281374597
 30
0.0
 11
71.0773972283
 21
146.0781374597
 31
0.0
 12
71.0773972283
 22
147.5781374597
 32
0.0
 13
71.0773972283
 23
147.5781374597
 33
0.0
  0
SOLID
  5
124
330
120
100
AcDbEntity
  8
0
  6
Continuous
 62
     7
370
     0
100
AcDbTrace
 10
86.5773972283
 20
146.8281374597
 30
0.0
 11
83.5773972283
 21
147.5781374597
 31
0.0
 12
83.5773972283
 22
146.0781374597
 32
0.0
 13
83.5773972283
 23
146.0781374597
 33
0.0
  0
LINE
  5
125
330
120
100
AcDbEntity
  8
0
  6
Continuous
 62
     7
370
     0
100
AcDbLine
 10
68.0773972283
 20
132.2281374597
 30
0.0
 11
68.0773972283
 21
147.8281374597
 31
0.0
  0
LINE
  5
126
330
120
100
AcDbEntity
  8
0
  6
Continuous
 62
     7
370
     0
100
AcDbLine
 10
86.5773972283
 20
134.0781374597
 30
0.0
 11
86.5773972283
 21
147.8281374597
 31
0.0
  0
LINE
  5
127
330
120
100
AcDbEntity
  8
0
  6
Continuous
 62
     7
370
     0
100
AcDbLine
 10
68.0773972283
 20
146.8281374597
 30
0.0
 11
86.5773972283
 21
146.8281374597
 31
0.0
  0
MTEXT
  5
128
330
120
100
AcDbEntity
  8
0
  6
Continuous
 62
     7
370
     0
100
AcDbMText
 10
73.2537862333
 20
151.339874316
 30
0.0
 40
3.5
 41
0.0
 71
     1
 72
     1
  1
18.5
  7
SLDTEXTSTYLE0
 73
     1
 44
1.0
  0
ENDBLK
  5
122
330
120
100
AcDbEntity
  8
0
100
AcDbBlockEnd
  0
BLOCK
  5
12B
330
12A
100
AcDbEntity
  8
0
100
AcDbBlockBegin
  2
_D_3
 70
     0
 10
0.0
 20
0.0
 30
0.0
  3
_D_3
  1

  0
SOLID
  5
12D
330
12A
100
AcDbEntity
  8
0
  6
Continuous
 62
     7
370
     0
100
AcDbTrace
 10
86.5773972283
 20
146.8281374597
 30
0.0
 11
89.5773972283
 21
146.0781374597
 31
0.0
 12
89.5773972283
 22
147.5781374597
 32
0.0
 13
89.5773972283
 23
147.5781374597
 33
0.0
  0
SOLID
  5
12E
330
12A
100
AcDbEntity
  8
0
  6
Continuous
 62
     7
370
     0
100
AcDbTrace
 10
120.5773972283
 20
146.8281374597
 30
0.0
 11
117.5773972283
 21
147.5781374597
 31
0.0
 12
117.5773972283
 22
146.0781374597
 32
0.0
 13
117.5773972283
 23
146.0781374597
 33
0.0
  0
LINE
  5
12F
330
12A
100
AcDbEntity
  8
0
  6
Continuous
 62
     7
370
     0
100
AcDbLine
 10
86.5773972283
 20
134.0781374597
 30
0.0
 11
86.5773972283
 21
147.8281374597
 31
0.0
  0
LINE
  5
130
330
12A
100
AcDbEntity
  8
0
  6
Continuous
 62
     7
370
     0
100
AcDbLine
 10
120.5773972283
 20
134.0781374597
 30
0.0
 11
120.5773972283
 21
147.8281374597
 31
0.0
  0
LINE
  5
131
330
12A
100
AcDbEntity
  8
0
  6
Continuous
 62
     7
370
     0
100
AcDbLine
 10
86.5773972283
 20
146.8281374597
 30
0.0
 11
120.5773972283
 21
146.8281374597
 31
0.0
  0
MTEXT
  5
132
330
12A
100
AcDbEntity
  8
0
  6
Continuous
 62
     7
370
     0
100
AcDbMText
 10
101.5405917308
 20
151.339874316
 30
0.0
 40
3.5
 41
0.0
 71
     1
 72
     1
  1
34
  7
SLDTEXTSTYLE0
 73
     1
 44
1.0
  0
ENDBLK
  5
12C
330
12A
100
AcDbEntity
  8
0
100
AcDbBlockEnd
  0
BLOCK
  5
135
330
134
100
AcDbEntity
  8
0
100
AcDbBlockBegin
  2
_D_4
 70
     0
 10
0.0
 20
0.0
 30
0.0
  3
_D_4
  1

  0
SOLID
  5
137
330
134
100
AcDbEntity
  8
0
  6
Continuous
 62
     7
370
     0
100
AcDbTrace
 10
120.5773972283
 20
146.8281374597
 30
0.0
 11
123.5773972283
 21
146.0781374597
 31
0.0
 12
123.5773972283
 22
147.5781374597
 32
0.0
 13
123.5773972283
 23
147.5781374597
 33
0.0
  0
SOLID
  5
138
330
134
100
AcDbEntity
  8
0
  6
Continuous
 62
     7
370
     0
100
AcDbTrace
 10
139.0773972283
 20
146.8281374597
 30
0.0
 11
136.0773972283
 21
147.5781374597
 31
0.0
 12
136.0773972283
 22
146.0781374597
 32
0.0
 13
136.0773972283
 23
146.0781374597
 33
0.0
  0
LINE
  5
139
330
134
100
AcDbEntity
  8
0
  6
Continuous
 62
     7
370
     0
100
AcDbLine
 10
120.5773972283
 20
134.0781374597
 30
0.0
 11
120.5773972283
 21
147.8281374597
 31
0.0
  0
LINE
  5
13A
330
134
100
AcDbEntity
  8
0
  6
Continuous
 62
     7
370
     0
100
AcDbLine
 10
139.0773972283
 20
132.2281374597
 30
0.0
 11
139.0773972283
 21
147.8281374597
 31
0.0
  0
LINE
  5
13B
330
134
100
AcDbEntity
  8
0
  6
Continuous
 62
     7
370
     0
100
AcDbLine
 10
120.5773972283
 20
146.8281374597
 30
0.0
 11
139.0773972283
 21
146.8281374597
 31
0.0
  0
MTEXT
  5
13C
330
134
100
AcDbEntity
  8
0
  6
Continuous
 62
     7
370
     0
100
AcDbMText
 10
125.7537862333
 20
151.339874316
 30
0.0
 40
3.5
 41
0.0
 71
     1
 72
     1
  1
18.5
  7
SLDTEXTSTYLE0
 73
     1
 44
1.0
  0
ENDBLK
  5
136
330
134
100
AcDbEntity
  8
0
100
AcDbBlockEnd
  0
BLOCK
  5
140
330
13F
100
AcDbEntity
  8
0
100
AcDbBlockBegin
  2
_D_5
 70
     0
 10
0.0
 20
0.0
 30
0.0
  3
_D_5
  1

  0
SOLID
  5
142
330
13F
100
AcDbEntity
  8
0
  6
Continuous
 62
     7
370
     0
100
AcDbTrace
 10
133.0109579783
 20
114.0130865974
 30
0.0
 11
133.8614389255
 21
111.040010386
 31
0.0
 12
135.1604770311
 22
111.790010386
 32
0.0
 13
135.1604770311
 23
111.790010386
 33
0.0
  0
LINE
  5
143
330
13F
100
AcDbEntity
  8
0
  6
Continuous
 62
     7
370
     0
100
AcDbLine
 10
133.0109579783
 20
114.0130865974
 30
0.0
 11
143.3442037769
 21
96.1153798671
 31
0.0
  0
LINE
  5
144
330
13F
100
AcDbEntity
  8
0
  6
Continuous
 62
     7
370
     0
100
AcDbLine
 10
143.3442037769
 20
96.1153798671
 30
0.0
 11
159.1893415608
 21
96.1153798671
 31
0.0
  0
MTEXT
  5
145
330
13F
100
AcDbEntity
  8
0
  6
Continuous
 62
     7
370
     0
100
AcDbMText
 10
144.9317037769
 20
100.6271167235
 30
0.0
 40
3.5
 41
0.0
 71
     1
 72
     1
  1
4-Rc1/8
  7
SLDTEXTSTYLE0
 73
     1
 44
1.0
  0
ENDBLK
  5
141
330
13F
100
AcDbEntity
  8
0
100
AcDbBlockEnd
  0
BLOCK
  5
149
330
148
100
AcDbEntity
  8
0
100
AcDbBlockBegin
  2
_D_6
 70
     0
 10
0.0
 20
0.0
 30
0.0
  3
_D_6
  1

  0
SOLID
  5
14B
330
148
100
AcDbEntity
  8
0
  6
Continuous
 62
     7
370
     0
100
AcDbTrace
 10
122.1541597454
 20
122.3814527795
 30
0.0
 11
122.5706948139
 21
119.3173055023
 31
0.0
 12
123.9636423481
 22
119.8738099201
 32
0.0
 13
123.9636423481
 23
119.8738099201
 33
0.0
  0
LINE
  5
14C
330
148
100
AcDbEntity
  8
0
  6
Continuous
 62
     7
370
     0
100
AcDbLine
 10
122.1541597454
 20
122.3814527795
 30
0.0
 11
137.4498054949
 21
84.0959848679
 31
0.0
  0
LINE
  5
14D
330
148
100
AcDbEntity
  8
0
  6
Continuous
 62
     7
370
     0
100
AcDbLine
 10
137.4498054949
 20
84.0959848679
 30
0.0
 11
183.4396701363
 21
84.0959848679
 31
0.0
  0
MTEXT
  5
14E
330
148
100
AcDbEntity
  8
0
  6
Continuous
 62
     7
370
     0
100
AcDbMText
 10
139.0373054949
 20
88.60772219
 30
0.0
 40
3.5
 41
0.0
 71
     1
 72
     1
  1
2-
  7
SLDTEXTSTYLE0
 73
     1
 44
1.0
  0
MTEXT
  5
14F
330
148
100
AcDbEntity
  8
0
  6
Continuous
 62
     7
370
     0
100
AcDbMText
 10
143.1109164899
 20
88.60772219
 30
0.0
 40
3.5
 41
0.0
 71
     1
 72
     1
  1
%%c
  7
SLDTEXTSTYLE0
 73
     1
 44
1.0
  0
MTEXT
  5
150
330
148
100
AcDbEntity
  8
0
  6
Continuous
 62
     7
370
     0
100
AcDbMText
 10
146.9808472378
 20
88.60772219
 30
0.0
 40
3.5
 41
0.0
 71
     1
 72
     1
  1
4.5,
  7
SLDTEXTSTYLE0
 73
     1
 44
1.0
  0
MTEXT
  5
151
330
148
100
AcDbEntity
  8
0
  6
Continuous
 62
     7
370
     0
100
AcDbMText
 10
155.1280692277
 20
88.60772219
 30
0.0
 40
3.5
 41
0.0
 71
     1
 72
     1
  1
%%c
  7
SLDTEXTSTYLE0
 73
     1
 44
1.0
  0
MTEXT
  5
152
330
148
100
AcDbEntity
  8
0
  6
Continuous
 62
     7
370
     0
100
AcDbMText
 10
158.9979995099
 20
88.60772219
 30
0.0
 40
3.5
 41
0.0
 71
     1
 72
     1
  1
8.5
  7
SLDTEXTSTYLE0
 73
     1
 44
1.0
  0
MTEXT
  5
153
330
148
100
AcDbEntity
  8
0
  6
Continuous
 62
     7
370
     0
100
AcDbMText
 10
165.1084162352
 20
88.60772219
 30
0.0
 40
3.5
 41
0.0
 71
     1
 72
     1
  1
ザグリ深6
  7
SLDTEXTSTYLE0
 73
     1
 44
1.0
  0
ENDBLK
  5
14A
330
148
100
AcDbEntity
  8
0
100
AcDbBlockEnd
  0
BLOCK
  5
155
330
154
100
AcDbEntity
  8
0
100
AcDbBlockBegin
  2
SW_CENTERMARKSYMBOL_0
 70
     0
 10
0.0
 20
0.0
 30
0.0
  3
SW_CENTERMARKSYMBOL_0
  1

  0
LINE
  5
157
330
154
100
AcDbEntity
  8
0
  6
Continuous
 62
     0
370
     0
100
AcDbLine
 10
0.0
 20
0.0
 30
0.0
 11
0.0
 21
2.5
 31
0.0
  0
LINE
  5
158
330
154
100
AcDbEntity
  8
0
  6
Continuous
 62
     0
370
     0
100
AcDbLine
 10
0.0
 20
0.0
 30
0.0
 11
-2.5
 21
0.0
 31
0.0
  0
LINE
  5
159
330
154
100
AcDbEntity
  8
0
  6
Continuous
 62
     0
370
     0
100
AcDbLine
 10
0.0
 20
0.0
 30
0.0
 11
0.0
 21
-2.5
 31
0.0
  0
LINE
  5
15A
330
154
100
AcDbEntity
  8
0
  6
Continuous
 62
     0
370
     0
100
AcDbLine
 10
0.0
 20
0.0
 30
0.0
 11
2.5
 21
0.0
 31
0.0
  0
LINE
  5
15B
330
154
100
AcDbEntity
  8
0
  6
Continuous
 62
     0
370
     0
100
AcDbLine
 10
0.0
 20
5.0
 30
0.0
 11
0.0
 21
6.75
 31
0.0
  0
LINE
  5
15C
330
154
100
AcDbEntity
  8
0
  6
Continuous
 62
     0
370
     0
100
AcDbLine
 10
-5.0
 20
0.0
 30
0.0
 11
-6.75
 21
0.0
 31
0.0
  0
LINE
  5
15D
330
154
100
AcDbEntity
  8
0
  6
Continuous
 62
     0
370
     0
100
AcDbLine
 10
0.0
 20
-5.0
 30
0.0
 11
0.0
 21
-6.75
 31
0.0
  0
LINE
  5
15E
330
154
100
AcDbEntity
  8
0
  6
Continuous
 62
     0
370
     0
100
AcDbLine
 10
5.0
 20
0.0
 30
0.0
 11
6.75
 21
0.0
 31
0.0
  0
ENDBLK
  5
156
330
154
100
AcDbEntity
  8
0
100
AcDbBlockEnd
  0
BLOCK
  5
161
330
160
100
AcDbEntity
  8
0
100
AcDbBlockBegin
  2
SW_CENTERMARKSYMBOL_1
 70
     0
 10
0.0
 20
0.0
 30
0.0
  3
SW_CENTERMARKSYMBOL_1
  1

  0
LINE
  5
163
330
160
100
AcDbEntity
  8
0
  6
Continuous
 62
     0
370
     0
100
AcDbLine
 10
0.0
 20
0.0
 30
0.0
 11
0.0
 21
2.5
 31
0.0
  0
LINE
  5
164
330
160
100
AcDbEntity
  8
0
  6
Continuous
 62
     0
370
     0
100
AcDbLine
 10
0.0
 20
0.0
 30
0.0
 11
-2.5
 21
0.0
 31
0.0
  0
LINE
  5
165
330
160
100
AcDbEntity
  8
0
  6
Continuous
 62
     0
370
     0
100
AcDbLine
 10
0.0
 20
0.0
 30
0.0
 11
0.0
 21
-2.5
 31
0.0
  0
LINE
  5
166
330
160
100
AcDbEntity
  8
0
  6
Continuous
 62
     0
370
     0
100
AcDbLine
 10
0.0
 20
0.0
 30
0.0
 11
2.5
 21
0.0
 31
0.0
  0
LINE
  5
167
330
160
100
AcDbEntity
  8
0
  6
Continuous
 62
     0
370
     0
100
AcDbLine
 10
0.0
 20
5.0
 30
0.0
 11
0.0
 21
6.75
 31
0.0
  0
LINE
  5
168
330
160
100
AcDbEntity
  8
0
  6
Continuous
 62
     0
370
     0
100
AcDbLine
 10
-5.0
 20
0.0
 30
0.0
 11
-6.75
 21
0.0
 31
0.0
  0
LINE
  5
169
330
160
100
AcDbEntity
  8
0
  6
Continuous
 62
     0
370
     0
100
AcDbLine
 10
0.0
 20
-5.0
 30
0.0
 11
0.0
 21
-6.75
 31
0.0
  0
LINE
  5
16A
330
160
100
AcDbEntity
  8
0
  6
Continuous
 62
     0
370
     0
100
AcDbLine
 10
5.0
 20
0.0
 30
0.0
 11
6.75
 21
0.0
 31
0.0
  0
ENDBLK
  5
162
330
160
100
AcDbEntity
  8
0
100
AcDbBlockEnd
  0
BLOCK
  5
22B
330
22A
100
AcDbEntity
  8
0
100
AcDbBlockBegin
  2
_D_7
 70
     0
 10
0.0
 20
0.0
 30
0.0
  3
_D_7
  1

  0
SOLID
  5
22D
330
22A
100
AcDbEntity
  8
0
  6
Continuous
 62
     7
370
     0
100
AcDbTrace
 10
116.5773972283
 20
240.8698896791
 30
0.0
 11
113.5773972283
 21
241.6198896791
 31
0.0
 12
113.5773972283
 22
240.1198896791
 32
0.0
 13
113.5773972283
 23
240.1198896791
 33
0.0
  0
SOLID
  5
22E
330
22A
100
AcDbEntity
  8
0
  6
Continuous
 62
     7
370
     0
100
AcDbTrace
 10
90.5773972283
 20
240.8698896791
 30
0.0
 11
93.5773972283
 21
240.1198896791
 31
0.0
 12
93.5773972283
 22
241.6198896791
 32
0.0
 13
93.5773972283
 23
241.6198896791
 33
0.0
  0
LINE
  5
22F
330
22A
100
AcDbEntity
  8
0
  6
Continuous
 62
     7
370
     0
100
AcDbLine
 10
116.5773972283
 20
237.5534666224
 30
0.0
 11
116.5773972283
 21
241.8698896791
 31
0.0
  0
LINE
  5
230
330
22A
100
AcDbEntity
  8
0
  6
Continuous
 62
     7
370
     0
100
AcDbLine
 10
90.5773972283
 20
236.4985759748
 30
0.0
 11
90.5773972283
 21
241.8698896791
 31
0.0
  0
LINE
  5
231
330
22A
100
AcDbEntity
  8
0
  6
Continuous
 62
     7
370
     0
100
AcDbLine
 10
116.5773972283
 20
240.8698896791
 30
0.0
 11
90.5773972283
 21
240.8698896791
 31
0.0
  0
MTEXT
  5
232
330
22A
100
AcDbEntity
  8
0
  6
Continuous
 62
     7
370
     0
100
AcDbMText
 10
96.8559388305
 20
245.3816265355
 30
0.0
 40
3.5
 41
0.0
 71
     1
 72
     1
  1
26
  7
SLDTEXTSTYLE0
 73
     1
 44
1.0
  0
MTEXT
  5
233
330
22A
100
AcDbEntity
  8
0
  6
Continuous
 62
     7
370
     0
100
AcDbMText
 10
102.8982998255
 20
245.3816265355
 30
0.0
 40
3.5
 41
0.0
 71
     1
 72
     1
  1

  7
SLDTEXTSTYLE0
 73
     1
 44
1.0
  0
MTEXT
  5
234
330
22A
100
AcDbEntity
  8
0
  6
Continuous
 62
     7
370
     0
100
AcDbMText
 10
102.9663555558
 20
243.8063761419
 30
0.0
 40
2.1
 41
0.0
 71
     1
 72
     1
  1
±0.01
  7
SLDTEXTSTYLE0
 73
     1
 44
1.0
  0
ENDBLK
  5
22C
330
22A
100
AcDbEntity
  8
0
100
AcDbBlockEnd
  0
BLOCK
  5
237
330
236
100
AcDbEntity
  8
0
100
AcDbBlockBegin
  2
_D_8
 70
     0
 10
0.0
 20
0.0
 30
0.0
  3
_D_8
  1

  0
SOLID
  5
239
330
236
100
AcDbEntity
  8
0
  6
Continuous
 62
     7
370
     0
100
AcDbTrace
 10
68.0773972283
 20
250.9985759748
 30
0.0
 11
71.0773972283
 21
250.2485759748
 31
0.0
 12
71.0773972283
 22
251.7485759748
 32
0.0
 13
71.0773972283
 23
251.7485759748
 33
0.0
  0
SOLID
  5
23A
330
236
100
AcDbEntity
  8
0
  6
Continuous
 62
     7
370
     0
100
AcDbTrace
 10
139.0773972283
 20
250.9985759748
 30
0.0
 11
136.0773972283
 21
251.7485759748
 31
0.0
 12
136.0773972283
 22
250.2485759748
 32
0.0
 13
136.0773972283
 23
250.2485759748
 33
0.0
  0
LINE
  5
23B
330
236
100
AcDbEntity
  8
0
  6
Continuous
 62
     7
370
     0
100
AcDbLine
 10
68.0773972283
 20
224.4985759748
 30
0.0
 11
68.0773972283
 21
251.9985759748
 31
0.0
  0
LINE
  5
23C
330
236
100
AcDbEntity
  8
0
  6
Continuous
 62
     7
370
     0
100
AcDbLine
 10
139.0773972283
 20
224.4985759748
 30
0.0
 11
139.0773972283
 21
251.9985759748
 31
0.0
  0
LINE
  5
23D
330
236
100
AcDbEntity
  8
0
  6
Continuous
 62
     7
370
     0
100
AcDbLine
 10
68.0773972283
 20
250.9985759748
 30
0.0
 11
139.0773972283
 21
250.9985759748
 31
0.0
  0
MTEXT
  5
23E
330
236
100
AcDbEntity
  8
0
  6
Continuous
 62
     7
370
     0
100
AcDbMText
 10
101.5405917308
 20
255.5103128312
 30
0.0
 40
3.5
 41
0.0
 71
     1
 72
     1
  1
71
  7
SLDTEXTSTYLE0
 73
     1
 44
1.0
  0
ENDBLK
  5
238
330
236
100
AcDbEntity
  8
0
100
AcDbBlockEnd
  0
BLOCK
  5
241
330
240
100
AcDbEntity
  8
0
100
AcDbBlockBegin
  2
_D_9
 70
     0
 10
0.0
 20
0.0
 30
0.0
  3
_D_9
  1

  0
SOLID
  5
243
330
240
100
AcDbEntity
  8
0
  6
Continuous
 62
     7
370
     0
100
AcDbTrace
 10
68.0773972283
 20
240.8698896791
 30
0.0
 11
71.0773972283
 21
240.1198896791
 31
0.0
 12
71.0773972283
 22
241.6198896791
 32
0.0
 13
71.0773972283
 23
241.6198896791
 33
0.0
  0
SOLID
  5
244
330
240
100
AcDbEntity
  8
0
  6
Continuous
 62
     7
370
     0
100
AcDbTrace
 10
90.5773972283
 20
240.8698896791
 30
0.0
 11
87.5773972283
 21
241.6198896791
 31
0.0
 12
87.5773972283
 22
240.1198896791
 32
0.0
 13
87.5773972283
 23
240.1198896791
 33
0.0
  0
LINE
  5
245
330
240
100
AcDbEntity
  8
0
  6
Continuous
 62
     7
370
     0
100
AcDbLine
 10
68.0773972283
 20
224.4985759748
 30
0.0
 11
68.0773972283
 21
241.8698896791
 31
0.0
  0
LINE
  5
246
330
240
100
AcDbEntity
  8
0
  6
Continuous
 62
     7
370
     0
100
AcDbLine
 10
90.5773972283
 20
236.4985759748
 30
0.0
 11
90.5773972283
 21
241.8698896791
 31
0.0
  0
LINE
  5
247
330
240
100
AcDbEntity
  8
0
  6
Continuous
 62
     7
370
     0
100
AcDbLine
 10
68.0773972283
 20
240.8698896791
 30
0.0
 11
90.5773972283
 21
240.8698896791
 31
0.0
  0
MTEXT
  5
248
330
240
100
AcDbEntity
  8
0
  6
Continuous
 62
     7
370
     0
100
AcDbMText
 10
75.2537862333
 20
245.3816265355
 30
0.0
 40
3.5
 41
0.0
 71
     1
 72
     1
  1
22.5
  7
SLDTEXTSTYLE0
 73
     1
 44
1.0
  0
ENDBLK
  5
242
330
240
100
AcDbEntity
  8
0
100
AcDbBlockEnd
  0
BLOCK
  5
24B
330
24A
100
AcDbEntity
  8
0
100
AcDbBlockBegin
  2
_D_10
 70
     0
 10
0.0
 20
0.0
 30
0.0
  3
_D_10
  1

  0
SOLID
  5
24D
330
24A
100
AcDbEntity
  8
0
  6
Continuous
 62
     7
370
     0
100
AcDbTrace
 10
116.5773972283
 20
240.8698896791
 30
0.0
 11
119.5773972283
 21
240.1198896791
 31
0.0
 12
119.5773972283
 22
241.6198896791
 32
0.0
 13
119.5773972283
 23
241.6198896791
 33
0.0
  0
SOLID
  5
24E
330
24A
100
AcDbEntity
  8
0
  6
Continuous
 62
     7
370
     0
100
AcDbTrace
 10
139.0773972283
 20
240.8698896791
 30
0.0
 11
136.0773972283
 21
241.6198896791
 31
0.0
 12
136.0773972283
 22
240.1198896791
 32
0.0
 13
136.0773972283
 23
240.1198896791
 33
0.0
  0
LINE
  5
24F
330
24A
100
AcDbEntity
  8
0
  6
Continuous
 62
     7
370
     0
100
AcDbLine
 10
116.5773972283
 20
237.5534666224
 30
0.0
 11
116.5773972283
 21
241.8698896791
 31
0.0
  0
LINE
  5
250
330
24A
100
AcDbEntity
  8
0
  6
Continuous
 62
     7
370
     0
100
AcDbLine
 10
139.0773972283
 20
224.4985759748
 30
0.0
 11
139.0773972283
 21
241.8698896791
 31
0.0
  0
LINE
  5
251
330
24A
100
AcDbEntity
  8
0
  6
Continuous
 62
     7
370
     0
100
AcDbLine
 10
116.5773972283
 20
240.8698896791
 30
0.0
 11
139.0773972283
 21
240.8698896791
 31
0.0
  0
MTEXT
  5
252
330
24A
100
AcDbEntity
  8
0
  6
Continuous
 62
     7
370
     0
100
AcDbMText
 10
123.7537862333
 20
245.3816265355
 30
0.0
 40
3.5
 41
0.0
 71
     1
 72
     1
  1
22.5
  7
SLDTEXTSTYLE0
 73
     1
 44
1.0
  0
ENDBLK
  5
24C
330
24A
100
AcDbEntity
  8
0
100
AcDbBlockEnd
  0
BLOCK
  5
284
330
283
100
AcDbEntity
  8
0
100
AcDbBlockBegin
  2
_D_11
 70
     0
 10
0.0
 20
0.0
 30
0.0
  3
_D_11
  1

  0
ARC
  5
286
330
283
100
AcDbEntity
  8
0
  6
Continuous
 62
     7
370
     0
100
AcDbCircle
 10
159.2126497224
 20
244.3135580092
 30
0.0
 40
5.672469721325925
100
AcDbArc
 50
153.4349488229
 51
206.5650511771
  0
ARC
  5
287
330
283
100
AcDbEntity
  8
0
  6
Continuous
 62
     7
370
     0
100
AcDbCircle
 10
154.9721634172
 20
244.3135580092
 30
0.0
 40
5.672469721325899
100
AcDbArc
 50
333.4349488229
 51
26.5650511771
  0
SOLID
  5
288
330
283
100
AcDbEntity
  8
0
  6
Continuous
 62
     7
370
     0
100
AcDbTrace
 10
164.5956829492
 20
241.7767524298
 30
0.0
 11
161.5956829492
 21
242.5267524298
 31
0.0
 12
161.5956829492
 22
241.0267524298
 32
0.0
 13
161.5956829492
 23
241.0267524298
 33
0.0
  0
SOLID
  5
289
330
283
100
AcDbEntity
  8
0
  6
Continuous
 62
     7
370
     0
100
AcDbTrace
 10
168.5956829492
 20
241.7767524298
 30
0.0
 11
171.5956829492
 21
241.0267524298
 31
0.0
 12
171.5956829492
 22
242.5267524298
 32
0.0
 13
171.5956829492
 23
242.5267524298
 33
0.0
  0
LINE
  5
28A
330
283
100
AcDbEntity
  8
0
  6
Continuous
 62
     7
370
     0
100
AcDbLine
 10
164.5956829492
 20
234.4985759748
 30
0.0
 11
164.5956829492
 21
242.7767524298
 31
0.0
  0
LINE
  5
28B
330
283
100
AcDbEntity
  8
0
  6
Continuous
 62
     7
370
     0
100
AcDbLine
 10
168.5956829492
 20
234.4985759748
 30
0.0
 11
168.5956829492
 21
242.7767524298
 31
0.0
  0
LINE
  5
28C
330
283
100
AcDbEntity
  8
0
  6
Continuous
 62
     7
370
     0
100
AcDbLine
 10
164.5956829492
 20
241.7767524298
 30
0.0
 11
153.5401799872
 21
241.7767524298
 31
0.0
  0
LINE
  5
28D
330
283
100
AcDbEntity
  8
0
  6
Continuous
 62
     7
370
     0
100
AcDbLine
 10
164.5956829492
 20
241.7767524298
 30
0.0
 11
168.5956829492
 21
241.7767524298
 31
0.0
  0
LINE
  5
28E
330
283
100
AcDbEntity
  8
0
  6
Continuous
 62
     7
370
     0
100
AcDbLine
 10
168.5956829492
 20
241.7767524298
 30
0.0
 11
173.5956829492
 21
241.7767524298
 31
0.0
  0
MTEXT
  5
28F
330
283
100
AcDbEntity
  8
0
  6
Continuous
 62
     7
370
     0
100
AcDbMText
 10
154.1390385635
 20
246.2884897518
 30
0.0
 40
3.5
 41
0.0
 71
     1
 72
     1
  1
%%c
  7
SLDTEXTSTYLE0
 73
     1
 44
1.0
  0
MTEXT
  5
290
330
283
100
AcDbEntity
  8
0
  6
Continuous
 62
     7
370
     0
100
AcDbMText
 10
158.0089690786
 20
246.2884897518
 30
0.0
 40
3.5
 41
0.0
 71
     1
 72
     1
  1
4
  7
SLDTEXTSTYLE0
 73
     1
 44
1.0
  0
ENDBLK
  5
285
330
283
100
AcDbEntity
  8
0
100
AcDbBlockEnd
  0
BLOCK
  5
293
330
292
100
AcDbEntity
  8
0
100
AcDbBlockBegin
  2
_D_12
 70
     0
 10
0.0
 20
0.0
 30
0.0
  3
_D_12
  1

  0
SOLID
  5
295
330
292
100
AcDbEntity
  8
0
  6
Continuous
 62
     7
370
     0
100
AcDbTrace
 10
182.1689657555
 20
230.4985759748
 30
0.0
 11
181.4189657555
 21
227.4985759748
 31
0.0
 12
182.9189657555
 22
227.4985759748
 32
0.0
 13
182.9189657555
 23
227.4985759748
 33
0.0
  0
SOLID
  5
296
330
292
100
AcDbEntity
  8
0
  6
Continuous
 62
     7
370
     0
100
AcDbTrace
 10
182.1689657555
 20
207.4985759748
 30
0.0
 11
182.9189657555
 21
210.4985759748
 31
0.0
 12
181.4189657555
 22
210.4985759748
 32
0.0
 13
181.4189657555
 23
210.4985759748
 33
0.0
  0
LINE
  5
297
330
292
100
AcDbEntity
  8
0
  6
Continuous
 62
     7
370
     0
100
AcDbLine
 10
176.6956829492
 20
230.4985759748
 30
0.0
 11
183.1689657555
 21
230.4985759748
 31
0.0
  0
LINE
  5
298
330
292
100
AcDbEntity
  8
0
  6
Continuous
 62
     7
370
     0
100
AcDbLine
 10
176.6956829492
 20
207.4985759748
 30
0.0
 11
183.1689657555
 21
207.4985759748
 31
0.0
  0
LINE
  5
299
330
292
100
AcDbEntity
  8
0
  6
Continuous
 62
     7
370
     0
100
AcDbLine
 10
182.1689657555
 20
230.4985759748
 30
0.0
 11
182.1689657555
 21
207.4985759748
 31
0.0
  0
MTEXT
  5
29A
330
292
100
AcDbEntity
  8
0
  6
Continuous
 62
     7
370
     0
100
AcDbMText
 10
177.6572288992
 20
216.9617704773
 30
0.0
 40
3.5
 41
0.0
 71
     1
 72
     1
  1
23
  7
SLDTEXTSTYLE0
 11
-1.059690869644414E-14
 21
1.0
 31
0.0
 73
     1
 44
1.0
  0
ENDBLK
  5
294
330
292
100
AcDbEntity
  8
0
100
AcDbBlockEnd
  0
BLOCK
  5
29D
330
29C
100
AcDbEntity
  8
0
100
AcDbBlockBegin
  2
_D_13
 70
     0
 10
0.0
 20
0.0
 30
0.0
  3
_D_13
  1

  0
ARC
  5
29F
330
29C
100
AcDbEntity
  8
0
  6
Continuous
 62
     7
370
     0
100
AcDbCircle
 10
180.1321602581
 20
244.5541245382
 30
0.0
 40
4.554435549315966
100
AcDbArc
 50
243.4349488229
 51
296.5650511771
  0
ARC
  5
2A0
330
29C
100
AcDbEntity
  8
0
  6
Continuous
 62
     7
370
     0
100
AcDbCircle
 10
180.1321602581
 20
242.5173192736
 30
0.0
 40
4.554435549315966
100
AcDbArc
 50
63.4349488229
 51
116.5650511771
  0
SOLID
  5
2A1
330
29C
100
AcDbEntity
  8
0
  6
Continuous
 62
     7
370
     0
100
AcDbTrace
 10
182.1689657555
 20
234.9985759748
 30
0.0
 11
182.9189657555
 21
237.9985759748
 31
0.0
 12
181.4189657555
 22
237.9985759748
 32
0.0
 13
181.4189657555
 23
237.9985759748
 33
0.0
  0
SOLID
  5
2A2
330
29C
100
AcDbEntity
  8
0
  6
Continuous
 62
     7
370
     0
100
AcDbTrace
 10
182.1689657555
 20
230.4985759748
 30
0.0
 11
181.4189657555
 21
227.4985759748
 31
0.0
 12
182.9189657555
 22
227.4985759748
 32
0.0
 13
182.9189657555
 23
227.4985759748
 33
0.0
  0
LINE
  5
2A3
330
29C
100
AcDbEntity
  8
0
  6
Continuous
 62
     7
370
     0
100
AcDbLine
 10
169.1937591605
 20
234.9985759748
 30
0.0
 11
183.1689657555
 21
234.9985759748
 31
0.0
  0
LINE
  5
2A4
330
29C
100
AcDbEntity
  8
0
  6
Continuous
 62
     7
370
     0
100
AcDbLine
 10
176.6956829492
 20
230.4985759748
 30
0.0
 11
183.1689657555
 21
230.4985759748
 31
0.0
  0
LINE
  5
2A5
330
29C
100
AcDbEntity
  8
0
  6
Continuous
 62
     7
370
     0
100
AcDbLine
 10
182.1689657555
 20
234.9985759748
 30
0.0
 11
182.1689657555
 21
247.0717549425
 31
0.0
  0
LINE
  5
2A6
330
29C
100
AcDbEntity
  8
0
  6
Continuous
 62
     7
370
     0
100
AcDbLine
 10
182.1689657555
 20
234.9985759748
 30
0.0
 11
182.1689657555
 21
230.4985759748
 31
0.0
  0
LINE
  5
2A7
330
29C
100
AcDbEntity
  8
0
  6
Continuous
 62
     7
370
     0
100
AcDbLine
 10
182.1689657555
 20
230.4985759748
 30
0.0
 11
182.1689657555
 21
225.4985759748
 31
0.0
  0
MTEXT
  5
2A8
330
29C
100
AcDbEntity
  8
0
  6
Continuous
 62
     7
370
     0
100
AcDbMText
 10
177.6572288992
 20
240.4805135432
 30
0.0
 40
3.5
 41
0.0
 71
     1
 72
     1
  1
4.5
  7
SLDTEXTSTYLE0
 11
-1.059690869644414E-14
 21
1.0
 31
0.0
 73
     1
 44
1.0
  0
ENDBLK
  5
29E
330
29C
100
AcDbEntity
  8
0
100
AcDbBlockEnd
  0
BLOCK
  5
2AA
330
2A9
100
AcDbEntity
  8
0
100
AcDbBlockBegin
  2
SW_NOTE_0
 70
     0
 10
0.0
 20
0.0
 30
0.0
  3
SW_NOTE_0
  1

  0
LINE
  5
2AC
330
2A9
100
AcDbEntity
  8
0
  6
Continuous
 62
     0
370
     0
100
AcDbLine
 10
24.3129649098
 20
0.0
 30
0.0
 11
0.0
 21
0.0
 31
0.0
  0
MTEXT
  5
2AD
330
2A9
100
AcDbEntity
  8
0
  6
Continuous
 62
     0
370
     0
100
AcDbMText
 10
0.460447669
 20
4.5903465139
 30
0.0
 40
3.5
 41
0.0
 71
     1
 72
     1
  1
2-ノックピン
  7
SLDTEXTSTYLE0
 73
     1
 44
1.0
  0
ENDBLK
  5
2AB
330
2A9
100
AcDbEntity
  8
0
100
AcDbBlockEnd
  0
ENDSEC
  0
SECTION
  2
ENTITIES
  0
LINE
  5
73
330
1F
100
AcDbEntity
  8
0
  6
Continuous
 62
     7
370
     0
100
AcDbLine
 10
20.2604743903
 20
285.0
 30
0.0
 11
196.7604743903
 21
285.0
 31
0.0
  0
LINE
  5
74
330
1F
100
AcDbEntity
  8
0
  6
Continuous
 62
     7
370
     0
100
AcDbLine
 10
20.2604743903
 20
285.0
 30
0.0
 11
20.2604743903
 21
10.0
 31
0.0
  0
LINE
  5
75
330
1F
100
AcDbEntity
  8
0
  6
Continuous
 62
     7
370
     0
100
AcDbLine
 10
20.2604743903
 20
10.0
 30
0.0
 11
196.7604743903
 21
10.0
 31
0.0
  0
LINE
  5
76
330
1F
100
AcDbEntity
  8
0
  6
Continuous
 62
     7
370
     0
100
AcDbLine
 10
196.7604743903
 20
285.0
 30
0.0
 11
196.7604743903
 21
10.0
 31
0.0
  0
LINE
  5
77
330
1F
100
AcDbEntity
  8
0
  6
Continuous
 62
     7
370
     0
100
AcDbLine
 10
127.0104743903
 20
50.75
 30
0.0
 11
196.7604743903
 21
50.75
 31
0.0
  0
LINE
  5
78
330
1F
100
AcDbEntity
  8
0
  6
Continuous
 62
     7
370
     0
100
AcDbLine
 10
127.0104743903
 20
50.75
 30
0.0
 11
127.0104743903
 21
10.0
 31
0.0
  0
LINE
  5
79
330
1F
100
AcDbEntity
  8
0
  6
Continuous
 62
     7
370
     0
100
AcDbLine
 10
127.0104743903
 20
22.75
 30
0.0
 11
196.7604743903
 21
22.75
 31
0.0
  0
LINE
  5
7A
330
1F
100
AcDbEntity
  8
0
  6
Continuous
 62
     7
370
     0
100
AcDbLine
 10
127.0104743903
 20
36.75
 30
0.0
 11
196.7604743903
 21
36.75
 31
0.0
  0
MTEXT
  5
7C
330
1F
100
AcDbEntity
  8
0
  6
Continuous
 62
     7
370
     0
100
AcDbMText
 10
162.1823919225
 20
30.4171582345
 30
0.0
 40
4.2333333333
 41
0.0
 71
     2
 72
     1
  1
OX-60AIA
  7
SLDTEXTSTYLE0
 73
     1
 44
1.0
  0
MTEXT
  5
7D
330
1F
100
AcDbEntity
  8
0
  6
Continuous
 62
     7
370
     0
100
AcDbMText
 10
160.3171784291
 20
43.9409718514
 30
0.0
 40
4.2333333333
 41
0.0
 71
     2
 72
     1
  1
エアーオプション(OX用)
  7
SLDTEXTSTYLE0
 73
     1
 44
1.0
  0
MTEXT
  5
7E
330
1F
100
AcDbEntity
  8
0
  6
Continuous
 62
     7
370
     0
100
AcDbMText
 10
162.5569766187
 20
16.8228189052
 30
0.0
 40
4.2333333333
 41
0.0
 71
     2
 72
     1
  1
140343
  7
SLDTEXTSTYLE0
 73
     1
 44
1.0
  0
LINE
  5
7F
330
1F
100
AcDbEntity
  8
0
  6
Continuous
 62
     7
370
     0
100
AcDbLine
 10
73.5773978988
 20
135.8281381994
 30
0.0
 11
73.5773978988
 21
135.3281371861
 31
0.0
  0
LINE
  5
80
330
1F
100
AcDbEntity
  8
0
  6
Continuous
 62
     7
370
     0
100
AcDbLine
 10
79.5773970197
 20
135.3281371861
 30
0.0
 11
79.5773970197
 21
135.8281381994
 31
0.0
  0
LINE
  5
81
330
1F
100
AcDbEntity
  8
0
  6
Continuous
 62
     7
370
     0
100
AcDbLine
 10
79.5773970197
 20
135.8281381994
 30
0.0
 11
79.327396513
 21
136.8281365006
 31
0.0
  0
LINE
  5
82
330
1F
100
AcDbEntity
  8
0
  6
Continuous
 62
     7
370
     0
100
AcDbLine
 10
73.8273965428
 20
136.8281365006
 30
0.0
 11
73.5773978988
 21
135.8281381994
 31
0.0
  0
LINE
  5
83
330
1F
100
AcDbEntity
  8
0
  6
Continuous
 62
     7
370
     0
100
AcDbLine
 10
93.5773974518
 20
135.8281381994
 30
0.0
 11
93.5773974518
 21
135.3281371861
 31
0.0
  0
LINE
  5
84
330
1F
100
AcDbEntity
  8
0
  6
Continuous
 62
     7
370
     0
100
AcDbLine
 10
99.5773970383
 20
135.3281371861
 30
0.0
 11
99.5773970383
 21
135.8281381994
 31
0.0
  0
LINE
  5
85
330
1F
100
AcDbEntity
  8
0
  6
Continuous
 62
     7
370
     0
100
AcDbLine
 10
99.5773970383
 20
135.8281381994
 30
0.0
 11
99.3273969973
 21
136.8281365006
 31
0.0
  0
LINE
  5
86
330
1F
100
AcDbEntity
  8
0
  6
Continuous
 62
     7
370
     0
100
AcDbLine
 10
93.8273970271
 20
136.8281365006
 30
0.0
 11
93.5773974518
 21
135.8281381994
 31
0.0
  0
LINE
  5
87
330
1F
100
AcDbEntity
  8
0
  6
Continuous
 62
     7
370
     0
100
AcDbLine
 10
127.5773974369
 20
135.8281381994
 30
0.0
 11
127.5773974369
 21
135.3281371861
 31
0.0
  0
LINE
  5
88
330
1F
100
AcDbEntity
  8
0
  6
Continuous
 62
     7
370
     0
100
AcDbLine
 10
133.5773965577
 20
135.3281371861
 30
0.0
 11
133.5773965577
 21
135.8281381994
 31
0.0
  0
LINE
  5
89
330
1F
100
AcDbEntity
  8
0
  6
Continuous
 62
     7
370
     0
100
AcDbLine
 10
133.5773965577
 20
135.8281381994
 30
0.0
 11
133.3273979137
 21
136.8281365006
 31
0.0
  0
LINE
  5
8A
330
1F
100
AcDbEntity
  8
0
  6
Continuous
 62
     7
370
     0
100
AcDbLine
 10
127.8273979436
 20
136.8281365006
 30
0.0
 11
127.5773974369
 21
135.8281381994
 31
0.0
  0
LINE
  5
8B
330
1F
100
AcDbEntity
  8
0
  6
Continuous
 62
     7
370
     0
100
AcDbLine
 10
107.5773974183
 20
135.8281381994
 30
0.0
 11
107.5773974183
 21
135.3281371861
 31
0.0
  0
LINE
  5
8C
330
1F
100
AcDbEntity
  8
0
  6
Continuous
 62
     7
370
     0
100
AcDbLine
 10
113.5773970048
 20
135.3281371861
 30
0.0
 11
113.5773970048
 21
135.8281381994
 31
0.0
  0
LINE
  5
8D
330
1F
100
AcDbEntity
  8
0
  6
Continuous
 62
     7
370
     0
100
AcDbLine
 10
113.5773970048
 20
135.8281381994
 30
0.0
 11
113.3273974295
 21
136.8281365006
 31
0.0
  0
LINE
  5
8E
330
1F
100
AcDbEntity
  8
0
  6
Continuous
 62
     7
370
     0
100
AcDbLine
 10
107.8273974593
 20
136.8281365006
 30
0.0
 11
107.5773974183
 21
135.8281381994
 31
0.0
  0
LINE
  5
8F
330
1F
100
AcDbEntity
  8
0
  6
Continuous
 62
     7
370
     0
100
AcDbLine
 10
81.0773963342
 20
131.2281367003
 30
0.0
 11
81.0773963342
 21
134.3281388848
 31
0.0
  0
LINE
  5
90
330
1F
100
AcDbEntity
  8
0
  6
Continuous
 62
     7
370
     0
100
AcDbLine
 10
72.0773967217
 20
134.3281388848
 30
0.0
 11
72.0773967217
 21
131.2281367003
 31
0.0
  0
LINE
  5
91
330
1F
100
AcDbEntity
  8
0
  6
Continuous
 62
     7
370
     0
100
AcDbLine
 10
81.0773963342
 20
134.3281388848
 30
0.0
 11
80.077398033
 21
135.3281371861
 31
0.0
  0
LINE
  5
92
330
1F
100
AcDbEntity
  8
0
  6
Continuous
 62
     7
370
     0
100
AcDbLine
 10
73.0773968856
 20
135.3281371861
 30
0.0
 11
72.0773967217
 21
134.3281388848
 31
0.0
  0
LINE
  5
93
330
1F
100
AcDbEntity
  8
0
  6
Continuous
 62
     7
370
     0
100
AcDbLine
 10
101.0773972842
 20
131.2281367003
 30
0.0
 11
101.0773972842
 21
134.3281388848
 31
0.0
  0
LINE
  5
94
330
1F
100
AcDbEntity
  8
0
  6
Continuous
 62
     7
370
     0
100
AcDbLine
 10
92.0773972059
 20
134.3281388848
 30
0.0
 11
92.0773972059
 21
131.2281367003
 31
0.0
  0
LINE
  5
95
330
1F
100
AcDbEntity
  8
0
  6
Continuous
 62
     7
370
     0
100
AcDbLine
 10
101.0773972842
 20
134.3281388848
 30
0.0
 11
100.0773971203
 21
135.3281371861
 31
0.0
  0
LINE
  5
96
330
1F
100
AcDbEntity
  8
0
  6
Continuous
 62
     7
370
     0
100
AcDbLine
 10
93.0773973699
 20
135.3281371861
 30
0.0
 11
92.0773972059
 21
134.3281388848
 31
0.0
  0
LINE
  5
97
330
1F
100
AcDbEntity
  8
0
  6
Continuous
 62
     7
370
     0
100
AcDbLine
 10
115.0773972506
 20
131.2281367003
 30
0.0
 11
115.0773972506
 21
134.3281388848
 31
0.0
  0
LINE
  5
98
330
1F
100
AcDbEntity
  8
0
  6
Continuous
 62
     7
370
     0
100
AcDbLine
 10
106.0773971724
 20
134.3281388848
 30
0.0
 11
106.0773971724
 21
131.2281367003
 31
0.0
  0
LINE
  5
99
330
1F
100
AcDbEntity
  8
0
  6
Continuous
 62
     7
370
     0
100
AcDbLine
 10
115.0773972506
 20
134.3281388848
 30
0.0
 11
114.0773970867
 21
135.3281371861
 31
0.0
  0
LINE
  5
9A
330
1F
100
AcDbEntity
  8
0
  6
Continuous
 62
     7
370
     0
100
AcDbLine
 10
107.0773973363
 20
135.3281371861
 30
0.0
 11
106.0773971724
 21
134.3281388848
 31
0.0
  0
LINE
  5
9B
330
1F
100
AcDbEntity
  8
0
  6
Continuous
 62
     7
370
     0
100
AcDbLine
 10
135.0773977349
 20
131.2281367003
 30
0.0
 11
135.0773977349
 21
134.3281388848
 31
0.0
  0
LINE
  5
9C
330
1F
100
AcDbEntity
  8
0
  6
Continuous
 62
     7
370
     0
100
AcDbLine
 10
126.0773981224
 20
134.3281388848
 30
0.0
 11
126.0773981224
 21
131.2281367003
 31
0.0
  0
LINE
  5
9D
330
1F
100
AcDbEntity
  8
0
  6
Continuous
 62
     7
370
     0
100
AcDbLine
 10
135.0773977349
 20
134.3281388848
 30
0.0
 11
134.077397571
 21
135.3281371861
 31
0.0
  0
LINE
  5
9E
330
1F
100
AcDbEntity
  8
0
  6
Continuous
 62
     7
370
     0
100
AcDbLine
 10
127.0773964236
 20
135.3281371861
 30
0.0
 11
126.0773981224
 21
134.3281388848
 31
0.0
  0
LINE
  5
9F
330
1F
100
AcDbEntity
  8
0
  6
Continuous
 62
     7
370
     0
100
AcDbLine
 10
74.7810019414
 20
136.8281365006
 30
0.0
 11
77.8795624385
 21
136.8281365006
 31
0.0
  0
SPLINE
  5
A0
330
1F
100
AcDbEntity
  8
0
  6
Continuous
 62
     7
370
     0
100
AcDbSpline
210
0.0
220
0.0
230
1.0
 70
     8
 71
     3
 72
    11
 73
     7
 74
     0
 42
0.000000001
 43
0.00000001
 40
0.0041996937790339
 40
0.0041996937790339
 40
0.0041996937790339
 40
0.0041996937790339
 40
0.0045714279294727
 40
0.0045714279294727
 40
0.0045714279294727
 40
0.0052314151081104
 40
0.0052314151081104
 40
0.0052314151081104
 40
0.0052314151081104
 10
77.87956335391549
 20
136.828137459671
 30
0.0
 10
77.8986690418875
 20
136.7080461993373
 30
0.0
 10
77.9177646936024
 20
136.5879508605161
 30
0.0
 10
77.93685126109345
 20
136.4678518360013
 30
0.0
 10
77.97073808139588
 20
136.2546247031428
 30
0.0
 10
78.00459632167251
 20
136.0413859674182
 30
0.0
 10
78.03843043134495
 20
135.828137459671
 30
0.0
  0
LINE
  5
A1
330
1F
100
AcDbEntity
  8
0
  6
Continuous
 62
     7
370
     0
100
AcDbLine
 10
74.5829748223
 20
135.8281381994
 30
0.0
 11
78.0384311686
 21
135.8281381994
 31
0.0
  0
SPLINE
  5
A2
330
1F
100
AcDbEntity
  8
0
  6
Continuous
 62
     7
370
     0
100
AcDbSpline
210
0.0
220
0.0
230
1.0
 70
     8
 71
     3
 72
     8
 73
     4
 74
     0
 42
0.000000001
 43
0.00000001
 40
0.0
 40
0.0
 40
0.0
 40
0.0
 40
1.0
 40
1.0
 40
1.0
 40
1.0
 10
74.58297518925585
 20
135.828137459671
 30
0.0
 10
74.64890336860394
 20
136.1614970228404
 30
0.0
 10
74.71490468442039
 20
136.4948330111226
 30
0.0
 10
74.78100169236305
 20
136.828137459671
 30
0.0
  0
LINE
  5
A3
330
1F
100
AcDbEntity
  8
0
  6
Continuous
 62
     7
370
     0
100
AcDbLine
 10
74.5829748223
 20
135.8281381994
 30
0.0
 11
73.9572098712
 21
135.8281381994
 31
0.0
  0
LINE
  5
A4
330
1F
100
AcDbEntity
  8
0
  6
Continuous
 62
     7
370
     0
100
AcDbLine
 10
78.0384311686
 20
135.8281381994
 30
0.0
 11
78.8184417645
 21
135.8281381994
 31
0.0
  0
LINE
  5
A5
330
1F
100
AcDbEntity
  8
0
  6
Continuous
 62
     7
370
     0
100
AcDbLine
 10
78.8184417645
 20
135.8281381994
 30
0.0
 11
79.5773970197
 21
135.8281381994
 31
0.0
  0
LINE
  5
A6
330
1F
100
AcDbEntity
  8
0
  6
Continuous
 62
     7
370
     0
100
AcDbLine
 10
73.5773978988
 20
135.8281381994
 30
0.0
 11
73.9572098712
 21
135.8281381994
 31
0.0
  0
LINE
  5
A7
330
1F
100
AcDbEntity
  8
0
  6
Continuous
 62
     7
370
     0
100
AcDbLine
 10
74.754028977
 20
136.6920292943
 30
0.0
 11
74.754028977
 21
136.8281365006
 31
0.0
  0
LINE
  5
A8
330
1F
100
AcDbEntity
  8
0
  6
Continuous
 62
     7
370
     0
100
AcDbLine
 10
74.7810019414
 20
136.8281365006
 30
0.0
 11
74.754028977
 21
136.8281365006
 31
0.0
  0
LINE
  5
A9
330
1F
100
AcDbEntity
  8
0
  6
Continuous
 62
     7
370
     0
100
AcDbLine
 10
78.1791931252
 20
136.8281365006
 30
0.0
 11
78.1791931252
 21
135.8281381994
 31
0.0
  0
SPLINE
  5
AA
330
1F
100
AcDbEntity
  8
0
  6
Continuous
 62
     7
370
     0
100
AcDbSpline
210
0.0
220
0.0
230
1.0
 70
     8
 71
     3
 72
     8
 73
     4
 74
     0
 42
0.000000001
 43
0.00000001
 40
0.0
 40
0.0
 40
0.0
 40
0.0
 40
1.0
 40
1.0
 40
1.0
 40
1.0
 10
78.81844179059064
 20
135.828137459671
 30
0.0
 10
78.76555080806983
 20
136.1614969955073
 30
0.0
 10
78.71260114895185
 20
136.4948329738842
 30
0.0
 10
78.65957471316119
 20
136.828137459671
 30
0.0
  0
LINE
  5
AB
330
1F
100
AcDbEntity
  8
0
  6
Continuous
 62
     7
370
     0
100
AcDbLine
 10
78.6595748971
 20
136.8281365006
 30
0.0
 11
79.327396513
 21
136.8281365006
 31
0.0
  0
LINE
  5
AC
330
1F
100
AcDbEntity
  8
0
  6
Continuous
 62
     7
370
     0
100
AcDbLine
 10
78.6595748971
 20
136.8281365006
 30
0.0
 11
78.1791931252
 21
136.8281365006
 31
0.0
  0
LINE
  5
AD
330
1F
100
AcDbEntity
  8
0
  6
Continuous
 62
     7
370
     0
100
AcDbLine
 10
73.8273965428
 20
136.8281365006
 30
0.0
 11
74.1552369903
 21
136.8281365006
 31
0.0
  0
SPLINE
  5
AE
330
1F
100
AcDbEntity
  8
0
  6
Continuous
 62
     7
370
     0
100
AcDbSpline
210
0.0
220
0.0
230
1.0
 70
     8
 71
     3
 72
    11
 73
     7
 74
     0
 42
0.000000001
 43
0.00000001
 40
0.0041333666424306
 40
0.0041333666424306
 40
0.0041333666424306
 40
0.0041333666424306
 40
0.0046138376121395
 40
0.0046138376121395
 40
0.0046138376121395
 40
0.0051650880369003
 40
0.0051650880369003
 40
0.0051650880369003
 40
0.0051650880369003
 10
74.15523633741944
 20
136.828137459671
 30
0.0
 10
74.12445505282523
 20
136.67291804193
 30
0.0
 10
74.09369465303055
 20
136.517691815089
 30
0.0
 10
74.06295262421943
 20
136.3624596109689
 30
0.0
 10
74.02768190776641
 20
136.1843597500409
 30
0.0
 10
73.99243536797134
 20
136.0062520174993
 30
0.0
 10
73.95720983431222
 20
135.828137459671
 30
0.0
  0
LINE
  5
AF
330
1F
100
AcDbEntity
  8
0
  6
Continuous
 62
     7
370
     0
100
AcDbLine
 10
74.754028977
 20
136.8281365006
 30
0.0
 11
74.1552369903
 21
136.8281365006
 31
0.0
  0
LINE
  5
B0
330
1F
100
AcDbEntity
  8
0
  6
Continuous
 62
     7
370
     0
100
AcDbLine
 10
78.1791931252
 20
136.8281365006
 30
0.0
 11
77.8795624385
 21
136.8281365006
 31
0.0
  0
LINE
  5
B1
330
1F
100
AcDbEntity
  8
0
  6
Continuous
 62
     7
370
     0
100
AcDbLine
 10
97.723785718
 20
135.8281381994
 30
0.0
 11
96.7489140342
 21
135.8281381994
 31
0.0
  0
LINE
  5
B2
330
1F
100
AcDbEntity
  8
0
  6
Continuous
 62
     7
370
     0
100
AcDbLine
 10
97.723785718
 20
135.8281381994
 30
0.0
 11
99.5773970383
 21
135.8281381994
 31
0.0
  0
LINE
  5
B3
330
1F
100
AcDbEntity
  8
0
  6
Continuous
 62
     7
370
     0
100
AcDbLine
 10
93.5773974518
 20
135.8281381994
 30
0.0
 11
93.5823045905
 21
135.8281381994
 31
0.0
  0
LINE
  5
B4
330
1F
100
AcDbEntity
  8
0
  6
Continuous
 62
     7
370
     0
100
AcDbLine
 10
93.5823045905
 20
135.8281381994
 30
0.0
 11
93.8050713624
 21
135.8281381994
 31
0.0
  0
LINE
  5
B5
330
1F
100
AcDbEntity
  8
0
  6
Continuous
 62
     7
370
     0
100
AcDbLine
 10
93.8050713624
 20
135.8281381994
 30
0.0
 11
96.7489140342
 21
135.8281381994
 31
0.0
  0
SPLINE
  5
B6
330
1F
100
AcDbEntity
  8
0
  6
Continuous
 62
     7
370
     0
100
AcDbSpline
210
0.0
220
0.0
230
1.0
 70
     8
 71
     3
 72
     8
 73
     4
 74
     0
 42
0.000000001
 43
0.00000001
 40
0.0
 40
0.0
 40
0.0
 40
0.0
 40
1.0
 40
1.0
 40
1.0
 40
1.0
 10
93.80507090599774
 20
135.828137459671
 30
0.0
 10
93.88746908700664
 20
136.1614969955073
 30
0.0
 10
93.96995867953119
 20
136.4948329738842
 30
0.0
 10
94.05256788144601
 20
136.828137459671
 30
0.0
  0
LINE
  5
B7
330
1F
100
AcDbEntity
  8
0
  6
Continuous
 62
     7
370
     0
100
AcDbLine
 10
94.0525675426
 20
136.8281365006
 30
0.0
 11
96.6923590052
 21
136.8281365006
 31
0.0
  0
SPLINE
  5
B8
330
1F
100
AcDbEntity
  8
0
  6
Continuous
 62
     7
370
     0
100
AcDbSpline
210
0.0
220
0.0
230
1.0
 70
     8
 71
     3
 72
    11
 73
     7
 74
     0
 42
0.000000001
 43
0.00000001
 40
0.0041333666424306
 40
0.0041333666424306
 40
0.0041333666424306
 40
0.0041333666424306
 40
0.0046138376121395
 40
0.0046138376121395
 40
0.0046138376121395
 40
0.0051650880369003
 40
0.0051650880369003
 40
0.0051650880369003
 40
0.0051650880369003
 10
96.69235880254797
 20
136.828137459671
 30
0.0
 10
96.70114975666426
 20
136.67291804193
 30
0.0
 10
96.70993474620444
 20
136.517691815089
 30
0.0
 10
96.71871448909963
 20
136.3624596109689
 30
0.0
 10
96.7287875985905
 20
136.184359750041
 30
0.0
 10
96.73885380336985
 20
136.0062520174993
 30
0.0
 10
96.74891400892015
 20
135.828137459671
 30
0.0
  0
LINE
  5
B9
330
1F
100
AcDbEntity
  8
0
  6
Continuous
 62
     7
370
     0
100
AcDbLine
 10
97.4962189096
 20
136.8281365006
 30
0.0
 11
97.4962189096
 21
135.8281381994
 31
0.0
  0
LINE
  5
BA
330
1F
100
AcDbEntity
  8
0
  6
Continuous
 62
     7
370
     0
100
AcDbLine
 10
97.667230689
 20
136.8281365006
 30
0.0
 11
97.4962189096
 21
136.8281365006
 31
0.0
  0
SPLINE
  5
BB
330
1F
100
AcDbEntity
  8
0
  6
Continuous
 62
     7
370
     0
100
AcDbSpline
210
0.0
220
0.0
230
1.0
 70
     8
 71
     3
 72
     8
 73
     4
 74
     0
 42
0.000000001
 43
0.00000001
 40
0.0
 40
0.0
 40
0.0
 40
0.0
 40
1.0
 40
1.0
 40
1.0
 40
1.0
 10
97.72378580233901
 20
135.828137459671
 30
0.0
 10
97.70495710148195
 20
136.1614970228404
 30
0.0
 10
97.68610751327904
 20
136.4948330111226
 30
0.0
 10
97.66723059596683
 20
136.828137459671
 30
0.0
  0
LINE
  5
BC
330
1F
100
AcDbEntity
  8
0
  6
Continuous
 62
     7
370
     0
100
AcDbLine
 10
97.667230689
 20
136.8281365006
 30
0.0
 11
99.3273969973
 21
136.8281365006
 31
0.0
  0
LINE
  5
BD
330
1F
100
AcDbEntity
  8
0
  6
Continuous
 62
     7
370
     0
100
AcDbLine
 10
97.4962189096
 20
136.8281365006
 30
0.0
 11
96.6923590052
 21
136.8281365006
 31
0.0
  0
LINE
  5
BE
330
1F
100
AcDbEntity
  8
0
  6
Continuous
 62
     7
370
     0
100
AcDbLine
 10
93.8273970271
 20
136.8281365006
 30
0.0
 11
93.8298007707
 21
136.8281365006
 31
0.0
  0
SPLINE
  5
BF
330
1F
100
AcDbEntity
  8
0
  6
Continuous
 62
     7
370
     0
100
AcDbSpline
210
0.0
220
0.0
230
1.0
 70
     8
 71
     3
 72
    11
 73
     7
 74
     0
 42
0.000000001
 43
0.00000001
 40
0.004199693779034
 40
0.004199693779034
 40
0.004199693779034
 40
0.004199693779034
 40
0.0045714279294727
 40
0.0045714279294727
 40
0.0045714279294727
 40
0.0052314151081104
 40
0.0052314151081104
 40
0.0052314151081104
 40
0.0052314151081104
 10
93.82980121788026
 20
136.828137459671
 30
0.0
 10
93.80003671246203
 20
136.7080461993372
 30
0.0
 10
93.77028784239953
 20
136.5879508605161
 30
0.0
 10
93.74055312453248
 20
136.4678518360013
 30
0.0
 10
93.6877612832768
 20
136.2546247031428
 30
0.0
 10
93.63501396647557
 20
136.0413859674182
 30
0.0
 10
93.58230424243199
 20
135.828137459671
 30
0.0
  0
LINE
  5
C0
330
1F
100
AcDbEntity
  8
0
  6
Continuous
 62
     7
370
     0
100
AcDbLine
 10
94.0525675426
 20
136.8281365006
 30
0.0
 11
93.8298007707
 21
136.8281365006
 31
0.0
  0
LINE
  5
C1
330
1F
100
AcDbEntity
  8
0
  6
Continuous
 62
     7
370
     0
100
AcDbLine
 10
132.6695526252
 20
135.8281381994
 30
0.0
 11
131.8466490368
 21
135.8281381994
 31
0.0
  0
LINE
  5
C2
330
1F
100
AcDbEntity
  8
0
  6
Continuous
 62
     7
370
     0
100
AcDbLine
 10
132.6695526252
 20
135.8281381994
 30
0.0
 11
133.5773965577
 21
135.8281381994
 31
0.0
  0
LINE
  5
C3
330
1F
100
AcDbEntity
  8
0
  6
Continuous
 62
     7
370
     0
100
AcDbLine
 10
127.5773974369
 20
135.8281381994
 30
0.0
 11
127.859126241
 21
135.8281381994
 31
0.0
  0
LINE
  5
C4
330
1F
100
AcDbEntity
  8
0
  6
Continuous
 62
     7
370
     0
100
AcDbLine
 10
127.859126241
 20
135.8281381994
 30
0.0
 11
128.4273075173
 21
135.8281381994
 31
0.0
  0
LINE
  5
C5
330
1F
100
AcDbEntity
  8
0
  6
Continuous
 62
     7
370
     0
100
AcDbLine
 10
128.4273075173
 20
135.8281381994
 30
0.0
 11
131.8466490368
 21
135.8281381994
 31
0.0
  0
SPLINE
  5
C6
330
1F
100
AcDbEntity
  8
0
  6
Continuous
 62
     7
370
     0
100
AcDbSpline
210
0.0
220
0.0
230
1.0
 70
     8
 71
     3
 72
     8
 73
     4
 74
     0
 42
0.000000001
 43
0.00000001
 40
0.0
 40
0.0
 40
0.0
 40
0.0
 40
1.0
 40
1.0
 40
1.0
 40
1.0
 10
128.4273066043382
 20
135.828137459671
 30
0.0
 10
128.4968601067144
 20
136.1614969955073
 30
0.0
 10
128.5664907708797
 20
136.4948329738842
 30
0.0
 10
128.6362223990701
 20
136.828137459671
 30
0.0
  0
LINE
  5
C7
330
1F
100
AcDbEntity
  8
0
  6
Continuous
 62
     7
370
     0
100
AcDbLine
 10
128.6362217973
 20
136.8281365006
 30
0.0
 11
131.7024002085
 21
136.8281365006
 31
0.0
  0
SPLINE
  5
C8
330
1F
100
AcDbEntity
  8
0
  6
Continuous
 62
     7
370
     0
100
AcDbSpline
210
0.0
220
0.0
230
1.0
 70
     8
 71
     3
 72
    11
 73
     7
 74
     0
 42
0.000000001
 43
0.00000001
 40
0.0041333666424306
 40
0.0041333666424306
 40
0.0041333666424306
 40
0.0041333666424306
 40
0.0046138376121395
 40
0.0046138376121395
 40
0.0046138376121395
 40
0.0051650880369003
 40
0.0051650880369003
 40
0.0051650880369003
 40
0.0051650880369003
 10
131.7024004172677
 20
136.828137459671
 30
0.0
 10
131.7248223318853
 20
136.67291804193
 30
0.0
 10
131.7472290334539
 20
136.517691815089
 30
0.0
 10
131.7696223531045
 20
136.3624596109689
 30
0.0
 10
131.7953144904937
 20
136.184359750041
 30
0.0
 10
131.8209890169558
 20
136.0062520174993
 30
0.0
 10
131.8466482419841
 20
135.828137459671
 30
0.0
  0
LINE
  5
C9
330
1F
100
AcDbEntity
  8
0
  6
Continuous
 62
     7
370
     0
100
AcDbLine
 10
132.5253037969
 20
136.8281365006
 30
0.0
 11
133.3273979137
 21
136.8281365006
 31
0.0
  0
SPLINE
  5
CA
330
1F
100
AcDbEntity
  8
0
  6
Continuous
 62
     7
370
     0
100
AcDbSpline
210
0.0
220
0.0
230
1.0
 70
     8
 71
     3
 72
     8
 73
     4
 74
     0
 42
0.000000001
 43
0.00000001
 40
0.0
 40
0.0
 40
0.0
 40
0.0
 40
1.0
 40
1.0
 40
1.0
 40
1.0
 10
132.6695516940965
 20
135.828137459671
 30
0.0
 10
132.6215278371417
 20
136.1614970228404
 30
0.0
 10
132.5734507056186
 20
136.4948330111226
 30
0.0
 10
132.5253038693801
 20
136.828137459671
 30
0.0
  0
LINE
  5
CB
330
1F
100
AcDbEntity
  8
0
  6
Continuous
 62
     7
370
     0
100
AcDbLine
 10
132.0891263197
 20
136.8281365006
 30
0.0
 11
132.0891263197
 21
135.8281381994
 31
0.0
  0
LINE
  5
CC
330
1F
100
AcDbEntity
  8
0
  6
Continuous
 62
     7
370
     0
100
AcDbLine
 10
132.5253037969
 20
136.8281365006
 30
0.0
 11
132.0891263197
 21
136.8281365006
 31
0.0
  0
LINE
  5
CD
330
1F
100
AcDbEntity
  8
0
  6
Continuous
 62
     7
370
     0
100
AcDbLine
 10
131.8868523697
 20
136.8281365006
 30
0.0
 11
131.7024002085
 21
136.8281365006
 31
0.0
  0
LINE
  5
CE
330
1F
100
AcDbEntity
  8
0
  6
Continuous
 62
     7
370
     0
100
AcDbLine
 10
131.8868523697
 20
136.8281365006
 30
0.0
 11
131.8868523697
 21
135.8281381994
 31
0.0
  0
LINE
  5
CF
330
1F
100
AcDbEntity
  8
0
  6
Continuous
 62
     7
370
     0
100
AcDbLine
 10
128.6362217973
 20
136.8281365006
 30
0.0
 11
128.068040521
 21
136.8281365006
 31
0.0
  0
SPLINE
  5
D0
330
1F
100
AcDbEntity
  8
0
  6
Continuous
 62
     7
370
     0
100
AcDbSpline
210
0.0
220
0.0
230
1.0
 70
     8
 71
     3
 72
    11
 73
     7
 74
     0
 42
0.000000001
 43
0.00000001
 40
0.004199693779034
 40
0.004199693779034
 40
0.004199693779034
 40
0.004199693779034
 40
0.0045714279294727
 40
0.0045714279294727
 40
0.0045714279294727
 40
0.0052314151081104
 40
0.0052314151081104
 40
0.0052314151081104
 40
0.0052314151081104
 10
128.0680411704981
 20
136.828137459671
 30
0.0
 10
128.0429165188009
 20
136.7080461993372
 30
0.0
 10
128.0178050651347
 20
136.5879508605161
 30
0.0
 10
127.9927055575425
 20
136.4678518360013
 30
0.0
 10
127.9481431969265
 20
136.2546247031428
 30
0.0
 10
127.9036184200498
 20
136.0413859674182
 30
0.0
 10
127.8591253757662
 20
135.828137459671
 30
0.0
  0
LINE
  5
D1
330
1F
100
AcDbEntity
  8
0
  6
Continuous
 62
     7
370
     0
100
AcDbLine
 10
127.8273979436
 20
136.8281365006
 30
0.0
 11
128.068040521
 21
136.8281365006
 31
0.0
  0
LINE
  5
D2
330
1F
100
AcDbEntity
  8
0
  6
Continuous
 62
     7
370
     0
100
AcDbLine
 10
132.0891263197
 20
136.8281365006
 30
0.0
 11
131.8868523697
 21
136.8281365006
 31
0.0
  0
LINE
  5
D3
330
1F
100
AcDbEntity
  8
0
  6
Continuous
 62
     7
370
     0
100
AcDbLine
 10
112.6695521409
 20
135.8281381994
 30
0.0
 11
111.8466485525
 21
135.8281381994
 31
0.0
  0
LINE
  5
D4
330
1F
100
AcDbEntity
  8
0
  6
Continuous
 62
     7
370
     0
100
AcDbLine
 10
112.6695521409
 20
135.8281381994
 30
0.0
 11
113.5773970048
 21
135.8281381994
 31
0.0
  0
LINE
  5
D5
330
1F
100
AcDbEntity
  8
0
  6
Continuous
 62
     7
370
     0
100
AcDbLine
 10
107.5773974183
 20
135.8281381994
 30
0.0
 11
107.8591252911
 21
135.8281381994
 31
0.0
  0
LINE
  5
D6
330
1F
100
AcDbEntity
  8
0
  6
Continuous
 62
     7
370
     0
100
AcDbLine
 10
107.8591252911
 20
135.8281381994
 30
0.0
 11
108.4273065674
 21
135.8281381994
 31
0.0
  0
LINE
  5
D7
330
1F
100
AcDbEntity
  8
0
  6
Continuous
 62
     7
370
     0
100
AcDbLine
 10
108.4273065674
 20
135.8281381994
 30
0.0
 11
111.8466485525
 21
135.8281381994
 31
0.0
  0
SPLINE
  5
D8
330
1F
100
AcDbEntity
  8
0
  6
Continuous
 62
     7
370
     0
100
AcDbSpline
210
0.0
220
0.0
230
1.0
 70
     8
 71
     3
 72
     8
 73
     4
 74
     0
 42
0.000000001
 43
0.00000001
 40
0.0
 40
0.0
 40
0.0
 40
0.0
 40
1.0
 40
1.0
 40
1.0
 40
1.0
 10
108.4273066043382
 20
135.828137459671
 30
0.0
 10
108.4968601067144
 20
136.1614969955073
 30
0.0
 10
108.5664907708797
 20
136.4948329738842
 30
0.0
 10
108.6362223990701
 20
136.828137459671
 30
0.0
  0
LINE
  5
D9
330
1F
100
AcDbEntity
  8
0
  6
Continuous
 62
     7
370
     0
100
AcDbLine
 10
108.6362222443
 20
136.8281365006
 30
0.0
 11
111.7024006556
 21
136.8281365006
 31
0.0
  0
SPLINE
  5
DA
330
1F
100
AcDbEntity
  8
0
  6
Continuous
 62
     7
370
     0
100
AcDbSpline
210
0.0
220
0.0
230
1.0
 70
     8
 71
     3
 72
    11
 73
     7
 74
     0
 42
0.000000001
 43
0.00000001
 40
0.0041333666424306
 40
0.0041333666424306
 40
0.0041333666424306
 40
0.0041333666424306
 40
0.0046138376121395
 40
0.0046138376121395
 40
0.0046138376121395
 40
0.0051650880369003
 40
0.0051650880369003
 40
0.0051650880369003
 40
0.0051650880369003
 10
111.7024004172678
 20
136.828137459671
 30
0.0
 10
111.7248223318853
 20
136.67291804193
 30
0.0
 10
111.7472290334539
 20
136.517691815089
 30
0.0
 10
111.7696223531045
 20
136.3624596109689
 30
0.0
 10
111.7953144904937
 20
136.184359750041
 30
0.0
 10
111.8209890169558
 20
136.0062520174993
 30
0.0
 10
111.8466482419841
 20
135.828137459671
 30
0.0
  0
LINE
  5
DB
330
1F
100
AcDbEntity
  8
0
  6
Continuous
 62
     7
370
     0
100
AcDbLine
 10
112.525304244
 20
136.8281365006
 30
0.0
 11
113.3273974295
 21
136.8281365006
 31
0.0
  0
SPLINE
  5
DC
330
1F
100
AcDbEntity
  8
0
  6
Continuous
 62
     7
370
     0
100
AcDbSpline
210
0.0
220
0.0
230
1.0
 70
     8
 71
     3
 72
     8
 73
     4
 74
     0
 42
0.000000001
 43
0.00000001
 40
0.0
 40
0.0
 40
0.0
 40
0.0
 40
1.0
 40
1.0
 40
1.0
 40
1.0
 10
112.6695516940965
 20
135.828137459671
 30
0.0
 10
112.6215278371417
 20
136.1614970228404
 30
0.0
 10
112.5734507056186
 20
136.4948330111226
 30
0.0
 10
112.5253038693801
 20
136.828137459671
 30
0.0
  0
LINE
  5
DD
330
1F
100
AcDbEntity
  8
0
  6
Continuous
 62
     7
370
     0
100
AcDbLine
 10
112.0891267667
 20
136.8281365006
 30
0.0
 11
112.0891267667
 21
135.8281381994
 31
0.0
  0
LINE
  5
DE
330
1F
100
AcDbEntity
  8
0
  6
Continuous
 62
     7
370
     0
100
AcDbLine
 10
112.525304244
 20
136.8281365006
 30
0.0
 11
112.0891267667
 21
136.8281365006
 31
0.0
  0
LINE
  5
DF
330
1F
100
AcDbEntity
  8
0
  6
Continuous
 62
     7
370
     0
100
AcDbLine
 10
111.8868518854
 20
136.8281365006
 30
0.0
 11
111.7024006556
 21
136.8281365006
 31
0.0
  0
LINE
  5
E0
330
1F
100
AcDbEntity
  8
0
  6
Continuous
 62
     7
370
     0
100
AcDbLine
 10
111.8868518854
 20
136.8281365006
 30
0.0
 11
111.8868518854
 21
135.8281381994
 31
0.0
  0
LINE
  5
E1
330
1F
100
AcDbEntity
  8
0
  6
Continuous
 62
     7
370
     0
100
AcDbLine
 10
107.8273974593
 20
136.8281365006
 30
0.0
 11
108.068040968
 21
136.8281365006
 31
0.0
  0
SPLINE
  5
E2
330
1F
100
AcDbEntity
  8
0
  6
Continuous
 62
     7
370
     0
100
AcDbSpline
210
0.0
220
0.0
230
1.0
 70
     8
 71
     3
 72
    11
 73
     7
 74
     0
 42
0.000000001
 43
0.00000001
 40
0.004199693779034
 40
0.004199693779034
 40
0.004199693779034
 40
0.004199693779034
 40
0.0045714279294727
 40
0.0045714279294727
 40
0.0045714279294727
 40
0.0052314151081104
 40
0.0052314151081104
 40
0.0052314151081104
 40
0.0052314151081104
 10
108.0680411704981
 20
136.828137459671
 30
0.0
 10
108.0429165188009
 20
136.7080461993372
 30
0.0
 10
108.0178050651347
 20
136.5879508605161
 30
0.0
 10
107.9927055575425
 20
136.4678518360013
 30
0.0
 10
107.9481431969265
 20
136.2546247031428
 30
0.0
 10
107.9036184200498
 20
136.0413859674182
 30
0.0
 10
107.8591253757663
 20
135.828137459671
 30
0.0
  0
LINE
  5
E3
330
1F
100
AcDbEntity
  8
0
  6
Continuous
 62
     7
370
     0
100
AcDbLine
 10
108.6362222443
 20
136.8281365006
 30
0.0
 11
108.068040968
 21
136.8281365006
 31
0.0
  0
LINE
  5
E4
330
1F
100
AcDbEntity
  8
0
  6
Continuous
 62
     7
370
     0
100
AcDbLine
 10
112.0891267667
 20
136.8281365006
 30
0.0
 11
111.8868518854
 21
136.8281365006
 31
0.0
  0
LINE
  5
E5
330
1F
100
AcDbEntity
  8
0
  6
Continuous
 62
     7
370
     0
100
AcDbLine
 10
81.0773963342
 20
134.3281388848
 30
0.0
 11
72.0773967217
 21
134.3281388848
 31
0.0
  0
LINE
  5
E6
330
1F
100
AcDbEntity
  8
0
  6
Continuous
 62
     7
370
     0
100
AcDbLine
 10
80.077398033
 20
135.3281371861
 30
0.0
 11
73.0773968856
 21
135.3281371861
 31
0.0
  0
LINE
  5
E7
330
1F
100
AcDbEntity
  8
0
  6
Continuous
 62
     7
370
     0
100
AcDbLine
 10
101.0773972842
 20
134.3281388848
 30
0.0
 11
92.0773972059
 21
134.3281388848
 31
0.0
  0
LINE
  5
E8
330
1F
100
AcDbEntity
  8
0
  6
Continuous
 62
     7
370
     0
100
AcDbLine
 10
100.0773971203
 20
135.3281371861
 30
0.0
 11
93.0773973699
 21
135.3281371861
 31
0.0
  0
LINE
  5
E9
330
1F
100
AcDbEntity
  8
0
  6
Continuous
 62
     7
370
     0
100
AcDbLine
 10
115.0773972506
 20
134.3281388848
 30
0.0
 11
106.0773971724
 21
134.3281388848
 31
0.0
  0
LINE
  5
EA
330
1F
100
AcDbEntity
  8
0
  6
Continuous
 62
     7
370
     0
100
AcDbLine
 10
114.0773970867
 20
135.3281371861
 30
0.0
 11
107.0773973363
 21
135.3281371861
 31
0.0
  0
LINE
  5
EB
330
1F
100
AcDbEntity
  8
0
  6
Continuous
 62
     7
370
     0
100
AcDbLine
 10
135.0773977349
 20
134.3281388848
 30
0.0
 11
126.0773981224
 21
134.3281388848
 31
0.0
  0
LINE
  5
EC
330
1F
100
AcDbEntity
  8
0
  6
Continuous
 62
     7
370
     0
100
AcDbLine
 10
134.077397571
 20
135.3281371861
 30
0.0
 11
127.0773964236
 21
135.3281371861
 31
0.0
  0
LINE
  5
ED
330
1F
100
AcDbEntity
  8
0
  6
Continuous
 62
     7
370
     0
100
AcDbLine
 10
70.0773963938
 20
131.2281367003
 30
0.0
 11
70.0773963938
 21
111.2281371474
 31
0.0
  0
LINE
  5
EE
330
1F
100
AcDbEntity
  8
0
  6
Continuous
 62
     7
370
     0
100
AcDbLine
 10
70.0773963938
 20
111.2281371474
 30
0.0
 11
68.077396066
 21
111.2281371474
 31
0.0
  0
LINE
  5
EF
330
1F
100
AcDbEntity
  8
0
  6
Continuous
 62
     7
370
     0
100
AcDbLine
 10
68.077396066
 20
111.2281371474
 30
0.0
 11
68.077396066
 21
131.2281367003
 31
0.0
  0
LINE
  5
F0
330
1F
100
AcDbEntity
  8
0
  6
Continuous
 62
     7
370
     0
100
AcDbLine
 10
68.077396066
 20
131.2281367003
 30
0.0
 11
70.0773963938
 21
131.2281367003
 31
0.0
  0
CIRCLE
  5
F1
330
1F
100
AcDbEntity
  8
0
  6
Continuous
 62
     7
370
     0
100
AcDbCircle
 10
76.5773972283
 20
118.2281374597
 30
0.0
 40
4.867121499999982
  0
CIRCLE
  5
F2
330
1F
100
AcDbEntity
  8
0
  6
Continuous
 62
     7
370
     0
100
AcDbCircle
 10
96.5773972283
 20
118.2281374597
 30
0.0
 40
4.867121499999996
  0
CIRCLE
  5
F3
330
1F
100
AcDbEntity
  8
0
  6
Continuous
 62
     7
370
     0
100
AcDbCircle
 10
110.5773972283
 20
118.2281374597
 30
0.0
 40
4.867121499999982
  0
CIRCLE
  5
F4
330
1F
100
AcDbEntity
  8
0
  6
Continuous
 62
     7
370
     0
100
AcDbCircle
 10
130.5773972283
 20
118.2281374597
 30
0.0
 40
4.867121499999996
  0
LINE
  5
F5
330
1F
100
AcDbEntity
  8
0
  6
Continuous
 62
     7
370
     0
100
AcDbLine
 10
137.0773980628
 20
111.2281371474
 30
0.0
 11
137.0773980628
 21
131.2281367003
 31
0.0
  0
CIRCLE
  5
F6
330
1F
100
AcDbEntity
  8
0
  6
Continuous
 62
     7
370
     0
100
AcDbCircle
 10
120.5773972283
 20
126.3281374597
 30
0.0
 40
4.25
  0
CIRCLE
  5
F7
330
1F
100
AcDbEntity
  8
0
  6
Continuous
 62
     7
370
     0
100
AcDbCircle
 10
86.5773972283
 20
126.3281374597
 30
0.0
 40
4.250000000000014
  0
LINE
  5
F8
330
1F
100
AcDbEntity
  8
0
  6
Continuous
 62
     7
370
     0
100
AcDbLine
 10
70.0773963938
 20
111.2281371474
 30
0.0
 11
137.0773980628
 21
111.2281371474
 31
0.0
  0
LINE
  5
F9
330
1F
100
AcDbEntity
  8
0
  6
Continuous
 62
     7
370
     0
100
AcDbLine
 10
137.0773980628
 20
131.2281367003
 30
0.0
 11
70.0773963938
 21
131.2281367003
 31
0.0
  0
CIRCLE
  5
FA
330
1F
100
AcDbEntity
  8
0
  6
Continuous
 62
     7
370
     0
100
AcDbCircle
 10
130.5773972283
 20
118.2281374597
 30
0.0
 40
4.632996842010158
  0
CIRCLE
  5
FB
330
1F
100
AcDbEntity
  8
0
  6
Continuous
 62
     7
370
     0
100
AcDbCircle
 10
96.5773972283
 20
118.2281374597
 30
0.0
 40
4.632996842010158
  0
LINE
  5
FC
330
1F
100
AcDbEntity
  8
0
  6
Continuous
 62
     7
370
     0
100
AcDbLine
 10
139.0773983906
 20
131.2281367003
 30
0.0
 11
139.0773983906
 21
111.2281371474
 31
0.0
  0
LINE
  5
FD
330
1F
100
AcDbEntity
  8
0
  6
Continuous
 62
     7
370
     0
100
AcDbLine
 10
139.0773983906
 20
111.2281371474
 30
0.0
 11
137.0773980628
 21
111.2281371474
 31
0.0
  0
LINE
  5
FE
330
1F
100
AcDbEntity
  8
0
  6
Continuous
 62
     7
370
     0
100
AcDbLine
 10
137.0773980628
 20
131.2281367003
 30
0.0
 11
139.0773983906
 21
131.2281367003
 31
0.0
  0
CIRCLE
  5
FF
330
1F
100
AcDbEntity
  8
0
  6
Continuous
 62
     7
370
     0
100
AcDbCircle
 10
110.5773972283
 20
118.2281374597
 30
0.0
 40
4.632996842010144
  0
CIRCLE
  5
100
330
1F
100
AcDbEntity
  8
0
  6
Continuous
 62
     7
370
     0
100
AcDbCircle
 10
76.5773972283
 20
118.2281374597
 30
0.0
 40
4.632996842010144
  0
CIRCLE
  5
101
330
1F
100
AcDbEntity
  8
0
  6
Continuous
 62
     7
370
     0
100
AcDbCircle
 10
86.5773972283
 20
126.3281374597
 30
0.0
 40
2.25
  0
CIRCLE
  5
102
330
1F
100
AcDbEntity
  8
0
  6
Continuous
 62
     7
370
     0
100
AcDbCircle
 10
120.5773972283
 20
126.3281374597
 30
0.0
 40
2.250000000000014
  0
CIRCLE
  5
103
330
1F
100
AcDbEntity
  8
0
  6
Continuous
 62
     7
370
     0
100
AcDbCircle
 10
76.5773972283
 20
118.2281374597
 30
0.0
 40
3.949999999999989
  0
CIRCLE
  5
104
330
1F
100
AcDbEntity
  8
0
  6
Continuous
 62
     7
370
     0
100
AcDbCircle
 10
110.5773972283
 20
118.2281374597
 30
0.0
 40
3.949999999999989
  0
CIRCLE
  5
105
330
1F
100
AcDbEntity
  8
0
  6
Continuous
 62
     7
370
     0
100
AcDbCircle
 10
96.5773972283
 20
118.2281374597
 30
0.0
 40
3.950000000000003
  0
CIRCLE
  5
106
330
1F
100
AcDbEntity
  8
0
  6
Continuous
 62
     7
370
     0
100
AcDbCircle
 10
130.5773972283
 20
118.2281374597
 30
0.0
 40
3.950000000000017
  0
DIMENSION
  5
107
330
1F
100
AcDbEntity
  8
0
  6
Continuous
 62
     7
370
     0
100
AcDbDimension
  2
_D
 10
58.0773972283
 20
111.2281374597
 30
0.0
 11
58.0773972283
 21
124.0281374597
 31
0.0
 70
   160
  1
<>
 71
     2
 42
-1.0
  3
SLDDIMSTYLE0
100
AcDbAlignedDimension
 13
73.8273972283
 23
136.8281374597
 33
0.0
 14
68.0773972283
 24
111.2281374597
 34
0.0
 50
90.0
100
AcDbRotatedDimension
  0
DIMENSION
  5
112
330
1F
100
AcDbEntity
  8
0
  6
Continuous
 62
     7
370
     0
100
AcDbDimension
  2
_D_1
 10
152.0605226688
 20
126.3281374597
 30
0.0
 11
152.0605226688
 21
118.7781374597
 31
0.0
 70
   160
  1
<>
 71
     2
 42
-1.0
  3
SLDDIMSTYLE1
100
AcDbAlignedDimension
 13
139.0773972283
 23
111.2281374597
 33
0.0
 14
127.3273972283
 24
126.3281374597
 34
0.0
 50
90.0
100
AcDbRotatedDimension
  0
DIMENSION
  5
11F
330
1F
100
AcDbEntity
  8
0
  6
Continuous
 62
     7
370
     0
100
AcDbDimension
  2
_D_2
 10
86.5773972283
 20
146.8281374597
 30
0.0
 11
77.3273972283
 21
146.8281374597
 31
0.0
 70
   160
  1
<>
 71
     2
 42
-1.0
  3
SLDDIMSTYLE0
100
AcDbAlignedDimension
 13
68.0773972283
 23
131.2281374597
 33
0.0
 14
86.5773972283
 24
133.0781374597
 34
0.0
100
AcDbRotatedDimension
  0
DIMENSION
  5
129
330
1F
100
AcDbEntity
  8
0
  6
Continuous
 62
     7
370
     0
100
AcDbDimension
  2
_D_3
 10
120.5773972283
 20
146.8281374597
 30
0.0
 11
103.5773972283
 21
146.8281374597
 31
0.0
 70
   160
  1
<>
 71
     2
 42
-1.0
  3
SLDDIMSTYLE0
100
AcDbAlignedDimension
 13
86.5773972283
 23
133.0781374597
 33
0.0
 14
120.5773972283
 24
133.0781374597
 34
0.0
100
AcDbRotatedDimension
  0
DIMENSION
  5
133
330
1F
100
AcDbEntity
  8
0
  6
Continuous
 62
     7
370
     0
100
AcDbDimension
  2
_D_4
 10
139.0773972283
 20
146.8281374597
 30
0.0
 11
129.8273972283
 21
146.8281374597
 31
0.0
 70
   160
  1
<>
 71
     2
 42
-1.0
  3
SLDDIMSTYLE0
100
AcDbAlignedDimension
 13
120.5773972283
 23
133.0781374597
 33
0.0
 14
139.0773972283
 24
131.2281374597
 34
0.0
100
AcDbRotatedDimension
  0
DIMENSION
  5
13D
330
1F
100
AcDbEntity
  8
0
  6
Continuous
 62
     7
370
     0
100
AcDbDimension
  2
_D_5
 10
128.1438364783
 20
122.443188322
 30
0.0
 11
152.0605226688
 21
98.1521853646
 31
0.0
 70
   163
  1
4-Rc1/8
 71
     1
 42
-1.0
  3
SLDDIMSTYLE2
100
AcDbDiametricDimension
 15
133.0109579783
 25
114.0130865974
 35
0.0
 40
0.0
  0
DIMENSION
  5
146
330
1F
100
AcDbEntity
  8
0
  6
Continuous
 62
     7
370
     0
100
AcDbDimension
  2
_D_6
 10
119.0006347112
 20
130.2748221398
 30
0.0
 11
161.2384878156
 21
86.6327904474
 31
0.0
 70
   163
  1
2-%%c4.5,<>ザグリ深6
 71
     1
 42
-1.0
  3
SLDDIMSTYLE3
100
AcDbDiametricDimension
 15
122.1541597454
 25
122.3814527795
 35
0.0
 40
0.0
  0
INSERT
  5
15F
330
1F
100
AcDbEntity
  8
0
  6
Continuous
 62
     7
370
     0
100
AcDbBlockReference
  2
SW_CENTERMARKSYMBOL_0
 10
86.5773972283
 20
126.3281374597
 30
0.0
  0
INSERT
  5
16B
330
1F
100
AcDbEntity
  8
0
  6
Continuous
 62
     7
370
     0
100
AcDbBlockReference
  2
SW_CENTERMARKSYMBOL_1
 10
120.5773972283
 20
126.3281374597
 30
0.0
  0
LINE
  5
16C
330
1F
100
AcDbEntity
  8
0
  6
Continuous
 62
     7
370
     0
100
AcDbLine
 10
92.5773972879
 20
233.498576243
 30
0.0
 11
92.175473855
 21
234.9985755576
 31
0.0
  0
LINE
  5
16D
330
1F
100
AcDbEntity
  8
0
  6
Continuous
 62
     7
370
     0
100
AcDbLine
 10
88.9793209965
 20
234.9985755576
 30
0.0
 11
88.5773975636
 21
233.498576243
 31
0.0
  0
LINE
  5
16E
330
1F
100
AcDbEntity
  8
0
  6
Continuous
 62
     7
370
     0
100
AcDbLine
 10
88.5773975636
 20
233.498576243
 30
0.0
 11
88.5773975636
 21
230.4985757513
 31
0.0
  0
LINE
  5
16F
330
1F
100
AcDbEntity
  8
0
  6
Continuous
 62
     7
370
     0
100
AcDbLine
 10
92.5773972879
 20
230.4985757513
 30
0.0
 11
92.5773972879
 21
233.498576243
 31
0.0
  0
LINE
  5
170
330
1F
100
AcDbEntity
  8
0
  6
Continuous
 62
     7
370
     0
100
AcDbLine
 10
118.577396893
 20
233.498576243
 30
0.0
 11
118.1754734601
 21
234.9985755576
 31
0.0
  0
LINE
  5
171
330
1F
100
AcDbEntity
  8
0
  6
Continuous
 62
     7
370
     0
100
AcDbLine
 10
114.9793206016
 20
234.9985755576
 30
0.0
 11
114.5773971687
 21
233.498576243
 31
0.0
  0
LINE
  5
172
330
1F
100
AcDbEntity
  8
0
  6
Continuous
 62
     7
370
     0
100
AcDbLine
 10
114.5773971687
 20
233.498576243
 30
0.0
 11
114.5773971687
 21
230.4985757513
 31
0.0
  0
LINE
  5
173
330
1F
100
AcDbEntity
  8
0
  6
Continuous
 62
     7
370
     0
100
AcDbLine
 10
118.577396893
 20
230.4985757513
 30
0.0
 11
118.577396893
 21
233.498576243
 31
0.0
  0
ARC
  5
174
330
1F
100
AcDbEntity
  8
0
  6
Continuous
 62
     7
370
     0
100
AcDbCircle
 10
76.5773972283
 20
220.4985759748
 30
0.0
 40
2.750000000000066
100
AcDbArc
 50
49.2140662407
 51
118.2627028479
  0
SPLINE
  5
175
330
1F
100
AcDbEntity
  8
0
  6
Continuous
 62
     7
370
     0
100
AcDbSpline
210
0.0
220
0.0
230
1.0
 70
    24
 71
     3
 72
    11
 73
     7
 74
     0
 42
0.000000001
 43
0.00000001
 40
0.004199693779034
 40
0.004199693779034
 40
0.004199693779034
 40
0.004199693779034
 40
0.0045714279294727
 40
0.0045714279294727
 40
0.0045714279294727
 40
0.0052314151081104
 40
0.0052314151081104
 40
0.0052314151081104
 40
0.0052314151081104
 10
75.27523110267384
 20
222.9207368656581
 30
0.0
 10
75.25612541470186
 20
222.9445519483031
 30
0.0
 10
75.23702976298692
 20
222.9683545208364
 30
0.0
 10
75.21794319549585
 20
222.9921457699594
 30
0.0
 10
75.18405637519344
 20
223.0343854122723
 30
0.0
 10
75.15019813491685
 20
223.0765894298184
 30
0.0
 10
75.11636402524438
 20
223.1187633687653
 30
0.0
  0
ARC
  5
176
330
1F
100
AcDbEntity
  8
0
  6
Continuous
 62
     7
370
     0
100
AcDbCircle
 10
76.5773972283
 20
220.4985759748
 30
0.0
 40
3.000000000000014
100
AcDbArc
 50
48.3324527712
 51
119.1443163175
  0
SPLINE
  5
177
330
1F
100
AcDbEntity
  8
0
  6
Continuous
 62
     7
370
     0
100
AcDbSpline
210
0.0
220
0.0
230
1.0
 70
    24
 71
     3
 72
     8
 73
     4
 74
     0
 42
0.000000001
 43
0.00000001
 40
0.0
 40
0.0
 40
0.0
 40
0.0
 40
1.0
 40
1.0
 40
1.0
 40
1.0
 10
78.57181926733351
 20
222.7396205370788
 30
0.0
 10
78.50589108798539
 20
222.6867295502213
 30
0.0
 10
78.43988977216895
 20
222.6337798895157
 30
0.0
 10
78.3737927642263
 20
222.5807534596494
 30
0.0
  0
ARC
  5
178
330
1F
100
AcDbEntity
  8
0
  6
Continuous
 62
     7
370
     0
100
AcDbCircle
 10
76.5773972283
 20
220.4985759748
 30
0.0
 40
2.999999999999996
100
AcDbArc
 50
318.3324527712
 51
29.1443163175
  0
SPLINE
  5
179
330
1F
100
AcDbEntity
  8
0
  6
Continuous
 62
     7
370
     0
100
AcDbSpline
210
0.0
220
0.0
230
1.0
 70
    24
 71
     3
 72
     8
 73
     4
 74
     0
 42
0.000000001
 43
0.00000001
 40
0.0
 40
0.0
 40
0.0
 40
0.0
 40
1.0
 40
1.0
 40
1.0
 40
1.0
 10
78.81844179059064
 20
218.5041539357441
 30
0.0
 10
78.76555080806983
 20
218.5700821096865
 30
0.0
 10
78.71260114895185
 20
218.636083423524
 30
0.0
 10
78.65957471316119
 20
218.7021804388513
 30
0.0
  0
ARC
  5
17A
330
1F
100
AcDbEntity
  8
0
  6
Continuous
 62
     7
370
     0
100
AcDbCircle
 10
76.5773972283
 20
220.4985759748
 30
0.0
 40
2.750000000000005
100
AcDbArc
 50
319.2140662407
 51
28.2627028479
  0
SPLINE
  5
17B
330
1F
100
AcDbEntity
  8
0
  6
Continuous
 62
     7
370
     0
100
AcDbSpline
210
0.0
220
0.0
230
1.0
 70
    24
 71
     3
 72
    11
 73
     7
 74
     0
 42
0.000000001
 43
0.00000001
 40
0.0041333666424306
 40
0.0041333666424306
 40
0.0041333666424306
 40
0.0041333666424306
 40
0.0046138376121394
 40
0.0046138376121394
 40
0.0046138376121394
 40
0.0051650880369003
 40
0.0051650880369003
 40
0.0051650880369003
 40
0.0051650880369003
 10
78.9995581191699
 20
221.8007421004037
 30
0.0
 10
79.03033940376412
 20
221.8254364349816
 30
0.0
 10
79.06109980355878
 20
221.8501140146957
 30
0.0
 10
79.09184183236987
 20
221.874776856259
 30
0.0
 10
79.12711254882292
 20
221.903072844694
 30
0.0
 10
79.16235908861799
 20
221.9313494373666
 30
0.0
 10
79.19758462227712
 20
221.9596091778332
 30
0.0
  0
ARC
  5
17C
330
1F
100
AcDbEntity
  8
0
  6
Continuous
 62
     7
370
     0
100
AcDbCircle
 10
76.5773972283
 20
220.4985759748
 30
0.0
 40
2.000000000000028
100
AcDbArc
 50
53.2158967302
 51
114.2608723584
  0
LINE
  5
17D
330
1F
100
AcDbEntity
  8
0
  6
Continuous
 62
     7
370
     0
100
AcDbLine
 10
75.7556142519
 20
222.3219441078
 30
0.0
 11
75.2752306173
 21
222.9207369094
 31
0.0
  0
LINE
  5
17E
330
1F
100
AcDbEntity
  8
0
  6
Continuous
 62
     7
370
     0
100
AcDbLine
 10
78.3737929771
 20
222.5807534126
 30
0.0
 11
77.7749991278
 21
222.1003710586
 31
0.0
  0
ARC
  5
17F
330
1F
100
AcDbEntity
  8
0
  6
Continuous
 62
     7
370
     0
100
AcDbCircle
 10
76.5773972283
 20
220.4985759748
 30
0.0
 40
2.750000000000064
100
AcDbArc
 50
139.2140662407
 51
208.2627028479
  0
LINE
  5
180
330
1F
100
AcDbEntity
  8
0
  6
Continuous
 62
     7
370
     0
100
AcDbLine
 10
74.4952200214
 20
222.2949714927
 30
0.0
 11
74.9756017933
 21
221.6961788075
 31
0.0
  0
ARC
  5
181
330
1F
100
AcDbEntity
  8
0
  6
Continuous
 62
     7
370
     0
100
AcDbCircle
 10
76.5773972283
 20
220.4985759748
 30
0.0
 40
2.000000000000059
100
AcDbArc
 50
143.2158967302
 51
204.2608723584
  0
LINE
  5
182
330
1F
100
AcDbEntity
  8
0
  6
Continuous
 62
     7
370
     0
100
AcDbLine
 10
74.754028977
 20
219.6767922436
 30
0.0
 11
74.1552369903
 21
219.1964098314
 31
0.0
  0
ARC
  5
183
330
1F
100
AcDbEntity
  8
0
  6
Continuous
 62
     7
370
     0
100
AcDbCircle
 10
76.5773972283
 20
220.4985759748
 30
0.0
 40
3.000000000000004
100
AcDbArc
 50
138.3324527712
 51
209.1443163175
  0
SPLINE
  5
184
330
1F
100
AcDbEntity
  8
0
  6
Continuous
 62
     7
370
     0
100
AcDbSpline
210
0.0
220
0.0
230
1.0
 70
    24
 71
     3
 72
     8
 73
     4
 74
     0
 42
0.000000001
 43
0.00000001
 40
0.0
 40
0.0
 40
0.0
 40
0.0
 40
1.0
 40
1.0
 40
1.0
 40
1.0
 10
74.33635266599869
 20
222.4929980138217
 30
0.0
 10
74.38924364851951
 20
222.4270698398792
 30
0.0
 10
74.4421933076375
 20
222.3610685260417
 30
0.0
 10
74.49521974342815
 20
222.2949715107144
 30
0.0
  0
SPLINE
  5
185
330
1F
100
AcDbEntity
  8
0
  6
Continuous
 62
     7
370
     0
100
AcDbSpline
210
0.0
220
0.0
230
1.0
 70
    24
 71
     3
 72
    11
 73
     7
 74
     0
 42
0.000000001
 43
0.00000001
 40
0.0041333666424306
 40
0.0041333666424306
 40
0.0041333666424306
 40
0.0041333666424306
 40
0.0046138376121395
 40
0.0046138376121395
 40
0.0046138376121395
 40
0.0051650880369003
 40
0.0051650880369003
 40
0.0051650880369003
 40
0.0051650880369003
 10
74.15523633741944
 20
219.196409849162
 30
0.0
 10
74.12445505282523
 20
219.1717155145842
 30
0.0
 10
74.09369465303055
 20
219.1470379348701
 30
0.0
 10
74.06295262421943
 20
219.1223750933067
 30
0.0
 10
74.02768190776641
 20
219.0940791048718
 30
0.0
 10
73.99243536797134
 20
219.0658025121992
 30
0.0
 10
73.95720983431222
 20
219.0375427717325
 30
0.0
  0
LINE
  5
186
330
1F
100
AcDbEntity
  8
0
  6
Continuous
 62
     7
370
     0
100
AcDbLine
 10
78.6595748971
 20
218.7021804569
 30
0.0
 11
78.1791931252
 21
219.3009731421
 31
0.0
  0
ARC
  5
187
330
1F
100
AcDbEntity
  8
0
  6
Continuous
 62
     7
370
     0
100
AcDbCircle
 10
76.5773972283
 20
220.4985759748
 30
0.0
 40
1.999999999999995
100
AcDbArc
 50
323.2158967302
 51
24.2608723584
  0
LINE
  5
188
330
1F
100
AcDbEntity
  8
0
  6
Continuous
 62
     7
370
     0
100
AcDbLine
 10
78.4007659416
 20
221.320359706
 30
0.0
 11
78.9995579283
 21
221.8007421182
 31
0.0
  0
ARC
  5
189
330
1F
100
AcDbEntity
  8
0
  6
Continuous
 62
     7
370
     0
100
AcDbCircle
 10
76.5773972283
 20
220.4985759748
 30
0.0
 40
2.750000000000005
100
AcDbArc
 50
229.2140662407
 51
298.2627028479
  0
SPLINE
  5
18A
330
1F
100
AcDbEntity
  8
0
  6
Continuous
 62
     7
370
     0
100
AcDbSpline
210
0.0
220
0.0
230
1.0
 70
    24
 71
     3
 72
    11
 73
     7
 74
     0
 42
0.000000001
 43
0.00000001
 40
0.0041996937790339
 40
0.0041996937790339
 40
0.0041996937790339
 40
0.0041996937790339
 40
0.0045714279294727
 40
0.0045714279294727
 40
0.0045714279294727
 40
0.0052314151081104
 40
0.0052314151081104
 40
0.0052314151081104
 40
0.0052314151081104
 10
77.87956335391549
 20
218.0764150839076
 30
0.0
 10
77.8986690418875
 20
218.0526000012626
 30
0.0
 10
77.9177646936024
 20
218.0287974287294
 30
0.0
 10
77.93685126109345
 20
218.0050061796063
 30
0.0
 10
77.97073808139588
 20
217.9627665372935
 30
0.0
 10
78.00459632167251
 20
217.9205625197473
 30
0.0
 10
78.03843043134495
 20
217.8783885808004
 30
0.0
  0
ARC
  5
18B
330
1F
100
AcDbEntity
  8
0
  6
Continuous
 62
     7
370
     0
100
AcDbCircle
 10
76.5773972283
 20
220.4985759748
 30
0.0
 40
2.999999999999986
100
AcDbArc
 50
228.3324527712
 51
299.1443163175
  0
SPLINE
  5
18C
330
1F
100
AcDbEntity
  8
0
  6
Continuous
 62
     7
370
     0
100
AcDbSpline
210
0.0
220
0.0
230
1.0
 70
    24
 71
     3
 72
     8
 73
     4
 74
     0
 42
0.000000001
 43
0.00000001
 40
0.0
 40
0.0
 40
0.0
 40
0.0
 40
1.0
 40
1.0
 40
1.0
 40
1.0
 10
74.58297518925585
 20
218.2575314124869
 30
0.0
 10
74.64890336860394
 20
218.3104223993444
 30
0.0
 10
74.71490468442039
 20
218.3633720600501
 30
0.0
 10
74.78100169236305
 20
218.4163984899164
 30
0.0
  0
LINE
  5
18D
330
1F
100
AcDbEntity
  8
0
  6
Continuous
 62
     7
370
     0
100
AcDbLine
 10
77.3991806666
 20
218.6752078417
 30
0.0
 11
77.8795624385
 21
218.0764150401
 31
0.0
  0
LINE
  5
18E
330
1F
100
AcDbEntity
  8
0
  6
Continuous
 62
     7
370
     0
100
AcDbLine
 10
74.7810019414
 20
218.4163985369
 30
0.0
 11
75.3797939281
 21
218.8967808909
 31
0.0
  0
ARC
  5
18F
330
1F
100
AcDbEntity
  8
0
  6
Continuous
 62
     7
370
     0
100
AcDbCircle
 10
76.5773972283
 20
220.4985759748
 30
0.0
 40
2.000000000000028
100
AcDbArc
 50
233.2158967302
 51
294.2608723584
  0
ARC
  5
190
330
1F
100
AcDbEntity
  8
0
  6
Continuous
 62
     7
370
     0
100
AcDbCircle
 10
76.5773972283
 20
220.4985759748
 30
0.0
 40
3.000000000000014
100
AcDbArc
 50
119.1443163175
 51
138.3324527712
  0
ARC
  5
191
330
1F
100
AcDbEntity
  8
0
  6
Continuous
 62
     7
370
     0
100
AcDbCircle
 10
76.5773972283
 20
220.4985759748
 30
0.0
 40
2.000000000000059
100
AcDbArc
 50
114.2608723584
 51
143.2158967302
  0
ARC
  5
192
330
1F
100
AcDbEntity
  8
0
  6
Continuous
 62
     7
370
     0
100
AcDbCircle
 10
76.5773972283
 20
220.4985759748
 30
0.0
 40
3.000000000000008
100
AcDbArc
 50
29.1443163175
 51
48.3324527712
  0
ARC
  5
193
330
1F
100
AcDbEntity
  8
0
  6
Continuous
 62
     7
370
     0
100
AcDbCircle
 10
76.5773972283
 20
220.4985759748
 30
0.0
 40
1.999999999999995
100
AcDbArc
 50
24.2608723584
 51
53.2158967302
  0
ARC
  5
194
330
1F
100
AcDbEntity
  8
0
  6
Continuous
 62
     7
370
     0
100
AcDbCircle
 10
76.5773972283
 20
220.4985759748
 30
0.0
 40
3.000000000000004
100
AcDbArc
 50
209.1443163175
 51
228.3324527712
  0
ARC
  5
195
330
1F
100
AcDbEntity
  8
0
  6
Continuous
 62
     7
370
     0
100
AcDbCircle
 10
76.5773972283
 20
220.4985759748
 30
0.0
 40
1.999999999999997
100
AcDbArc
 50
204.2608723584
 51
233.2158967302
  0
ARC
  5
196
330
1F
100
AcDbEntity
  8
0
  6
Continuous
 62
     7
370
     0
100
AcDbCircle
 10
76.5773972283
 20
220.4985759748
 30
0.0
 40
2.999999999999986
100
AcDbArc
 50
299.1443163175
 51
318.3324527712
  0
ARC
  5
197
330
1F
100
AcDbEntity
  8
0
  6
Continuous
 62
     7
370
     0
100
AcDbCircle
 10
76.5773972283
 20
220.4985759748
 30
0.0
 40
2.000000000000028
100
AcDbArc
 50
294.2608723584
 51
323.2158967302
  0
CIRCLE
  5
198
330
1F
100
AcDbEntity
  8
0
  6
Continuous
 62
     7
370
     0
100
AcDbCircle
 10
76.5773972283
 20
220.4985759748
 30
0.0
 40
4.800000000000011
  0
CIRCLE
  5
199
330
1F
100
AcDbEntity
  8
0
  6
Continuous
 62
     7
370
     0
100
AcDbCircle
 10
76.5773972283
 20
220.4985759748
 30
0.0
 40
5.000000000000005
  0
ARC
  5
19A
330
1F
100
AcDbEntity
  8
0
  6
Continuous
 62
     7
370
     0
100
AcDbCircle
 10
96.5773972283
 20
220.4985759748
 30
0.0
 40
3.000000000000012
100
AcDbArc
 50
22.4656528437
 51
93.27751639
  0
SPLINE
  5
19B
330
1F
100
AcDbEntity
  8
0
  6
Continuous
 62
     7
370
     0
100
AcDbSpline
210
0.0
220
0.0
230
1.0
 70
    24
 71
     3
 72
     8
 73
     4
 74
     0
 42
0.000000001
 43
0.00000001
 40
0.0
 40
0.0
 40
0.0
 40
0.0
 40
1.0
 40
1.0
 40
1.0
 40
1.0
 10
99.34972355059163
 20
221.6449645488272
 30
0.0
 10
99.26732536958274
 20
221.626135849514
 30
0.0
 10
99.18483577705818
 20
221.6072862618763
 30
0.0
 10
99.10222657514335
 20
221.588409342455
 30
0.0
  0
ARC
  5
19C
330
1F
100
AcDbEntity
  8
0
  6
Continuous
 62
     7
370
     0
100
AcDbCircle
 10
96.5773972283
 20
220.4985759748
 30
0.0
 40
2.749999999999989
100
AcDbArc
 50
23.3472663133
 51
92.3959029205
  0
SPLINE
  5
19D
330
1F
100
AcDbEntity
  8
0
  6
Continuous
 62
     7
370
     0
100
AcDbSpline
210
0.0
220
0.0
230
1.0
 70
    24
 71
     3
 72
    11
 73
     7
 74
     0
 42
0.000000001
 43
0.00000001
 40
0.0041333666424306
 40
0.0041333666424306
 40
0.0041333666424306
 40
0.0041333666424306
 40
0.0046138376121394
 40
0.0046138376121394
 40
0.0046138376121394
 40
0.0051650880369003
 40
0.0051650880369003
 40
0.0051650880369003
 40
0.0051650880369003
 10
96.46243565404137
 20
223.2461719851973
 30
0.0
 10
96.45364469992508
 20
223.2846429712418
 30
0.0
 10
96.44485971038489
 20
223.3230878550997
 30
0.0
 10
96.43607996748972
 20
223.3615097785822
 30
0.0
 10
96.42600685799883
 20
223.4055917348207
 30
0.0
 10
96.41594065321947
 20
223.4496434746506
 30
0.0
 10
96.40588044766919
 20
223.4936689606456
 30
0.0
  0
ARC
  5
19E
330
1F
100
AcDbEntity
  8
0
  6
Continuous
 62
     7
370
     0
100
AcDbCircle
 10
96.5773972283
 20
220.4985759748
 30
0.0
 40
2.000000000000036
100
AcDbArc
 50
117.3490968028
 51
178.394072431
  0
LINE
  5
19F
330
1F
100
AcDbEntity
  8
0
  6
Continuous
 62
     7
370
     0
100
AcDbLine
 10
94.5781827207
 20
220.5546260814
 30
0.0
 11
93.8298007707
 21
220.3836144038
 31
0.0
  0
ARC
  5
1A0
330
1F
100
AcDbEntity
  8
0
  6
Continuous
 62
     7
370
     0
100
AcDbCircle
 10
96.5773972283
 20
220.4985759748
 30
0.0
 40
2.750000000000071
100
AcDbArc
 50
113.3472663133
 51
182.3959029205
  0
LINE
  5
1A1
330
1F
100
AcDbEntity
  8
0
  6
Continuous
 62
     7
370
     0
100
AcDbLine
 10
95.4875642667
 20
223.0234052116
 30
0.0
 11
95.6585755805
 21
222.2750237273
 31
0.0
  0
LINE
  5
1A2
330
1F
100
AcDbEntity
  8
0
  6
Continuous
 62
     7
370
     0
100
AcDbLine
 10
99.1022264818
 20
221.5884093024
 30
0.0
 11
98.3538449975
 21
221.4173976393
 31
0.0
  0
ARC
  5
1A3
330
1F
100
AcDbEntity
  8
0
  6
Continuous
 62
     7
370
     0
100
AcDbCircle
 10
96.5773972283
 20
220.4985759748
 30
0.0
 40
1.999999999999978
100
AcDbArc
 50
27.3490968028
 51
88.394072431
  0
LINE
  5
1A4
330
1F
100
AcDbEntity
  8
0
  6
Continuous
 62
     7
370
     0
100
AcDbLine
 10
96.6334472644
 20
222.4977904992
 30
0.0
 11
96.4624354849
 21
223.2461719835
 31
0.0
  0
SPLINE
  5
1A5
330
1F
100
AcDbEntity
  8
0
  6
Continuous
 62
     7
370
     0
100
AcDbSpline
210
0.0
220
0.0
230
1.0
 70
    24
 71
     3
 72
    11
 73
     7
 74
     0
 42
0.000000001
 43
0.00000001
 40
0.004199693779034
 40
0.004199693779034
 40
0.004199693779034
 40
0.004199693779034
 40
0.0045714279294727
 40
0.0045714279294727
 40
0.0045714279294727
 40
0.0052314151081104
 40
0.0052314151081104
 40
0.0052314151081104
 40
0.0052314151081104
 10
93.82980121788026
 20
220.3836144005296
 30
0.0
 10
93.80003671246203
 20
220.3768129527808
 30
0.0
 10
93.77028784239953
 20
220.3700150778465
 30
0.0
 10
93.74055312453248
 20
220.3632204368116
 30
0.0
 10
93.6877612832768
 20
220.3511570430203
 30
0.0
 10
93.63501396647557
 20
220.3391038234532
 30
0.0
 10
93.58230424243199
 20
220.3270591941574
 30
0.0
  0
ARC
  5
1A6
330
1F
100
AcDbEntity
  8
0
  6
Continuous
 62
     7
370
     0
100
AcDbCircle
 10
96.5773972283
 20
220.4985759748
 30
0.0
 40
3.000000000000024
100
AcDbArc
 50
112.4656528437
 51
183.27751639
  0
SPLINE
  5
1A7
330
1F
100
AcDbEntity
  8
0
  6
Continuous
 62
     7
370
     0
100
AcDbSpline
210
0.0
220
0.0
230
1.0
 70
    24
 71
     3
 72
     8
 73
     4
 74
     0
 42
0.000000001
 43
0.00000001
 40
0.0
 40
0.0
 40
0.0
 40
0.0
 40
1.0
 40
1.0
 40
1.0
 40
1.0
 10
95.43100865425033
 20
223.2709022970798
 30
0.0
 10
95.44983735510738
 20
223.1885041093149
 30
0.0
 10
95.4686869433103
 20
223.1060145143169
 30
0.0
 10
95.48756386062252
 20
223.0234053216315
 30
0.0
  0
ARC
  5
1A8
330
1F
100
AcDbEntity
  8
0
  6
Continuous
 62
     7
370
     0
100
AcDbCircle
 10
96.5773972283
 20
220.4985759748
 30
0.0
 40
2.750000000000054
100
AcDbArc
 50
203.3472663133
 51
272.3959029205
  0
LINE
  5
1A9
330
1F
100
AcDbEntity
  8
0
  6
Continuous
 62
     7
370
     0
100
AcDbLine
 10
94.0525675426
 20
219.4087426472
 30
0.0
 11
94.8009494926
 21
219.5797543103
 31
0.0
  0
LINE
  5
1AA
330
1F
100
AcDbEntity
  8
0
  6
Continuous
 62
     7
370
     0
100
AcDbLine
 10
96.5213472257
 20
218.4993614504
 30
0.0
 11
96.6923590052
 21
217.7509799661
 31
0.0
  0
ARC
  5
1AB
330
1F
100
AcDbEntity
  8
0
  6
Continuous
 62
     7
370
     0
100
AcDbCircle
 10
96.5773972283
 20
220.4985759748
 30
0.0
 40
2.000000000000076
100
AcDbArc
 50
207.3490968028
 51
268.394072431
  0
ARC
  5
1AC
330
1F
100
AcDbEntity
  8
0
  6
Continuous
 62
     7
370
     0
100
AcDbCircle
 10
96.5773972283
 20
220.4985759748
 30
0.0
 40
2.749999999999989
100
AcDbArc
 50
293.3472663133
 51
2.3959029205
  0
LINE
  5
1AD
330
1F
100
AcDbEntity
  8
0
  6
Continuous
 62
     7
370
     0
100
AcDbLine
 10
97.667230689
 20
217.973746738
 30
0.0
 11
97.4962189096
 21
218.7221282223
 31
0.0
  0
LINE
  5
1AE
330
1F
100
AcDbEntity
  8
0
  6
Continuous
 62
     7
370
     0
100
AcDbLine
 10
98.5766117695
 20
220.4425258681
 30
0.0
 11
99.3249932538
 21
220.6135375457
 31
0.0
  0
ARC
  5
1AF
330
1F
100
AcDbEntity
  8
0
  6
Continuous
 62
     7
370
     0
100
AcDbCircle
 10
96.5773972283
 20
220.4985759748
 30
0.0
 40
2.000000000000008
100
AcDbArc
 50
297.3490968028
 51
358.394072431
  0
ARC
  5
1B0
330
1F
100
AcDbEntity
  8
0
  6
Continuous
 62
     7
370
     0
100
AcDbCircle
 10
96.5773972283
 20
220.4985759748
 30
0.0
 40
2.999999999999977
100
AcDbArc
 50
292.4656528437
 51
3.27751639
  0
SPLINE
  5
1B1
330
1F
100
AcDbEntity
  8
0
  6
Continuous
 62
     7
370
     0
100
AcDbSpline
210
0.0
220
0.0
230
1.0
 70
    24
 71
     3
 72
     8
 73
     4
 74
     0
 42
0.000000001
 43
0.00000001
 40
0.0
 40
0.0
 40
0.0
 40
0.0
 40
1.0
 40
1.0
 40
1.0
 40
1.0
 10
97.72378580233901
 20
217.7262496524859
 30
0.0
 10
97.70495710148195
 20
217.8086478402509
 30
0.0
 10
97.68610751327904
 20
217.8911374352488
 30
0.0
 10
97.66723059596683
 20
217.9737466279342
 30
0.0
  0
SPLINE
  5
1B2
330
1F
100
AcDbEntity
  8
0
  6
Continuous
 62
     7
370
     0
100
AcDbSpline
210
0.0
220
0.0
230
1.0
 70
    24
 71
     3
 72
    11
 73
     7
 74
     0
 42
0.000000001
 43
0.00000001
 40
0.004199693779034
 40
0.004199693779034
 40
0.004199693779034
 40
0.004199693779034
 40
0.0045714279294727
 40
0.0045714279294727
 40
0.0045714279294727
 40
0.0052314151081104
 40
0.0052314151081104
 40
0.0052314151081104
 40
0.0052314151081104
 10
99.3249932387091
 20
220.6135375490361
 30
0.0
 10
99.35475774412731
 20
220.6203389967849
 30
0.0
 10
99.38450661418979
 20
220.6271368717192
 30
0.0
 10
99.41424133205685
 20
220.6339315127541
 30
0.0
 10
99.46703317331253
 20
220.6459949065454
 30
0.0
 10
99.51978049011379
 20
220.6580481261125
 30
0.0
 10
99.57249021415737
 20
220.6700927554083
 30
0.0
  0
ARC
  5
1B3
330
1F
100
AcDbEntity
  8
0
  6
Continuous
 62
     7
370
     0
100
AcDbCircle
 10
96.5773972283
 20
220.4985759748
 30
0.0
 40
3.000000000000033
100
AcDbArc
 50
202.4656528437
 51
273.27751639
  0
SPLINE
  5
1B4
330
1F
100
AcDbEntity
  8
0
  6
Continuous
 62
     7
370
     0
100
AcDbSpline
210
0.0
220
0.0
230
1.0
 70
    24
 71
     3
 72
    11
 73
     7
 74
     0
 42
0.000000001
 43
0.00000001
 40
0.0041333666424306
 40
0.0041333666424306
 40
0.0041333666424306
 40
0.0041333666424306
 40
0.0046138376121395
 40
0.0046138376121395
 40
0.0046138376121395
 40
0.0051650880369003
 40
0.0051650880369003
 40
0.0051650880369003
 40
0.0051650880369003
 10
96.69235880254797
 20
217.7509799643685
 30
0.0
 10
96.70114975666426
 20
217.7125089783239
 30
0.0
 10
96.70993474620444
 20
217.674064094466
 30
0.0
 10
96.71871448909963
 20
217.6356421709835
 30
0.0
 10
96.7287875985905
 20
217.591560214745
 30
0.0
 10
96.73885380336985
 20
217.5475084749152
 30
0.0
 10
96.74891400892015
 20
217.5034829889202
 30
0.0
  0
SPLINE
  5
1B5
330
1F
100
AcDbEntity
  8
0
  6
Continuous
 62
     7
370
     0
100
AcDbSpline
210
0.0
220
0.0
230
1.0
 70
    24
 71
     3
 72
     8
 73
     4
 74
     0
 42
0.000000001
 43
0.00000001
 40
0.0
 40
0.0
 40
0.0
 40
0.0
 40
1.0
 40
1.0
 40
1.0
 40
1.0
 10
93.80507090599774
 20
219.3521874007385
 30
0.0
 10
93.88746908700664
 20
219.3710161000517
 30
0.0
 10
93.96995867953119
 20
219.3898656876894
 30
0.0
 10
94.05256788144601
 20
219.4087426071107
 30
0.0
  0
ARC
  5
1B6
330
1F
100
AcDbEntity
  8
0
  6
Continuous
 62
     7
370
     0
100
AcDbCircle
 10
96.5773972283
 20
220.4985759748
 30
0.0
 40
3.000000000000012
100
AcDbArc
 50
93.27751639
 51
112.4656528437
  0
ARC
  5
1B7
330
1F
100
AcDbEntity
  8
0
  6
Continuous
 62
     7
370
     0
100
AcDbCircle
 10
96.5773972283
 20
220.4985759748
 30
0.0
 40
2.000000000000007
100
AcDbArc
 50
88.394072431
 51
117.3490968028
  0
ARC
  5
1B8
330
1F
100
AcDbEntity
  8
0
  6
Continuous
 62
     7
370
     0
100
AcDbCircle
 10
96.5773972283
 20
220.4985759748
 30
0.0
 40
2.999999999999963
100
AcDbArc
 50
3.27751639
 51
22.4656528437
  0
ARC
  5
1B9
330
1F
100
AcDbEntity
  8
0
  6
Continuous
 62
     7
370
     0
100
AcDbCircle
 10
96.5773972283
 20
220.4985759748
 30
0.0
 40
2.000000000000008
100
AcDbArc
 50
358.394072431
 51
27.3490968028
  0
ARC
  5
1BA
330
1F
100
AcDbEntity
  8
0
  6
Continuous
 62
     7
370
     0
100
AcDbCircle
 10
96.5773972283
 20
220.4985759748
 30
0.0
 40
3.000000000000024
100
AcDbArc
 50
183.27751639
 51
202.4656528437
  0
ARC
  5
1BB
330
1F
100
AcDbEntity
  8
0
  6
Continuous
 62
     7
370
     0
100
AcDbCircle
 10
96.5773972283
 20
220.4985759748
 30
0.0
 40
2.000000000000076
100
AcDbArc
 50
178.394072431
 51
207.3490968028
  0
ARC
  5
1BC
330
1F
100
AcDbEntity
  8
0
  6
Continuous
 62
     7
370
     0
100
AcDbCircle
 10
96.5773972283
 20
220.4985759748
 30
0.0
 40
3.000000000000033
100
AcDbArc
 50
273.27751639
 51
292.4656528437
  0
ARC
  5
1BD
330
1F
100
AcDbEntity
  8
0
  6
Continuous
 62
     7
370
     0
100
AcDbCircle
 10
96.5773972283
 20
220.4985759748
 30
0.0
 40
2.000000000000009
100
AcDbArc
 50
268.394072431
 51
297.3490968028
  0
CIRCLE
  5
1BE
330
1F
100
AcDbEntity
  8
0
  6
Continuous
 62
     7
370
     0
100
AcDbCircle
 10
96.5773972283
 20
220.4985759748
 30
0.0
 40
4.799999999999986
  0
CIRCLE
  5
1BF
330
1F
100
AcDbEntity
  8
0
  6
Continuous
 62
     7
370
     0
100
AcDbCircle
 10
96.5773972283
 20
220.4985759748
 30
0.0
 40
4.999999999999986
  0
ARC
  5
1C0
330
1F
100
AcDbEntity
  8
0
  6
Continuous
 62
     7
370
     0
100
AcDbCircle
 10
130.5773972283
 20
220.4985759748
 30
0.0
 40
2.999999999999996
100
AcDbArc
 50
44.2175626536
 51
115.0294261999
  0
SPLINE
  5
1C1
330
1F
100
AcDbEntity
  8
0
  6
Continuous
 62
     7
370
     0
100
AcDbSpline
210
0.0
220
0.0
230
1.0
 70
    24
 71
     3
 72
     8
 73
     4
 74
     0
 42
0.000000001
 43
0.00000001
 40
0.0
 40
0.0
 40
0.0
 40
0.0
 40
1.0
 40
1.0
 40
1.0
 40
1.0
 10
132.7274878522511
 20
222.5907304405847
 30
0.0
 10
132.657934349875
 20
222.5427065875675
 30
0.0
 10
132.5883036857097
 20
222.494629457486
 30
0.0
 10
132.5185720575193
 20
222.4464826158683
 30
0.0
  0
ARC
  5
1C2
330
1F
100
AcDbEntity
  8
0
  6
Continuous
 62
     7
370
     0
100
AcDbCircle
 10
130.5773972283
 20
220.4985759748
 30
0.0
 40
2.749999999999999
100
AcDbArc
 50
45.0991761232
 51
114.1478127304
  0
SPLINE
  5
1C3
330
1F
100
AcDbEntity
  8
0
  6
Continuous
 62
     7
370
     0
100
AcDbSpline
210
0.0
220
0.0
230
1.0
 70
    24
 71
     3
 72
    11
 73
     7
 74
     0
 42
0.000000001
 43
0.00000001
 40
0.0041333666424306
 40
0.0041333666424306
 40
0.0041333666424306
 40
0.0041333666424306
 40
0.0046138376121394
 40
0.0046138376121394
 40
0.0046138376121394
 40
0.0051650880369003
 40
0.0051650880369003
 40
0.0051650880369003
 40
0.0051650880369003
 10
129.4523940393216
 20
223.0079320325794
 30
0.0
 10
129.429972124704
 20
223.0404059511356
 30
0.0
 10
129.4075654231355
 20
223.0728578364567
 30
0.0
 10
129.3851721034848
 20
223.1052903405911
 30
0.0
 10
129.3594799660956
 20
223.1425005606522
 30
0.0
 10
129.3338054396336
 20
223.1796852746035
 30
0.0
 10
129.3081462146052
 20
223.2168478273113
 30
0.0
  0
ARC
  5
1C4
330
1F
100
AcDbEntity
  8
0
  6
Continuous
 62
     7
370
     0
100
AcDbCircle
 10
130.5773972283
 20
220.4985759748
 30
0.0
 40
2.749999999999999
100
AcDbArc
 50
315.0991761232
 51
24.1478127304
  0
SPLINE
  5
1C5
330
1F
100
AcDbEntity
  8
0
  6
Continuous
 62
     7
370
     0
100
AcDbSpline
210
0.0
220
0.0
230
1.0
 70
    24
 71
     3
 72
    11
 73
     7
 74
     0
 42
0.000000001
 43
0.00000001
 40
0.0041996937790339
 40
0.0041996937790339
 40
0.0041996937790339
 40
0.0041996937790339
 40
0.0045714279294727
 40
0.0045714279294727
 40
0.0045714279294727
 40
0.0052314151081104
 40
0.0052314151081104
 40
0.0052314151081104
 40
0.0052314151081104
 10
133.0867532860913
 20
221.6235791637559
 30
0.0
 10
133.1118779377885
 20
221.6409267097312
 30
0.0
 10
133.1369893914546
 20
221.658265143005
 30
0.0
 10
133.1620888990468
 20
221.6755953280027
 30
0.0
 10
133.2066512596628
 20
221.7063638182039
 30
0.0
 10
133.2511760365396
 20
221.737106358368
 30
0.0
 10
133.2956690808231
 20
221.7678269884723
 30
0.0
  0
ARC
  5
1C6
330
1F
100
AcDbEntity
  8
0
  6
Continuous
 62
     7
370
     0
100
AcDbCircle
 10
130.5773972283
 20
220.4985759748
 30
0.0
 40
3.0
100
AcDbArc
 50
314.2175626536
 51
25.0294261999
  0
SPLINE
  5
1C7
330
1F
100
AcDbEntity
  8
0
  6
Continuous
 62
     7
370
     0
100
AcDbSpline
210
0.0
220
0.0
230
1.0
 70
    24
 71
     3
 72
     8
 73
     4
 74
     0
 42
0.000000001
 43
0.00000001
 40
0.0
 40
0.0
 40
0.0
 40
0.0
 40
1.0
 40
1.0
 40
1.0
 40
1.0
 10
132.6695516940965
 20
218.3484853508264
 30
0.0
 10
132.6215278371417
 20
218.4180388589054
 30
0.0
 10
132.5734507056186
 20
218.4876695251586
 30
0.0
 10
132.5253038693801
 20
218.5574011455582
 30
0.0
  0
ARC
  5
1C8
330
1F
100
AcDbEntity
  8
0
  6
Continuous
 62
     7
370
     0
100
AcDbCircle
 10
130.5773972283
 20
220.4985759748
 30
0.0
 40
2.000000000000025
100
AcDbArc
 50
319.1010066127
 51
20.1459822408
  0
LINE
  5
1C9
330
1F
100
AcDbEntity
  8
0
  6
Continuous
 62
     7
370
     0
100
AcDbLine
 10
132.455033646
 20
221.1874024654
 30
0.0
 11
133.0867534737
 21
221.623579186
 31
0.0
  0
LINE
  5
1CA
330
1F
100
AcDbEntity
  8
0
  6
Continuous
 62
     7
370
     0
100
AcDbLine
 10
132.5253037969
 20
218.557401124
 30
0.0
 11
132.0891263197
 21
219.1891209516
 31
0.0
  0
ARC
  5
1CB
330
1F
100
AcDbEntity
  8
0
  6
Continuous
 62
     7
370
     0
100
AcDbCircle
 10
130.5773972283
 20
220.4985759748
 30
0.0
 40
2.000000000000025
100
AcDbArc
 50
139.1010066127
 51
200.1459822408
  0
LINE
  5
1CC
330
1F
100
AcDbEntity
  8
0
  6
Continuous
 62
     7
370
     0
100
AcDbLine
 10
128.6997603486
 20
219.8097494841
 30
0.0
 11
128.068040521
 21
219.3735727636
 31
0.0
  0
ARC
  5
1CD
330
1F
100
AcDbEntity
  8
0
  6
Continuous
 62
     7
370
     0
100
AcDbCircle
 10
130.5773972283
 20
220.4985759748
 30
0.0
 40
2.750000000000082
100
AcDbArc
 50
135.0991761232
 51
204.1478127304
  0
LINE
  5
1CE
330
1F
100
AcDbEntity
  8
0
  6
Continuous
 62
     7
370
     0
100
AcDbLine
 10
128.6294901977
 20
222.4397508256
 30
0.0
 11
129.065667675
 21
221.8080309979
 31
0.0
  0
LINE
  5
1CF
330
1F
100
AcDbEntity
  8
0
  6
Continuous
 62
     7
370
     0
100
AcDbLine
 10
132.5185721974
 20
222.446482658
 30
0.0
 11
131.8868523697
 21
222.0103058792
 31
0.0
  0
ARC
  5
1D0
330
1F
100
AcDbEntity
  8
0
  6
Continuous
 62
     7
370
     0
100
AcDbCircle
 10
130.5773972283
 20
220.4985759748
 30
0.0
 40
1.999999999999983
100
AcDbArc
 50
49.1010066127
 51
110.1459822408
  0
LINE
  5
1D1
330
1F
100
AcDbEntity
  8
0
  6
Continuous
 62
     7
370
     0
100
AcDbLine
 10
129.8885712634
 20
222.3762122743
 30
0.0
 11
129.4523937861
 21
223.0079319855
 31
0.0
  0
SPLINE
  5
1D2
330
1F
100
AcDbEntity
  8
0
  6
Continuous
 62
     7
370
     0
100
AcDbSpline
210
0.0
220
0.0
230
1.0
 70
    24
 71
     3
 72
    11
 73
     7
 74
     0
 42
0.000000001
 43
0.00000001
 40
0.004199693779034
 40
0.004199693779034
 40
0.004199693779034
 40
0.004199693779034
 40
0.0045714279294727
 40
0.0045714279294727
 40
0.0045714279294727
 40
0.0052314151081104
 40
0.0052314151081104
 40
0.0052314151081104
 40
0.0052314151081104
 10
128.0680411704981
 20
219.3735727858098
 30
0.0
 10
128.0429165188009
 20
219.3562252398345
 30
0.0
 10
128.0178050651347
 20
219.3388868065607
 30
0.0
 10
127.9927055575425
 20
219.321556621563
 30
0.0
 10
127.9481431969265
 20
219.2907881313618
 30
0.0
 10
127.9036184200498
 20
219.2600455911978
 30
0.0
 10
127.8591253757662
 20
219.2293249610934
 30
0.0
  0
ARC
  5
1D3
330
1F
100
AcDbEntity
  8
0
  6
Continuous
 62
     7
370
     0
100
AcDbCircle
 10
130.5773972283
 20
220.4985759748
 30
0.0
 40
3.000000000000022
100
AcDbArc
 50
134.2175626536
 51
205.0294261999
  0
SPLINE
  5
1D4
330
1F
100
AcDbEntity
  8
0
  6
Continuous
 62
     7
370
     0
100
AcDbSpline
210
0.0
220
0.0
230
1.0
 70
    24
 71
     3
 72
     8
 73
     4
 74
     0
 42
0.000000001
 43
0.00000001
 40
0.0
 40
0.0
 40
0.0
 40
0.0
 40
1.0
 40
1.0
 40
1.0
 40
1.0
 10
128.4852427624929
 20
222.6486665987393
 30
0.0
 10
128.5332666194476
 20
222.5791130906603
 30
0.0
 10
128.5813437509707
 20
222.5094824244071
 30
0.0
 10
128.6294905872093
 20
222.4397508040075
 30
0.0
  0
ARC
  5
1D5
330
1F
100
AcDbEntity
  8
0
  6
Continuous
 62
     7
370
     0
100
AcDbCircle
 10
130.5773972283
 20
220.4985759748
 30
0.0
 40
2.750000000000059
100
AcDbArc
 50
225.0991761232
 51
294.1478127304
  0
LINE
  5
1D6
330
1F
100
AcDbEntity
  8
0
  6
Continuous
 62
     7
370
     0
100
AcDbLine
 10
128.6362217973
 20
218.5506692916
 30
0.0
 11
129.2679416249
 21
218.9868460703
 31
0.0
  0
LINE
  5
1D7
330
1F
100
AcDbEntity
  8
0
  6
Continuous
 62
     7
370
     0
100
AcDbLine
 10
131.2662245939
 20
218.6209396753
 30
0.0
 11
131.7024002085
 21
217.9892199641
 31
0.0
  0
ARC
  5
1D8
330
1F
100
AcDbEntity
  8
0
  6
Continuous
 62
     7
370
     0
100
AcDbCircle
 10
130.5773972283
 20
220.4985759748
 30
0.0
 40
2.000000000000066
100
AcDbArc
 50
229.1010066127
 51
290.1459822408
  0
ARC
  5
1D9
330
1F
100
AcDbEntity
  8
0
  6
Continuous
 62
     7
370
     0
100
AcDbCircle
 10
130.5773972283
 20
220.4985759748
 30
0.0
 40
3.000000000000012
100
AcDbArc
 50
224.2175626536
 51
295.0294261999
  0
SPLINE
  5
1DA
330
1F
100
AcDbEntity
  8
0
  6
Continuous
 62
     7
370
     0
100
AcDbSpline
210
0.0
220
0.0
230
1.0
 70
    24
 71
     3
 72
    11
 73
     7
 74
     0
 42
0.000000001
 43
0.00000001
 40
0.0041333666424306
 40
0.0041333666424306
 40
0.0041333666424306
 40
0.0041333666424306
 40
0.0046138376121395
 40
0.0046138376121395
 40
0.0046138376121395
 40
0.0051650880369003
 40
0.0051650880369003
 40
0.0051650880369003
 40
0.0051650880369003
 10
131.7024004172677
 20
217.9892199169863
 30
0.0
 10
131.7248223318853
 20
217.9567459984301
 30
0.0
 10
131.7472290334539
 20
217.924294113109
 30
0.0
 10
131.7696223531045
 20
217.8918616089746
 30
0.0
 10
131.7953144904937
 20
217.8546513889135
 30
0.0
 10
131.8209890169558
 20
217.8174666749622
 30
0.0
 10
131.8466482419841
 20
217.7803041222544
 30
0.0
  0
SPLINE
  5
1DB
330
1F
100
AcDbEntity
  8
0
  6
Continuous
 62
     7
370
     0
100
AcDbSpline
210
0.0
220
0.0
230
1.0
 70
    24
 71
     3
 72
     8
 73
     4
 74
     0
 42
0.000000001
 43
0.00000001
 40
0.0
 40
0.0
 40
0.0
 40
0.0
 40
1.0
 40
1.0
 40
1.0
 40
1.0
 10
128.4273066043382
 20
218.406421508981
 30
0.0
 10
128.4968601067144
 20
218.4544453619982
 30
0.0
 10
128.5664907708797
 20
218.5025224920797
 30
0.0
 10
128.6362223990701
 20
218.5506693336974
 30
0.0
  0
ARC
  5
1DC
330
1F
100
AcDbEntity
  8
0
  6
Continuous
 62
     7
370
     0
100
AcDbCircle
 10
130.5773972283
 20
220.4985759748
 30
0.0
 40
3.00000000000002
100
AcDbArc
 50
115.0294261999
 51
134.2175626536
  0
ARC
  5
1DD
330
1F
100
AcDbEntity
  8
0
  6
Continuous
 62
     7
370
     0
100
AcDbCircle
 10
130.5773972283
 20
220.4985759748
 30
0.0
 40
2.000000000000008
100
AcDbArc
 50
110.1459822408
 51
139.1010066127
  0
ARC
  5
1DE
330
1F
100
AcDbEntity
  8
0
  6
Continuous
 62
     7
370
     0
100
AcDbCircle
 10
130.5773972283
 20
220.4985759748
 30
0.0
 40
2.99999999999996
100
AcDbArc
 50
25.0294261999
 51
44.2175626536
  0
ARC
  5
1DF
330
1F
100
AcDbEntity
  8
0
  6
Continuous
 62
     7
370
     0
100
AcDbCircle
 10
130.5773972283
 20
220.4985759748
 30
0.0
 40
2.000000000000025
100
AcDbArc
 50
20.1459822408
 51
49.1010066127
  0
ARC
  5
1E0
330
1F
100
AcDbEntity
  8
0
  6
Continuous
 62
     7
370
     0
100
AcDbCircle
 10
130.5773972283
 20
220.4985759748
 30
0.0
 40
3.000000000000022
100
AcDbArc
 50
205.0294261999
 51
224.2175626536
  0
ARC
  5
1E1
330
1F
100
AcDbEntity
  8
0
  6
Continuous
 62
     7
370
     0
100
AcDbCircle
 10
130.5773972283
 20
220.4985759748
 30
0.0
 40
2.000000000000066
100
AcDbArc
 50
200.1459822408
 51
229.1010066127
  0
ARC
  5
1E2
330
1F
100
AcDbEntity
  8
0
  6
Continuous
 62
     7
370
     0
100
AcDbCircle
 10
130.5773972283
 20
220.4985759748
 30
0.0
 40
3.000000000000012
100
AcDbArc
 50
295.0294261999
 51
314.2175626536
  0
ARC
  5
1E3
330
1F
100
AcDbEntity
  8
0
  6
Continuous
 62
     7
370
     0
100
AcDbCircle
 10
130.5773972283
 20
220.4985759748
 30
0.0
 40
2.000000000000006
100
AcDbArc
 50
290.1459822408
 51
319.1010066127
  0
CIRCLE
  5
1E4
330
1F
100
AcDbEntity
  8
0
  6
Continuous
 62
     7
370
     0
100
AcDbCircle
 10
130.5773972283
 20
220.4985759748
 30
0.0
 40
4.800000000000008
  0
CIRCLE
  5
1E5
330
1F
100
AcDbEntity
  8
0
  6
Continuous
 62
     7
370
     0
100
AcDbCircle
 10
130.5773972283
 20
220.4985759748
 30
0.0
 40
4.999999999999985
  0
ARC
  5
1E6
330
1F
100
AcDbEntity
  8
0
  6
Continuous
 62
     7
370
     0
100
AcDbCircle
 10
110.5773972283
 20
220.4985759748
 30
0.0
 40
3.000000000000008
100
AcDbArc
 50
44.2175626536
 51
115.0294261999
  0
SPLINE
  5
1E7
330
1F
100
AcDbEntity
  8
0
  6
Continuous
 62
     7
370
     0
100
AcDbSpline
210
0.0
220
0.0
230
1.0
 70
    24
 71
     3
 72
     8
 73
     4
 74
     0
 42
0.000000001
 43
0.00000001
 40
0.0
 40
0.0
 40
0.0
 40
0.0
 40
1.0
 40
1.0
 40
1.0
 40
1.0
 10
112.7274878522511
 20
222.5907304405847
 30
0.0
 10
112.657934349875
 20
222.5427065875675
 30
0.0
 10
112.5883036857097
 20
222.494629457486
 30
0.0
 10
112.5185720575193
 20
222.4464826158683
 30
0.0
  0
ARC
  5
1E8
330
1F
100
AcDbEntity
  8
0
  6
Continuous
 62
     7
370
     0
100
AcDbCircle
 10
110.5773972283
 20
220.4985759748
 30
0.0
 40
2.749999999999989
100
AcDbArc
 50
45.0991761232
 51
114.1478127304
  0
SPLINE
  5
1E9
330
1F
100
AcDbEntity
  8
0
  6
Continuous
 62
     7
370
     0
100
AcDbSpline
210
0.0
220
0.0
230
1.0
 70
    24
 71
     3
 72
    11
 73
     7
 74
     0
 42
0.000000001
 43
0.00000001
 40
0.0041333666424306
 40
0.0041333666424306
 40
0.0041333666424306
 40
0.0041333666424306
 40
0.0046138376121394
 40
0.0046138376121394
 40
0.0046138376121394
 40
0.0051650880369003
 40
0.0051650880369003
 40
0.0051650880369003
 40
0.0051650880369003
 10
109.4523940393216
 20
223.0079320325794
 30
0.0
 10
109.429972124704
 20
223.0404059511356
 30
0.0
 10
109.4075654231355
 20
223.0728578364567
 30
0.0
 10
109.3851721034849
 20
223.1052903405911
 30
0.0
 10
109.3594799660956
 20
223.1425005606522
 30
0.0
 10
109.3338054396335
 20
223.1796852746035
 30
0.0
 10
109.3081462146052
 20
223.2168478273113
 30
0.0
  0
ARC
  5
1EA
330
1F
100
AcDbEntity
  8
0
  6
Continuous
 62
     7
370
     0
100
AcDbCircle
 10
110.5773972283
 20
220.4985759748
 30
0.0
 40
2.000000000000039
100
AcDbArc
 50
139.1010066127
 51
200.1459822408
  0
LINE
  5
1EB
330
1F
100
AcDbEntity
  8
0
  6
Continuous
 62
     7
370
     0
100
AcDbLine
 10
108.6997607956
 20
219.8097494841
 30
0.0
 11
108.068040968
 21
219.3735727636
 31
0.0
  0
ARC
  5
1EC
330
1F
100
AcDbEntity
  8
0
  6
Continuous
 62
     7
370
     0
100
AcDbCircle
 10
110.5773972283
 20
220.4985759748
 30
0.0
 40
2.750000000000082
100
AcDbArc
 50
135.0991761232
 51
204.1478127304
  0
LINE
  5
1ED
330
1F
100
AcDbEntity
  8
0
  6
Continuous
 62
     7
370
     0
100
AcDbLine
 10
108.6294906447
 20
222.4397508256
 30
0.0
 11
109.0656671907
 21
221.8080309979
 31
0.0
  0
ARC
  5
1EE
330
1F
100
AcDbEntity
  8
0
  6
Continuous
 62
     7
370
     0
100
AcDbCircle
 10
110.5773972283
 20
220.4985759748
 30
0.0
 40
1.999999999999982
100
AcDbArc
 50
49.1010066127
 51
110.1459822408
  0
LINE
  5
1EF
330
1F
100
AcDbEntity
  8
0
  6
Continuous
 62
     7
370
     0
100
AcDbLine
 10
109.8885707791
 20
222.3762122743
 30
0.0
 11
109.4523942332
 21
223.0079319855
 31
0.0
  0
LINE
  5
1F0
330
1F
100
AcDbEntity
  8
0
  6
Continuous
 62
     7
370
     0
100
AcDbLine
 10
112.5185717131
 20
222.446482658
 30
0.0
 11
111.8868518854
 21
222.0103058792
 31
0.0
  0
SPLINE
  5
1F1
330
1F
100
AcDbEntity
  8
0
  6
Continuous
 62
     7
370
     0
100
AcDbSpline
210
0.0
220
0.0
230
1.0
 70
    24
 71
     3
 72
    11
 73
     7
 74
     0
 42
0.000000001
 43
0.00000001
 40
0.004199693779034
 40
0.004199693779034
 40
0.004199693779034
 40
0.004199693779034
 40
0.0045714279294727
 40
0.0045714279294727
 40
0.0045714279294727
 40
0.0052314151081104
 40
0.0052314151081104
 40
0.0052314151081104
 40
0.0052314151081104
 10
108.0680411704981
 20
219.3735727858098
 30
0.0
 10
108.0429165188009
 20
219.3562252398345
 30
0.0
 10
108.0178050651347
 20
219.3388868065607
 30
0.0
 10
107.9927055575425
 20
219.321556621563
 30
0.0
 10
107.9481431969265
 20
219.2907881313618
 30
0.0
 10
107.9036184200498
 20
219.2600455911978
 30
0.0
 10
107.8591253757663
 20
219.2293249610934
 30
0.0
  0
ARC
  5
1F2
330
1F
100
AcDbEntity
  8
0
  6
Continuous
 62
     7
370
     0
100
AcDbCircle
 10
110.5773972283
 20
220.4985759748
 30
0.0
 40
3.000000000000035
100
AcDbArc
 50
134.2175626536
 51
205.0294261999
  0
SPLINE
  5
1F3
330
1F
100
AcDbEntity
  8
0
  6
Continuous
 62
     7
370
     0
100
AcDbSpline
210
0.0
220
0.0
230
1.0
 70
    24
 71
     3
 72
     8
 73
     4
 74
     0
 42
0.000000001
 43
0.00000001
 40
0.0
 40
0.0
 40
0.0
 40
0.0
 40
1.0
 40
1.0
 40
1.0
 40
1.0
 10
108.4852427624929
 20
222.6486665987393
 30
0.0
 10
108.5332666194476
 20
222.5791130906603
 30
0.0
 10
108.5813437509707
 20
222.5094824244071
 30
0.0
 10
108.6294905872093
 20
222.4397508040075
 30
0.0
  0
ARC
  5
1F4
330
1F
100
AcDbEntity
  8
0
  6
Continuous
 62
     7
370
     0
100
AcDbCircle
 10
110.5773972283
 20
220.4985759748
 30
0.0
 40
2.749999999999981
100
AcDbArc
 50
315.0991761232
 51
24.1478127304
  0
ARC
  5
1F5
330
1F
100
AcDbEntity
  8
0
  6
Continuous
 62
     7
370
     0
100
AcDbCircle
 10
110.5773972283
 20
220.4985759748
 30
0.0
 40
2.99999999999998
100
AcDbArc
 50
314.2175626536
 51
25.0294261999
  0
SPLINE
  5
1F6
330
1F
100
AcDbEntity
  8
0
  6
Continuous
 62
     7
370
     0
100
AcDbSpline
210
0.0
220
0.0
230
1.0
 70
    24
 71
     3
 72
     8
 73
     4
 74
     0
 42
0.000000001
 43
0.00000001
 40
0.0
 40
0.0
 40
0.0
 40
0.0
 40
1.0
 40
1.0
 40
1.0
 40
1.0
 10
112.6695516940965
 20
218.3484853508264
 30
0.0
 10
112.6215278371417
 20
218.4180388589054
 30
0.0
 10
112.5734507056186
 20
218.4876695251586
 30
0.0
 10
112.5253038693801
 20
218.5574011455582
 30
0.0
  0
SPLINE
  5
1F7
330
1F
100
AcDbEntity
  8
0
  6
Continuous
 62
     7
370
     0
100
AcDbSpline
210
0.0
220
0.0
230
1.0
 70
    24
 71
     3
 72
    11
 73
     7
 74
     0
 42
0.000000001
 43
0.00000001
 40
0.0041996937790339
 40
0.0041996937790339
 40
0.0041996937790339
 40
0.0041996937790339
 40
0.0045714279294727
 40
0.0045714279294727
 40
0.0045714279294727
 40
0.0052314151081104
 40
0.0052314151081104
 40
0.0052314151081104
 40
0.0052314151081104
 10
113.0867532860913
 20
221.6235791637559
 30
0.0
 10
113.1118779377885
 20
221.6409267097312
 30
0.0
 10
113.1369893914546
 20
221.658265143005
 30
0.0
 10
113.1620888990469
 20
221.6755953280027
 30
0.0
 10
113.2066512596628
 20
221.7063638182039
 30
0.0
 10
113.2511760365396
 20
221.737106358368
 30
0.0
 10
113.2956690808231
 20
221.7678269884723
 30
0.0
  0
LINE
  5
1F8
330
1F
100
AcDbEntity
  8
0
  6
Continuous
 62
     7
370
     0
100
AcDbLine
 10
112.525304244
 20
218.557401124
 30
0.0
 11
112.0891267667
 21
219.1891209516
 31
0.0
  0
ARC
  5
1F9
330
1F
100
AcDbEntity
  8
0
  6
Continuous
 62
     7
370
     0
100
AcDbCircle
 10
110.5773972283
 20
220.4985759748
 30
0.0
 40
2.000000000000012
100
AcDbArc
 50
319.1010066127
 51
20.1459822408
  0
LINE
  5
1FA
330
1F
100
AcDbEntity
  8
0
  6
Continuous
 62
     7
370
     0
100
AcDbLine
 10
112.4550331618
 20
221.1874024654
 30
0.0
 11
113.0867529894
 21
221.623579186
 31
0.0
  0
ARC
  5
1FB
330
1F
100
AcDbEntity
  8
0
  6
Continuous
 62
     7
370
     0
100
AcDbCircle
 10
110.5773972283
 20
220.4985759748
 30
0.0
 40
2.750000000000059
100
AcDbArc
 50
225.0991761232
 51
294.1478127304
  0
LINE
  5
1FC
330
1F
100
AcDbEntity
  8
0
  6
Continuous
 62
     7
370
     0
100
AcDbLine
 10
108.6362222443
 20
218.5506692916
 30
0.0
 11
109.267942072
 21
218.9868460703
 31
0.0
  0
LINE
  5
1FD
330
1F
100
AcDbEntity
  8
0
  6
Continuous
 62
     7
370
     0
100
AcDbLine
 10
111.266223644
 20
218.6209396753
 30
0.0
 11
111.7024006556
 21
217.9892199641
 31
0.0
  0
ARC
  5
1FE
330
1F
100
AcDbEntity
  8
0
  6
Continuous
 62
     7
370
     0
100
AcDbCircle
 10
110.5773972283
 20
220.4985759748
 30
0.0
 40
2.000000000000075
100
AcDbArc
 50
229.1010066127
 51
290.1459822408
  0
ARC
  5
1FF
330
1F
100
AcDbEntity
  8
0
  6
Continuous
 62
     7
370
     0
100
AcDbCircle
 10
110.5773972283
 20
220.4985759748
 30
0.0
 40
3.000000000000012
100
AcDbArc
 50
224.2175626536
 51
295.0294261999
  0
SPLINE
  5
200
330
1F
100
AcDbEntity
  8
0
  6
Continuous
 62
     7
370
     0
100
AcDbSpline
210
0.0
220
0.0
230
1.0
 70
    24
 71
     3
 72
     8
 73
     4
 74
     0
 42
0.000000001
 43
0.00000001
 40
0.0
 40
0.0
 40
0.0
 40
0.0
 40
1.0
 40
1.0
 40
1.0
 40
1.0
 10
108.4273066043382
 20
218.406421508981
 30
0.0
 10
108.4968601067144
 20
218.4544453619982
 30
0.0
 10
108.5664907708797
 20
218.5025224920797
 30
0.0
 10
108.6362223990701
 20
218.5506693336974
 30
0.0
  0
SPLINE
  5
201
330
1F
100
AcDbEntity
  8
0
  6
Continuous
 62
     7
370
     0
100
AcDbSpline
210
0.0
220
0.0
230
1.0
 70
    24
 71
     3
 72
    11
 73
     7
 74
     0
 42
0.000000001
 43
0.00000001
 40
0.0041333666424306
 40
0.0041333666424306
 40
0.0041333666424306
 40
0.0041333666424306
 40
0.0046138376121395
 40
0.0046138376121395
 40
0.0046138376121395
 40
0.0051650880369003
 40
0.0051650880369003
 40
0.0051650880369003
 40
0.0051650880369003
 10
111.7024004172678
 20
217.9892199169863
 30
0.0
 10
111.7248223318853
 20
217.9567459984301
 30
0.0
 10
111.7472290334539
 20
217.924294113109
 30
0.0
 10
111.7696223531045
 20
217.8918616089746
 30
0.0
 10
111.7953144904937
 20
217.8546513889135
 30
0.0
 10
111.8209890169558
 20
217.8174666749622
 30
0.0
 10
111.8466482419841
 20
217.7803041222544
 30
0.0
  0
ARC
  5
202
330
1F
100
AcDbEntity
  8
0
  6
Continuous
 62
     7
370
     0
100
AcDbCircle
 10
110.5773972283
 20
220.4985759748
 30
0.0
 40
3.00000000000003
100
AcDbArc
 50
115.0294261999
 51
134.2175626536
  0
ARC
  5
203
330
1F
100
AcDbEntity
  8
0
  6
Continuous
 62
     7
370
     0
100
AcDbCircle
 10
110.5773972283
 20
220.4985759748
 30
0.0
 40
2.000000000000008
100
AcDbArc
 50
110.1459822408
 51
139.1010066127
  0
ARC
  5
204
330
1F
100
AcDbEntity
  8
0
  6
Continuous
 62
     7
370
     0
100
AcDbCircle
 10
110.5773972283
 20
220.4985759748
 30
0.0
 40
2.99999999999996
100
AcDbArc
 50
25.0294261999
 51
44.2175626536
  0
ARC
  5
205
330
1F
100
AcDbEntity
  8
0
  6
Continuous
 62
     7
370
     0
100
AcDbCircle
 10
110.5773972283
 20
220.4985759748
 30
0.0
 40
2.000000000000012
100
AcDbArc
 50
20.1459822408
 51
49.1010066127
  0
ARC
  5
206
330
1F
100
AcDbEntity
  8
0
  6
Continuous
 62
     7
370
     0
100
AcDbCircle
 10
110.5773972283
 20
220.4985759748
 30
0.0
 40
3.000000000000035
100
AcDbArc
 50
205.0294261999
 51
224.2175626536
  0
ARC
  5
207
330
1F
100
AcDbEntity
  8
0
  6
Continuous
 62
     7
370
     0
100
AcDbCircle
 10
110.5773972283
 20
220.4985759748
 30
0.0
 40
2.000000000000075
100
AcDbArc
 50
200.1459822408
 51
229.1010066127
  0
ARC
  5
208
330
1F
100
AcDbEntity
  8
0
  6
Continuous
 62
     7
370
     0
100
AcDbCircle
 10
110.5773972283
 20
220.4985759748
 30
0.0
 40
3.000000000000012
100
AcDbArc
 50
295.0294261999
 51
314.2175626536
  0
ARC
  5
209
330
1F
100
AcDbEntity
  8
0
  6
Continuous
 62
     7
370
     0
100
AcDbCircle
 10
110.5773972283
 20
220.4985759748
 30
0.0
 40
2.000000000000001
100
AcDbArc
 50
290.1459822408
 51
319.1010066127
  0
CIRCLE
  5
20A
330
1F
100
AcDbEntity
  8
0
  6
Continuous
 62
     7
370
     0
100
AcDbCircle
 10
110.5773972283
 20
220.4985759748
 30
0.0
 40
4.799999999999996
  0
CIRCLE
  5
20B
330
1F
100
AcDbEntity
  8
0
  6
Continuous
 62
     7
370
     0
100
AcDbCircle
 10
110.5773972283
 20
220.4985759748
 30
0.0
 40
4.999999999999985
  0
LINE
  5
20C
330
1F
100
AcDbEntity
  8
0
  6
Continuous
 62
     7
370
     0
100
AcDbLine
 10
88.9793209965
 20
234.9985755576
 30
0.0
 11
92.175473855
 21
234.9985755576
 31
0.0
  0
LINE
  5
20D
330
1F
100
AcDbEntity
  8
0
  6
Continuous
 62
     7
370
     0
100
AcDbLine
 10
88.5773975636
 20
233.498576243
 30
0.0
 11
92.5773972879
 21
233.498576243
 31
0.0
  0
LINE
  5
20E
330
1F
100
AcDbEntity
  8
0
  6
Continuous
 62
     7
370
     0
100
AcDbLine
 10
114.9793206016
 20
234.9985755576
 30
0.0
 11
118.1754734601
 21
234.9985755576
 31
0.0
  0
LINE
  5
20F
330
1F
100
AcDbEntity
  8
0
  6
Continuous
 62
     7
370
     0
100
AcDbLine
 10
114.5773971687
 20
233.498576243
 30
0.0
 11
118.577396893
 21
233.498576243
 31
0.0
  0
CIRCLE
  5
210
330
1F
100
AcDbEntity
  8
0
  6
Continuous
 62
     7
370
     0
100
AcDbCircle
 10
76.5773972283
 20
220.4985759748
 30
0.0
 40
4.5
  0
CIRCLE
  5
211
330
1F
100
AcDbEntity
  8
0
  6
Continuous
 62
     7
370
     0
100
AcDbCircle
 10
76.5773972283
 20
220.4985759748
 30
0.0
 40
3.5
  0
CIRCLE
  5
212
330
1F
100
AcDbEntity
  8
0
  6
Continuous
 62
     7
370
     0
100
AcDbCircle
 10
96.5773972283
 20
220.4985759748
 30
0.0
 40
4.5
  0
CIRCLE
  5
213
330
1F
100
AcDbEntity
  8
0
  6
Continuous
 62
     7
370
     0
100
AcDbCircle
 10
96.5773972283
 20
220.4985759748
 30
0.0
 40
3.5
  0
CIRCLE
  5
214
330
1F
100
AcDbEntity
  8
0
  6
Continuous
 62
     7
370
     0
100
AcDbCircle
 10
110.5773972283
 20
220.4985759748
 30
0.0
 40
3.50000000000001
  0
CIRCLE
  5
215
330
1F
100
AcDbEntity
  8
0
  6
Continuous
 62
     7
370
     0
100
AcDbCircle
 10
110.5773972283
 20
220.4985759748
 30
0.0
 40
4.500000000000007
  0
CIRCLE
  5
216
330
1F
100
AcDbEntity
  8
0
  6
Continuous
 62
     7
370
     0
100
AcDbCircle
 10
130.5773972283
 20
220.4985759748
 30
0.0
 40
3.5
  0
CIRCLE
  5
217
330
1F
100
AcDbEntity
  8
0
  6
Continuous
 62
     7
370
     0
100
AcDbCircle
 10
130.5773972283
 20
220.4985759748
 30
0.0
 40
4.5
  0
LINE
  5
218
330
1F
100
AcDbEntity
  8
0
  6
Continuous
 62
     7
370
     0
100
AcDbLine
 10
139.0773983906
 20
209.4985760344
 30
0.0
 11
139.0773983906
 21
223.4985760009
 31
0.0
  0
LINE
  5
219
330
1F
100
AcDbEntity
  8
0
  6
Continuous
 62
     7
370
     0
100
AcDbLine
 10
137.0773980628
 20
207.4985757066
 30
0.0
 11
139.0773983906
 21
209.4985760344
 31
0.0
  0
LINE
  5
21A
330
1F
100
AcDbEntity
  8
0
  6
Continuous
 62
     7
370
     0
100
AcDbLine
 10
137.0773980628
 20
207.4985757066
 30
0.0
 11
70.0773963938
 21
207.4985757066
 31
0.0
  0
LINE
  5
21B
330
1F
100
AcDbEntity
  8
0
  6
Continuous
 62
     7
370
     0
100
AcDbLine
 10
68.077396066
 20
209.4985760344
 30
0.0
 11
70.0773963938
 21
207.4985757066
 31
0.0
  0
LINE
  5
21C
330
1F
100
AcDbEntity
  8
0
  6
Continuous
 62
     7
370
     0
100
AcDbLine
 10
68.077396066
 20
209.4985760344
 30
0.0
 11
68.077396066
 21
223.4985760009
 31
0.0
  0
LINE
  5
21D
330
1F
100
AcDbEntity
  8
0
  6
Continuous
 62
     7
370
     0
100
AcDbLine
 10
75.0773972134
 20
230.4985757513
 30
0.0
 11
68.077396066
 21
223.4985760009
 31
0.0
  0
CIRCLE
  5
21E
330
1F
100
AcDbEntity
  8
0
  6
Continuous
 62
     7
370
     0
100
AcDbCircle
 10
76.5773972283
 20
220.4985759748
 30
0.0
 40
5.999999999999972
  0
CIRCLE
  5
21F
330
1F
100
AcDbEntity
  8
0
  6
Continuous
 62
     7
370
     0
100
AcDbCircle
 10
96.5773972283
 20
220.4985759748
 30
0.0
 40
5.999999999999986
  0
CIRCLE
  5
220
330
1F
100
AcDbEntity
  8
0
  6
Continuous
 62
     7
370
     0
100
AcDbCircle
 10
130.5773972283
 20
220.4985759748
 30
0.0
 40
6.0
  0
CIRCLE
  5
221
330
1F
100
AcDbEntity
  8
0
  6
Continuous
 62
     7
370
     0
100
AcDbCircle
 10
110.5773972283
 20
220.4985759748
 30
0.0
 40
5.999999999999957
  0
LINE
  5
222
330
1F
100
AcDbEntity
  8
0
  6
Continuous
 62
     7
370
     0
100
AcDbLine
 10
139.0773983906
 20
223.4985760009
 30
0.0
 11
132.0773972432
 21
230.4985757513
 31
0.0
  0
LINE
  5
223
330
1F
100
AcDbEntity
  8
0
  6
Continuous
 62
     7
370
     0
100
AcDbLine
 10
132.0773972432
 20
230.4985757513
 30
0.0
 11
75.0773972134
 21
230.4985757513
 31
0.0
  0
CIRCLE
  5
224
330
1F
100
AcDbEntity
  8
0
  6
Continuous
 62
     7
370
     0
100
AcDbCircle
 10
110.5773972283
 20
220.4985759748
 30
0.0
 40
5.5
  0
CIRCLE
  5
225
330
1F
100
AcDbEntity
  8
0
  6
Continuous
 62
     7
370
     0
100
AcDbCircle
 10
96.5773972283
 20
220.4985759748
 30
0.0
 40
5.5
  0
CIRCLE
  5
226
330
1F
100
AcDbEntity
  8
0
  6
Continuous
 62
     7
370
     0
100
AcDbCircle
 10
130.5773972283
 20
220.4985759748
 30
0.0
 40
5.5
  0
CIRCLE
  5
227
330
1F
100
AcDbEntity
  8
0
  6
Continuous
 62
     7
370
     0
100
AcDbCircle
 10
76.5773972283
 20
220.4985759748
 30
0.0
 40
5.499999999999972
  0
DIMENSION
  5
228
330
1F
100
AcDbEntity
  8
0
  6
Continuous
 62
     7
370
     0
100
AcDbDimension
  2
_D_7
 10
90.5773972283
 20
240.8698896791
 30
0.0
 11
103.5773972283
 21
240.8698896791
 31
0.0
 70
   160
  1
<>
 71
     2
 42
-1.0
  3
SLDDIMSTYLE4
100
AcDbAlignedDimension
 13
116.5773972283
 23
236.5534666224
 33
0.0
 14
90.5773972283
 24
235.4985759748
 34
0.0
100
AcDbRotatedDimension
  0
DIMENSION
  5
235
330
1F
100
AcDbEntity
  8
0
  6
Continuous
 62
     7
370
     0
100
AcDbDimension
  2
_D_8
 10
139.0773972283
 20
250.9985759748
 30
0.0
 11
103.5773972283
 21
250.9985759748
 31
0.0
 70
   160
  1
<>
 71
     2
 42
-1.0
  3
SLDDIMSTYLE0
100
AcDbAlignedDimension
 13
68.0773972283
 23
223.4985759748
 33
0.0
 14
139.0773972283
 24
223.4985759748
 34
0.0
100
AcDbRotatedDimension
  0
DIMENSION
  5
23F
330
1F
100
AcDbEntity
  8
0
  6
Continuous
 62
     7
370
     0
100
AcDbDimension
  2
_D_9
 10
90.5773972283
 20
240.8698896791
 30
0.0
 11
79.3273972283
 21
240.8698896791
 31
0.0
 70
   160
  1
<>
 71
     2
 42
-1.0
  3
SLDDIMSTYLE0
100
AcDbAlignedDimension
 13
68.0773972283
 23
223.4985759748
 33
0.0
 14
90.5773972283
 24
235.4985759748
 34
0.0
100
AcDbRotatedDimension
  0
DIMENSION
  5
249
330
1F
100
AcDbEntity
  8
0
  6
Continuous
 62
     7
370
     0
100
AcDbDimension
  2
_D_10
 10
139.0773972283
 20
240.8698896791
 30
0.0
 11
127.8273972283
 21
240.8698896791
 31
0.0
 70
   160
  1
<>
 71
     2
 42
-1.0
  3
SLDDIMSTYLE0
100
AcDbAlignedDimension
 13
116.5773972283
 23
236.5534666224
 33
0.0
 14
139.0773972283
 24
223.4985759748
 34
0.0
100
AcDbRotatedDimension
  0
LINE
  5
253
330
1F
100
AcDbEntity
  8
0
  6
CENTERX2
 62
     7
370
     0
100
AcDbLine
 10
90.5773972283
 20
235.4985759748
 30
0.0
 11
90.5773972283
 21
224.9985759748
 31
0.0
  0
LINE
  5
254
330
1F
100
AcDbEntity
  8
0
  6
CENTERX2
 62
     7
370
     0
100
AcDbLine
 10
116.5773972283
 20
224.9985759748
 30
0.0
 11
116.5773972283
 21
236.5534666224
 31
0.0
  0
LINE
  5
255
330
1F
100
AcDbEntity
  8
0
  6
CENTERX2
 62
     7
370
     0
100
AcDbLine
 10
103.5773972283
 20
202.0466653547
 30
0.0
 11
103.5773972283
 21
234.3546829192
 31
0.0
  0
LINE
  5
256
330
1F
100
AcDbEntity
  8
0
  6
Continuous
 62
     7
370
     0
100
AcDbLine
 10
151.0956822095
 20
217.4985759487
 30
0.0
 11
151.5956832228
 21
217.4985759487
 31
0.0
  0
LINE
  5
257
330
1F
100
AcDbEntity
  8
0
  6
Continuous
 62
     7
370
     0
100
AcDbLine
 10
151.5956832228
 20
223.4985760009
 30
0.0
 11
151.0956822095
 21
223.4985760009
 31
0.0
  0
LINE
  5
258
330
1F
100
AcDbEntity
  8
0
  6
Continuous
 62
     7
370
     0
100
AcDbLine
 10
151.0956822095
 20
223.4985760009
 30
0.0
 11
150.0956839082
 21
223.2485759599
 31
0.0
  0
LINE
  5
259
330
1F
100
AcDbEntity
  8
0
  6
Continuous
 62
     7
370
     0
100
AcDbLine
 10
150.0956839082
 20
217.7485759897
 30
0.0
 11
151.0956822095
 21
217.4985759487
 31
0.0
  0
LINE
  5
25A
330
1F
100
AcDbEntity
  8
0
  6
Continuous
 62
     7
370
     0
100
AcDbLine
 10
168.595682284
 20
233.498576243
 30
0.0
 11
168.1937588511
 21
234.9985755576
 31
0.0
  0
LINE
  5
25B
330
1F
100
AcDbEntity
  8
0
  6
Continuous
 62
     7
370
     0
100
AcDbLine
 10
164.9976069239
 20
234.9985755576
 30
0.0
 11
164.595683491
 21
233.498576243
 31
0.0
  0
LINE
  5
25C
330
1F
100
AcDbEntity
  8
0
  6
Continuous
 62
     7
370
     0
100
AcDbLine
 10
164.595683491
 20
233.498576243
 30
0.0
 11
164.595683491
 21
230.4985757513
 31
0.0
  0
LINE
  5
25D
330
1F
100
AcDbEntity
  8
0
  6
Continuous
 62
     7
370
     0
100
AcDbLine
 10
168.595682284
 20
230.4985757513
 30
0.0
 11
168.595682284
 21
233.498576243
 31
0.0
  0
LINE
  5
25E
330
1F
100
AcDbEntity
  8
0
  6
Continuous
 62
     7
370
     0
100
AcDbLine
 10
155.6956837085
 20
224.9985757811
 30
0.0
 11
152.595681524
 21
224.9985757811
 31
0.0
  0
LINE
  5
25F
330
1F
100
AcDbEntity
  8
0
  6
Continuous
 62
     7
370
     0
100
AcDbLine
 10
152.595681524
 20
215.9985761685
 30
0.0
 11
155.6956837085
 21
215.9985761685
 31
0.0
  0
LINE
  5
260
330
1F
100
AcDbEntity
  8
0
  6
Continuous
 62
     7
370
     0
100
AcDbLine
 10
152.595681524
 20
224.9985757811
 30
0.0
 11
151.5956832228
 21
223.9985760828
 31
0.0
  0
LINE
  5
261
330
1F
100
AcDbEntity
  8
0
  6
Continuous
 62
     7
370
     0
100
AcDbLine
 10
151.5956832228
 20
216.9985758667
 30
0.0
 11
152.595681524
 21
215.9985761685
 31
0.0
  0
LINE
  5
262
330
1F
100
AcDbEntity
  8
0
  6
Continuous
 62
     7
370
     0
100
AcDbLine
 10
151.0956822095
 20
218.3484853306
 30
0.0
 11
151.0956822095
 21
217.7803040543
 31
0.0
  0
LINE
  5
263
330
1F
100
AcDbEntity
  8
0
  6
Continuous
 62
     7
370
     0
100
AcDbLine
 10
151.0956822095
 20
218.3484853306
 30
0.0
 11
151.0956822095
 21
221.7678269665
 31
0.0
  0
LINE
  5
264
330
1F
100
AcDbEntity
  8
0
  6
Continuous
 62
     7
370
     0
100
AcDbLine
 10
151.0956822095
 20
221.7678269665
 30
0.0
 11
151.0956822095
 21
222.5907304385
 31
0.0
  0
LINE
  5
265
330
1F
100
AcDbEntity
  8
0
  6
Continuous
 62
     7
370
     0
100
AcDbLine
 10
151.0956822095
 20
222.5907304385
 30
0.0
 11
151.0956822095
 21
223.4985760009
 31
0.0
  0
LINE
  5
266
330
1F
100
AcDbEntity
  8
0
  6
Continuous
 62
     7
370
     0
100
AcDbLine
 10
151.0956822095
 20
217.4985759487
 30
0.0
 11
151.0956822095
 21
217.7803040543
 31
0.0
  0
LINE
  5
267
330
1F
100
AcDbEntity
  8
0
  6
Continuous
 62
     7
370
     0
100
AcDbLine
 10
150.0956839082
 20
218.557401124
 30
0.0
 11
150.0956839082
 21
221.623579186
 31
0.0
  0
SPLINE
  5
268
330
1F
100
AcDbEntity
  8
0
  6
Continuous
 62
     7
370
     0
100
AcDbSpline
210
0.0
220
0.0
230
1.0
 70
     8
 71
     3
 72
    11
 73
     7
 74
     0
 42
0.000000001
 43
0.00000001
 40
0.0041996937790339
 40
0.0041996937790339
 40
0.0041996937790339
 40
0.0041996937790339
 40
0.0045714279294727
 40
0.0045714279294727
 40
0.0045714279294727
 40
0.0052314151081104
 40
0.0052314151081104
 40
0.0052314151081104
 40
0.0052314151081104
 10
150.0956829491963
 20
221.6235791637559
 30
0.0
 10
150.2157742095301
 20
221.6409267097312
 30
0.0
 10
150.3358695483513
 20
221.658265143005
 30
0.0
 10
150.455968572866
 20
221.6755953280027
 30
0.0
 10
150.6691957057246
 20
221.7063638182039
 30
0.0
 10
150.8824344414492
 20
221.737106358368
 30
0.0
 10
151.0956829491963
 20
221.7678269884723
 30
0.0
  0
SPLINE
  5
269
330
1F
100
AcDbEntity
  8
0
  6
Continuous
 62
     7
370
     0
100
AcDbSpline
210
0.0
220
0.0
230
1.0
 70
     8
 71
     3
 72
     8
 73
     4
 74
     0
 42
0.000000001
 43
0.00000001
 40
0.0
 40
0.0
 40
0.0
 40
0.0
 40
1.0
 40
1.0
 40
1.0
 40
1.0
 10
151.0956829491963
 20
218.3484853508264
 30
0.0
 10
150.762323386027
 20
218.4180388589054
 30
0.0
 10
150.4289873977448
 20
218.4876695251586
 30
0.0
 10
150.0956829491963
 20
218.5574011455582
 30
0.0
  0
LINE
  5
26A
330
1F
100
AcDbEntity
  8
0
  6
Continuous
 62
     7
370
     0
100
AcDbLine
 10
150.0956839082
 20
222.0103058792
 30
0.0
 11
151.0956822095
 21
222.0103058792
 31
0.0
  0
LINE
  5
26B
330
1F
100
AcDbEntity
  8
0
  6
Continuous
 62
     7
370
     0
100
AcDbLine
 10
150.0956839082
 20
222.446482658
 30
0.0
 11
150.0956839082
 21
222.0103058792
 31
0.0
  0
SPLINE
  5
26C
330
1F
100
AcDbEntity
  8
0
  6
Continuous
 62
     7
370
     0
100
AcDbSpline
210
0.0
220
0.0
230
1.0
 70
     8
 71
     3
 72
     8
 73
     4
 74
     0
 42
0.000000001
 43
0.00000001
 40
0.0
 40
0.0
 40
0.0
 40
0.0
 40
1.0
 40
1.0
 40
1.0
 40
1.0
 10
151.0956829491963
 20
222.5907304405847
 30
0.0
 10
150.76232341336
 20
222.5427065875675
 30
0.0
 10
150.4289874349831
 20
222.494629457486
 30
0.0
 10
150.0956829491963
 20
222.4464826158683
 30
0.0
  0
LINE
  5
26D
330
1F
100
AcDbEntity
  8
0
  6
Continuous
 62
     7
370
     0
100
AcDbLine
 10
150.0956839082
 20
222.446482658
 30
0.0
 11
150.0956839082
 21
223.2485759599
 31
0.0
  0
LINE
  5
26E
330
1F
100
AcDbEntity
  8
0
  6
Continuous
 62
     7
370
     0
100
AcDbLine
 10
150.0956839082
 20
221.8080309979
 30
0.0
 11
150.0956839082
 21
221.623579186
 31
0.0
  0
LINE
  5
26F
330
1F
100
AcDbEntity
  8
0
  6
Continuous
 62
     7
370
     0
100
AcDbLine
 10
150.0956839082
 20
221.8080309979
 30
0.0
 11
151.0956822095
 21
221.8080309979
 31
0.0
  0
LINE
  5
270
330
1F
100
AcDbEntity
  8
0
  6
Continuous
 62
     7
370
     0
100
AcDbLine
 10
150.0956839082
 20
218.557401124
 30
0.0
 11
150.0956839082
 21
217.9892199641
 31
0.0
  0
SPLINE
  5
271
330
1F
100
AcDbEntity
  8
0
  6
Continuous
 62
     7
370
     0
100
AcDbSpline
210
0.0
220
0.0
230
1.0
 70
     8
 71
     3
 72
    11
 73
     7
 74
     0
 42
0.000000001
 43
0.00000001
 40
0.0041333666424306
 40
0.0041333666424306
 40
0.0041333666424306
 40
0.0041333666424306
 40
0.0046138376121395
 40
0.0046138376121395
 40
0.0046138376121395
 40
0.0051650880369003
 40
0.0051650880369003
 40
0.0051650880369003
 40
0.0051650880369003
 10
150.0956829491963
 20
217.9892199169863
 30
0.0
 10
150.2509023669373
 20
217.9567459984301
 30
0.0
 10
150.4061285937784
 20
217.924294113109
 30
0.0
 10
150.5613607978985
 20
217.8918616089746
 30
0.0
 10
150.7394606588264
 20
217.8546513889135
 30
0.0
 10
150.917568391368
 20
217.8174666749622
 30
0.0
 10
151.0956829491963
 20
217.7803041222544
 30
0.0
  0
LINE
  5
272
330
1F
100
AcDbEntity
  8
0
  6
Continuous
 62
     7
370
     0
100
AcDbLine
 10
150.0956839082
 20
217.7485759897
 30
0.0
 11
150.0956839082
 21
217.9892199641
 31
0.0
  0
LINE
  5
273
330
1F
100
AcDbEntity
  8
0
  6
Continuous
 62
     7
370
     0
100
AcDbLine
 10
150.0956839082
 20
222.0103058792
 30
0.0
 11
150.0956839082
 21
221.8080309979
 31
0.0
  0
LINE
  5
274
330
1F
100
AcDbEntity
  8
0
  6
Continuous
 62
     7
370
     0
100
AcDbLine
 10
164.9976069239
 20
234.9985755576
 30
0.0
 11
168.1937588511
 21
234.9985755576
 31
0.0
  0
LINE
  5
275
330
1F
100
AcDbEntity
  8
0
  6
Continuous
 62
     7
370
     0
100
AcDbLine
 10
164.595683491
 20
233.498576243
 30
0.0
 11
168.595682284
 21
233.498576243
 31
0.0
  0
LINE
  5
276
330
1F
100
AcDbEntity
  8
0
  6
Continuous
 62
     7
370
     0
100
AcDbLine
 10
152.595681524
 20
224.9985757811
 30
0.0
 11
152.595681524
 21
215.9985761685
 31
0.0
  0
LINE
  5
277
330
1F
100
AcDbEntity
  8
0
  6
Continuous
 62
     7
370
     0
100
AcDbLine
 10
151.5956832228
 20
223.9985760828
 30
0.0
 11
151.5956832228
 21
216.9985758667
 31
0.0
  0
LINE
  5
278
330
1F
100
AcDbEntity
  8
0
  6
Continuous
 62
     7
370
     0
100
AcDbLine
 10
155.6956837085
 20
230.4985757513
 30
0.0
 11
175.6956832615
 21
230.4985757513
 31
0.0
  0
LINE
  5
279
330
1F
100
AcDbEntity
  8
0
  6
Continuous
 62
     7
370
     0
100
AcDbLine
 10
175.6956832615
 20
230.4985757513
 30
0.0
 11
175.6956832615
 21
223.4985760009
 31
0.0
  0
LINE
  5
27A
330
1F
100
AcDbEntity
  8
0
  6
Continuous
 62
     7
370
     0
100
AcDbLine
 10
175.6956832615
 20
223.4985760009
 30
0.0
 11
155.6956837085
 21
223.4985760009
 31
0.0
  0
LINE
  5
27B
330
1F
100
AcDbEntity
  8
0
  6
Continuous
 62
     7
370
     0
100
AcDbLine
 10
155.6956837085
 20
223.4985760009
 30
0.0
 11
155.6956837085
 21
230.4985757513
 31
0.0
  0
LINE
  5
27C
330
1F
100
AcDbEntity
  8
0
  6
Continuous
 62
     7
370
     0
100
AcDbLine
 10
155.6956837085
 20
209.4985760344
 30
0.0
 11
175.6956832615
 21
209.4985760344
 31
0.0
  0
LINE
  5
27D
330
1F
100
AcDbEntity
  8
0
  6
Continuous
 62
     7
370
     0
100
AcDbLine
 10
155.6956837085
 20
209.4985760344
 30
0.0
 11
155.6956837085
 21
223.4985760009
 31
0.0
  0
LINE
  5
27E
330
1F
100
AcDbEntity
  8
0
  6
Continuous
 62
     7
370
     0
100
AcDbLine
 10
175.6956832615
 20
209.4985760344
 30
0.0
 11
175.6956832615
 21
223.4985760009
 31
0.0
  0
LINE
  5
27F
330
1F
100
AcDbEntity
  8
0
  6
Continuous
 62
     7
370
     0
100
AcDbLine
 10
175.6956832615
 20
207.4985757066
 30
0.0
 11
155.6956837085
 21
207.4985757066
 31
0.0
  0
LINE
  5
280
330
1F
100
AcDbEntity
  8
0
  6
Continuous
 62
     7
370
     0
100
AcDbLine
 10
155.6956837085
 20
207.4985757066
 30
0.0
 11
155.6956837085
 21
209.4985760344
 31
0.0
  0
LINE
  5
281
330
1F
100
AcDbEntity
  8
0
  6
Continuous
 62
     7
370
     0
100
AcDbLine
 10
175.6956832615
 20
209.4985760344
 30
0.0
 11
175.6956832615
 21
207.4985757066
 31
0.0
  0
DIMENSION
  5
282
330
1F
100
AcDbEntity
  8
0
  6
Continuous
 62
     7
370
     0
100
AcDbDimension
  2
_D_11
 10
168.5956829492
 20
241.7767524298
 30
0.0
 11
157.0924065698
 21
241.7767524298
 31
0.0
 70
   160
  1
(%%c<>)
 71
     2
 42
-1.0
  3
SLDDIMSTYLE1
100
AcDbAlignedDimension
 13
164.5956829492
 23
233.4985759748
 33
0.0
 14
168.5956829492
 24
233.4985759748
 34
0.0
 50
0.0
100
AcDbRotatedDimension
  0
DIMENSION
  5
291
330
1F
100
AcDbEntity
  8
0
  6
Continuous
 62
     7
370
     0
100
AcDbDimension
  2
_D_12
 10
182.1689657555
 20
207.4985759748
 30
0.0
 11
182.1689657555
 21
218.9985759748
 31
0.0
 70
   160
  1
<>
 71
     2
 42
-1.0
  3
SLDDIMSTYLE0
100
AcDbAlignedDimension
 13
175.6956829492
 23
230.4985759748
 33
0.0
 14
175.6956829492
 24
207.4985759748
 34
0.0
 50
90.0
100
AcDbRotatedDimension
  0
DIMENSION
  5
29B
330
1F
100
AcDbEntity
  8
0
  6
Continuous
 62
     7
370
     0
100
AcDbDimension
  2
_D_13
 10
182.1689657555
 20
230.4985759748
 30
0.0
 11
182.1689657555
 21
243.5357219641
 31
0.0
 70
   160
  1
(<>)
 71
     2
 42
-1.0
  3
SLDDIMSTYLE1
100
AcDbAlignedDimension
 13
168.1937591605
 23
234.9985759748
 33
0.0
 14
175.6956829492
 24
230.4985759748
 34
0.0
 50
90.0
100
AcDbRotatedDimension
  0
INSERT
  5
2AE
330
1F
100
AcDbEntity
  8
0
  6
Continuous
 62
     7
370
     0
100
AcDbBlockReference
  2
SW_NOTE_0
 10
170.0276705277
 20
250.8410555348
 30
0.0
  0
LEADER
  5
2B0
330
1F
100
AcDbEntity
  8
0
  6
Continuous
 62
     7
370
     0
100
AcDbLeader
  3
SLDDIMSTYLE5
 76
     2
 10
165.9225968544
 20
232.4779202538
 30
0.0
 10
170.0276705277
 20
250.8410555348
 30
0.0
  0
ENDSEC
  0
SECTION
  2
OBJECTS
  0
DICTIONARY
  5
C
330
0
100
AcDbDictionary
281
     1
  3
ACAD_GROUP
350
D
  3
ACAD_LAYOUT
350
1A
  3
ACAD_MLINESTYLE
350
17
  3
ACAD_PLOTSETTINGS
350
19
  3
ACAD_PLOTSTYLENAME
350
E
  3
ACAD_SCALELIST
350
47
  0
DICTIONARY
  5
D
102
{ACAD_REACTORS
330
C
102
}
330
C
100
AcDbDictionary
281
     1
  0
DICTIONARY
  5
1A
102
{ACAD_REACTORS
330
C
102
}
330
C
100
AcDbDictionary
281
     1
  3
Layout1
350
1E
  3
Layout2
350
26
  3
Model
350
22
  0
DICTIONARY
  5
17
102
{ACAD_REACTORS
330
C
102
}
330
C
100
AcDbDictionary
281
     1
  3
Standard
350
18
  0
DICTIONARY
  5
19
102
{ACAD_REACTORS
330
C
102
}
330
C
100
AcDbDictionary
281
     1
  0
ACDBDICTIONARYWDFLT
  5
E
102
{ACAD_REACTORS
330
C
102
}
330
C
100
AcDbDictionary
281
     1
  3
Normal
350
F
100
AcDbDictionaryWithDefault
340
F
  0
DICTIONARY
  5
47
102
{ACAD_REACTORS
330
C
102
}
330
C
100
AcDbDictionary
281
     1
  3
A0
350
48
  3
A1
350
49
  3
A2
350
4A
  3
A3
350
4B
  3
A4
350
4C
  3
A5
350
4D
  3
A6
350
4E
  3
A7
350
4F
  3
A8
350
50
  3
A9
350
51
  3
B0
350
52
  3
B1
350
53
  3
B2
350
54
  3
B3
350
55
  3
B4
350
56
  3
B5
350
57
  3
B6
350
58
  3
B7
350
59
  3
B8
350
5A
  3
B9
350
5B
  3
C0
350
5C
  3
C1
350
5D
  3
C2
350
5E
  3
C3
350
5F
  3
C4
350
60
  3
C5
350
61
  3
C6
350
62
  3
C7
350
63
  3
C8
350
64
  3
C9
350
65
  3
D0
350
66
  3
D1
350
67
  3
D2
350
68
  0
LAYOUT
  5
1E
102
{ACAD_REACTORS
330
1A
102
}
330
1A
100
AcDbPlotSettings
  1

  2
none_device
  4

  6

 40
0.0
 41
0.0
 42
0.0
 43
0.0
 44
0.0
 45
0.0
 46
0.0
 47
0.0
 48
0.0
 49
0.0
140
0.0
141
0.0
142
1.0
143
1.0
 70
   688
 72
     1
 73
     0
 74
     5
  7

 75
    16
147
1.0
148
0.0
149
0.0
100
AcDbLayout
  1
Layout1
 70
     1
 71
     1
 10
0.0
 20
0.0
 11
420.0
 21
297.0
 12
0.0
 22
0.0
 32
0.0
 14
1.0000000000E+20
 24
1.0000000000E+20
 34
1.0000000000E+20
 15
-1.0000000000E+20
 25
-1.0000000000E+20
 35
-1.0000000000E+20
146
0.0
 13
0.0
 23
0.0
 33
0.0
 16
1.0
 26
0.0
 36
0.0
 17
0.0
 27
1.0
 37
0.0
 76
     0
330
1B
  0
LAYOUT
  5
26
102
{ACAD_REACTORS
330
1A
102
}
330
1A
100
AcDbPlotSettings
  1

  2
none_device
  4

  6

 40
0.0
 41
0.0
 42
0.0
 43
0.0
 44
0.0
 45
0.0
 46
0.0
 47
0.0
 48
0.0
 49
0.0
140
0.0
141
0.0
142
1.0
143
1.0
 70
   688
 72
     1
 73
     0
 74
     5
  7

 75
    16
147
1.0
148
0.0
149
0.0
100
AcDbLayout
  1
Layout2
 70
     1
 71
     2
 10
0.0
 20
0.0
 11
0.0
 21
0.0
 12
0.0
 22
0.0
 32
0.0
 14
0.0
 24
0.0
 34
0.0
 15
0.0
 25
0.0
 35
0.0
146
0.0
 13
0.0
 23
0.0
 33
0.0
 16
1.0
 26
0.0
 36
0.0
 17
0.0
 27
1.0
 37
0.0
 76
     0
330
23
  0
LAYOUT
  5
22
102
{ACAD_REACTORS
330
1A
102
}
330
1A
100
AcDbPlotSettings
  1

  2
none_device
  4
Letter_(8.50_x_11.00_Inches)
  6

 40
6.35
 41
6.35
 42
6.35000508
 43
6.35000508
 44
215.9
 45
279.4
 46
0.0
 47
0.0
 48
0.0
 49
0.0
140
0.0
141
0.0
142
1.0
143
1.0
 70
  1712
 72
     1
 73
     0
 74
     0
  7

 75
     0
147
1.0
148
0.0
149
0.0
100
AcDbLayout
  1
Model
 70
     1
 71
     0
 10
0.0
 20
0.0
 11
210.0
 21
297.0
 12
0.0
 22
0.0
 32
0.0
 14
0.0
 24
0.0
 34
0.0
 15
210.0
 25
297.0
 35
0.0
146
0.0
 13
0.0
 23
0.0
 33
0.0
 16
1.0
 26
0.0
 36
0.0
 17
0.0
 27
1.0
 37
0.0
 76
     0
330
1F
331
29
  0
MLINESTYLE
  5
18
102
{ACAD_REACTORS
330
17
102
}
330
17
100
AcDbMlineStyle
  2
Standard
 70
     0
  3

 62
   256
 51
90.0
 52
90.0
 71
     2
 49
0.5
 62
   256
  6
BYLAYER
 49
-0.5
 62
   256
  6
BYLAYER
  0
ACDBPLACEHOLDER
  5
F
102
{ACAD_REACTORS
330
E
102
}
330
E
  0
SCALE
  5
48
102
{ACAD_REACTORS
330
47
102
}
330
47
100
AcDbScale
 70
     0
300
1:1
140
1.0
141
1.0
290
     1
  0
SCALE
  5
49
102
{ACAD_REACTORS
330
47
102
}
330
47
100
AcDbScale
 70
     0
300
1:2
140
1.0
141
2.0
290
     0
  0
SCALE
  5
4A
102
{ACAD_REACTORS
330
47
102
}
330
47
100
AcDbScale
 70
     0
300
1:4
140
1.0
141
4.0
290
     0
  0
SCALE
  5
4B
102
{ACAD_REACTORS
330
47
102
}
330
47
100
AcDbScale
 70
     0
300
1:5
140
1.0
141
5.0
290
     0
  0
SCALE
  5
4C
102
{ACAD_REACTORS
330
47
102
}
330
47
100
AcDbScale
 70
     0
300
1:8
140
1.0
141
8.0
290
     0
  0
SCALE
  5
4D
102
{ACAD_REACTORS
330
47
102
}
330
47
100
AcDbScale
 70
     0
300
1:10
140
1.0
141
10.0
290
     0
  0
SCALE
  5
4E
102
{ACAD_REACTORS
330
47
102
}
330
47
100
AcDbScale
 70
     0
300
1:16
140
1.0
141
16.0
290
     0
  0
SCALE
  5
4F
102
{ACAD_REACTORS
330
47
102
}
330
47
100
AcDbScale
 70
     0
300
1:20
140
1.0
141
20.0
290
     0
  0
SCALE
  5
50
102
{ACAD_REACTORS
330
47
102
}
330
47
100
AcDbScale
 70
     0
300
1:30
140
1.0
141
30.0
290
     0
  0
SCALE
  5
51
102
{ACAD_REACTORS
330
47
102
}
330
47
100
AcDbScale
 70
     0
300
1:40
140
1.0
141
40.0
290
     0
  0
SCALE
  5
52
102
{ACAD_REACTORS
330
47
102
}
330
47
100
AcDbScale
 70
     0
300
1:50
140
1.0
141
50.0
290
     0
  0
SCALE
  5
53
102
{ACAD_REACTORS
330
47
102
}
330
47
100
AcDbScale
 70
     0
300
1:100
140
1.0
141
100.0
290
     0
  0
SCALE
  5
54
102
{ACAD_REACTORS
330
47
102
}
330
47
100
AcDbScale
 70
     0
300
2:1
140
2.0
141
1.0
290
     0
  0
SCALE
  5
55
102
{ACAD_REACTORS
330
47
102
}
330
47
100
AcDbScale
 70
     0
300
4:1
140
4.0
141
1.0
290
     0
  0
SCALE
  5
56
102
{ACAD_REACTORS
330
47
102
}
330
47
100
AcDbScale
 70
     0
300
8:1
140
8.0
141
1.0
290
     0
  0
SCALE
  5
57
102
{ACAD_REACTORS
330
47
102
}
330
47
100
AcDbScale
 70
     0
300
10:1
140
10.0
141
1.0
290
     0
  0
SCALE
  5
58
102
{ACAD_REACTORS
330
47
102
}
330
47
100
AcDbScale
 70
     0
300
100:1
140
100.0
141
1.0
290
     0
  0
SCALE
  5
59
102
{ACAD_REACTORS
330
47
102
}
330
47
100
AcDbScale
 70
     0
300
1/128" = 1'-0"
140
0.0078125
141
12.0
290
     0
  0
SCALE
  5
5A
102
{ACAD_REACTORS
330
47
102
}
330
47
100
AcDbScale
 70
     0
300
1/64" = 1'-0"
140
0.015625
141
12.0
290
     0
  0
SCALE
  5
5B
102
{ACAD_REACTORS
330
47
102
}
330
47
100
AcDbScale
 70
     0
300
1/32" = 1'-0"
140
0.03125
141
12.0
290
     0
  0
SCALE
  5
5C
102
{ACAD_REACTORS
330
47
102
}
330
47
100
AcDbScale
 70
     0
300
1/16" = 1'-0"
140
0.0625
141
12.0
290
     0
  0
SCALE
  5
5D
102
{ACAD_REACTORS
330
47
102
}
330
47
100
AcDbScale
 70
     0
300
3/32" = 1'-0"
140
0.09375
141
12.0
290
     0
  0
SCALE
  5
5E
102
{ACAD_REACTORS
330
47
102
}
330
47
100
AcDbScale
 70
     0
300
1/8" = 1'-0"
140
0.125
141
12.0
290
     0
  0
SCALE
  5
5F
102
{ACAD_REACTORS
330
47
102
}
330
47
100
AcDbScale
 70
     0
300
3/16" = 1'-0"
140
0.1875
141
12.0
290
     0
  0
SCALE
  5
60
102
{ACAD_REACTORS
330
47
102
}
330
47
100
AcDbScale
 70
     0
300
1/4" = 1'-0"
140
0.25
141
12.0
290
     0
  0
SCALE
  5
61
102
{ACAD_REACTORS
330
47
102
}
330
47
100
AcDbScale
 70
     0
300
3/8" = 1'-0"
140
0.375
141
12.0
290
     0
  0
SCALE
  5
62
102
{ACAD_REACTORS
330
47
102
}
330
47
100
AcDbScale
 70
     0
300
1/2" = 1'-0"
140
0.5
141
12.0
290
     0
  0
SCALE
  5
63
102
{ACAD_REACTORS
330
47
102
}
330
47
100
AcDbScale
 70
     0
300
3/4" = 1'-0"
140
0.75
141
12.0
290
     0
  0
SCALE
  5
64
102
{ACAD_REACTORS
330
47
102
}
330
47
100
AcDbScale
 70
     0
300
1" = 1'-0"
140
1.0
141
12.0
290
     0
  0
SCALE
  5
65
102
{ACAD_REACTORS
330
47
102
}
330
47
100
AcDbScale
 70
     0
300
1-1/2" = 1'-0"
140
1.5
141
12.0
290
     0
  0
SCALE
  5
66
102
{ACAD_REACTORS
330
47
102
}
330
47
100
AcDbScale
 70
     0
300
3" = 1'-0"
140
3.0
141
12.0
290
     0
  0
SCALE
  5
67
102
{ACAD_REACTORS
330
47
102
}
330
47
100
AcDbScale
 70
     0
300
6" = 1'-0"
140
6.0
141
12.0
290
     0
  0
SCALE
  5
68
102
{ACAD_REACTORS
330
47
102
}
330
47
100
AcDbScale
 70
     0
300
1'-0" = 1'-0"
140
12.0
141
12.0
290
     0
  0
ENDSEC
  0
EOF
