  0
SECTION
  2
HEADER
  9
$ACADVER
  1
AC1015
  9
$ACADMAINTVER
 70
     6
  9
$DWGCODEPAGE
  3
DOS932
  9
$INSBASE
 10
0.0
 20
0.0
 30
0.0
  9
$EXTMIN
 10
0.0
 20
0.0
 30
0.0
  9
$EXTMAX
 10
210.0
 20
297.0
 30
0.0
  9
$LIMMIN
 10
0.0
 20
0.0
  9
$LIMMAX
 10
210.0
 20
297.0
  9
$ORTHOMODE
 70
     0
  9
$REGENMODE
 70
     1
  9
$FILLMODE
 70
     1
  9
$QTEXTMODE
 70
     0
  9
$MIRRTEXT
 70
     1
  9
$LTSCALE
 40
1.0
  9
$ATTMODE
 70
     1
  9
$TEXTSIZE
 40
3.5
  9
$TRACEWID
 40
1.0
  9
$TEXTSTYLE
  7
STANDARD
  9
$CLAYER
  8
0
  9
$CELTYPE
  6
ByLayer
  9
$CECOLOR
 62
   256
  9
$CELTSCALE
 40
1.0
  9
$DISPSILH
 70
     0
  9
$DIMSCALE
 40
1.0
  9
$DIMASZ
 40
3.0
  9
$DIMEXO
 40
1.0
  9
$DIMDLI
 40
3.75
  9
$DIMRND
 40
0.0
  9
$DIMDLE
 40
0.0
  9
$DIMEXE
 40
1.0
  9
$DIMTP
 40
0.0
  9
$DIMTM
 40
0.0
  9
$DIMTXT
 40
3.5
  9
$DIMCEN
 40
2.5
  9
$DIMTSZ
 40
0.0
  9
$DIMTOL
 70
     0
  9
$DIMLIM
 70
     0
  9
$DIMTIH
 70
     1
  9
$DIMTOH
 70
     1
  9
$DIMSE1
 70
     0
  9
$DIMSE2
 70
     0
  9
$DIMTAD
 70
     1
  9
$DIMZIN
 70
     0
  9
$DIMBLK
  1

  9
$DIMASO
 70
     1
  9
$DIMSHO
 70
     1
  9
$DIMPOST
  1

  9
$DIMAPOST
  1

  9
$DIMALT
 70
     0
  9
$DIMALTD
 70
     3
  9
$DIMALTF
 40
0.0393700787
  9
$DIMLFAC
 40
1.0
  9
$DIMTOFL
 70
     1
  9
$DIMTVP
 40
0.0
  9
$DIMTIX
 70
     0
  9
$DIMSOXD
 70
     0
  9
$DIMSAH
 70
     0
  9
$DIMBLK1
  1

  9
$DIMBLK2
  1

  9
$DIMSTYLE
  2
ISO-25
  9
$DIMCLRD
 70
     0
  9
$DIMCLRE
 70
     0
  9
$DIMCLRT
 70
     0
  9
$DIMTFAC
 40
1.0
  9
$DIMGAP
 40
1.524
  9
$DIMJUST
 70
     0
  9
$DIMSD1
 70
     0
  9
$DIMSD2
 70
     0
  9
$DIMTOLJ
 70
     0
  9
$DIMTZIN
 70
     0
  9
$DIMALTZ
 70
     0
  9
$DIMALTTZ
 70
     0
  9
$DIMUPT
 70
     0
  9
$DIMDEC
 70
     1
  9
$DIMTDEC
 70
     3
  9
$DIMALTU
 70
     2
  9
$DIMALTTD
 70
     3
  9
$DIMTXSTY
  7
STANDARD
  9
$DIMAUNIT
 70
     0
  9
$DIMADEC
 70
     2
  9
$DIMALTRND
 40
0.0
  9
$DIMAZIN
 70
     0
  9
$DIMDSEP
 70
    44
  9
$DIMATFIT
 70
     3
  9
$DIMFRAC
 70
     0
  9
$DIMLDRBLK
  1

  9
$DIMLUNIT
 70
     2
  9
$DIMLWD
 70
    -2
  9
$DIMLWE
 70
    -2
  9
$DIMTMOVE
 70
     0
  9
$LUNITS
 70
     2
  9
$LUPREC
 70
     1
  9
$SKETCHINC
 40
1.0
  9
$FILLETRAD
 40
10.0
  9
$AUNITS
 70
     0
  9
$AUPREC
 70
     2
  9
$MENU
  1
.
  9
$ELEVATION
 40
0.0
  9
$PELEVATION
 40
0.0
  9
$THICKNESS
 40
0.0
  9
$LIMCHECK
 70
     0
  9
$CHAMFERA
 40
0.0
  9
$CHAMFERB
 40
0.0
  9
$CHAMFERC
 40
0.0
  9
$CHAMFERD
 40
0.0
  9
$SKPOLY
 70
     0
  9
$TDCREATE
 40
2459282.656286886
  9
$TDUCREATE
 40
2459282.281286886
  9
$TDUPDATE
 40
2459282.656289595
  9
$TDUUPDATE
 40
2459282.281289595
  9
$TDINDWG
 40
0.0000000116
  9
$TDUSRTIMER
 40
0.0000000116
  9
$USRTIMER
 70
     1
  9
$ANGBASE
 50
0.0
  9
$ANGDIR
 70
     0
  9
$PDMODE
 70
     0
  9
$PDSIZE
 40
-1.0
  9
$PLINEWID
 40
0.0
  9
$SPLFRAME
 70
     0
  9
$SPLINETYPE
 70
     6
  9
$SPLINESEGS
 70
     8
  9
$HANDSEED
  5
349
  9
$SURFTAB1
 70
     6
  9
$SURFTAB2
 70
     6
  9
$SURFTYPE
 70
     6
  9
$SURFU
 70
     6
  9
$SURFV
 70
     6
  9
$UCSBASE
  2

  9
$UCSNAME
  2

  9
$UCSORG
 10
0.0
 20
0.0
 30
0.0
  9
$UCSXDIR
 10
1.0
 20
0.0
 30
0.0
  9
$UCSYDIR
 10
0.0
 20
1.0
 30
0.0
  9
$UCSORTHOREF
  2

  9
$UCSORTHOVIEW
 70
     0
  9
$UCSORGTOP
 10
0.0
 20
0.0
 30
0.0
  9
$UCSORGBOTTOM
 10
0.0
 20
0.0
 30
0.0
  9
$UCSORGLEFT
 10
0.0
 20
0.0
 30
0.0
  9
$UCSORGRIGHT
 10
0.0
 20
0.0
 30
0.0
  9
$UCSORGFRONT
 10
0.0
 20
0.0
 30
0.0
  9
$UCSORGBACK
 10
0.0
 20
0.0
 30
0.0
  9
$PUCSBASE
  2

  9
$PUCSNAME
  2

  9
$PUCSORG
 10
0.0
 20
0.0
 30
0.0
  9
$PUCSXDIR
 10
1.0
 20
0.0
 30
0.0
  9
$PUCSYDIR
 10
0.0
 20
1.0
 30
0.0
  9
$PUCSORTHOREF
  2

  9
$PUCSORTHOVIEW
 70
     0
  9
$PUCSORGTOP
 10
0.0
 20
0.0
 30
0.0
  9
$PUCSORGBOTTOM
 10
0.0
 20
0.0
 30
0.0
  9
$PUCSORGLEFT
 10
0.0
 20
0.0
 30
0.0
  9
$PUCSORGRIGHT
 10
0.0
 20
0.0
 30
0.0
  9
$PUCSORGFRONT
 10
0.0
 20
0.0
 30
0.0
  9
$PUCSORGBACK
 10
0.0
 20
0.0
 30
0.0
  9
$USERI1
 70
     0
  9
$USERI2
 70
     0
  9
$USERI3
 70
     0
  9
$USERI4
 70
     0
  9
$USERI5
 70
     0
  9
$USERR1
 40
0.0
  9
$USERR2
 40
0.0
  9
$USERR3
 40
0.0
  9
$USERR4
 40
0.0
  9
$USERR5
 40
0.0
  9
$WORLDVIEW
 70
     1
  9
$SHADEDGE
 70
     3
  9
$SHADEDIF
 70
    70
  9
$TILEMODE
 70
     1
  9
$MAXACTVP
 70
    64
  9
$PINSBASE
 10
0.0
 20
0.0
 30
0.0
  9
$PLIMCHECK
 70
     0
  9
$PEXTMIN
 10
1.0000000000E+20
 20
1.0000000000E+20
 30
1.0000000000E+20
  9
$PEXTMAX
 10
-1.0000000000E+20
 20
-1.0000000000E+20
 30
-1.0000000000E+20
  9
$PLIMMIN
 10
0.0
 20
0.0
  9
$PLIMMAX
 10
420.0
 20
297.0
  9
$UNITMODE
 70
     0
  9
$VISRETAIN
 70
     1
  9
$PLINEGEN
 70
     0
  9
$PSLTSCALE
 70
     1
  9
$TREEDEPTH
 70
  3020
  9
$CMLSTYLE
  2
Standard
  9
$CMLJUST
 70
     0
  9
$CMLSCALE
 40
20.0
  9
$PROXYGRAPHICS
 70
     1
  9
$MEASUREMENT
 70
     1
  9
$CELWEIGHT
370
    -1
  9
$ENDCAPS
280
     0
  9
$JOINSTYLE
280
     0
  9
$LWDISPLAY
290
     1
  9
$INSUNITS
 70
     4
  9
$HYPERLINKBASE
  1

  9
$STYLESHEET
  1

  9
$XEDIT
290
     1
  9
$CEPSNTYPE
380
     0
  9
$PSTYLEMODE
290
     1
  9
$FINGERPRINTGUID
  2
{74105D57-73F4-48D5-8A15-566E1B3D87E2}
  9
$VERSIONGUID
  2
{FAEB1C32-E019-11D5-929B-00C0DF256EC4}
  9
$EXTNAMES
290
     1
  9
$PSVPSCALE
 40
0.0
  9
$OLESTARTUP
290
     0
  0
ENDSEC
  0
SECTION
  2
CLASSES
  0
CLASS
  1
ACDBDICTIONARYWDFLT
  2
AcDbDictionaryWithDefault
  3
ObjectDBX Classes
 90
        0
280
     0
281
     0
  0
CLASS
  1
VISUALSTYLE
  2
AcDbVisualStyle
  3
ObjectDBX Classes
 90
     4095
280
     0
281
     0
  0
CLASS
  1
MATERIAL
  2
AcDbMaterial
  3
ObjectDBX Classes
 90
     1153
280
     0
281
     0
  0
CLASS
  1
SCALE
  2
AcDbScale
  3
ObjectDBX Classes
 90
     1153
280
     0
281
     0
  0
CLASS
  1
TABLESTYLE
  2
AcDbTableStyle
  3
ObjectDBX Classes
 90
     4095
280
     0
281
     0
  0
CLASS
  1
MLEADERSTYLE
  2
AcDbMLeaderStyle
  3
ACDB_MLEADERSTYLE_CLASS
 90
     4095
280
     0
281
     0
  0
CLASS
  1
SUN
  2
AcDbSun
  3
SCENEOE
 90
     1153
280
     0
281
     0
  0
CLASS
  1
ACDBPLACEHOLDER
  2
AcDbPlaceHolder
  3
ObjectDBX Classes
 90
        0
280
     0
281
     0
  0
CLASS
  1
LAYOUT
  2
AcDbLayout
  3
ObjectDBX Classes
 90
        0
280
     0
281
     0
  0
ENDSEC
  0
SECTION
  2
TABLES
  0
TABLE
  2
VPORT
  5
8
330
0
100
AcDbSymbolTable
 70
     1
  0
VPORT
  5
29
330
8
100
AcDbSymbolTableRecord
100
AcDbViewportTableRecord
  2
*Active
 70
     0
 10
0.0
 20
0.0
 11
1.0
 21
1.0
 12
105.0
 22
148.5
 13
0.0
 23
0.0
 14
10.0
 24
10.0
 15
10.0
 25
10.0
 16
0.0
 26
0.0
 36
1.0
 17
0.0
 27
0.0
 37
0.0
 40
297.0
 41
0.7070707071
 42
50.0
 43
0.0
 44
0.0
 50
0.0
 51
0.0
 71
     0
 72
  2000
 73
     1
 74
     3
 75
     0
 76
     0
 77
     0
 78
     0
281
     0
 65
     1
110
0.0
120
0.0
130
0.0
111
1.0
121
0.0
131
0.0
112
0.0
122
1.0
132
0.0
 79
     0
146
0.0
  0
ENDTAB
  0
TABLE
  2
LTYPE
  5
5
330
0
100
AcDbSymbolTable
 70
     8
  0
LTYPE
  5
14
330
5
100
AcDbSymbolTableRecord
100
AcDbLinetypeTableRecord
  2
ByBlock
 70
     0
  3

 72
    65
 73
     0
 40
0.0
  0
LTYPE
  5
15
330
5
100
AcDbSymbolTableRecord
100
AcDbLinetypeTableRecord
  2
ByLayer
 70
     0
  3

 72
    65
 73
     0
 40
0.0
  0
LTYPE
  5
16
330
5
100
AcDbSymbolTableRecord
100
AcDbLinetypeTableRecord
  2
Continuous
 70
     0
  3
Solid line
 72
    65
 73
     0
 40
0.0
  0
LTYPE
  5
6E
330
5
100
AcDbSymbolTableRecord
100
AcDbLinetypeTableRecord
  2
SLD-実線
 70
     0
  3
SolidWorks Line Style
 72
    65
 73
     0
 40
0.0
  0
LTYPE
  5
6F
330
5
100
AcDbSymbolTableRecord
100
AcDbLinetypeTableRecord
  2
SLD-破線
 70
     0
  3
SolidWorks Line Style
 72
    65
 73
     2
 40
1.905
 49
1.27
 74
     0
 49
-0.635
 74
     0
  0
LTYPE
  5
70
330
5
100
AcDbSymbolTableRecord
100
AcDbLinetypeTableRecord
  2
SLD-2点鎖線
 70
     0
  3
SolidWorks Line Style
 72
    65
 73
     6
 40
12.7
 49
6.35
 74
     0
 49
-1.27
 74
     0
 49
1.27
 74
     0
 49
-1.27
 74
     0
 49
1.27
 74
     0
 49
-1.27
 74
     0
  0
LTYPE
  5
71
330
5
100
AcDbSymbolTableRecord
100
AcDbLinetypeTableRecord
  2
SLD-鎖線
 70
     0
  3
SolidWorks Line Style
 72
    65
 73
     4
 40
10.16
 49
6.35
 74
     0
 49
-1.27
 74
     0
 49
1.27
 74
     0
 49
-1.27
 74
     0
  0
LTYPE
  5
72
330
5
100
AcDbSymbolTableRecord
100
AcDbLinetypeTableRecord
  2
SLD-1点鎖線(中心線)
 70
     0
  3
SolidWorks Line Style
 72
    65
 73
     4
 40
34.29
 49
30.48
 74
     0
 49
-1.27
 74
     0
 49
1.27
 74
     0
 49
-1.27
 74
     0
  0
LTYPE
  5
73
330
5
100
AcDbSymbolTableRecord
100
AcDbLinetypeTableRecord
  2
SLD-点線
 70
     0
  3
SolidWorks Line Style
 72
    65
 73
     2
 40
0.635
 49
0.0
 74
     0
 49
-0.635
 74
     0
  0
LTYPE
  5
74
330
5
100
AcDbSymbolTableRecord
100
AcDbLinetypeTableRecord
  2
SLD-細-太鎖線(切断面)
 70
     0
  3
SolidWorks Line Style
 72
    65
 73
     4
 40
10.16
 49
6.35
 74
     0
 49
-1.27
 74
     0
 49
1.27
 74
     0
 49
-1.27
 74
     0
  0
ENDTAB
  0
TABLE
  2
LAYER
  5
2
330
0
100
AcDbSymbolTable
 70
     1
  0
LAYER
  5
10
330
2
100
AcDbSymbolTableRecord
100
AcDbLayerTableRecord
  2
0
 70
     0
 62
     7
  6
Continuous
370
    -3
390
F
  0
ENDTAB
  0
TABLE
  2
STYLE
  5
3
330
0
100
AcDbSymbolTable
 70
     3
  0
STYLE
  5
11
330
3
100
AcDbSymbolTableRecord
100
AcDbTextStyleTableRecord
  2
STANDARD
 70
     0
 40
0.0
 41
1.0
 50
0.0
 71
     0
 42
3.5
  3
MSGOTHIC.TTC
  4

1001
ACAD
1000
ＭＳ ゴシック
1071
    32817
  0
STYLE
  5
7D
330
3
100
AcDbSymbolTableRecord
100
AcDbTextStyleTableRecord
  2
SLDTEXTSTYLE0
 70
     0
 40
0.0
 41
1.0
 50
0.0
 71
     0
 42
3.5
  3
MSGOTHIC.TTC
  4
bigfont
1001
ACAD
1000
ＭＳ ゴシック
1071
      305
  0
STYLE
  5
7F
330
3
100
AcDbSymbolTableRecord
100
AcDbTextStyleTableRecord
  2
SLDTEXTSTYLE1
 70
     0
 40
0.0
 41
1.0
 50
0.0
 71
     0
 42
3.5
  3
MSGOTHIC.TTC
  4

1001
ACAD
1000
ＭＳ ゴシック
1071
      305
  0
ENDTAB
  0
TABLE
  2
VIEW
  5
6
330
0
100
AcDbSymbolTable
 70
     0
  0
ENDTAB
  0
TABLE
  2
UCS
  5
7
330
0
100
AcDbSymbolTable
 70
     0
  0
ENDTAB
  0
TABLE
  2
APPID
  5
9
330
0
100
AcDbSymbolTable
 70
     1
  0
APPID
  5
12
330
9
100
AcDbSymbolTableRecord
100
AcDbRegAppTableRecord
  2
ACAD
 70
     0
  0
ENDTAB
  0
TABLE
  2
DIMSTYLE
  5
A
330
0
100
AcDbSymbolTable
 70
     4
100
AcDbDimStyleTable
  0
DIMSTYLE
105
27
330
A
100
AcDbSymbolTableRecord
100
AcDbDimStyleTableRecord
  2
ISO-25
 70
     0
 41
2.5
 42
0.625
 43
3.75
 44
1.25
 73
     0
 74
     0
 77
     1
 78
     8
140
2.5
141
2.5
143
0.0393700787
147
0.625
171
     3
172
     1
178
     0
271
     2
272
     2
274
     3
278
    44
283
     0
284
     8
340
11
  0
DIMSTYLE
105
22E
102
{ACAD_REACTORS
330
22D
330
238
330
244
330
267
330
333
102
}
330
A
100
AcDbSymbolTableRecord
100
AcDbDimStyleTableRecord
  2
SLDDIMSTYLE0
 70
     0
 41
3.0
 44
0.0
 45
0.000000001
 73
     0
 74
     0
 77
     3
 78
    12
 79
     3
140
3.5
147
0.875
173
     1
178
     0
271
     1
272
     3
276
     2
284
    12
340
7F
  0
DIMSTYLE
105
24F
102
{ACAD_REACTORS
330
24E
330
25B
330
33D
102
}
330
A
100
AcDbSymbolTableRecord
100
AcDbDimStyleTableRecord
  2
SLDDIMSTYLE1
 70
     0
 41
3.0
 44
0.0
 45
0.000000001
 73
     0
 74
     0
 77
     3
 78
    12
 79
     3
140
3.5
147
0.875
172
     1
173
     1
178
     0
271
     1
272
     3
276
     2
284
    12
289
     0
340
7F
  0
DIMSTYLE
105
278
330
A
100
AcDbSymbolTableRecord
100
AcDbDimStyleTableRecord
  2
SLDDIMSTYLE2
 70
     0
 41
3.0
 44
0.0
 45
0.000000001
146
3.0
147
0.0
173
     1
178
     0
271
     0
272
     0
276
     2
340
11
  0
ENDTAB
  0
TABLE
  2
BLOCK_RECORD
  5
1
330
0
100
AcDbSymbolTable
 70
    12
  0
BLOCK_RECORD
  5
1F
330
1
100
AcDbSymbolTableRecord
100
AcDbBlockTableRecord
  2
*Model_Space
340
22
  0
BLOCK_RECORD
  5
1B
330
1
100
AcDbSymbolTableRecord
100
AcDbBlockTableRecord
  2
*Paper_Space
340
1E
  0
BLOCK_RECORD
  5
23
330
1
100
AcDbSymbolTableRecord
100
AcDbBlockTableRecord
  2
*Paper_Space0
340
26
  0
BLOCK_RECORD
  5
22F
330
1
100
AcDbSymbolTableRecord
100
AcDbBlockTableRecord
  2
_D
340
0
  0
BLOCK_RECORD
  5
239
330
1
100
AcDbSymbolTableRecord
100
AcDbBlockTableRecord
  2
_D_1
340
0
  0
BLOCK_RECORD
  5
245
330
1
100
AcDbSymbolTableRecord
100
AcDbBlockTableRecord
  2
_D_2
340
0
  0
BLOCK_RECORD
  5
250
330
1
100
AcDbSymbolTableRecord
100
AcDbBlockTableRecord
  2
_D_3
340
0
  0
BLOCK_RECORD
  5
25C
330
1
100
AcDbSymbolTableRecord
100
AcDbBlockTableRecord
  2
_D_4
340
0
  0
BLOCK_RECORD
  5
268
330
1
100
AcDbSymbolTableRecord
100
AcDbBlockTableRecord
  2
_D_5
340
0
  0
BLOCK_RECORD
  5
271
330
1
100
AcDbSymbolTableRecord
100
AcDbBlockTableRecord
  2
SW_NOTE_0
340
0
102
{BLKREFS
331
277
102
}
  0
BLOCK_RECORD
  5
27A
330
1
100
AcDbSymbolTableRecord
100
AcDbBlockTableRecord
  2
SW_CENTERMARKSYMBOL_0
340
0
102
{BLKREFS
331
285
102
}
  0
BLOCK_RECORD
  5
286
330
1
100
AcDbSymbolTableRecord
100
AcDbBlockTableRecord
  2
SW_CENTERMARKSYMBOL_1
340
0
102
{BLKREFS
331
291
102
}
  0
BLOCK_RECORD
  5
334
330
1
100
AcDbSymbolTableRecord
100
AcDbBlockTableRecord
  2
_D_6
340
0
  0
BLOCK_RECORD
  5
33E
330
1
100
AcDbSymbolTableRecord
100
AcDbBlockTableRecord
  2
_D_7
340
0
  0
ENDTAB
  0
ENDSEC
  0
SECTION
  2
BLOCKS
  0
BLOCK
  5
20
330
1F
100
AcDbEntity
  8
0
100
AcDbBlockBegin
  2
*Model_Space
 70
     0
 10
0.0
 20
0.0
 30
0.0
  3
*Model_Space
  1

  0
ENDBLK
  5
21
330
1F
100
AcDbEntity
  8
0
100
AcDbBlockEnd
  0
BLOCK
  5
1C
330
1B
100
AcDbEntity
 67
     1
  8
0
100
AcDbBlockBegin
  2
*Paper_Space
 70
     0
 10
0.0
 20
0.0
 30
0.0
  3
*Paper_Space
  1

  0
ENDBLK
  5
1D
330
1B
100
AcDbEntity
 67
     1
  8
0
100
AcDbBlockEnd
  0
BLOCK
  5
24
330
23
100
AcDbEntity
  8
0
100
AcDbBlockBegin
  2
*Paper_Space0
 70
     0
 10
0.0
 20
0.0
 30
0.0
  3
*Paper_Space0
  1

  0
ENDBLK
  5
25
330
23
100
AcDbEntity
  8
0
100
AcDbBlockEnd
  0
BLOCK
  5
230
330
22F
100
AcDbEntity
  8
0
100
AcDbBlockBegin
  2
_D
 70
     0
 10
0.0
 20
0.0
 30
0.0
  3
_D
  1

  0
SOLID
  5
232
330
22F
100
AcDbEntity
  8
0
  6
SLD-実線
 62
     7
370
    18
100
AcDbTrace
 10
53.1469754728
 20
205.825842749
 30
0.0
 11
56.1469754728
 21
205.075842749
 31
0.0
 12
56.1469754728
 22
206.575842749
 32
0.0
 13
56.1469754728
 23
206.575842749
 33
0.0
  0
SOLID
  5
233
330
22F
100
AcDbEntity
  8
0
  6
SLD-実線
 62
     7
370
    18
100
AcDbTrace
 10
98.1469754728
 20
205.825842749
 30
0.0
 11
95.1469754728
 21
206.575842749
 31
0.0
 12
95.1469754728
 22
205.075842749
 32
0.0
 13
95.1469754728
 23
205.075842749
 33
0.0
  0
LINE
  5
234
330
22F
100
AcDbEntity
  8
0
  6
SLD-実線
 62
     7
370
    18
100
AcDbLine
 10
53.1469754728
 20
191.8198869281
 30
0.0
 11
53.1469754728
 21
206.825842749
 31
0.0
  0
LINE
  5
235
330
22F
100
AcDbEntity
  8
0
  6
SLD-実線
 62
     7
370
    18
100
AcDbLine
 10
98.1469754728
 20
192.8197346232
 30
0.0
 11
98.1469754728
 21
206.825842749
 31
0.0
  0
LINE
  5
236
330
22F
100
AcDbEntity
  8
0
  6
SLD-実線
 62
     7
370
    18
100
AcDbLine
 10
53.1469754728
 20
205.825842749
 30
0.0
 11
98.1469754728
 21
205.825842749
 31
0.0
  0
MTEXT
  5
237
330
22F
100
AcDbEntity
  8
0
  6
SLD-実線
 62
     7
370
    18
100
AcDbMText
 10
73.6101699754
 20
209.8985697889
 30
0.0
 40
3.5
 41
0.0
 71
     1
 72
     1
  1
45
  7
SLDTEXTSTYLE1
 73
     1
 44
1.0
  0
ENDBLK
  5
231
330
22F
100
AcDbEntity
  8
0
100
AcDbBlockEnd
  0
BLOCK
  5
23A
330
239
100
AcDbEntity
  8
0
100
AcDbBlockBegin
  2
_D_1
 70
     0
 10
0.0
 20
0.0
 30
0.0
  3
_D_1
  1

  0
ARC
  5
23C
330
239
100
AcDbEntity
  8
0
  6
SLD-実線
 62
     7
370
    18
100
AcDbCircle
 10
77.104882169
 20
219.8626482465
 30
0.0
 40
4.554435549315966
100
AcDbArc
 50
153.4349488229
 51
206.5650511771
  0
ARC
  5
23D
330
239
100
AcDbEntity
  8
0
  6
SLD-実線
 62
     7
370
    18
100
AcDbCircle
 10
77.104882169
 20
219.8626482465
 30
0.0
 40
4.554435549315978
100
AcDbArc
 50
333.4349488229
 51
26.5650511771
  0
SOLID
  5
23E
330
239
100
AcDbEntity
  8
0
  6
SLD-実線
 62
     7
370
    18
100
AcDbTrace
 10
101.0627889815
 20
217.825842749
 30
0.0
 11
98.0627889815
 21
218.575842749
 31
0.0
 12
98.0627889815
 22
217.075842749
 32
0.0
 13
98.0627889815
 23
217.075842749
 33
0.0
  0
SOLID
  5
23F
330
239
100
AcDbEntity
  8
0
  6
SLD-実線
 62
     7
370
    18
100
AcDbTrace
 10
53.1469754728
 20
217.825842749
 30
0.0
 11
56.1469754728
 21
217.075842749
 31
0.0
 12
56.1469754728
 22
218.575842749
 32
0.0
 13
56.1469754728
 23
218.575842749
 33
0.0
  0
LINE
  5
240
330
239
100
AcDbEntity
  8
0
  6
SLD-実線
 62
     7
370
    18
100
AcDbLine
 10
101.0627889815
 20
174.1338923257
 30
0.0
 11
101.0627889815
 21
218.825842749
 31
0.0
  0
LINE
  5
241
330
239
100
AcDbEntity
  8
0
  6
SLD-実線
 62
     7
370
    18
100
AcDbLine
 10
53.1469754728
 20
191.8198869281
 30
0.0
 11
53.1469754728
 21
218.825842749
 31
0.0
  0
LINE
  5
242
330
239
100
AcDbEntity
  8
0
  6
SLD-実線
 62
     7
370
    18
100
AcDbLine
 10
101.0627889815
 20
217.825842749
 30
0.0
 11
53.1469754728
 21
217.825842749
 31
0.0
  0
MTEXT
  5
243
330
239
100
AcDbEntity
  8
0
  6
SLD-実線
 62
     7
370
    18
100
AcDbMText
 10
73.031271174
 20
221.8985697889
 30
0.0
 40
3.5
 41
0.0
 71
     1
 72
     1
  1
47.9
  7
SLDTEXTSTYLE1
 73
     1
 44
1.0
  0
ENDBLK
  5
23B
330
239
100
AcDbEntity
  8
0
100
AcDbBlockEnd
  0
BLOCK
  5
246
330
245
100
AcDbEntity
  8
0
100
AcDbBlockBegin
  2
_D_2
 70
     0
 10
0.0
 20
0.0
 30
0.0
  3
_D_2
  1

  0
SOLID
  5
248
330
245
100
AcDbEntity
  8
0
  6
SLD-実線
 62
     7
370
    18
100
AcDbTrace
 10
33.8354912007
 20
130.8191254038
 30
0.0
 11
34.5854912007
 21
133.8191254038
 31
0.0
 12
33.0854912007
 22
133.8191254038
 32
0.0
 13
33.0854912007
 23
133.8191254038
 33
0.0
  0
SOLID
  5
249
330
245
100
AcDbEntity
  8
0
  6
SLD-実線
 62
     7
370
    18
100
AcDbTrace
 10
33.8354912007
 20
195.8191254038
 30
0.0
 11
33.0854912007
 21
192.8191254038
 31
0.0
 12
34.5854912007
 22
192.8191254038
 32
0.0
 13
34.5854912007
 23
192.8191254038
 33
0.0
  0
LINE
  5
24A
330
245
100
AcDbEntity
  8
0
  6
SLD-実線
 62
     7
370
    18
100
AcDbLine
 10
59.1469754728
 20
130.8191254038
 30
0.0
 11
32.8354912007
 21
130.8191254038
 31
0.0
  0
LINE
  5
24B
330
245
100
AcDbEntity
  8
0
  6
SLD-実線
 62
     7
370
    18
100
AcDbLine
 10
57.1462139486
 20
195.8191254038
 30
0.0
 11
32.8354912007
 21
195.8191254038
 31
0.0
  0
LINE
  5
24C
330
245
100
AcDbEntity
  8
0
  6
SLD-実線
 62
     7
370
    18
100
AcDbLine
 10
33.8354912007
 20
130.8191254038
 30
0.0
 11
33.8354912007
 21
195.8191254038
 31
0.0
  0
MTEXT
  5
24D
330
245
100
AcDbEntity
  8
0
  6
SLD-実線
 62
     7
370
    18
100
AcDbMText
 10
29.7627641608
 20
161.2823199064
 30
0.0
 40
3.5
 41
0.0
 71
     1
 72
     1
  1
65
  7
SLDTEXTSTYLE1
 11
6.123233995736766E-17
 21
1.0
 31
0.0
 73
     1
 44
1.0
  0
ENDBLK
  5
247
330
245
100
AcDbEntity
  8
0
100
AcDbBlockEnd
  0
BLOCK
  5
251
330
250
100
AcDbEntity
  8
0
100
AcDbBlockBegin
  2
_D_3
 70
     0
 10
0.0
 20
0.0
 30
0.0
  3
_D_3
  1

  0
SOLID
  5
253
330
250
100
AcDbEntity
  8
0
  6
SLD-実線
 62
     7
370
    18
100
AcDbTrace
 10
44.139187644
 20
136.8191254038
 30
0.0
 11
44.889187644
 21
139.8191254038
 31
0.0
 12
43.389187644
 22
139.8191254038
 32
0.0
 13
43.389187644
 23
139.8191254038
 33
0.0
  0
SOLID
  5
254
330
250
100
AcDbEntity
  8
0
  6
SLD-実線
 62
     7
370
    18
100
AcDbTrace
 10
44.139187644
 20
130.8191254038
 30
0.0
 11
43.389187644
 21
127.8191254038
 31
0.0
 12
44.889187644
 22
127.8191254038
 32
0.0
 13
44.889187644
 23
127.8191254038
 33
0.0
  0
LINE
  5
255
330
250
100
AcDbEntity
  8
0
  6
SLD-実線
 62
     7
370
    18
100
AcDbLine
 10
56.8969754728
 20
136.8191254038
 30
0.0
 11
43.139187644
 21
136.8191254038
 31
0.0
  0
LINE
  5
256
330
250
100
AcDbEntity
  8
0
  6
SLD-実線
 62
     7
370
    18
100
AcDbLine
 10
59.1469754728
 20
130.8191254038
 30
0.0
 11
43.139187644
 21
130.8191254038
 31
0.0
  0
LINE
  5
257
330
250
100
AcDbEntity
  8
0
  6
SLD-実線
 62
     7
370
    18
100
AcDbLine
 10
44.139187644
 20
136.8191254038
 30
0.0
 11
44.139187644
 21
141.8191254038
 31
0.0
  0
LINE
  5
258
330
250
100
AcDbEntity
  8
0
  6
SLD-実線
 62
     7
370
    18
100
AcDbLine
 10
44.139187644
 20
136.8191254038
 30
0.0
 11
44.139187644
 21
130.8191254038
 31
0.0
  0
LINE
  5
259
330
250
100
AcDbEntity
  8
0
  6
SLD-実線
 62
     7
370
    18
100
AcDbLine
 10
44.139187644
 20
130.8191254038
 30
0.0
 11
44.139187644
 21
125.8191254038
 31
0.0
  0
MTEXT
  5
25A
330
250
100
AcDbEntity
  8
0
  6
SLD-実線
 62
     7
370
    18
100
AcDbMText
 10
40.0664606041
 20
132.8007226551
 30
0.0
 40
3.5
 41
0.0
 71
     1
 72
     1
  1
6
  7
SLDTEXTSTYLE1
 11
-7.044195017643634E-15
 21
1.0
 31
0.0
 73
     1
 44
1.0
  0
ENDBLK
  5
252
330
250
100
AcDbEntity
  8
0
100
AcDbBlockEnd
  0
BLOCK
  5
25D
330
25C
100
AcDbEntity
  8
0
100
AcDbBlockBegin
  2
_D_4
 70
     0
 10
0.0
 20
0.0
 30
0.0
  3
_D_4
  1

  0
SOLID
  5
25F
330
25C
100
AcDbEntity
  8
0
  6
SLD-実線
 62
     7
370
    18
100
AcDbTrace
 10
53.1469754728
 20
119.1098126855
 30
0.0
 11
50.1469754728
 21
119.8598126855
 31
0.0
 12
50.1469754728
 22
118.3598126855
 32
0.0
 13
50.1469754728
 23
118.3598126855
 33
0.0
  0
SOLID
  5
260
330
25C
100
AcDbEntity
  8
0
  6
SLD-実線
 62
     7
370
    18
100
AcDbTrace
 10
63.1469754728
 20
119.1098126855
 30
0.0
 11
66.1469754728
 21
118.3598126855
 31
0.0
 12
66.1469754728
 22
119.8598126855
 32
0.0
 13
66.1469754728
 23
119.8598126855
 33
0.0
  0
LINE
  5
261
330
25C
100
AcDbEntity
  8
0
  6
SLD-実線
 62
     7
370
    18
100
AcDbLine
 10
53.1469754728
 20
142.8191254038
 30
0.0
 11
53.1469754728
 21
118.1098126855
 31
0.0
  0
LINE
  5
262
330
25C
100
AcDbEntity
  8
0
  6
SLD-実線
 62
     7
370
    18
100
AcDbLine
 10
63.1469754728
 20
130.5691254038
 30
0.0
 11
63.1469754728
 21
118.1098126855
 31
0.0
  0
LINE
  5
263
330
25C
100
AcDbEntity
  8
0
  6
SLD-実線
 62
     7
370
    18
100
AcDbLine
 10
53.1469754728
 20
119.1098126855
 30
0.0
 11
48.1469754728
 21
119.1098126855
 31
0.0
  0
LINE
  5
264
330
25C
100
AcDbEntity
  8
0
  6
SLD-実線
 62
     7
370
    18
100
AcDbLine
 10
53.1469754728
 20
119.1098126855
 30
0.0
 11
63.1469754728
 21
119.1098126855
 31
0.0
  0
LINE
  5
265
330
25C
100
AcDbEntity
  8
0
  6
SLD-実線
 62
     7
370
    18
100
AcDbLine
 10
63.1469754728
 20
119.1098126855
 30
0.0
 11
68.1469754728
 21
119.1098126855
 31
0.0
  0
MTEXT
  5
266
330
25C
100
AcDbEntity
  8
0
  6
SLD-実線
 62
     7
370
    18
100
AcDbMText
 10
56.1101699754
 20
123.1825397254
 30
0.0
 40
3.5
 41
0.0
 71
     1
 72
     1
  1
10
  7
SLDTEXTSTYLE1
 73
     1
 44
1.0
  0
ENDBLK
  5
25E
330
25C
100
AcDbEntity
  8
0
100
AcDbBlockEnd
  0
BLOCK
  5
269
330
268
100
AcDbEntity
  8
0
100
AcDbBlockBegin
  2
_D_5
 70
     0
 10
0.0
 20
0.0
 30
0.0
  3
_D_5
  1

  0
SOLID
  5
26B
330
268
100
AcDbEntity
  8
0
  6
SLD-実線
 62
     7
370
    18
100
AcDbTrace
 10
63.1469754728
 20
119.1098126855
 30
0.0
 11
66.1469754728
 21
118.3598126855
 31
0.0
 12
66.1469754728
 22
119.8598126855
 32
0.0
 13
66.1469754728
 23
119.8598126855
 33
0.0
  0
SOLID
  5
26C
330
268
100
AcDbEntity
  8
0
  6
SLD-実線
 62
     7
370
    18
100
AcDbTrace
 10
88.1469754728
 20
119.1098126855
 30
0.0
 11
85.1469754728
 21
119.8598126855
 31
0.0
 12
85.1469754728
 22
118.3598126855
 32
0.0
 13
85.1469754728
 23
118.3598126855
 33
0.0
  0
LINE
  5
26D
330
268
100
AcDbEntity
  8
0
  6
SLD-実線
 62
     7
370
    18
100
AcDbLine
 10
63.1469754728
 20
130.5691254038
 30
0.0
 11
63.1469754728
 21
118.1098126855
 31
0.0
  0
LINE
  5
26E
330
268
100
AcDbEntity
  8
0
  6
SLD-実線
 62
     7
370
    18
100
AcDbLine
 10
88.1469754728
 20
130.5691254038
 30
0.0
 11
88.1469754728
 21
118.1098126855
 31
0.0
  0
LINE
  5
26F
330
268
100
AcDbEntity
  8
0
  6
SLD-実線
 62
     7
370
    18
100
AcDbLine
 10
63.1469754728
 20
119.1098126855
 30
0.0
 11
88.1469754728
 21
119.1098126855
 31
0.0
  0
MTEXT
  5
270
330
268
100
AcDbEntity
  8
0
  6
SLD-実線
 62
     7
370
    18
100
AcDbMText
 10
73.6101699754
 20
123.1825397254
 30
0.0
 40
3.5
 41
0.0
 71
     1
 72
     1
  1
25
  7
SLDTEXTSTYLE1
 73
     1
 44
1.0
  0
ENDBLK
  5
26A
330
268
100
AcDbEntity
  8
0
100
AcDbBlockEnd
  0
BLOCK
  5
272
330
271
100
AcDbEntity
  8
0
100
AcDbBlockBegin
  2
SW_NOTE_0
 70
     0
 10
0.0
 20
0.0
 30
0.0
  3
SW_NOTE_0
  1

  0
LINE
  5
274
330
271
100
AcDbEntity
  8
0
  6
SLD-実線
 62
     0
370
     0
100
AcDbLine
 10
36.5381222422
 20
0.0
 30
0.0
 11
0.0
 21
0.0
 31
0.0
  0
MTEXT
  5
275
330
271
100
AcDbEntity
  8
0
  6
Continuous
 62
     0
370
     0
100
AcDbMText
 10
0.4932455908
 20
8.6213660683
 30
0.0
 40
3.5
 41
0.0
 71
     1
 72
     1
  1
十字穴付ナベ小ネジ
  7
SLDTEXTSTYLE0
 73
     1
 44
1.0
  0
MTEXT
  5
276
330
271
100
AcDbEntity
  8
0
  6
Continuous
 62
     0
370
     0
100
AcDbMText
 10
0.4932455908
 20
4.121366262
 30
0.0
 40
3.5
 41
0.0
 71
     1
 72
     1
  1
M3*8 2ヶ
  7
SLDTEXTSTYLE0
 73
     1
 44
1.0
  0
ENDBLK
  5
273
330
271
100
AcDbEntity
  8
0
100
AcDbBlockEnd
  0
BLOCK
  5
27B
330
27A
100
AcDbEntity
  8
0
100
AcDbBlockBegin
  2
SW_CENTERMARKSYMBOL_0
 70
     0
 10
0.0
 20
0.0
 30
0.0
  3
SW_CENTERMARKSYMBOL_0
  1

  0
LINE
  5
27D
330
27A
100
AcDbEntity
  8
0
  6
SLD-実線
 62
     0
370
    18
100
AcDbLine
 10
0.0
 20
0.0
 30
0.0
 11
0.0
 21
2.5
 31
0.0
  0
LINE
  5
27E
330
27A
100
AcDbEntity
  8
0
  6
SLD-実線
 62
     0
370
    18
100
AcDbLine
 10
0.0
 20
0.0
 30
0.0
 11
-2.5
 21
0.0
 31
0.0
  0
LINE
  5
27F
330
27A
100
AcDbEntity
  8
0
  6
SLD-実線
 62
     0
370
    18
100
AcDbLine
 10
0.0
 20
0.0
 30
0.0
 11
0.0
 21
-2.5
 31
0.0
  0
LINE
  5
280
330
27A
100
AcDbEntity
  8
0
  6
SLD-実線
 62
     0
370
    18
100
AcDbLine
 10
0.0
 20
0.0
 30
0.0
 11
2.5
 21
0.0
 31
0.0
  0
LINE
  5
281
330
27A
100
AcDbEntity
  8
0
  6
SLD-実線
 62
     0
370
    18
100
AcDbLine
 10
0.0
 20
5.0
 30
0.0
 11
0.0
 21
5.25
 31
0.0
  0
LINE
  5
282
330
27A
100
AcDbEntity
  8
0
  6
SLD-実線
 62
     0
370
    18
100
AcDbLine
 10
-5.0
 20
0.0
 30
0.0
 11
-5.25
 21
0.0
 31
0.0
  0
LINE
  5
283
330
27A
100
AcDbEntity
  8
0
  6
SLD-実線
 62
     0
370
    18
100
AcDbLine
 10
0.0
 20
-5.0
 30
0.0
 11
0.0
 21
-5.25
 31
0.0
  0
LINE
  5
284
330
27A
100
AcDbEntity
  8
0
  6
SLD-実線
 62
     0
370
    18
100
AcDbLine
 10
5.0
 20
0.0
 30
0.0
 11
5.25
 21
0.0
 31
0.0
  0
ENDBLK
  5
27C
330
27A
100
AcDbEntity
  8
0
100
AcDbBlockEnd
  0
BLOCK
  5
287
330
286
100
AcDbEntity
  8
0
100
AcDbBlockBegin
  2
SW_CENTERMARKSYMBOL_1
 70
     0
 10
0.0
 20
0.0
 30
0.0
  3
SW_CENTERMARKSYMBOL_1
  1

  0
LINE
  5
289
330
286
100
AcDbEntity
  8
0
  6
SLD-実線
 62
     0
370
    18
100
AcDbLine
 10
0.0
 20
0.0
 30
0.0
 11
0.0
 21
2.5
 31
0.0
  0
LINE
  5
28A
330
286
100
AcDbEntity
  8
0
  6
SLD-実線
 62
     0
370
    18
100
AcDbLine
 10
0.0
 20
0.0
 30
0.0
 11
-2.5
 21
0.0
 31
0.0
  0
LINE
  5
28B
330
286
100
AcDbEntity
  8
0
  6
SLD-実線
 62
     0
370
    18
100
AcDbLine
 10
0.0
 20
0.0
 30
0.0
 11
0.0
 21
-2.5
 31
0.0
  0
LINE
  5
28C
330
286
100
AcDbEntity
  8
0
  6
SLD-実線
 62
     0
370
    18
100
AcDbLine
 10
0.0
 20
0.0
 30
0.0
 11
2.5
 21
0.0
 31
0.0
  0
LINE
  5
28D
330
286
100
AcDbEntity
  8
0
  6
SLD-実線
 62
     0
370
    18
100
AcDbLine
 10
0.0
 20
5.0
 30
0.0
 11
0.0
 21
5.25
 31
0.0
  0
LINE
  5
28E
330
286
100
AcDbEntity
  8
0
  6
SLD-実線
 62
     0
370
    18
100
AcDbLine
 10
-5.0
 20
0.0
 30
0.0
 11
-5.25
 21
0.0
 31
0.0
  0
LINE
  5
28F
330
286
100
AcDbEntity
  8
0
  6
SLD-実線
 62
     0
370
    18
100
AcDbLine
 10
0.0
 20
-5.0
 30
0.0
 11
0.0
 21
-5.25
 31
0.0
  0
LINE
  5
290
330
286
100
AcDbEntity
  8
0
  6
SLD-実線
 62
     0
370
    18
100
AcDbLine
 10
5.0
 20
0.0
 30
0.0
 11
5.25
 21
0.0
 31
0.0
  0
ENDBLK
  5
288
330
286
100
AcDbEntity
  8
0
100
AcDbBlockEnd
  0
BLOCK
  5
335
330
334
100
AcDbEntity
  8
0
100
AcDbBlockBegin
  2
_D_6
 70
     0
 10
0.0
 20
0.0
 30
0.0
  3
_D_6
  1

  0
SOLID
  5
337
330
334
100
AcDbEntity
  8
0
  6
SLD-実線
 62
     7
370
    18
100
AcDbTrace
 10
142.2260412785
 20
205.825842749
 30
0.0
 11
145.2260412785
 21
205.075842749
 31
0.0
 12
145.2260412785
 22
206.575842749
 32
0.0
 13
145.2260412785
 23
206.575842749
 33
0.0
  0
SOLID
  5
338
330
334
100
AcDbEntity
  8
0
  6
SLD-実線
 62
     7
370
    18
100
AcDbTrace
 10
171.2260412785
 20
205.825842749
 30
0.0
 11
168.2260412785
 21
206.575842749
 31
0.0
 12
168.2260412785
 22
205.075842749
 32
0.0
 13
168.2260412785
 23
205.075842749
 33
0.0
  0
LINE
  5
339
330
334
100
AcDbEntity
  8
0
  6
SLD-実線
 62
     7
370
    18
100
AcDbLine
 10
142.2260412785
 20
192.4178111805
 30
0.0
 11
142.2260412785
 21
206.825842749
 31
0.0
  0
LINE
  5
33A
330
334
100
AcDbEntity
  8
0
  6
SLD-実線
 62
     7
370
    18
100
AcDbLine
 10
171.2260412785
 20
192.8191254038
 30
0.0
 11
171.2260412785
 21
206.825842749
 31
0.0
  0
LINE
  5
33B
330
334
100
AcDbEntity
  8
0
  6
SLD-実線
 62
     7
370
    18
100
AcDbLine
 10
142.2260412785
 20
205.825842749
 30
0.0
 11
171.2260412785
 21
205.825842749
 31
0.0
  0
MTEXT
  5
33C
330
334
100
AcDbEntity
  8
0
  6
SLD-実線
 62
     7
370
    18
100
AcDbMText
 10
154.689235781
 20
209.8985697889
 30
0.0
 40
3.5
 41
0.0
 71
     1
 72
     1
  1
29
  7
SLDTEXTSTYLE1
 73
     1
 44
1.0
  0
ENDBLK
  5
336
330
334
100
AcDbEntity
  8
0
100
AcDbBlockEnd
  0
BLOCK
  5
33F
330
33E
100
AcDbEntity
  8
0
100
AcDbBlockBegin
  2
_D_7
 70
     0
 10
0.0
 20
0.0
 30
0.0
  3
_D_7
  1

  0
SOLID
  5
341
330
33E
100
AcDbEntity
  8
0
  6
SLD-実線
 62
     7
370
    18
100
AcDbTrace
 10
153.2260412785
 20
118.5866176436
 30
0.0
 11
156.2260412785
 21
117.8366176436
 31
0.0
 12
156.2260412785
 22
119.3366176436
 32
0.0
 13
156.2260412785
 23
119.3366176436
 33
0.0
  0
SOLID
  5
342
330
33E
100
AcDbEntity
  8
0
  6
SLD-実線
 62
     7
370
    18
100
AcDbTrace
 10
148.7260412785
 20
118.5866176436
 30
0.0
 11
145.7260412785
 21
119.3366176436
 31
0.0
 12
145.7260412785
 22
117.8366176436
 32
0.0
 13
145.7260412785
 23
117.8366176436
 33
0.0
  0
LINE
  5
343
330
33E
100
AcDbEntity
  8
0
  6
SLD-実線
 62
     7
370
    18
100
AcDbLine
 10
153.2260412785
 20
129.8191254038
 30
0.0
 11
153.2260412785
 21
117.5866176436
 31
0.0
  0
LINE
  5
344
330
33E
100
AcDbEntity
  8
0
  6
SLD-実線
 62
     7
370
    18
100
AcDbLine
 10
148.7260412785
 20
129.8191254038
 30
0.0
 11
148.7260412785
 21
117.5866176436
 31
0.0
  0
LINE
  5
345
330
33E
100
AcDbEntity
  8
0
  6
SLD-実線
 62
     7
370
    18
100
AcDbLine
 10
153.2260412785
 20
118.5866176436
 30
0.0
 11
158.2260412785
 21
118.5866176436
 31
0.0
  0
LINE
  5
346
330
33E
100
AcDbEntity
  8
0
  6
SLD-実線
 62
     7
370
    18
100
AcDbLine
 10
153.2260412785
 20
118.5866176436
 30
0.0
 11
148.7260412785
 21
118.5866176436
 31
0.0
  0
LINE
  5
347
330
33E
100
AcDbEntity
  8
0
  6
SLD-実線
 62
     7
370
    18
100
AcDbLine
 10
148.7260412785
 20
118.5866176436
 30
0.0
 11
137.804397533
 21
118.5866176436
 31
0.0
  0
MTEXT
  5
348
330
33E
100
AcDbEntity
  8
0
  6
SLD-実線
 62
     7
370
    18
100
AcDbMText
 10
137.804397533
 20
122.6593446835
 30
0.0
 40
3.5
 41
0.0
 71
     1
 72
     1
  1
4.5
  7
SLDTEXTSTYLE1
 73
     1
 44
1.0
  0
ENDBLK
  5
340
330
33E
100
AcDbEntity
  8
0
100
AcDbBlockEnd
  0
ENDSEC
  0
SECTION
  2
ENTITIES
  0
LINE
  5
75
330
1F
100
AcDbEntity
  8
0
  6
SLD-実線
 62
     7
370
    18
100
AcDbLine
 10
20.2604743903
 20
285.0
 30
0.0
 11
196.7604743903
 21
285.0
 31
0.0
  0
LINE
  5
76
330
1F
100
AcDbEntity
  8
0
  6
SLD-実線
 62
     7
370
    18
100
AcDbLine
 10
20.2604743903
 20
285.0
 30
0.0
 11
20.2604743903
 21
10.0
 31
0.0
  0
LINE
  5
77
330
1F
100
AcDbEntity
  8
0
  6
SLD-実線
 62
     7
370
    18
100
AcDbLine
 10
20.2604743903
 20
10.0
 30
0.0
 11
196.7604743903
 21
10.0
 31
0.0
  0
LINE
  5
78
330
1F
100
AcDbEntity
  8
0
  6
SLD-実線
 62
     7
370
    18
100
AcDbLine
 10
196.7604743903
 20
285.0
 30
0.0
 11
196.7604743903
 21
10.0
 31
0.0
  0
LINE
  5
79
330
1F
100
AcDbEntity
  8
0
  6
SLD-実線
 62
     7
370
    18
100
AcDbLine
 10
127.0104743903
 20
50.75
 30
0.0
 11
196.7604743903
 21
50.75
 31
0.0
  0
LINE
  5
7A
330
1F
100
AcDbEntity
  8
0
  6
SLD-実線
 62
     7
370
    18
100
AcDbLine
 10
127.0104743903
 20
50.75
 30
0.0
 11
127.0104743903
 21
10.0
 31
0.0
  0
LINE
  5
7B
330
1F
100
AcDbEntity
  8
0
  6
SLD-実線
 62
     7
370
    18
100
AcDbLine
 10
127.0104743903
 20
22.75
 30
0.0
 11
196.7604743903
 21
22.75
 31
0.0
  0
LINE
  5
7C
330
1F
100
AcDbEntity
  8
0
  6
SLD-実線
 62
     7
370
    18
100
AcDbLine
 10
127.0104743903
 20
36.75
 30
0.0
 11
196.7604743903
 21
36.75
 31
0.0
  0
MTEXT
  5
7E
330
1F
100
AcDbEntity
  8
0
  6
Continuous
 62
     7
370
     0
100
AcDbMText
 10
129.5582410979
 20
44.5748159395
 30
0.0
 40
2.9104166667
 41
0.0
 71
     1
 72
     1
  1
ワイヤレスコネクター12P・ツール側
  7
SLDTEXTSTYLE0
 73
     1
 44
1.0
  0
MTEXT
  5
80
330
1F
100
AcDbEntity
  8
0
  6
Continuous
 62
     7
370
     0
100
AcDbMText
 10
147.8144881415
 20
30.4569612402
 30
0.0
 40
3.175
 41
0.0
 71
     1
 72
     1
  1
OX-RS12T1-LBI
  7
SLDTEXTSTYLE1
 73
     1
 44
1.0
  0
MTEXT
  5
81
330
1F
100
AcDbEntity
  8
0
  6
Continuous
 62
     7
370
     0
100
AcDbMText
 10
155.2228230151
 20
17.2283829787
 30
0.0
 40
3.175
 41
0.0
 71
     1
 72
     1
  1
140378
  7
SLDTEXTSTYLE1
 73
     1
 44
1.0
  0
LINE
  5
82
330
1F
100
AcDbEntity
  8
0
  6
SLD-実線
 62
     7
370
    18
100
AcDbLine
 10
101.0626368026
 20
173.2514498053
 30
0.0
 11
101.0632645026
 21
173.2560591707
 31
0.0
  0
SPLINE
  5
83
330
1F
100
AcDbEntity
  8
0
  6
SLD-実線
 62
     7
370
    18
100
AcDbSpline
210
0.0
220
0.0
230
1.0
 70
     8
 71
     3
 72
    24
 73
    20
 74
     0
 42
0.000000001
 43
0.00000001
 40
0.0
 40
0.0
 40
0.0
 40
0.0
 40
0.0299539720909252
 40
0.0929096060812321
 40
0.1558771598728877
 40
0.2188636874446658
 40
0.281876702847197
 40
0.3449178866520467
 40
0.4079264471209474
 40
0.4593845083589078
 40
0.4993907625542909
 40
0.5331507085052111
 40
0.5656208780963117
 40
0.6018258463756011
 40
0.6547432581066043
 40
0.7973224234244447
 40
0.8790843772823888
 40
0.9662409324904087
 40
1.0
 40
1.0
 40
1.0
 40
1.0
 10
97.96245346677816
 20
163.3340654202399
 30
0.0
 10
98.01769107215611
 20
163.263721867255
 30
0.0
 10
98.25525074961998
 20
163.2574596686089
 30
0.0
 10
98.65024575324396
 20
163.3303065518403
 30
0.0
 10
99.11053331804372
 20
163.4783921809643
 30
0.0
 10
99.54063307423924
 20
163.7025014464926
 30
0.0
 10
99.92935612542038
 20
163.9914038166719
 30
0.0
 10
100.2663881102217
 20
164.3386363313605
 30
0.0
 10
100.5258955755865
 20
164.7097098886359
 30
0.0
 10
100.7008682769906
 20
165.0577923952101
 30
0.0
 10
100.8068622544006
 20
165.3455555454213
 30
0.0
 10
100.870518650303
 20
165.5785908231799
 30
0.0
 10
100.9094140575299
 20
165.7711471208311
 30
0.0
 10
100.9352500623202
 20
165.945047897212
 30
0.0
 10
100.9604855454332
 20
166.1847568385834
 30
0.0
 10
100.9743922022431
 20
166.4168895678432
 30
0.0
 10
100.9891261835987
 20
166.7495116704476
 30
0.0
 10
100.9977238975244
 20
166.9910751398195
 30
0.0
 10
101.0024299663115
 20
167.1629232603028
 30
0.0
 10
101.0037438783629
 20
167.2109024392575
 30
0.0
  0
SPLINE
  5
84
330
1F
100
AcDbEntity
  8
0
  6
SLD-実線
 62
     7
370
    18
100
AcDbSpline
210
0.0
220
0.0
230
1.0
 70
     8
 71
     3
 72
    26
 73
    22
 74
     0
 42
0.000000001
 43
0.00000001
 40
0.0
 40
0.0
 40
0.0
 40
0.0
 40
0.0418127801839479
 40
0.1128540017028555
 40
0.1826389206403422
 40
0.2514018903749229
 40
0.3205461520112081
 40
0.3991023582417343
 40
0.4382248778272284
 40
0.4679434643666878
 40
0.4963157370647252
 40
0.52745436618088
 40
0.5645153000964958
 40
0.6106659469522319
 40
0.6654280611686803
 40
0.7246189855187988
 40
0.785163073976418
 40
0.8460480082646124
 40
0.9070219510332821
 40
0.968022213876856
 40
1.0
 40
1.0
 40
1.0
 40
1.0
 10
101.0092660131349
 20
179.0472845108072
 30
0.0
 10
101.005802776109
 20
179.2300603903957
 30
0.0
 10
101.0013634564791
 20
179.4009011500442
 30
0.0
 10
100.9935486669904
 20
179.6392003879983
 30
0.0
 10
100.9839994766509
 20
179.8858805242289
 30
0.0
 10
100.9736459742259
 20
180.0998880839475
 30
0.0
 10
100.9607782929356
 20
180.3027682482394
 30
0.0
 10
100.9461583910453
 20
180.4761826285817
 30
0.0
 10
100.921324488169
 20
180.6668862325832
 30
0.0
 10
100.8914059831029
 20
180.8357197324055
 30
0.0
 10
100.8474686383031
 20
181.0240518218034
 30
0.0
 10
100.7791800225194
 20
181.2479635284141
 30
0.0
 10
100.6710449003928
 20
181.5187273858876
 30
0.0
 10
100.5029607370683
 20
181.8365453463098
 30
0.0
 10
100.2590387779214
 20
182.1797149311905
 30
0.0
 10
99.93925325688154
 20
182.511307205066
 30
0.0
 10
99.55794352884197
 20
182.7985431096173
 30
0.0
 10
99.13127716972028
 20
183.0247971318143
 30
0.0
 10
98.67275982668502
 20
183.1764673326662
 30
0.0
 10
98.27081168836749
 20
183.2529714054376
 30
0.0
 10
98.02547222055868
 20
183.2480649999534
 30
0.0
 10
97.9410930244329
 20
183.2463775480553
 30
0.0
  0
LINE
  5
85
330
1F
100
AcDbEntity
  8
0
  6
SLD-実線
 62
     7
370
    18
100
AcDbLine
 10
63.1469754728
 20
140.0691254038
 30
0.0
 11
60.1469754728
 21
140.0691254038
 31
0.0
  0
LINE
  5
86
330
1F
100
AcDbEntity
  8
0
  6
SLD-実線
 62
     7
370
    18
100
AcDbLine
 10
60.1469754728
 20
140.0691254038
 30
0.0
 11
60.1469754728
 21
143.8191254038
 31
0.0
  0
LINE
  5
87
330
1F
100
AcDbEntity
  8
0
  6
SLD-実線
 62
     7
370
    18
100
AcDbLine
 10
60.1469754728
 20
143.8191254038
 30
0.0
 11
53.1469754728
 21
143.8191254038
 31
0.0
  0
LINE
  5
88
330
1F
100
AcDbEntity
  8
0
  6
SLD-実線
 62
     7
370
    18
100
AcDbLine
 10
53.1469754728
 20
143.8191254038
 30
0.0
 11
53.1469754728
 21
146.8191254038
 31
0.0
  0
LINE
  5
89
330
1F
100
AcDbEntity
  8
0
  6
SLD-実線
 62
     7
370
    18
100
AcDbLine
 10
98.1469754728
 20
146.8191254038
 30
0.0
 11
53.1469754728
 21
146.8191254038
 31
0.0
  0
LINE
  5
8A
330
1F
100
AcDbEntity
  8
0
  6
SLD-実線
 62
     7
370
    18
100
AcDbLine
 10
98.1469754728
 20
146.8191254038
 30
0.0
 11
98.1469754728
 21
143.8191254038
 31
0.0
  0
LINE
  5
8B
330
1F
100
AcDbEntity
  8
0
  6
SLD-実線
 62
     7
370
    18
100
AcDbLine
 10
98.1469754728
 20
143.8191254038
 30
0.0
 11
91.1469754728
 21
143.8191254038
 31
0.0
  0
LINE
  5
8C
330
1F
100
AcDbEntity
  8
0
  6
SLD-実線
 62
     7
370
    18
100
AcDbLine
 10
91.1469754728
 20
140.0691254038
 30
0.0
 11
91.1469754728
 21
143.8191254038
 31
0.0
  0
LINE
  5
8D
330
1F
100
AcDbEntity
  8
0
  6
SLD-実線
 62
     7
370
    18
100
AcDbLine
 10
91.1469754728
 20
140.0691254038
 30
0.0
 11
88.1469754728
 21
140.0691254038
 31
0.0
  0
ARC
  5
8E
330
1F
100
AcDbEntity
  8
0
  6
SLD-実線
 62
     7
370
    18
100
AcDbCircle
 10
88.1469754728
 20
136.8191254038
 30
0.0
 40
3.25
100
AcDbArc
 50
90.0
 51
270.0
  0
LINE
  5
8F
330
1F
100
AcDbEntity
  8
0
  6
SLD-実線
 62
     7
370
    18
100
AcDbLine
 10
88.1469754728
 20
133.5691254038
 30
0.0
 11
91.1469754728
 21
133.5691254038
 31
0.0
  0
LINE
  5
90
330
1F
100
AcDbEntity
  8
0
  6
SLD-実線
 62
     7
370
    18
100
AcDbLine
 10
91.1469754728
 20
130.8191254038
 30
0.0
 11
91.1469754728
 21
133.5691254038
 31
0.0
  0
LINE
  5
91
330
1F
100
AcDbEntity
  8
0
  6
SLD-実線
 62
     7
370
    18
100
AcDbLine
 10
91.1469754728
 20
130.8191254038
 30
0.0
 11
60.1469754728
 21
130.8191254038
 31
0.0
  0
LINE
  5
92
330
1F
100
AcDbEntity
  8
0
  6
SLD-実線
 62
     7
370
    18
100
AcDbLine
 10
60.1469754728
 20
130.8191254038
 30
0.0
 11
60.1469754728
 21
133.5691254038
 31
0.0
  0
LINE
  5
93
330
1F
100
AcDbEntity
  8
0
  6
SLD-実線
 62
     7
370
    18
100
AcDbLine
 10
60.1469754728
 20
133.5691254038
 30
0.0
 11
63.1469754728
 21
133.5691254038
 31
0.0
  0
ARC
  5
94
330
1F
100
AcDbEntity
  8
0
  6
SLD-実線
 62
     7
370
    18
100
AcDbCircle
 10
63.1469754728
 20
136.8191254038
 30
0.0
 40
3.25
100
AcDbArc
 50
270.0
 51
90.0
  0
LINE
  5
95
330
1F
100
AcDbEntity
  8
0
  6
SLD-実線
 62
     7
370
    18
100
AcDbLine
 10
91.1469754728
 20
133.5691254038
 30
0.0
 11
91.1469754728
 21
140.0691254038
 31
0.0
  0
LINE
  5
96
330
1F
100
AcDbEntity
  8
0
  6
SLD-実線
 62
     7
370
    18
100
AcDbLine
 10
60.1469754728
 20
140.0691254038
 30
0.0
 11
60.1469754728
 21
133.5691254038
 31
0.0
  0
LINE
  5
97
330
1F
100
AcDbEntity
  8
0
  6
SLD-実線
 62
     7
370
    18
100
AcDbLine
 10
98.1469754728
 20
155.8183638796
 30
0.0
 11
98.1469754728
 21
148.8191254038
 31
0.0
  0
LINE
  5
98
330
1F
100
AcDbEntity
  8
0
  6
SLD-実線
 62
     7
370
    18
100
AcDbLine
 10
98.1469754728
 20
148.8191254038
 30
0.0
 11
98.1469754728
 21
146.8191254038
 31
0.0
  0
LINE
  5
99
330
1F
100
AcDbEntity
  8
0
  6
SLD-実線
 62
     7
370
    18
100
AcDbLine
 10
53.1469754728
 20
148.8191254038
 30
0.0
 11
98.1469754728
 21
148.8191254038
 31
0.0
  0
LINE
  5
9A
330
1F
100
AcDbEntity
  8
0
  6
SLD-実線
 62
     7
370
    18
100
AcDbLine
 10
53.1469754728
 20
146.8191254038
 30
0.0
 11
53.1469754728
 21
148.8191254038
 31
0.0
  0
LINE
  5
9B
330
1F
100
AcDbEntity
  8
0
  6
SLD-実線
 62
     7
370
    18
100
AcDbLine
 10
53.1469754728
 20
148.8191254038
 30
0.0
 11
53.1469754728
 21
154.8185161845
 31
0.0
  0
LINE
  5
9C
330
1F
100
AcDbEntity
  8
0
  6
SLD-実線
 62
     7
370
    18
100
AcDbLine
 10
53.1469754728
 20
172.6191254038
 30
0.0
 11
53.1469754728
 21
174.0191254038
 31
0.0
  0
ARC
  5
9D
330
1F
100
AcDbEntity
  8
0
  6
SLD-実線
 62
     7
370
    18
100
AcDbCircle
 10
57.1469754728
 20
191.8191254038
 30
0.0
 40
4.0
100
AcDbArc
 50
90.0
 51
180.0
  0
LINE
  5
9E
330
1F
100
AcDbEntity
  8
0
  6
SLD-実線
 62
     7
370
    18
100
AcDbLine
 10
74.9469754728
 20
195.8191254038
 30
0.0
 11
76.3469754728
 21
195.8191254038
 31
0.0
  0
LINE
  5
9F
330
1F
100
AcDbEntity
  8
0
  6
SLD-実線
 62
     7
370
    18
100
AcDbLine
 10
57.5740712383
 20
192.4536836739
 30
0.0
 11
57.4576171694
 21
192.3182201738
 31
0.0
  0
LINE
  5
A0
330
1F
100
AcDbEntity
  8
0
  6
SLD-実線
 62
     7
370
    18
100
AcDbLine
 10
56.5614084388
 20
191.2757184179
 30
0.0
 11
56.4449543698
 21
191.1402549178
 31
0.0
  0
LINE
  5
A1
330
1F
100
AcDbEntity
  8
0
  6
SLD-実線
 62
     7
370
    18
100
AcDbLine
 10
57.0178586043
 20
189.5056966478
 30
0.0
 11
57.1934004711
 21
189.4725762157
 31
0.0
  0
LINE
  5
A2
330
1F
100
AcDbEntity
  8
0
  6
SLD-実線
 62
     7
370
    18
100
AcDbLine
 10
58.5443378406
 20
189.2176875659
 30
0.0
 11
58.7198797074
 21
189.1845671338
 31
0.0
  0
LWPOLYLINE
  5
A3
330
1F
100
AcDbEntity
  8
0
  6
SLD-実線
 62
     7
370
    18
100
AcDbPolyline
 90
        3
 70
   128
 43
0.0
 10
94.7773243058
 20
156.0730204273
 10
94.7524995093
 20
156.1996415906
 10
94.825869312
 20
156.2449369547
  0
LINE
  5
A4
330
1F
100
AcDbEntity
  8
0
  6
SLD-実線
 62
     7
370
    18
100
AcDbLine
 10
92.6762921735
 20
154.1522549135
 30
0.0
 11
92.8494487567
 21
154.1961719685
 31
0.0
  0
LINE
  5
A5
330
1F
100
AcDbEntity
  8
0
  6
SLD-実線
 62
     7
370
    18
100
AcDbLine
 10
94.3551860127
 20
154.5780664643
 30
0.0
 11
94.4037310189
 21
154.7499829917
 31
0.0
  0
CIRCLE
  5
A6
330
1F
100
AcDbEntity
  8
0
  6
SLD-実線
 62
     7
370
    18
100
AcDbCircle
 10
63.1469754728
 20
136.8191254038
 30
0.0
 40
2.75
  0
SPLINE
  5
A7
330
1F
100
AcDbEntity
  8
0
  6
SLD-実線
 62
     7
370
    18
100
AcDbSpline
210
0.0
220
0.0
230
1.0
 70
     8
 71
     3
 72
     8
 73
     4
 74
     0
 42
0.000000001
 43
0.00000001
 40
0.0
 40
0.0
 40
0.0
 40
0.0
 40
1.0
 40
1.0
 40
1.0
 40
1.0
 10
61.4121427641524
 20
137.0539581125383
 30
0.0
 10
61.57652800009945
 20
137.0640439270179
 30
0.0
 10
61.74893684214091
 20
137.0691254038442
 30
0.0
 10
61.92223060145487
 20
137.0691254038442
 30
0.0
  0
SPLINE
  5
A8
330
1F
100
AcDbEntity
  8
0
  6
SLD-実線
 62
     7
370
    18
100
AcDbSpline
210
0.0
220
0.0
230
1.0
 70
     8
 71
     3
 72
     8
 73
     4
 74
     0
 42
0.000000001
 43
0.00000001
 40
0.0
 40
0.0
 40
0.0
 40
0.0
 40
1.0
 40
1.0
 40
1.0
 40
1.0
 10
61.4121427641524
 20
136.5842926951501
 30
0.0
 10
61.41090804647087
 20
136.7408478342795
 30
0.0
 10
61.41090804647087
 20
136.8974029734089
 30
0.0
 10
61.4121427641524
 20
137.0539581125383
 30
0.0
  0
SPLINE
  5
A9
330
1F
100
AcDbEntity
  8
0
  6
SLD-実線
 62
     7
370
    18
100
AcDbSpline
210
0.0
220
0.0
230
1.0
 70
     8
 71
     3
 72
     8
 73
     4
 74
     0
 42
0.000000001
 43
0.00000001
 40
0.0
 40
0.0
 40
0.0
 40
0.0
 40
1.0
 40
1.0
 40
1.0
 40
1.0
 10
61.92223060145487
 20
136.5691254038442
 30
0.0
 10
61.74822216224829
 20
136.5691254038442
 30
0.0
 10
61.57668290468856
 20
136.5741973765386
 30
0.0
 10
61.4121427641524
 20
136.5842926951501
 30
0.0
  0
ARC
  5
AA
330
1F
100
AcDbEntity
  8
0
  6
SLD-実線
 62
     7
370
    18
100
AcDbCircle
 10
63.1469754728
 20
136.8191254038
 30
0.0
 40
1.250000000000024
100
AcDbArc
 50
191.5369590328
 51
258.4630409672
  0
SPLINE
  5
AB
330
1F
100
AcDbEntity
  8
0
  6
SLD-実線
 62
     7
370
    18
100
AcDbSpline
210
0.0
220
0.0
230
1.0
 70
     8
 71
     3
 72
     8
 73
     4
 74
     0
 42
0.000000001
 43
0.00000001
 40
0.0
 40
0.0
 40
0.0
 40
0.0
 40
1.0
 40
1.0
 40
1.0
 40
1.0
 10
62.9121427641524
 20
135.0842926951501
 30
0.0
 10
62.90205694967271
 20
135.2486779310972
 30
0.0
 10
62.89697547284646
 20
135.4210867731386
 30
0.0
 10
62.89697547284646
 20
135.5943805324526
 30
0.0
  0
SPLINE
  5
AC
330
1F
100
AcDbEntity
  8
0
  6
SLD-実線
 62
     7
370
    18
100
AcDbSpline
210
0.0
220
0.0
230
1.0
 70
     8
 71
     3
 72
     8
 73
     4
 74
     0
 42
0.000000001
 43
0.00000001
 40
0.0
 40
0.0
 40
0.0
 40
0.0
 40
1.0
 40
1.0
 40
1.0
 40
1.0
 10
63.38180818154053
 20
135.0842926951501
 30
0.0
 10
63.22525304241115
 20
135.0830579774686
 30
0.0
 10
63.06869790328177
 20
135.0830579774686
 30
0.0
 10
62.9121427641524
 20
135.0842926951501
 30
0.0
  0
SPLINE
  5
AD
330
1F
100
AcDbEntity
  8
0
  6
SLD-実線
 62
     7
370
    18
100
AcDbSpline
210
0.0
220
0.0
230
1.0
 70
     8
 71
     3
 72
     8
 73
     4
 74
     0
 42
0.000000001
 43
0.00000001
 40
0.0
 40
0.0
 40
0.0
 40
0.0
 40
1.0
 40
1.0
 40
1.0
 40
1.0
 10
63.39697547284646
 20
135.5943805324526
 30
0.0
 10
63.39697547284646
 20
135.420372093246
 30
0.0
 10
63.39190350015202
 20
135.2488328356863
 30
0.0
 10
63.38180818154053
 20
135.0842926951501
 30
0.0
  0
ARC
  5
AE
330
1F
100
AcDbEntity
  8
0
  6
SLD-実線
 62
     7
370
    18
100
AcDbCircle
 10
63.1469754728
 20
136.8191254038
 30
0.0
 40
1.250000000000046
100
AcDbArc
 50
281.5369590328
 51
348.4630409672
  0
SPLINE
  5
AF
330
1F
100
AcDbEntity
  8
0
  6
SLD-実線
 62
     7
370
    18
100
AcDbSpline
210
0.0
220
0.0
230
1.0
 70
     8
 71
     3
 72
     8
 73
     4
 74
     0
 42
0.000000001
 43
0.00000001
 40
0.0
 40
0.0
 40
0.0
 40
0.0
 40
1.0
 40
1.0
 40
1.0
 40
1.0
 10
64.88180818154053
 20
136.5842926951501
 30
0.0
 10
64.71742294559347
 20
136.5742068806704
 30
0.0
 10
64.545014103552
 20
136.5691254038442
 30
0.0
 10
64.37172034423804
 20
136.5691254038442
 30
0.0
  0
SPLINE
  5
B0
330
1F
100
AcDbEntity
  8
0
  6
SLD-実線
 62
     7
370
    18
100
AcDbSpline
210
0.0
220
0.0
230
1.0
 70
     8
 71
     3
 72
     8
 73
     4
 74
     0
 42
0.000000001
 43
0.00000001
 40
0.0
 40
0.0
 40
0.0
 40
0.0
 40
1.0
 40
1.0
 40
1.0
 40
1.0
 10
64.88180818154053
 20
137.0539581125383
 30
0.0
 10
64.88304289922206
 20
136.8974029734089
 30
0.0
 10
64.88304289922206
 20
136.7408478342795
 30
0.0
 10
64.88180818154053
 20
136.5842926951501
 30
0.0
  0
SPLINE
  5
B1
330
1F
100
AcDbEntity
  8
0
  6
SLD-実線
 62
     7
370
    18
100
AcDbSpline
210
0.0
220
0.0
230
1.0
 70
     8
 71
     3
 72
     8
 73
     4
 74
     0
 42
0.000000001
 43
0.00000001
 40
0.0
 40
0.0
 40
0.0
 40
0.0
 40
1.0
 40
1.0
 40
1.0
 40
1.0
 10
64.37172034423804
 20
137.0691254038442
 30
0.0
 10
64.54572878344464
 20
137.0691254038442
 30
0.0
 10
64.71726804100437
 20
137.0640534311497
 30
0.0
 10
64.88180818154053
 20
137.0539581125383
 30
0.0
  0
ARC
  5
B2
330
1F
100
AcDbEntity
  8
0
  6
SLD-実線
 62
     7
370
    18
100
AcDbCircle
 10
63.1469754728
 20
136.8191254038
 30
0.0
 40
1.250000000000018
100
AcDbArc
 50
11.5369590328
 51
78.4630409672
  0
SPLINE
  5
B3
330
1F
100
AcDbEntity
  8
0
  6
SLD-実線
 62
     7
370
    18
100
AcDbSpline
210
0.0
220
0.0
230
1.0
 70
     8
 71
     3
 72
     8
 73
     4
 74
     0
 42
0.000000001
 43
0.00000001
 40
0.0
 40
0.0
 40
0.0
 40
0.0
 40
1.0
 40
1.0
 40
1.0
 40
1.0
 10
63.38180818154053
 20
138.5539581125383
 30
0.0
 10
63.39189399602022
 20
138.3895728765912
 30
0.0
 10
63.39697547284646
 20
138.2171640345497
 30
0.0
 10
63.39697547284646
 20
138.0438702752358
 30
0.0
  0
SPLINE
  5
B4
330
1F
100
AcDbEntity
  8
0
  6
SLD-実線
 62
     7
370
    18
100
AcDbSpline
210
0.0
220
0.0
230
1.0
 70
     8
 71
     3
 72
     8
 73
     4
 74
     0
 42
0.000000001
 43
0.00000001
 40
0.0
 40
0.0
 40
0.0
 40
0.0
 40
1.0
 40
1.0
 40
1.0
 40
1.0
 10
62.9121427641524
 20
138.5539581125383
 30
0.0
 10
63.06869790328177
 20
138.5551928302198
 30
0.0
 10
63.22525304241115
 20
138.5551928302198
 30
0.0
 10
63.38180818154053
 20
138.5539581125383
 30
0.0
  0
SPLINE
  5
B5
330
1F
100
AcDbEntity
  8
0
  6
SLD-実線
 62
     7
370
    18
100
AcDbSpline
210
0.0
220
0.0
230
1.0
 70
     8
 71
     3
 72
     8
 73
     4
 74
     0
 42
0.000000001
 43
0.00000001
 40
0.0
 40
0.0
 40
0.0
 40
0.0
 40
1.0
 40
1.0
 40
1.0
 40
1.0
 10
62.89697547284646
 20
138.0438702752358
 30
0.0
 10
62.89697547284646
 20
138.2178787144423
 30
0.0
 10
62.90204744554092
 20
138.3894179720021
 30
0.0
 10
62.9121427641524
 20
138.5539581125383
 30
0.0
  0
ARC
  5
B6
330
1F
100
AcDbEntity
  8
0
  6
SLD-実線
 62
     7
370
    18
100
AcDbCircle
 10
63.1469754728
 20
136.8191254038
 30
0.0
 40
1.250000000000021
100
AcDbArc
 50
101.5369590328
 51
168.4630409672
  0
LINE
  5
B7
330
1F
100
AcDbEntity
  8
0
  6
SLD-実線
 62
     7
370
    18
100
AcDbLine
 10
63.1469754728
 20
135.3191254038
 30
0.0
 11
63.3818081815
 21
135.0842926952
 31
0.0
  0
LINE
  5
B8
330
1F
100
AcDbEntity
  8
0
  6
SLD-実線
 62
     7
370
    18
100
AcDbLine
 10
63.1469754728
 20
135.3191254038
 30
0.0
 11
63.1469754728
 21
136.0691254038
 31
0.0
  0
LINE
  5
B9
330
1F
100
AcDbEntity
  8
0
  6
SLD-実線
 62
     7
370
    18
100
AcDbLine
 10
63.1469754728
 20
136.0691254038
 30
0.0
 11
63.3969754728
 21
136.0691254038
 31
0.0
  0
LINE
  5
BA
330
1F
100
AcDbEntity
  8
0
  6
SLD-実線
 62
     7
370
    18
100
AcDbLine
 10
63.3969754728
 20
135.5943805325
 30
0.0
 11
63.3969754728
 21
136.0691254038
 31
0.0
  0
LINE
  5
BB
330
1F
100
AcDbEntity
  8
0
  6
SLD-実線
 62
     7
370
    18
100
AcDbLine
 10
63.1469754728
 20
138.3191254038
 30
0.0
 11
62.9121427642
 21
138.5539581125
 31
0.0
  0
LINE
  5
BC
330
1F
100
AcDbEntity
  8
0
  6
SLD-実線
 62
     7
370
    18
100
AcDbLine
 10
63.1469754728
 20
138.3191254038
 30
0.0
 11
63.1469754728
 21
137.5691254038
 31
0.0
  0
LINE
  5
BD
330
1F
100
AcDbEntity
  8
0
  6
SLD-実線
 62
     7
370
    18
100
AcDbLine
 10
63.1469754728
 20
137.5691254038
 30
0.0
 11
62.8969754728
 21
137.5691254038
 31
0.0
  0
LINE
  5
BE
330
1F
100
AcDbEntity
  8
0
  6
SLD-実線
 62
     7
370
    18
100
AcDbLine
 10
62.8969754728
 20
138.0438702752
 30
0.0
 11
62.8969754728
 21
137.5691254038
 31
0.0
  0
LINE
  5
BF
330
1F
100
AcDbEntity
  8
0
  6
SLD-実線
 62
     7
370
    18
100
AcDbLine
 10
64.6469754728
 20
136.8191254038
 30
0.0
 11
64.8818081815
 21
137.0539581125
 31
0.0
  0
LINE
  5
C0
330
1F
100
AcDbEntity
  8
0
  6
SLD-実線
 62
     7
370
    18
100
AcDbLine
 10
64.6469754728
 20
136.8191254038
 30
0.0
 11
63.8969754728
 21
136.8191254038
 31
0.0
  0
LINE
  5
C1
330
1F
100
AcDbEntity
  8
0
  6
SLD-実線
 62
     7
370
    18
100
AcDbLine
 10
63.8969754728
 20
136.8191254038
 30
0.0
 11
63.8969754728
 21
137.0691254038
 31
0.0
  0
LINE
  5
C2
330
1F
100
AcDbEntity
  8
0
  6
SLD-実線
 62
     7
370
    18
100
AcDbLine
 10
64.3717203442
 20
137.0691254038
 30
0.0
 11
63.8969754728
 21
137.0691254038
 31
0.0
  0
LINE
  5
C3
330
1F
100
AcDbEntity
  8
0
  6
SLD-実線
 62
     7
370
    18
100
AcDbLine
 10
61.6469754728
 20
136.8191254038
 30
0.0
 11
61.4121427642
 21
136.5842926952
 31
0.0
  0
LINE
  5
C4
330
1F
100
AcDbEntity
  8
0
  6
SLD-実線
 62
     7
370
    18
100
AcDbLine
 10
61.6469754728
 20
136.8191254038
 30
0.0
 11
62.3969754728
 21
136.8191254038
 31
0.0
  0
LINE
  5
C5
330
1F
100
AcDbEntity
  8
0
  6
SLD-実線
 62
     7
370
    18
100
AcDbLine
 10
62.3969754728
 20
136.8191254038
 30
0.0
 11
62.3969754728
 21
136.5691254038
 31
0.0
  0
LINE
  5
C6
330
1F
100
AcDbEntity
  8
0
  6
SLD-実線
 62
     7
370
    18
100
AcDbLine
 10
61.9222306015
 20
136.5691254038
 30
0.0
 11
62.3969754728
 21
136.5691254038
 31
0.0
  0
LINE
  5
C7
330
1F
100
AcDbEntity
  8
0
  6
SLD-実線
 62
     7
370
    18
100
AcDbLine
 10
63.3969754728
 20
137.5691254038
 30
0.0
 11
63.3969754728
 21
138.0438702752
 31
0.0
  0
LINE
  5
C8
330
1F
100
AcDbEntity
  8
0
  6
SLD-実線
 62
     7
370
    18
100
AcDbLine
 10
63.1469754728
 20
137.5691254038
 30
0.0
 11
63.3969754728
 21
137.5691254038
 31
0.0
  0
LINE
  5
C9
330
1F
100
AcDbEntity
  8
0
  6
SLD-実線
 62
     7
370
    18
100
AcDbLine
 10
63.1469754728
 20
138.3191254038
 30
0.0
 11
63.3818081815
 21
138.5539581125
 31
0.0
  0
LINE
  5
CA
330
1F
100
AcDbEntity
  8
0
  6
SLD-実線
 62
     7
370
    18
100
AcDbLine
 10
62.3969754728
 20
137.0691254038
 30
0.0
 11
61.9222306015
 21
137.0691254038
 31
0.0
  0
LINE
  5
CB
330
1F
100
AcDbEntity
  8
0
  6
SLD-実線
 62
     7
370
    18
100
AcDbLine
 10
62.3969754728
 20
136.8191254038
 30
0.0
 11
62.3969754728
 21
137.0691254038
 31
0.0
  0
LINE
  5
CC
330
1F
100
AcDbEntity
  8
0
  6
SLD-実線
 62
     7
370
    18
100
AcDbLine
 10
61.6469754728
 20
136.8191254038
 30
0.0
 11
61.4121427642
 21
137.0539581125
 31
0.0
  0
LINE
  5
CD
330
1F
100
AcDbEntity
  8
0
  6
SLD-実線
 62
     7
370
    18
100
AcDbLine
 10
63.8969754728
 20
136.5691254038
 30
0.0
 11
64.3717203442
 21
136.5691254038
 31
0.0
  0
LINE
  5
CE
330
1F
100
AcDbEntity
  8
0
  6
SLD-実線
 62
     7
370
    18
100
AcDbLine
 10
63.8969754728
 20
136.8191254038
 30
0.0
 11
63.8969754728
 21
136.5691254038
 31
0.0
  0
LINE
  5
CF
330
1F
100
AcDbEntity
  8
0
  6
SLD-実線
 62
     7
370
    18
100
AcDbLine
 10
64.6469754728
 20
136.8191254038
 30
0.0
 11
64.8818081815
 21
136.5842926952
 31
0.0
  0
LINE
  5
D0
330
1F
100
AcDbEntity
  8
0
  6
SLD-実線
 62
     7
370
    18
100
AcDbLine
 10
62.8969754728
 20
136.0691254038
 30
0.0
 11
62.8969754728
 21
135.5943805325
 31
0.0
  0
LINE
  5
D1
330
1F
100
AcDbEntity
  8
0
  6
SLD-実線
 62
     7
370
    18
100
AcDbLine
 10
63.1469754728
 20
136.0691254038
 30
0.0
 11
62.8969754728
 21
136.0691254038
 31
0.0
  0
LINE
  5
D2
330
1F
100
AcDbEntity
  8
0
  6
SLD-実線
 62
     7
370
    18
100
AcDbLine
 10
63.1469754728
 20
135.3191254038
 30
0.0
 11
62.9121427642
 21
135.0842926952
 31
0.0
  0
SPLINE
  5
D3
330
1F
100
AcDbEntity
  8
0
  6
SLD-実線
 62
     7
370
    18
100
AcDbSpline
210
0.0
220
0.0
230
1.0
 70
    24
 71
     3
 72
    16
 73
    12
 74
     0
 42
0.000000001
 43
0.00000001
 40
0.0
 40
0.0
 40
0.0
 40
0.0
 40
0.4999999999999808
 40
0.4999999999999808
 40
0.7499999999999711
 40
0.7499999999999711
 40
0.8749999999999762
 40
0.8749999999999762
 40
0.9374999999999881
 40
0.9374999999999881
 40
1.0
 40
1.0
 40
1.0
 40
1.0
 10
63.19248858208322
 20
136.8191254038442
 30
0.0
 10
63.26662179002075
 20
136.8191254038442
 30
0.0
 10
63.3449485096839
 20
136.8191254038442
 30
0.0
 10
63.48819987554027
 20
136.8191254038442
 30
0.0
 10
63.53959901791843
 20
136.8191254038442
 30
0.0
 10
63.63709453219651
 20
136.8191254038442
 30
0.0
 10
63.67281895486528
 20
136.8191254038442
 30
0.0
 10
63.74002267696324
 20
136.8191254038442
 30
0.0
 10
63.76500442833142
 20
136.8191254038442
 30
0.0
 10
63.82413912140028
 20
136.8191254038442
 30
0.0
 10
63.8596687788721
 20
136.8191254038442
 30
0.0
 10
63.89697547284646
 20
136.8191254038442
 30
0.0
  0
ARC
  5
D4
330
1F
100
AcDbEntity
  8
0
  6
SLD-実線
 62
     7
370
    18
100
AcDbCircle
 10
63.8969754728
 20
136.0691254038
 30
0.0
 40
0.5
100
AcDbArc
 50
90.0
 51
180.0
  0
SPLINE
  5
D5
330
1F
100
AcDbEntity
  8
0
  6
SLD-実線
 62
     7
370
    18
100
AcDbSpline
210
0.0
220
0.0
230
1.0
 70
    24
 71
     3
 72
    16
 73
    12
 74
     0
 42
0.000000001
 43
0.00000001
 40
0.0
 40
0.0
 40
0.0
 40
0.0
 40
0.4999999999999815
 40
0.4999999999999815
 40
0.7499999999999722
 40
0.7499999999999722
 40
0.8749999999999768
 40
0.8749999999999768
 40
0.9374999999999883
 40
0.9374999999999883
 40
1.0
 40
1.0
 40
1.0
 40
1.0
 10
63.14697547284646
 20
136.7736122946074
 30
0.0
 10
63.14697547284646
 20
136.6994790866699
 30
0.0
 10
63.14697547284646
 20
136.6211523670067
 30
0.0
 10
63.14697547284646
 20
136.4779010011504
 30
0.0
 10
63.14697547284646
 20
136.4265018587722
 30
0.0
 10
63.14697547284646
 20
136.3290063444941
 30
0.0
 10
63.14697547284646
 20
136.2932819218254
 30
0.0
 10
63.14697547284646
 20
136.2260781997274
 30
0.0
 10
63.14697547284646
 20
136.2010964483593
 30
0.0
 10
63.14697547284646
 20
136.1419617552904
 30
0.0
 10
63.14697547284646
 20
136.1064320978186
 30
0.0
 10
63.14697547284646
 20
136.0691254038442
 30
0.0
  0
ARC
  5
D6
330
1F
100
AcDbEntity
  8
0
  6
SLD-実線
 62
     7
370
    18
100
AcDbCircle
 10
63.8969754728
 20
136.0691254038
 30
0.0
 40
1.028980942125392
100
AcDbArc
 50
133.2077126531
 51
136.7922873469
  0
SPLINE
  5
D7
330
1F
100
AcDbEntity
  8
0
  6
SLD-実線
 62
     7
370
    18
100
AcDbSpline
210
0.0
220
0.0
230
1.0
 70
    24
 71
     3
 72
    16
 73
    12
 74
     0
 42
0.000000001
 43
0.00000001
 40
0.0
 40
0.0
 40
0.0
 40
0.0
 40
0.4999999999999815
 40
0.4999999999999815
 40
0.7499999999999722
 40
0.7499999999999722
 40
0.8749999999999768
 40
0.8749999999999768
 40
0.9374999999999883
 40
0.9374999999999883
 40
1.0
 40
1.0
 40
1.0
 40
1.0
 10
63.14697547284648
 20
136.864638513081
 30
0.0
 10
63.14697547284646
 20
136.9387717210185
 30
0.0
 10
63.14697547284646
 20
137.0170984406816
 30
0.0
 10
63.14697547284646
 20
137.160349806538
 30
0.0
 10
63.14697547284646
 20
137.2117489489162
 30
0.0
 10
63.14697547284646
 20
137.3092444631942
 30
0.0
 10
63.14697547284646
 20
137.344968885863
 30
0.0
 10
63.14697547284646
 20
137.412172607961
 30
0.0
 10
63.14697547284646
 20
137.4371543593291
 30
0.0
 10
63.14697547284646
 20
137.496289052398
 30
0.0
 10
63.14697547284646
 20
137.5318187098698
 30
0.0
 10
63.14697547284646
 20
137.5691254038442
 30
0.0
  0
ARC
  5
D8
330
1F
100
AcDbEntity
  8
0
  6
SLD-実線
 62
     7
370
    18
100
AcDbCircle
 10
63.8969754728
 20
137.5691254038
 30
0.0
 40
0.5
100
AcDbArc
 50
180.0
 51
270.0
  0
ARC
  5
D9
330
1F
100
AcDbEntity
  8
0
  6
SLD-実線
 62
     7
370
    18
100
AcDbCircle
 10
63.8969754728
 20
137.5691254038
 30
0.0
 40
1.028980942125387
100
AcDbArc
 50
223.2077126531
 51
226.7922873469
  0
ARC
  5
DA
330
1F
100
AcDbEntity
  8
0
  6
SLD-実線
 62
     7
370
    18
100
AcDbCircle
 10
62.3969754728
 20
136.0691254038
 30
0.0
 40
0.5
100
AcDbArc
 50
0.0
 51
90.0
  0
SPLINE
  5
DB
330
1F
100
AcDbEntity
  8
0
  6
SLD-実線
 62
     7
370
    18
100
AcDbSpline
210
0.0
220
0.0
230
1.0
 70
    24
 71
     3
 72
    16
 73
    12
 74
     0
 42
0.000000001
 43
0.00000001
 40
0.0
 40
0.0
 40
0.0
 40
0.0
 40
0.4999999999999796
 40
0.4999999999999796
 40
0.7499999999999694
 40
0.7499999999999694
 40
0.8749999999999754
 40
0.8749999999999754
 40
0.9374999999999877
 40
0.9374999999999877
 40
1.0
 40
1.0
 40
1.0
 40
1.0
 10
63.10146236360971
 20
136.8191254038442
 30
0.0
 10
63.02732915567218
 20
136.8191254038442
 30
0.0
 10
62.94900243600902
 20
136.8191254038442
 30
0.0
 10
62.80575107015265
 20
136.8191254038442
 30
0.0
 10
62.75435192777449
 20
136.8191254038442
 30
0.0
 10
62.65685641349641
 20
136.8191254038442
 30
0.0
 10
62.62113199082764
 20
136.8191254038442
 30
0.0
 10
62.55392826872968
 20
136.8191254038442
 30
0.0
 10
62.52894651736152
 20
136.8191254038442
 30
0.0
 10
62.46981182429265
 20
136.8191254038442
 30
0.0
 10
62.43428216682082
 20
136.8191254038442
 30
0.0
 10
62.39697547284646
 20
136.8191254038442
 30
0.0
  0
ARC
  5
DC
330
1F
100
AcDbEntity
  8
0
  6
SLD-実線
 62
     7
370
    18
100
AcDbCircle
 10
62.3969754728
 20
136.0691254038
 30
0.0
 40
1.028980942125392
100
AcDbArc
 50
43.2077126531
 51
46.7922873469
  0
ARC
  5
DD
330
1F
100
AcDbEntity
  8
0
  6
SLD-実線
 62
     7
370
    18
100
AcDbCircle
 10
62.3969754728
 20
137.5691254038
 30
0.0
 40
0.5
100
AcDbArc
 50
270.0
 51
0.0
  0
ARC
  5
DE
330
1F
100
AcDbEntity
  8
0
  6
SLD-実線
 62
     7
370
    18
100
AcDbCircle
 10
62.3969754728
 20
137.5691254038
 30
0.0
 40
1.028980942125385
100
AcDbArc
 50
313.2077126531
 51
316.7922873469
  0
SPLINE
  5
DF
330
1F
100
AcDbEntity
  8
0
  6
SLD-実線
 62
     7
370
    18
100
AcDbSpline
210
0.0
220
0.0
230
1.0
 70
     8
 71
     3
 72
     8
 73
     4
 74
     0
 42
0.000000001
 43
0.00000001
 40
0.0
 40
0.0
 40
0.0
 40
0.0
 40
1.0
 40
1.0
 40
1.0
 40
1.0
 10
88.39697547284646
 20
135.5943805324526
 30
0.0
 10
88.39697547284646
 20
135.420372093246
 30
0.0
 10
88.39190350015201
 20
135.2488328356863
 30
0.0
 10
88.38180818154052
 20
135.0842926951501
 30
0.0
  0
LINE
  5
E0
330
1F
100
AcDbEntity
  8
0
  6
SLD-実線
 62
     7
370
    18
100
AcDbLine
 10
88.1469754728
 20
135.3191254038
 30
0.0
 11
88.3818081815
 21
135.0842926952
 31
0.0
  0
LINE
  5
E1
330
1F
100
AcDbEntity
  8
0
  6
SLD-実線
 62
     7
370
    18
100
AcDbLine
 10
88.1469754728
 20
135.3191254038
 30
0.0
 11
88.1469754728
 21
136.0691254038
 31
0.0
  0
LINE
  5
E2
330
1F
100
AcDbEntity
  8
0
  6
SLD-実線
 62
     7
370
    18
100
AcDbLine
 10
88.1469754728
 20
136.0691254038
 30
0.0
 11
88.3969754728
 21
136.0691254038
 31
0.0
  0
LINE
  5
E3
330
1F
100
AcDbEntity
  8
0
  6
SLD-実線
 62
     7
370
    18
100
AcDbLine
 10
88.3969754728
 20
135.5943805325
 30
0.0
 11
88.3969754728
 21
136.0691254038
 31
0.0
  0
CIRCLE
  5
E4
330
1F
100
AcDbEntity
  8
0
  6
SLD-実線
 62
     7
370
    18
100
AcDbCircle
 10
88.1469754728
 20
136.8191254038
 30
0.0
 40
2.75
  0
SPLINE
  5
E5
330
1F
100
AcDbEntity
  8
0
  6
SLD-実線
 62
     7
370
    18
100
AcDbSpline
210
0.0
220
0.0
230
1.0
 70
     8
 71
     3
 72
     8
 73
     4
 74
     0
 42
0.000000001
 43
0.00000001
 40
0.0
 40
0.0
 40
0.0
 40
0.0
 40
1.0
 40
1.0
 40
1.0
 40
1.0
 10
86.41214276415239
 20
137.0539581125383
 30
0.0
 10
86.57652800009944
 20
137.0640439270179
 30
0.0
 10
86.7489368421409
 20
137.0691254038442
 30
0.0
 10
86.92223060145487
 20
137.0691254038442
 30
0.0
  0
SPLINE
  5
E6
330
1F
100
AcDbEntity
  8
0
  6
SLD-実線
 62
     7
370
    18
100
AcDbSpline
210
0.0
220
0.0
230
1.0
 70
     8
 71
     3
 72
     8
 73
     4
 74
     0
 42
0.000000001
 43
0.00000001
 40
0.0
 40
0.0
 40
0.0
 40
0.0
 40
1.0
 40
1.0
 40
1.0
 40
1.0
 10
86.41214276415239
 20
136.5842926951501
 30
0.0
 10
86.41090804647087
 20
136.7408478342795
 30
0.0
 10
86.41090804647087
 20
136.8974029734089
 30
0.0
 10
86.41214276415239
 20
137.0539581125383
 30
0.0
  0
SPLINE
  5
E7
330
1F
100
AcDbEntity
  8
0
  6
SLD-実線
 62
     7
370
    18
100
AcDbSpline
210
0.0
220
0.0
230
1.0
 70
     8
 71
     3
 72
     8
 73
     4
 74
     0
 42
0.000000001
 43
0.00000001
 40
0.0
 40
0.0
 40
0.0
 40
0.0
 40
1.0
 40
1.0
 40
1.0
 40
1.0
 10
86.92223060145487
 20
136.5691254038442
 30
0.0
 10
86.74822216224828
 20
136.5691254038442
 30
0.0
 10
86.57668290468855
 20
136.5741973765386
 30
0.0
 10
86.41214276415239
 20
136.5842926951501
 30
0.0
  0
ARC
  5
E8
330
1F
100
AcDbEntity
  8
0
  6
SLD-実線
 62
     7
370
    18
100
AcDbCircle
 10
88.1469754728
 20
136.8191254038
 30
0.0
 40
1.250000000000024
100
AcDbArc
 50
191.5369590328
 51
258.4630409672
  0
SPLINE
  5
E9
330
1F
100
AcDbEntity
  8
0
  6
SLD-実線
 62
     7
370
    18
100
AcDbSpline
210
0.0
220
0.0
230
1.0
 70
     8
 71
     3
 72
     8
 73
     4
 74
     0
 42
0.000000001
 43
0.00000001
 40
0.0
 40
0.0
 40
0.0
 40
0.0
 40
1.0
 40
1.0
 40
1.0
 40
1.0
 10
87.91214276415239
 20
135.0842926951501
 30
0.0
 10
87.90205694967271
 20
135.2486779310972
 30
0.0
 10
87.89697547284646
 20
135.4210867731386
 30
0.0
 10
87.89697547284646
 20
135.5943805324526
 30
0.0
  0
SPLINE
  5
EA
330
1F
100
AcDbEntity
  8
0
  6
SLD-実線
 62
     7
370
    18
100
AcDbSpline
210
0.0
220
0.0
230
1.0
 70
     8
 71
     3
 72
     8
 73
     4
 74
     0
 42
0.000000001
 43
0.00000001
 40
0.0
 40
0.0
 40
0.0
 40
0.0
 40
1.0
 40
1.0
 40
1.0
 40
1.0
 10
88.38180818154052
 20
135.0842926951501
 30
0.0
 10
88.22525304241115
 20
135.0830579774686
 30
0.0
 10
88.06869790328177
 20
135.0830579774686
 30
0.0
 10
87.91214276415239
 20
135.0842926951501
 30
0.0
  0
ARC
  5
EB
330
1F
100
AcDbEntity
  8
0
  6
SLD-実線
 62
     7
370
    18
100
AcDbCircle
 10
88.1469754728
 20
136.8191254038
 30
0.0
 40
1.250000000000046
100
AcDbArc
 50
281.5369590328
 51
348.4630409672
  0
SPLINE
  5
EC
330
1F
100
AcDbEntity
  8
0
  6
SLD-実線
 62
     7
370
    18
100
AcDbSpline
210
0.0
220
0.0
230
1.0
 70
     8
 71
     3
 72
     8
 73
     4
 74
     0
 42
0.000000001
 43
0.00000001
 40
0.0
 40
0.0
 40
0.0
 40
0.0
 40
1.0
 40
1.0
 40
1.0
 40
1.0
 10
89.88180818154052
 20
136.5842926951501
 30
0.0
 10
89.71742294559347
 20
136.5742068806704
 30
0.0
 10
89.545014103552
 20
136.5691254038442
 30
0.0
 10
89.37172034423804
 20
136.5691254038442
 30
0.0
  0
SPLINE
  5
ED
330
1F
100
AcDbEntity
  8
0
  6
SLD-実線
 62
     7
370
    18
100
AcDbSpline
210
0.0
220
0.0
230
1.0
 70
     8
 71
     3
 72
     8
 73
     4
 74
     0
 42
0.000000001
 43
0.00000001
 40
0.0
 40
0.0
 40
0.0
 40
0.0
 40
1.0
 40
1.0
 40
1.0
 40
1.0
 10
89.88180818154052
 20
137.0539581125383
 30
0.0
 10
89.88304289922205
 20
136.8974029734089
 30
0.0
 10
89.88304289922205
 20
136.7408478342795
 30
0.0
 10
89.88180818154052
 20
136.5842926951501
 30
0.0
  0
SPLINE
  5
EE
330
1F
100
AcDbEntity
  8
0
  6
SLD-実線
 62
     7
370
    18
100
AcDbSpline
210
0.0
220
0.0
230
1.0
 70
     8
 71
     3
 72
     8
 73
     4
 74
     0
 42
0.000000001
 43
0.00000001
 40
0.0
 40
0.0
 40
0.0
 40
0.0
 40
1.0
 40
1.0
 40
1.0
 40
1.0
 10
89.37172034423804
 20
137.0691254038442
 30
0.0
 10
89.54572878344463
 20
137.0691254038442
 30
0.0
 10
89.71726804100437
 20
137.0640534311497
 30
0.0
 10
89.88180818154052
 20
137.0539581125383
 30
0.0
  0
ARC
  5
EF
330
1F
100
AcDbEntity
  8
0
  6
SLD-実線
 62
     7
370
    18
100
AcDbCircle
 10
88.1469754728
 20
136.8191254038
 30
0.0
 40
1.250000000000018
100
AcDbArc
 50
11.5369590328
 51
78.4630409672
  0
SPLINE
  5
F0
330
1F
100
AcDbEntity
  8
0
  6
SLD-実線
 62
     7
370
    18
100
AcDbSpline
210
0.0
220
0.0
230
1.0
 70
     8
 71
     3
 72
     8
 73
     4
 74
     0
 42
0.000000001
 43
0.00000001
 40
0.0
 40
0.0
 40
0.0
 40
0.0
 40
1.0
 40
1.0
 40
1.0
 40
1.0
 10
88.38180818154052
 20
138.5539581125383
 30
0.0
 10
88.39189399602022
 20
138.3895728765912
 30
0.0
 10
88.39697547284646
 20
138.2171640345497
 30
0.0
 10
88.39697547284646
 20
138.0438702752358
 30
0.0
  0
SPLINE
  5
F1
330
1F
100
AcDbEntity
  8
0
  6
SLD-実線
 62
     7
370
    18
100
AcDbSpline
210
0.0
220
0.0
230
1.0
 70
     8
 71
     3
 72
     8
 73
     4
 74
     0
 42
0.000000001
 43
0.00000001
 40
0.0
 40
0.0
 40
0.0
 40
0.0
 40
1.0
 40
1.0
 40
1.0
 40
1.0
 10
87.91214276415239
 20
138.5539581125383
 30
0.0
 10
88.06869790328177
 20
138.5551928302198
 30
0.0
 10
88.22525304241115
 20
138.5551928302198
 30
0.0
 10
88.38180818154052
 20
138.5539581125383
 30
0.0
  0
SPLINE
  5
F2
330
1F
100
AcDbEntity
  8
0
  6
SLD-実線
 62
     7
370
    18
100
AcDbSpline
210
0.0
220
0.0
230
1.0
 70
     8
 71
     3
 72
     8
 73
     4
 74
     0
 42
0.000000001
 43
0.00000001
 40
0.0
 40
0.0
 40
0.0
 40
0.0
 40
1.0
 40
1.0
 40
1.0
 40
1.0
 10
87.89697547284646
 20
138.0438702752358
 30
0.0
 10
87.89697547284646
 20
138.2178787144423
 30
0.0
 10
87.9020474455409
 20
138.3894179720021
 30
0.0
 10
87.91214276415239
 20
138.5539581125383
 30
0.0
  0
ARC
  5
F3
330
1F
100
AcDbEntity
  8
0
  6
SLD-実線
 62
     7
370
    18
100
AcDbCircle
 10
88.1469754728
 20
136.8191254038
 30
0.0
 40
1.250000000000024
100
AcDbArc
 50
101.5369590328
 51
168.4630409672
  0
LINE
  5
F4
330
1F
100
AcDbEntity
  8
0
  6
SLD-実線
 62
     7
370
    18
100
AcDbLine
 10
88.1469754728
 20
138.3191254038
 30
0.0
 11
87.9121427642
 21
138.5539581125
 31
0.0
  0
LINE
  5
F5
330
1F
100
AcDbEntity
  8
0
  6
SLD-実線
 62
     7
370
    18
100
AcDbLine
 10
88.1469754728
 20
138.3191254038
 30
0.0
 11
88.1469754728
 21
137.5691254038
 31
0.0
  0
LINE
  5
F6
330
1F
100
AcDbEntity
  8
0
  6
SLD-実線
 62
     7
370
    18
100
AcDbLine
 10
88.1469754728
 20
137.5691254038
 30
0.0
 11
87.8969754728
 21
137.5691254038
 31
0.0
  0
LINE
  5
F7
330
1F
100
AcDbEntity
  8
0
  6
SLD-実線
 62
     7
370
    18
100
AcDbLine
 10
87.8969754728
 20
138.0438702752
 30
0.0
 11
87.8969754728
 21
137.5691254038
 31
0.0
  0
LINE
  5
F8
330
1F
100
AcDbEntity
  8
0
  6
SLD-実線
 62
     7
370
    18
100
AcDbLine
 10
86.6469754728
 20
136.8191254038
 30
0.0
 11
86.4121427642
 21
136.5842926952
 31
0.0
  0
LINE
  5
F9
330
1F
100
AcDbEntity
  8
0
  6
SLD-実線
 62
     7
370
    18
100
AcDbLine
 10
86.6469754728
 20
136.8191254038
 30
0.0
 11
87.3969754728
 21
136.8191254038
 31
0.0
  0
LINE
  5
FA
330
1F
100
AcDbEntity
  8
0
  6
SLD-実線
 62
     7
370
    18
100
AcDbLine
 10
87.3969754728
 20
136.8191254038
 30
0.0
 11
87.3969754728
 21
136.5691254038
 31
0.0
  0
LINE
  5
FB
330
1F
100
AcDbEntity
  8
0
  6
SLD-実線
 62
     7
370
    18
100
AcDbLine
 10
86.9222306015
 20
136.5691254038
 30
0.0
 11
87.3969754728
 21
136.5691254038
 31
0.0
  0
LINE
  5
FC
330
1F
100
AcDbEntity
  8
0
  6
SLD-実線
 62
     7
370
    18
100
AcDbLine
 10
89.6469754728
 20
136.8191254038
 30
0.0
 11
89.8818081815
 21
137.0539581125
 31
0.0
  0
LINE
  5
FD
330
1F
100
AcDbEntity
  8
0
  6
SLD-実線
 62
     7
370
    18
100
AcDbLine
 10
89.6469754728
 20
136.8191254038
 30
0.0
 11
88.8969754728
 21
136.8191254038
 31
0.0
  0
LINE
  5
FE
330
1F
100
AcDbEntity
  8
0
  6
SLD-実線
 62
     7
370
    18
100
AcDbLine
 10
88.8969754728
 20
136.8191254038
 30
0.0
 11
88.8969754728
 21
137.0691254038
 31
0.0
  0
LINE
  5
FF
330
1F
100
AcDbEntity
  8
0
  6
SLD-実線
 62
     7
370
    18
100
AcDbLine
 10
89.3717203442
 20
137.0691254038
 30
0.0
 11
88.8969754728
 21
137.0691254038
 31
0.0
  0
LINE
  5
100
330
1F
100
AcDbEntity
  8
0
  6
SLD-実線
 62
     7
370
    18
100
AcDbLine
 10
88.3969754728
 20
137.5691254038
 30
0.0
 11
88.3969754728
 21
138.0438702752
 31
0.0
  0
LINE
  5
101
330
1F
100
AcDbEntity
  8
0
  6
SLD-実線
 62
     7
370
    18
100
AcDbLine
 10
88.1469754728
 20
137.5691254038
 30
0.0
 11
88.3969754728
 21
137.5691254038
 31
0.0
  0
LINE
  5
102
330
1F
100
AcDbEntity
  8
0
  6
SLD-実線
 62
     7
370
    18
100
AcDbLine
 10
88.1469754728
 20
138.3191254038
 30
0.0
 11
88.3818081815
 21
138.5539581125
 31
0.0
  0
LINE
  5
103
330
1F
100
AcDbEntity
  8
0
  6
SLD-実線
 62
     7
370
    18
100
AcDbLine
 10
87.8969754728
 20
136.0691254038
 30
0.0
 11
87.8969754728
 21
135.5943805325
 31
0.0
  0
LINE
  5
104
330
1F
100
AcDbEntity
  8
0
  6
SLD-実線
 62
     7
370
    18
100
AcDbLine
 10
88.1469754728
 20
136.0691254038
 30
0.0
 11
87.8969754728
 21
136.0691254038
 31
0.0
  0
LINE
  5
105
330
1F
100
AcDbEntity
  8
0
  6
SLD-実線
 62
     7
370
    18
100
AcDbLine
 10
88.1469754728
 20
135.3191254038
 30
0.0
 11
87.9121427642
 21
135.0842926952
 31
0.0
  0
LINE
  5
106
330
1F
100
AcDbEntity
  8
0
  6
SLD-実線
 62
     7
370
    18
100
AcDbLine
 10
88.8969754728
 20
136.5691254038
 30
0.0
 11
89.3717203442
 21
136.5691254038
 31
0.0
  0
LINE
  5
107
330
1F
100
AcDbEntity
  8
0
  6
SLD-実線
 62
     7
370
    18
100
AcDbLine
 10
88.8969754728
 20
136.8191254038
 30
0.0
 11
88.8969754728
 21
136.5691254038
 31
0.0
  0
LINE
  5
108
330
1F
100
AcDbEntity
  8
0
  6
SLD-実線
 62
     7
370
    18
100
AcDbLine
 10
89.6469754728
 20
136.8191254038
 30
0.0
 11
89.8818081815
 21
136.5842926952
 31
0.0
  0
LINE
  5
109
330
1F
100
AcDbEntity
  8
0
  6
SLD-実線
 62
     7
370
    18
100
AcDbLine
 10
87.3969754728
 20
137.0691254038
 30
0.0
 11
86.9222306015
 21
137.0691254038
 31
0.0
  0
LINE
  5
10A
330
1F
100
AcDbEntity
  8
0
  6
SLD-実線
 62
     7
370
    18
100
AcDbLine
 10
87.3969754728
 20
136.8191254038
 30
0.0
 11
87.3969754728
 21
137.0691254038
 31
0.0
  0
LINE
  5
10B
330
1F
100
AcDbEntity
  8
0
  6
SLD-実線
 62
     7
370
    18
100
AcDbLine
 10
86.6469754728
 20
136.8191254038
 30
0.0
 11
86.4121427642
 21
137.0539581125
 31
0.0
  0
ARC
  5
10C
330
1F
100
AcDbEntity
  8
0
  6
SLD-実線
 62
     7
370
    18
100
AcDbCircle
 10
87.3969754728
 20
136.0691254038
 30
0.0
 40
0.5
100
AcDbArc
 50
0.0
 51
90.0
  0
ARC
  5
10D
330
1F
100
AcDbEntity
  8
0
  6
SLD-実線
 62
     7
370
    18
100
AcDbCircle
 10
87.3969754728
 20
137.5691254038
 30
0.0
 40
0.5
100
AcDbArc
 50
270.0
 51
0.0
  0
SPLINE
  5
10E
330
1F
100
AcDbEntity
  8
0
  6
SLD-実線
 62
     7
370
    18
100
AcDbSpline
210
0.0
220
0.0
230
1.0
 70
    24
 71
     3
 72
    16
 73
    12
 74
     0
 42
0.000000001
 43
0.00000001
 40
0.0
 40
0.0
 40
0.0
 40
0.0
 40
0.4999999999999815
 40
0.4999999999999815
 40
0.7499999999999722
 40
0.7499999999999722
 40
0.8749999999999768
 40
0.8749999999999768
 40
0.9374999999999883
 40
0.9374999999999883
 40
1.0
 40
1.0
 40
1.0
 40
1.0
 10
88.14697547284646
 20
136.864638513081
 30
0.0
 10
88.14697547284646
 20
136.9387717210185
 30
0.0
 10
88.14697547284646
 20
137.0170984406816
 30
0.0
 10
88.14697547284646
 20
137.160349806538
 30
0.0
 10
88.14697547284646
 20
137.2117489489162
 30
0.0
 10
88.14697547284646
 20
137.3092444631942
 30
0.0
 10
88.14697547284646
 20
137.344968885863
 30
0.0
 10
88.14697547284646
 20
137.412172607961
 30
0.0
 10
88.14697547284646
 20
137.4371543593291
 30
0.0
 10
88.14697547284646
 20
137.496289052398
 30
0.0
 10
88.14697547284646
 20
137.5318187098698
 30
0.0
 10
88.14697547284646
 20
137.5691254038442
 30
0.0
  0
ARC
  5
10F
330
1F
100
AcDbEntity
  8
0
  6
SLD-実線
 62
     7
370
    18
100
AcDbCircle
 10
88.8969754728
 20
137.5691254038
 30
0.0
 40
0.5
100
AcDbArc
 50
180.0
 51
270.0
  0
SPLINE
  5
110
330
1F
100
AcDbEntity
  8
0
  6
SLD-実線
 62
     7
370
    18
100
AcDbSpline
210
0.0
220
0.0
230
1.0
 70
    24
 71
     3
 72
    16
 73
    12
 74
     0
 42
0.000000001
 43
0.00000001
 40
0.0
 40
0.0
 40
0.0
 40
0.0
 40
0.4999999999999808
 40
0.4999999999999808
 40
0.7499999999999711
 40
0.7499999999999711
 40
0.8749999999999762
 40
0.8749999999999762
 40
0.9374999999999881
 40
0.9374999999999881
 40
1.0
 40
1.0
 40
1.0
 40
1.0
 10
88.19248858208321
 20
136.8191254038442
 30
0.0
 10
88.26662179002075
 20
136.8191254038442
 30
0.0
 10
88.3449485096839
 20
136.8191254038442
 30
0.0
 10
88.48819987554027
 20
136.8191254038442
 30
0.0
 10
88.53959901791843
 20
136.8191254038442
 30
0.0
 10
88.63709453219651
 20
136.8191254038442
 30
0.0
 10
88.67281895486526
 20
136.8191254038442
 30
0.0
 10
88.74002267696324
 20
136.8191254038442
 30
0.0
 10
88.76500442833142
 20
136.8191254038442
 30
0.0
 10
88.82413912140028
 20
136.8191254038442
 30
0.0
 10
88.85966877887209
 20
136.8191254038442
 30
0.0
 10
88.89697547284646
 20
136.8191254038442
 30
0.0
  0
ARC
  5
111
330
1F
100
AcDbEntity
  8
0
  6
SLD-実線
 62
     7
370
    18
100
AcDbCircle
 10
88.8969754728
 20
137.5691254038
 30
0.0
 40
1.028980942125387
100
AcDbArc
 50
223.2077126531
 51
226.7922873469
  0
ARC
  5
112
330
1F
100
AcDbEntity
  8
0
  6
SLD-実線
 62
     7
370
    18
100
AcDbCircle
 10
88.8969754728
 20
136.0691254038
 30
0.0
 40
0.5
100
AcDbArc
 50
90.0
 51
180.0
  0
SPLINE
  5
113
330
1F
100
AcDbEntity
  8
0
  6
SLD-実線
 62
     7
370
    18
100
AcDbSpline
210
0.0
220
0.0
230
1.0
 70
    24
 71
     3
 72
    16
 73
    12
 74
     0
 42
0.000000001
 43
0.00000001
 40
0.0
 40
0.0
 40
0.0
 40
0.0
 40
0.4999999999999815
 40
0.4999999999999815
 40
0.7499999999999722
 40
0.7499999999999722
 40
0.8749999999999768
 40
0.8749999999999768
 40
0.9374999999999883
 40
0.9374999999999883
 40
1.0
 40
1.0
 40
1.0
 40
1.0
 10
88.14697547284646
 20
136.7736122946074
 30
0.0
 10
88.14697547284646
 20
136.6994790866699
 30
0.0
 10
88.14697547284646
 20
136.6211523670067
 30
0.0
 10
88.14697547284646
 20
136.4779010011504
 30
0.0
 10
88.14697547284646
 20
136.4265018587722
 30
0.0
 10
88.14697547284646
 20
136.3290063444941
 30
0.0
 10
88.14697547284646
 20
136.2932819218254
 30
0.0
 10
88.14697547284646
 20
136.2260781997274
 30
0.0
 10
88.14697547284646
 20
136.2010964483593
 30
0.0
 10
88.14697547284646
 20
136.1419617552904
 30
0.0
 10
88.14697547284646
 20
136.1064320978186
 30
0.0
 10
88.14697547284646
 20
136.0691254038442
 30
0.0
  0
ARC
  5
114
330
1F
100
AcDbEntity
  8
0
  6
SLD-実線
 62
     7
370
    18
100
AcDbCircle
 10
88.8969754728
 20
136.0691254038
 30
0.0
 40
1.028980942125397
100
AcDbArc
 50
133.2077126531
 51
136.7922873469
  0
SPLINE
  5
115
330
1F
100
AcDbEntity
  8
0
  6
SLD-実線
 62
     7
370
    18
100
AcDbSpline
210
0.0
220
0.0
230
1.0
 70
    24
 71
     3
 72
    16
 73
    12
 74
     0
 42
0.000000001
 43
0.00000001
 40
0.0
 40
0.0
 40
0.0
 40
0.0
 40
0.4999999999999796
 40
0.4999999999999796
 40
0.7499999999999694
 40
0.7499999999999694
 40
0.8749999999999754
 40
0.8749999999999754
 40
0.9374999999999877
 40
0.9374999999999877
 40
1.0
 40
1.0
 40
1.0
 40
1.0
 10
88.1014623636097
 20
136.8191254038442
 30
0.0
 10
88.02732915567218
 20
136.8191254038442
 30
0.0
 10
87.94900243600902
 20
136.8191254038442
 30
0.0
 10
87.80575107015265
 20
136.8191254038442
 30
0.0
 10
87.75435192777451
 20
136.8191254038442
 30
0.0
 10
87.65685641349641
 20
136.8191254038442
 30
0.0
 10
87.62113199082765
 20
136.8191254038442
 30
0.0
 10
87.55392826872968
 20
136.8191254038442
 30
0.0
 10
87.5289465173615
 20
136.8191254038442
 30
0.0
 10
87.46981182429265
 20
136.8191254038442
 30
0.0
 10
87.43428216682082
 20
136.8191254038442
 30
0.0
 10
87.39697547284646
 20
136.8191254038442
 30
0.0
  0
ARC
  5
116
330
1F
100
AcDbEntity
  8
0
  6
SLD-実線
 62
     7
370
    18
100
AcDbCircle
 10
87.3969754728
 20
137.5691254038
 30
0.0
 40
1.028980942125393
100
AcDbArc
 50
313.2077126531
 51
316.7922873469
  0
ARC
  5
117
330
1F
100
AcDbEntity
  8
0
  6
SLD-実線
 62
     7
370
    18
100
AcDbCircle
 10
87.3969754728
 20
136.0691254038
 30
0.0
 40
1.028980942125387
100
AcDbArc
 50
43.2077126531
 51
46.7922873469
  0
LINE
  5
118
330
1F
100
AcDbEntity
  8
0
  6
SLD-実線
 62
     7
370
    18
100
AcDbLine
 10
59.8489965759
 20
190.4979958899
 30
0.0
 11
59.2760923414
 21
192.1325541599
 31
0.0
  0
LINE
  5
119
330
1F
100
AcDbEntity
  8
0
  6
SLD-実線
 62
     7
370
    18
100
AcDbLine
 10
57.0178586043
 20
189.5056966478
 30
0.0
 11
58.7198797074
 21
189.1845671338
 31
0.0
  0
LINE
  5
11A
330
1F
100
AcDbEntity
  8
0
  6
SLD-実線
 62
     7
370
    18
100
AcDbLine
 10
58.7198797074
 20
189.1845671338
 30
0.0
 11
59.8489965759
 21
190.4979958899
 31
0.0
  0
LINE
  5
11B
330
1F
100
AcDbEntity
  8
0
  6
SLD-実線
 62
     7
370
    18
100
AcDbLine
 10
59.2760923414
 20
192.1325541599
 30
0.0
 11
57.5740712383
 21
192.4536836739
 31
0.0
  0
LINE
  5
11C
330
1F
100
AcDbEntity
  8
0
  6
SLD-実線
 62
     7
370
    18
100
AcDbLine
 10
57.5740712383
 20
192.4536836739
 30
0.0
 11
56.4449543698
 21
191.1402549178
 31
0.0
  0
LINE
  5
11D
330
1F
100
AcDbEntity
  8
0
  6
SLD-実線
 62
     7
370
    18
100
AcDbLine
 10
56.4449543698
 20
191.1402549178
 30
0.0
 11
57.0178586043
 21
189.5056966478
 31
0.0
  0
CIRCLE
  5
11E
330
1F
100
AcDbEntity
  8
0
  6
SLD-実線
 62
     7
370
    18
100
AcDbCircle
 10
58.1469754728
 20
190.8191254038
 30
0.0
 40
3.099999999999996
  0
CIRCLE
  5
11F
330
1F
100
AcDbEntity
  8
0
  6
SLD-実線
 62
     7
370
    18
100
AcDbCircle
 10
58.1469754728
 20
190.8191254038
 30
0.0
 40
3.500000000000016
  0
SPLINE
  5
120
330
1F
100
AcDbEntity
  8
0
  6
SLD-実線
 62
     7
370
    18
100
AcDbSpline
210
0.0
220
0.0
230
1.0
 70
    24
 71
     3
 72
     8
 73
     4
 74
     0
 42
0.000000001
 43
0.00000001
 40
0.0
 40
0.0
 40
0.0
 40
0.0
 40
1.0
 40
1.0
 40
1.0
 40
1.0
 10
57.01785860429995
 20
189.5056966478153
 30
0.0
 10
57.05549583325148
 20
189.5494776063496
 30
0.0
 10
57.43186812276699
 20
189.9872871916926
 30
0.0
 10
58.14697547284646
 20
190.8191254038442
 30
0.0
  0
SPLINE
  5
121
330
1F
100
AcDbEntity
  8
0
  6
SLD-実線
 62
     7
370
    18
100
AcDbSpline
210
0.0
220
0.0
230
1.0
 70
    24
 71
     3
 72
     8
 73
     4
 74
     0
 42
0.000000001
 43
0.00000001
 40
0.0
 40
0.0
 40
0.0
 40
0.0
 40
1.0
 40
1.0
 40
1.0
 40
1.0
 10
56.44495436979116
 20
191.1402549178326
 30
0.0
 10
56.50168840655968
 20
191.1295506006996
 30
0.0
 10
57.06902877424479
 20
191.0225074293702
 30
0.0
 10
58.14697547284646
 20
190.8191254038442
 30
0.0
  0
SPLINE
  5
122
330
1F
100
AcDbEntity
  8
0
  6
SLD-実線
 62
     7
370
    18
100
AcDbSpline
210
0.0
220
0.0
230
1.0
 70
    24
 71
     3
 72
     8
 73
     4
 74
     0
 42
0.000000001
 43
0.00000001
 40
0.0
 40
0.0
 40
0.0
 40
0.0
 40
1.0
 40
1.0
 40
1.0
 40
1.0
 10
59.84899657590177
 20
190.4979958898558
 30
0.0
 10
59.79226253913327
 20
190.5087002069888
 30
0.0
 10
59.22492217144817
 20
190.6157433783182
 30
0.0
 10
58.14697547284646
 20
190.8191254038442
 30
0.0
  0
SPLINE
  5
123
330
1F
100
AcDbEntity
  8
0
  6
SLD-実線
 62
     7
370
    18
100
AcDbSpline
210
0.0
220
0.0
230
1.0
 70
    24
 71
     3
 72
     8
 73
     4
 74
     0
 42
0.000000001
 43
0.00000001
 40
0.0
 40
0.0
 40
0.0
 40
0.0
 40
1.0
 40
1.0
 40
1.0
 40
1.0
 10
58.71987970735525
 20
189.1845671338269
 30
0.0
 10
58.70078289953829
 20
189.2390524094941
 30
0.0
 10
58.50981482136869
 20
189.7839051661666
 30
0.0
 10
58.14697547284646
 20
190.8191254038442
 30
0.0
  0
SPLINE
  5
124
330
1F
100
AcDbEntity
  8
0
  6
SLD-実線
 62
     7
370
    18
100
AcDbSpline
210
0.0
220
0.0
230
1.0
 70
    24
 71
     3
 72
     8
 73
     4
 74
     0
 42
0.000000001
 43
0.00000001
 40
0.0
 40
0.0
 40
0.0
 40
0.0
 40
1.0
 40
1.0
 40
1.0
 40
1.0
 10
59.276092341393
 20
192.1325541598731
 30
0.0
 10
59.23845511244145
 20
192.0887732013388
 30
0.0
 10
58.86208282292593
 20
191.6509636159958
 30
0.0
 10
58.14697547284646
 20
190.8191254038442
 30
0.0
  0
SPLINE
  5
125
330
1F
100
AcDbEntity
  8
0
  6
SLD-実線
 62
     7
370
    18
100
AcDbSpline
210
0.0
220
0.0
230
1.0
 70
    24
 71
     3
 72
     8
 73
     4
 74
     0
 42
0.000000001
 43
0.00000001
 40
0.0
 40
0.0
 40
0.0
 40
0.0
 40
1.0
 40
1.0
 40
1.0
 40
1.0
 10
57.57407123833768
 20
192.4536836738615
 30
0.0
 10
57.59316804615465
 20
192.3991983981942
 30
0.0
 10
57.78413612432424
 20
191.8543456415218
 30
0.0
 10
58.14697547284646
 20
190.8191254038442
 30
0.0
  0
LINE
  5
126
330
1F
100
AcDbEntity
  8
0
  6
SLD-実線
 62
     7
370
    18
100
AcDbLine
 10
76.3469754728
 20
193.0192320335
 30
0.0
 11
76.3469754728
 21
193.9174304184
 31
0.0
  0
LINE
  5
127
330
1F
100
AcDbEntity
  8
0
  6
SLD-実線
 62
     7
370
    18
100
AcDbLine
 10
76.3469754728
 20
193.9174304184
 30
0.0
 11
93.7456612495
 21
193.9174304184
 31
0.0
  0
SPLINE
  5
128
330
1F
100
AcDbEntity
  8
0
  6
SLD-実線
 62
     7
370
    18
100
AcDbSpline
210
0.0
220
0.0
230
1.0
 70
     8
 71
     3
 72
    10
 73
     6
 74
     0
 42
0.000000001
 43
0.00000001
 40
0.0
 40
0.0
 40
0.0
 40
0.0
 40
0.5
 40
0.5
 40
1.0
 40
1.0
 40
1.0
 40
1.0
 10
93.74566124954087
 20
193.9174304184293
 30
0.0
 10
94.07295589365638
 20
193.9174304184242
 30
0.0
 10
94.39998399690668
 20
193.8523777409973
 30
0.0
 10
95.00457933206665
 20
193.6019684910646
 30
0.0
 10
95.28180818079493
 20
193.4167520306868
 30
0.0
 10
95.51320514024603
 20
193.1853550712435
 30
0.0
  0
SPLINE
  5
129
330
1F
100
AcDbEntity
  8
0
  6
SLD-実線
 62
     7
370
    18
100
AcDbSpline
210
0.0
220
0.0
230
1.0
 70
     8
 71
     3
 72
    10
 73
     6
 74
     0
 42
0.000000001
 43
0.00000001
 40
0.0
 40
0.0
 40
0.0
 40
0.0
 40
0.5
 40
0.5
 40
1.0
 40
1.0
 40
1.0
 40
1.0
 10
95.51320514024603
 20
193.1853550712435
 30
0.0
 10
95.74460209968983
 20
192.9539581117933
 30
0.0
 10
95.92981856006725
 20
192.6767292630636
 30
0.0
 10
96.1802278099998
 20
192.0721339279046
 30
0.0
 10
96.24528048742617
 20
191.7451058246534
 30
0.0
 10
96.24528048743183
 20
191.4178111805383
 30
0.0
  0
LINE
  5
12A
330
1F
100
AcDbEntity
  8
0
  6
SLD-実線
 62
     7
370
    18
100
AcDbLine
 10
96.2452804874
 20
191.4178111805
 30
0.0
 11
96.2452804874
 21
174.0191254038
 31
0.0
  0
LINE
  5
12B
330
1F
100
AcDbEntity
  8
0
  6
SLD-実線
 62
     7
370
    18
100
AcDbLine
 10
96.2452804874
 20
174.0191254038
 30
0.0
 11
95.3471328772
 21
174.0191254038
 31
0.0
  0
SPLINE
  5
12C
330
1F
100
AcDbEntity
  8
0
  6
SLD-実線
 62
     7
370
    18
100
AcDbSpline
210
0.0
220
0.0
230
1.0
 70
     8
 71
     3
 72
    10
 73
     6
 74
     0
 42
0.000000001
 43
0.00000001
 40
0.0
 40
0.0
 40
0.0
 40
0.0
 40
0.5
 40
0.5
 40
1.0
 40
1.0
 40
1.0
 40
1.0
 10
95.34713287720281
 20
174.0191254038441
 30
0.0
 10
95.16334664331218
 20
174.0191254038441
 30
0.0
 10
94.98171827330258
 20
173.9436841499947
 30
0.0
 10
94.72253335356415
 20
173.6845161513546
 30
0.0
 10
94.64708717414965
 20
173.5028996391009
 30
0.0
 10
94.64708717414958
 20
173.3191254038441
 30
0.0
  0
SPLINE
  5
12D
330
1F
100
AcDbEntity
  8
0
  6
SLD-実線
 62
     7
370
    18
100
AcDbSpline
210
0.0
220
0.0
230
1.0
 70
     8
 71
     3
 72
    10
 73
     6
 74
     0
 42
0.000000001
 43
0.00000001
 40
0.0
 40
0.0
 40
0.0
 40
0.0
 40
0.5
 40
0.5
 40
1.0
 40
1.0
 40
1.0
 40
1.0
 10
94.64708717414958
 20
173.3191254038441
 30
0.0
 10
94.6470871741496
 20
173.1353511685872
 30
0.0
 10
94.72253335356407
 20
172.9537346563336
 30
0.0
 10
94.98171827330258
 20
172.6945666576934
 30
0.0
 10
95.16334664331214
 20
172.6191254038441
 30
0.0
 10
95.3471328772028
 20
172.6191254038441
 30
0.0
  0
LINE
  5
12E
330
1F
100
AcDbEntity
  8
0
  6
SLD-実線
 62
     7
370
    18
100
AcDbLine
 10
95.3471328772
 20
172.6191254038
 30
0.0
 11
96.2452804874
 21
172.6191254038
 31
0.0
  0
LINE
  5
12F
330
1F
100
AcDbEntity
  8
0
  6
SLD-実線
 62
     7
370
    18
100
AcDbLine
 10
96.2452804874
 20
172.6191254038
 30
0.0
 11
96.2452804874
 21
161.4615383954
 31
0.0
  0
LINE
  5
130
330
1F
100
AcDbEntity
  8
0
  6
SLD-実線
 62
     7
370
    18
100
AcDbLine
 10
96.2452804874
 20
161.4615383954
 30
0.0
 11
92.8605655128
 21
161.284153
 31
0.0
  0
SPLINE
  5
131
330
1F
100
AcDbEntity
  8
0
  6
SLD-実線
 62
     7
370
    18
100
AcDbSpline
210
0.0
220
0.0
230
1.0
 70
     8
 71
     3
 72
    10
 73
     6
 74
     0
 42
0.000000001
 43
0.00000001
 40
0.0
 40
0.0
 40
0.0
 40
0.0
 40
0.4999999999999999
 40
0.4999999999999999
 40
0.9999999999999999
 40
0.9999999999999999
 40
0.9999999999999999
 40
0.9999999999999999
 10
92.86056551281
 20
161.2841530000402
 30
0.0
 10
91.5101051800469
 20
161.2133783729902
 30
0.0
 10
90.23354430306247
 20
160.6450168520142
 30
0.0
 10
88.32108402467723
 20
158.732556573629
 30
0.0
 10
87.75272250370114
 20
157.4559956966445
 30
0.0
 10
87.68194787665118
 20
156.1055353638815
 30
0.0
  0
LINE
  5
132
330
1F
100
AcDbEntity
  8
0
  6
SLD-実線
 62
     7
370
    18
100
AcDbLine
 10
87.6819478767
 20
156.1055353639
 30
0.0
 11
87.5045624813
 21
152.7208203893
 31
0.0
  0
LINE
  5
133
330
1F
100
AcDbEntity
  8
0
  6
SLD-実線
 62
     7
370
    18
100
AcDbLine
 10
87.5045624813
 20
152.7208203893
 30
0.0
 11
76.3469754728
 21
152.7208203893
 31
0.0
  0
LINE
  5
134
330
1F
100
AcDbEntity
  8
0
  6
SLD-実線
 62
     7
370
    18
100
AcDbLine
 10
76.3469754728
 20
152.7208203893
 30
0.0
 11
76.3469754728
 21
153.6190187742
 31
0.0
  0
SPLINE
  5
135
330
1F
100
AcDbEntity
  8
0
  6
SLD-実線
 62
     7
370
    18
100
AcDbSpline
210
0.0
220
0.0
230
1.0
 70
     8
 71
     3
 72
    10
 73
     6
 74
     0
 42
0.000000001
 43
0.00000001
 40
0.0
 40
0.0
 40
0.0
 40
0.0
 40
0.5
 40
0.5
 40
1.0
 40
1.0
 40
1.0
 40
1.0
 10
76.34697547284667
 20
153.6190187742133
 30
0.0
 10
76.34697547284667
 20
153.8028050081039
 30
0.0
 10
76.2715342189973
 20
153.9844333781135
 30
0.0
 10
76.01236622035718
 20
154.243618297852
 30
0.0
 10
75.83074970810351
 20
154.3190644772665
 30
0.0
 10
75.64697547284666
 20
154.3190644772666
 30
0.0
  0
SPLINE
  5
136
330
1F
100
AcDbEntity
  8
0
  6
SLD-実線
 62
     7
370
    18
100
AcDbSpline
210
0.0
220
0.0
230
1.0
 70
     8
 71
     3
 72
    10
 73
     6
 74
     0
 42
0.000000001
 43
0.00000001
 40
0.0
 40
0.0
 40
0.0
 40
0.0
 40
0.5
 40
0.5
 40
1.0
 40
1.0
 40
1.0
 40
1.0
 10
75.64697547284666
 20
154.3190644772666
 30
0.0
 10
75.46320123758986
 20
154.3190644772665
 30
0.0
 10
75.28158472533607
 20
154.2436182978519
 30
0.0
 10
75.0224167266961
 20
153.9844333781136
 30
0.0
 10
74.94697547284665
 20
153.8028050081039
 30
0.0
 10
74.94697547284665
 20
153.6190187742133
 30
0.0
  0
LINE
  5
137
330
1F
100
AcDbEntity
  8
0
  6
SLD-実線
 62
     7
370
    18
100
AcDbLine
 10
74.9469754728
 20
153.6190187742
 30
0.0
 11
74.9469754728
 21
152.7208203893
 31
0.0
  0
LINE
  5
138
330
1F
100
AcDbEntity
  8
0
  6
SLD-実線
 62
     7
370
    18
100
AcDbLine
 10
74.9469754728
 20
152.7208203893
 30
0.0
 11
57.5482896962
 21
152.7208203893
 31
0.0
  0
SPLINE
  5
139
330
1F
100
AcDbEntity
  8
0
  6
SLD-実線
 62
     7
370
    18
100
AcDbSpline
210
0.0
220
0.0
230
1.0
 70
     8
 71
     3
 72
    10
 73
     6
 74
     0
 42
0.000000001
 43
0.00000001
 40
0.0
 40
0.0
 40
0.0
 40
0.0
 40
0.5
 40
0.5
 40
1.0
 40
1.0
 40
1.0
 40
1.0
 10
57.5482896961525
 20
152.7208203892589
 30
0.0
 10
57.22099505203646
 20
152.720820389264
 30
0.0
 10
56.89396694878739
 20
152.7858730666909
 30
0.0
 10
56.289371613626
 20
153.0362823166236
 30
0.0
 10
56.01214276489878
 20
153.2214987770012
 30
0.0
 10
55.78074580544734
 20
153.4528957364447
 30
0.0
  0
SPLINE
  5
13A
330
1F
100
AcDbEntity
  8
0
  6
SLD-実線
 62
     7
370
    18
100
AcDbSpline
210
0.0
220
0.0
230
1.0
 70
     8
 71
     3
 72
    10
 73
     6
 74
     0
 42
0.000000001
 43
0.00000001
 40
0.0
 40
0.0
 40
0.0
 40
0.0
 40
0.5
 40
0.5
 40
1.0
 40
1.0
 40
1.0
 40
1.0
 10
55.78074580544734
 20
153.4528957364447
 30
0.0
 10
55.54934884600488
 20
153.6842926958963
 30
0.0
 10
55.36413238562613
 20
153.9615215446246
 30
0.0
 10
55.11372313569355
 20
154.5661168797836
 30
0.0
 10
55.04867045826719
 20
154.8931449830347
 30
0.0
 10
55.04867045826152
 20
155.2204396271499
 30
0.0
  0
LINE
  5
13B
330
1F
100
AcDbEntity
  8
0
  6
SLD-実線
 62
     7
370
    18
100
AcDbLine
 10
55.0486704583
 20
155.2204396271
 30
0.0
 11
55.0486704583
 21
172.6191254038
 31
0.0
  0
LINE
  5
13C
330
1F
100
AcDbEntity
  8
0
  6
SLD-実線
 62
     7
370
    18
100
AcDbLine
 10
55.0486704583
 20
172.6191254038
 30
0.0
 11
55.9468688432
 21
172.6191254038
 31
0.0
  0
SPLINE
  5
13D
330
1F
100
AcDbEntity
  8
0
  6
SLD-実線
 62
     7
370
    18
100
AcDbSpline
210
0.0
220
0.0
230
1.0
 70
     8
 71
     3
 72
    10
 73
     6
 74
     0
 42
0.000000001
 43
0.00000001
 40
0.0
 40
0.0
 40
0.0
 40
0.0
 40
0.5
 40
0.5
 40
1.0
 40
1.0
 40
1.0
 40
1.0
 10
55.94686884321591
 20
172.6191254038441
 30
0.0
 10
56.13065507710668
 20
172.6191254038441
 30
0.0
 10
56.31228344711599
 20
172.6945666576933
 30
0.0
 10
56.57146836685471
 20
172.9537346563337
 30
0.0
 10
56.64691454626905
 20
173.1353511685871
 30
0.0
 10
56.64691454626913
 20
173.3191254038441
 30
0.0
  0
SPLINE
  5
13E
330
1F
100
AcDbEntity
  8
0
  6
SLD-実線
 62
     7
370
    18
100
AcDbSpline
210
0.0
220
0.0
230
1.0
 70
     8
 71
     3
 72
    10
 73
     6
 74
     0
 42
0.000000001
 43
0.00000001
 40
0.0
 40
0.0
 40
0.0
 40
0.0
 40
0.5
 40
0.5
 40
1.0
 40
1.0
 40
1.0
 40
1.0
 10
56.64691454626913
 20
173.3191254038441
 30
0.0
 10
56.64691454626905
 20
173.5028996391011
 30
0.0
 10
56.57146836685471
 20
173.6845161513545
 30
0.0
 10
56.31228344711599
 20
173.9436841499949
 30
0.0
 10
56.13065507710665
 20
174.0191254038441
 30
0.0
 10
55.94686884321591
 20
174.0191254038441
 30
0.0
  0
LINE
  5
13F
330
1F
100
AcDbEntity
  8
0
  6
SLD-実線
 62
     7
370
    18
100
AcDbLine
 10
55.9468688432
 20
174.0191254038
 30
0.0
 11
55.0486704583
 21
174.0191254038
 31
0.0
  0
LINE
  5
140
330
1F
100
AcDbEntity
  8
0
  6
SLD-実線
 62
     7
370
    18
100
AcDbLine
 10
55.0486704583
 20
174.0191254038
 30
0.0
 11
55.0486704583
 21
185.1767124123
 31
0.0
  0
LINE
  5
141
330
1F
100
AcDbEntity
  8
0
  6
SLD-実線
 62
     7
370
    18
100
AcDbLine
 10
55.0486704583
 20
185.1767124123
 30
0.0
 11
58.4333854329
 21
185.3540978076
 31
0.0
  0
SPLINE
  5
142
330
1F
100
AcDbEntity
  8
0
  6
SLD-実線
 62
     7
370
    18
100
AcDbSpline
210
0.0
220
0.0
230
1.0
 70
     8
 71
     3
 72
    10
 73
     6
 74
     0
 42
0.000000001
 43
0.00000001
 40
0.0
 40
0.0
 40
0.0
 40
0.0
 40
0.4999999999999999
 40
0.4999999999999999
 40
1.0
 40
1.0
 40
1.0
 40
1.0
 10
58.43338543288373
 20
185.3540978076483
 30
0.0
 10
59.78384576564684
 20
185.4248724346982
 30
0.0
 10
61.06040664263126
 20
185.9932339556743
 30
0.0
 10
62.97286692101649
 20
187.9056942340596
 30
0.0
 10
63.54122844199256
 20
189.182255111044
 30
0.0
 10
63.61200306904249
 20
190.5327154438071
 30
0.0
  0
LINE
  5
143
330
1F
100
AcDbEntity
  8
0
  6
SLD-実線
 62
     7
370
    18
100
AcDbLine
 10
63.612003069
 20
190.5327154438
 30
0.0
 11
63.7893884644
 21
193.9174304184
 31
0.0
  0
LINE
  5
144
330
1F
100
AcDbEntity
  8
0
  6
SLD-実線
 62
     7
370
    18
100
AcDbLine
 10
63.7893884644
 20
193.9174304184
 30
0.0
 11
74.9469754728
 21
193.9174304184
 31
0.0
  0
LINE
  5
145
330
1F
100
AcDbEntity
  8
0
  6
SLD-実線
 62
     7
370
    18
100
AcDbLine
 10
74.9469754728
 20
193.9174304184
 30
0.0
 11
74.9469754728
 21
193.0192320335
 31
0.0
  0
SPLINE
  5
146
330
1F
100
AcDbEntity
  8
0
  6
SLD-実線
 62
     7
370
    18
100
AcDbSpline
210
0.0
220
0.0
230
1.0
 70
     8
 71
     3
 72
    10
 73
     6
 74
     0
 42
0.000000001
 43
0.00000001
 40
0.0
 40
0.0
 40
0.0
 40
0.0
 40
0.5
 40
0.5
 40
1.0
 40
1.0
 40
1.0
 40
1.0
 10
74.94697547284666
 20
193.0192320334749
 30
0.0
 10
74.94697547284666
 20
192.8354457995843
 30
0.0
 10
75.0224167266961
 20
192.6538174295746
 30
0.0
 10
75.28158472533607
 20
192.3946325098363
 30
0.0
 10
75.46320123758987
 20
192.3191863304218
 30
0.0
 10
75.64697547284666
 20
192.3191863304217
 30
0.0
  0
SPLINE
  5
147
330
1F
100
AcDbEntity
  8
0
  6
SLD-実線
 62
     7
370
    18
100
AcDbSpline
210
0.0
220
0.0
230
1.0
 70
     8
 71
     3
 72
    10
 73
     6
 74
     0
 42
0.000000001
 43
0.00000001
 40
0.0
 40
0.0
 40
0.0
 40
0.0
 40
0.5
 40
0.5
 40
1.0
 40
1.0
 40
1.0
 40
1.0
 10
75.64697547284666
 20
192.3191863304217
 30
0.0
 10
75.83074970810344
 20
192.3191863304218
 30
0.0
 10
76.01236622035726
 20
192.3946325098364
 30
0.0
 10
76.27153421899723
 20
192.6538174295746
 30
0.0
 10
76.34697547284667
 20
192.8354457995843
 30
0.0
 10
76.34697547284667
 20
193.0192320334749
 30
0.0
  0
LINE
  5
148
330
1F
100
AcDbEntity
  8
0
  6
SLD-実線
 62
     7
370
    18
100
AcDbLine
 10
74.9469754728
 20
152.7208203893
 30
0.0
 11
75.1469754728
 21
152.7208203893
 31
0.0
  0
LINE
  5
149
330
1F
100
AcDbEntity
  8
0
  6
SLD-実線
 62
     7
370
    18
100
AcDbLine
 10
74.9469754728
 20
153.6190187742
 30
0.0
 11
75.1469754728
 21
153.6190187742
 31
0.0
  0
LINE
  5
14A
330
1F
100
AcDbEntity
  8
0
  6
SLD-実線
 62
     7
370
    18
100
AcDbLine
 10
75.1469754728
 20
153.6190187742
 30
0.0
 11
75.1469754728
 21
152.7208203893
 31
0.0
  0
LINE
  5
14B
330
1F
100
AcDbEntity
  8
0
  6
SLD-実線
 62
     7
370
    18
100
AcDbLine
 10
55.9468688432
 20
174.0191254038
 30
0.0
 11
55.9468688432
 21
173.8191254038
 31
0.0
  0
LINE
  5
14C
330
1F
100
AcDbEntity
  8
0
  6
SLD-実線
 62
     7
370
    18
100
AcDbLine
 10
55.9468688432
 20
173.8191254038
 30
0.0
 11
55.0486704583
 21
173.8191254038
 31
0.0
  0
LINE
  5
14D
330
1F
100
AcDbEntity
  8
0
  6
SLD-実線
 62
     7
370
    18
100
AcDbLine
 10
55.0486704583
 20
174.0191254038
 30
0.0
 11
55.0486704583
 21
173.8191254038
 31
0.0
  0
LINE
  5
14E
330
1F
100
AcDbEntity
  8
0
  6
SLD-実線
 62
     7
370
    18
100
AcDbLine
 10
74.9469754728
 20
193.0192320335
 30
0.0
 11
75.1469754728
 21
193.0192320335
 31
0.0
  0
LINE
  5
14F
330
1F
100
AcDbEntity
  8
0
  6
SLD-実線
 62
     7
370
    18
100
AcDbLine
 10
75.1469754728
 20
193.9174304184
 30
0.0
 11
74.9469754728
 21
193.9174304184
 31
0.0
  0
LINE
  5
150
330
1F
100
AcDbEntity
  8
0
  6
SLD-実線
 62
     7
370
    18
100
AcDbLine
 10
75.1469754728
 20
193.9174304184
 30
0.0
 11
75.1469754728
 21
193.0192320335
 31
0.0
  0
LINE
  5
151
330
1F
100
AcDbEntity
  8
0
  6
SLD-実線
 62
     7
370
    18
100
AcDbLine
 10
76.3469754728
 20
153.6190187742
 30
0.0
 11
76.1469754728
 21
153.6190187742
 31
0.0
  0
LINE
  5
152
330
1F
100
AcDbEntity
  8
0
  6
SLD-実線
 62
     7
370
    18
100
AcDbLine
 10
76.1469754728
 20
152.7208203893
 30
0.0
 11
76.3469754728
 21
152.7208203893
 31
0.0
  0
LINE
  5
153
330
1F
100
AcDbEntity
  8
0
  6
SLD-実線
 62
     7
370
    18
100
AcDbLine
 10
76.1469754728
 20
152.7208203893
 30
0.0
 11
76.1469754728
 21
153.6190187742
 31
0.0
  0
LINE
  5
154
330
1F
100
AcDbEntity
  8
0
  6
SLD-実線
 62
     7
370
    18
100
AcDbLine
 10
76.3469754728
 20
193.9174304184
 30
0.0
 11
76.1469754728
 21
193.9174304184
 31
0.0
  0
LINE
  5
155
330
1F
100
AcDbEntity
  8
0
  6
SLD-実線
 62
     7
370
    18
100
AcDbLine
 10
76.3469754728
 20
193.0192320335
 30
0.0
 11
76.1469754728
 21
193.0192320335
 31
0.0
  0
LINE
  5
156
330
1F
100
AcDbEntity
  8
0
  6
SLD-実線
 62
     7
370
    18
100
AcDbLine
 10
76.1469754728
 20
193.0192320335
 30
0.0
 11
76.1469754728
 21
193.9174304184
 31
0.0
  0
LINE
  5
157
330
1F
100
AcDbEntity
  8
0
  6
SLD-実線
 62
     7
370
    18
100
AcDbLine
 10
95.3471328772
 20
172.6191254038
 30
0.0
 11
95.3471328772
 21
172.8191254038
 31
0.0
  0
LINE
  5
158
330
1F
100
AcDbEntity
  8
0
  6
SLD-実線
 62
     7
370
    18
100
AcDbLine
 10
95.3471328772
 20
172.8191254038
 30
0.0
 11
96.2453312622
 21
172.8191254038
 31
0.0
  0
LINE
  5
159
330
1F
100
AcDbEntity
  8
0
  6
SLD-実線
 62
     7
370
    18
100
AcDbLine
 10
96.2453312622
 20
172.6191254103
 30
0.0
 11
96.2453312622
 21
172.8191254038
 31
0.0
  0
LINE
  5
15A
330
1F
100
AcDbEntity
  8
0
  6
SLD-実線
 62
     7
370
    18
100
AcDbLine
 10
55.0486704583
 20
172.8191254038
 30
0.0
 11
55.0486704583
 21
172.6191254038
 31
0.0
  0
LINE
  5
15B
330
1F
100
AcDbEntity
  8
0
  6
SLD-実線
 62
     7
370
    18
100
AcDbLine
 10
55.0486704583
 20
172.8191254038
 30
0.0
 11
55.9468688432
 21
172.8191254038
 31
0.0
  0
LINE
  5
15C
330
1F
100
AcDbEntity
  8
0
  6
SLD-実線
 62
     7
370
    18
100
AcDbLine
 10
55.9468688432
 20
172.6191254038
 30
0.0
 11
55.9468688432
 21
172.8191254038
 31
0.0
  0
LINE
  5
15D
330
1F
100
AcDbEntity
  8
0
  6
SLD-実線
 62
     7
370
    18
100
AcDbLine
 10
96.2453312622
 20
173.8191254038
 30
0.0
 11
96.2453312622
 21
174.0191254038
 31
0.0
  0
LINE
  5
15E
330
1F
100
AcDbEntity
  8
0
  6
SLD-実線
 62
     7
370
    18
100
AcDbLine
 10
96.2453312622
 20
173.8191254038
 30
0.0
 11
95.3471328772
 21
173.8191254038
 31
0.0
  0
LINE
  5
15F
330
1F
100
AcDbEntity
  8
0
  6
SLD-実線
 62
     7
370
    18
100
AcDbLine
 10
95.3471328772
 20
174.0191254038
 30
0.0
 11
95.3471328772
 21
173.8191254038
 31
0.0
  0
LINE
  5
160
330
1F
100
AcDbEntity
  8
0
  6
SLD-実線
 62
     7
370
    18
100
AcDbLine
 10
75.6469754728
 20
192.3191863304
 30
0.0
 11
75.6469754728
 21
192.5191558695
 31
0.0
  0
SPLINE
  5
161
330
1F
100
AcDbEntity
  8
0
  6
SLD-実線
 62
     7
370
    18
100
AcDbSpline
210
0.0
220
0.0
230
1.0
 70
     8
 71
     3
 72
    16
 73
    12
 74
     0
 42
0.000000001
 43
0.00000001
 40
0.0
 40
0.0
 40
0.0
 40
0.0
 40
0.0807515450408562
 40
0.1603802254967528
 40
0.2400827958879076
 40
0.3685630178343675
 40
0.5000419277463086
 40
0.6285310846050344
 40
0.7600191482633606
 40
0.8779540128464045
 40
0.9999999999999999
 40
0.9999999999999999
 40
0.9999999999999999
 40
0.9999999999999999
 10
75.64697547284666
 20
192.519155869453
 30
0.0
 10
75.66809527049054
 20
192.5200294576515
 30
0.0
 10
75.71004119123866
 20
192.5217644866494
 30
0.0
 10
75.77185419615289
 20
192.5339611461077
 30
0.0
 10
75.84366397566588
 20
192.556889757595
 30
0.0
 10
75.92316784320585
 20
192.5980101156946
 30
0.0
 10
76.0023578977928
 20
192.6626648769193
 30
0.0
 10
76.06780559803575
 20
192.742315638303
 30
0.0
 10
76.11327186160851
 20
192.8307122857505
 30
0.0
 10
76.1417100256027
 20
192.9244300654562
 30
0.0
 10
76.1452003925552
 20
192.9872725251511
 30
0.0
 10
76.14697547284666
 20
193.0192320334749
 30
0.0
  0
LINE
  5
162
330
1F
100
AcDbEntity
  8
0
  6
SLD-実線
 62
     7
370
    18
100
AcDbLine
 10
75.6469754728
 20
154.3190644773
 30
0.0
 11
75.6469754728
 21
154.1190949382
 31
0.0
  0
SPLINE
  5
163
330
1F
100
AcDbEntity
  8
0
  6
SLD-実線
 62
     7
370
    18
100
AcDbSpline
210
0.0
220
0.0
230
1.0
 70
     8
 71
     3
 72
    16
 73
    12
 74
     0
 42
0.000000001
 43
0.00000001
 40
0.0
 40
0.0
 40
0.0
 40
0.0
 40
0.0807515450406696
 40
0.1603802254965703
 40
0.2400827958879109
 40
0.3685630178342503
 40
0.5000419277463158
 40
0.628531084604894
 40
0.7600191482633669
 40
0.8779540128461681
 40
1.0
 40
1.0
 40
1.0
 40
1.0
 10
75.64697547284666
 20
154.1190949382353
 30
0.0
 10
75.62585567520281
 20
154.1182213500367
 30
0.0
 10
75.58390975445475
 20
154.1164863210388
 30
0.0
 10
75.52209674954052
 20
154.1042896615805
 30
0.0
 10
75.45028697002749
 20
154.0813610500933
 30
0.0
 10
75.37078310248745
 20
154.0402406919937
 30
0.0
 10
75.29159304790055
 20
153.975585930769
 30
0.0
 10
75.22614534765765
 20
153.8959351693852
 30
0.0
 10
75.18067908408484
 20
153.8075385219379
 30
0.0
 10
75.15224092009056
 20
153.7138207422321
 30
0.0
 10
75.1487505531381
 20
153.6509782825372
 30
0.0
 10
75.14697547284666
 20
153.6190187742133
 30
0.0
  0
SPLINE
  5
164
330
1F
100
AcDbEntity
  8
0
  6
SLD-実線
 62
     7
370
    18
100
AcDbSpline
210
0.0
220
0.0
230
1.0
 70
     8
 71
     3
 72
    16
 73
    12
 74
     0
 42
0.000000001
 43
0.00000001
 40
0.0
 40
0.0
 40
0.0
 40
0.0
 40
0.0807637398719931
 40
0.1604037029070809
 40
0.2401161380838641
 40
0.368607690984353
 40
0.5000906780877311
 40
0.6285759607418381
 40
0.760052519164395
 40
0.8779722524383482
 40
1.0
 40
1.0
 40
1.0
 40
1.0
 10
75.14697547284666
 20
193.0192320334749
 30
0.0
 10
75.14784892245983
 20
192.9981090522714
 30
0.0
 10
75.14958366818209
 20
192.9561570029128
 30
0.0
 10
75.16177835915654
 20
192.894334832973
 30
0.0
 10
75.18470310575744
 20
192.822514973653
 30
0.0
 10
75.22581609213427
 20
192.7430000984585
 30
0.0
 10
75.29046039118566
 20
192.6637977117224
 30
0.0
 10
75.37009874508661
 20
192.5983394265491
 30
0.0
 10
75.45848253951601
 20
192.5528653346825
 30
0.0
 10
75.5521869423588
 20
192.5244222470642
 30
0.0
 10
75.61502071472322
 20
192.5209312511568
 30
0.0
 10
75.64697547284666
 20
192.519155869453
 30
0.0
  0
SPLINE
  5
165
330
1F
100
AcDbEntity
  8
0
  6
SLD-実線
 62
     7
370
    18
100
AcDbSpline
210
0.0
220
0.0
230
1.0
 70
     8
 71
     3
 72
    16
 73
    12
 74
     0
 42
0.000000001
 43
0.00000001
 40
0.0
 40
0.0
 40
0.0
 40
0.0
 40
0.0807637398721259
 40
0.1604037029072101
 40
0.2401161380838645
 40
0.3686076909846089
 40
0.5000906780877346
 40
0.6285759607422315
 40
0.760052519164421
 40
0.877972252438658
 40
1.0
 40
1.0
 40
1.0
 40
1.0
 10
76.14697547284666
 20
153.6190187742133
 30
0.0
 10
76.14610202323348
 20
153.6401417554169
 30
0.0
 10
76.14436727751122
 20
153.6820938047755
 30
0.0
 10
76.13217258653678
 20
153.7439159747153
 30
0.0
 10
76.1092478399358
 20
153.8157358340353
 30
0.0
 10
76.06813485355899
 20
153.8952507092297
 30
0.0
 10
76.00349055450754
 20
153.9744530959659
 30
0.0
 10
75.92385220060663
 20
154.0399113811392
 30
0.0
 10
75.83546840617714
 20
154.0853854730058
 30
0.0
 10
75.74176400333442
 20
154.113828560624
 30
0.0
 10
75.67893023097001
 20
154.1173195565315
 30
0.0
 10
75.64697547284666
 20
154.1190949382353
 30
0.0
  0
SPLINE
  5
166
330
1F
100
AcDbEntity
  8
0
  6
SLD-実線
 62
     7
370
    18
100
AcDbSpline
210
0.0
220
0.0
230
1.0
 70
     8
 71
     3
 72
    16
 73
    12
 74
     0
 42
0.000000001
 43
0.00000001
 40
0.0
 40
0.0
 40
0.0
 40
0.0
 40
0.0807637398720505
 40
0.1604037029071381
 40
0.2401161380838669
 40
0.3686076909844253
 40
0.5000906780877321
 40
0.6285759607418936
 40
0.7600525191644063
 40
0.8779722524383942
 40
1.0
 40
1.0
 40
1.0
 40
1.0
 10
95.34713287720281
 20
173.8191254038441
 30
0.0
 10
95.32600989599923
 20
173.8182519542309
 30
0.0
 10
95.28405784664069
 20
173.8165172085087
 30
0.0
 10
95.22223567670086
 20
173.8043225175342
 30
0.0
 10
95.15041581738086
 20
173.7813977709333
 30
0.0
 10
95.07090094218643
 20
173.7402847845565
 30
0.0
 10
94.99169855545027
 20
173.6756404855051
 30
0.0
 10
94.926240270277
 20
173.5960021316041
 30
0.0
 10
94.8807661784104
 20
173.5076183371747
 30
0.0
 10
94.85232309079211
 20
173.413913934332
 30
0.0
 10
94.8488320948846
 20
173.3510801619675
 30
0.0
 10
94.84705671318085
 20
173.3191254038441
 30
0.0
  0
LINE
  5
167
330
1F
100
AcDbEntity
  8
0
  6
SLD-実線
 62
     7
370
    18
100
AcDbLine
 10
94.6470871741
 20
173.3191254038
 30
0.0
 11
94.8470567132
 21
173.3191254038
 31
0.0
  0
SPLINE
  5
168
330
1F
100
AcDbEntity
  8
0
  6
SLD-実線
 62
     7
370
    18
100
AcDbSpline
210
0.0
220
0.0
230
1.0
 70
     8
 71
     3
 72
    16
 73
    12
 74
     0
 42
0.000000001
 43
0.00000001
 40
0.0
 40
0.0
 40
0.0
 40
0.0
 40
0.0807515450406097
 40
0.1603802254965063
 40
0.240082795887898
 40
0.3685630178341166
 40
0.5000419277463111
 40
0.628531084605184
 40
0.7600191482633666
 40
0.8779540128465245
 40
1.0
 40
1.0
 40
1.0
 40
1.0
 10
94.84705671318085
 20
173.3191254038441
 30
0.0
 10
94.84793030137936
 20
173.2980056062003
 30
0.0
 10
94.84966533037723
 20
173.2560596854522
 30
0.0
 10
94.86186198983562
 20
173.194246680538
 30
0.0
 10
94.88479060132279
 20
173.122436901025
 30
0.0
 10
94.92591095942242
 20
173.0429330334849
 30
0.0
 10
94.99056572064714
 20
172.963742978898
 30
0.0
 10
95.07021648203086
 20
172.898295278655
 30
0.0
 10
95.1586131294784
 20
172.8528290150822
 30
0.0
 10
95.25233090918412
 20
172.8243908510881
 30
0.0
 10
95.31517336887904
 20
172.8209004841356
 30
0.0
 10
95.34713287720281
 20
172.8191254038441
 30
0.0
  0
SPLINE
  5
169
330
1F
100
AcDbEntity
  8
0
  6
SLD-実線
 62
     7
370
    18
100
AcDbSpline
210
0.0
220
0.0
230
1.0
 70
     8
 71
     3
 72
    16
 73
    12
 74
     0
 42
0.000000001
 43
0.00000001
 40
0.0
 40
0.0
 40
0.0
 40
0.0
 40
0.0807637398720113
 40
0.1604037029070952
 40
0.2401161380838579
 40
0.3686076909843048
 40
0.5000906780877307
 40
0.6285759607420545
 40
0.7600525191644094
 40
0.8779722524386512
 40
1.0
 40
1.0
 40
1.0
 40
1.0
 10
55.94686884321591
 20
172.8191254038441
 30
0.0
 10
55.96799182441949
 20
172.8199988534573
 30
0.0
 10
56.00994387377801
 20
172.8217335991795
 30
0.0
 10
56.07176604371784
 20
172.833928290154
 30
0.0
 10
56.14358590303781
 20
172.8568530367549
 30
0.0
 10
56.22310077823226
 20
172.8979660231317
 30
0.0
 10
56.30230316496846
 20
172.9626103221831
 30
0.0
 10
56.36776145014181
 20
173.0422486760841
 30
0.0
 10
56.41323554200833
 20
173.1306324705136
 30
0.0
 10
56.44167862962655
 20
173.2243368733563
 30
0.0
 10
56.44516962553408
 20
173.2871706457207
 30
0.0
 10
56.44694500723786
 20
173.3191254038441
 30
0.0
  0
LINE
  5
16A
330
1F
100
AcDbEntity
  8
0
  6
SLD-実線
 62
     7
370
    18
100
AcDbLine
 10
56.6469145463
 20
173.3191254038
 30
0.0
 11
56.4469450072
 21
173.3191254038
 31
0.0
  0
SPLINE
  5
16B
330
1F
100
AcDbEntity
  8
0
  6
SLD-実線
 62
     7
370
    18
100
AcDbSpline
210
0.0
220
0.0
230
1.0
 70
     8
 71
     3
 72
    16
 73
    12
 74
     0
 42
0.000000001
 43
0.00000001
 40
0.0
 40
0.0
 40
0.0
 40
0.0
 40
0.080751545040703
 40
0.1603802254966033
 40
0.2400827958879064
 40
0.3685630178340968
 40
0.5000419277462997
 40
0.6285310846052878
 40
0.7600191482633819
 40
0.8779540128467745
 40
1.0
 40
1.0
 40
1.0
 40
1.0
 10
56.44694500723786
 20
173.3191254038441
 30
0.0
 10
56.44607141903934
 20
173.3402452014879
 30
0.0
 10
56.44433639004147
 20
173.382191122236
 30
0.0
 10
56.43213973058309
 20
173.4440041271502
 30
0.0
 10
56.40921111909589
 20
173.5158139066632
 30
0.0
 10
56.36809076099623
 20
173.5953177742033
 30
0.0
 10
56.30343599977156
 20
173.6745078287902
 30
0.0
 10
56.22378523838788
 20
173.7399555290333
 30
0.0
 10
56.13538859094022
 20
173.785421792606
 30
0.0
 10
56.0416708112345
 20
173.8138599566001
 30
0.0
 10
55.9788283515396
 20
173.8173503235526
 30
0.0
 10
55.94686884321591
 20
173.8191254038441
 30
0.0
  0
SPLINE
  5
16C
330
1F
100
AcDbEntity
  8
0
  6
SLD-実線
 62
     7
370
    18
100
AcDbSpline
210
0.0
220
0.0
230
1.0
 70
     8
 71
     3
 72
    24
 73
    20
 74
     0
 42
0.000000001
 43
0.00000001
 40
0.0
 40
0.0
 40
0.0
 40
0.0
 40
0.0538950619037149
 40
0.1055710714495217
 40
0.1550272202002609
 40
0.2022629458051931
 40
0.2472779003534924
 40
0.2900719207554626
 40
0.3306450012201041
 40
0.3689972679235548
 40
0.4051289560018324
 40
0.4390403890610942
 40
0.4707319614921447
 40
0.5002041240260924
 40
0.6046598703401806
 40
0.706857731599109
 40
0.8068066382350556
 40
0.904516958968628
 40
1.0
 40
1.0
 40
1.0
 40
1.0
 10
55.04867045826152
 20
185.1767124123222
 30
0.0
 10
55.04648799623691
 20
185.2185015134727
 30
0.0
 10
55.04221293195089
 20
185.3003591090954
 30
0.0
 10
55.03603978461533
 20
185.4197394547947
 30
0.0
 10
55.0302145191246
 20
185.5325147130576
 30
0.0
 10
55.02474378505872
 20
185.6382566583831
 30
0.0
 10
55.01962590957566
 20
185.7367062731007
 30
0.0
 10
55.01486127724892
 20
185.8277523965481
 30
0.0
 10
55.01044969001851
 20
185.9114103498726
 30
0.0
 10
55.00639118572794
 20
185.9878011025556
 30
0.0
 10
55.00268529454455
 20
186.0571319019425
 30
0.0
 10
54.99933306653026
 20
186.1196766414652
 30
0.0
 10
54.99633031423577
 20
186.1757630052138
 30
0.0
 10
54.99138518704085
 20
186.2693843218353
 30
0.0
 10
54.98514488711245
 20
186.3896753727095
 30
0.0
 10
54.97862194243442
 20
186.5150273063977
 30
0.0
 10
54.97394123387783
 20
186.6043662642294
 30
0.0
 10
54.97091790641318
 20
186.6608958504571
 30
0.0
 10
54.97042305407766
 20
186.6699524675251
 30
0.0
 10
54.97017848042651
 20
186.6744285702815
 30
0.0
  0
LINE
  5
16D
330
1F
100
AcDbEntity
  8
0
  6
SLD-実線
 62
     7
370
    18
100
AcDbLine
 10
58.354893455
 20
186.8518139656
 30
0.0
 11
54.9701784804
 21
186.6744285703
 31
0.0
  0
LINE
  5
16E
330
1F
100
AcDbEntity
  8
0
  6
SLD-実線
 62
     7
370
    18
100
AcDbLine
 10
58.354893455
 20
186.8518139656
 30
0.0
 11
58.4333854329
 21
185.3540978076
 31
0.0
  0
LINE
  5
16F
330
1F
100
AcDbEntity
  8
0
  6
SLD-実線
 62
     7
370
    18
100
AcDbLine
 10
62.2916723064
 20
193.9959223963
 30
0.0
 11
62.1142869111
 21
190.6112074216
 31
0.0
  0
SPLINE
  5
170
330
1F
100
AcDbEntity
  8
0
  6
SLD-実線
 62
     7
370
    18
100
AcDbSpline
210
0.0
220
0.0
230
1.0
 70
     8
 71
     3
 72
    17
 73
    13
 74
     0
 42
0.000000001
 43
0.00000001
 40
0.0
 40
0.0
 40
0.0
 40
0.0
 40
0.0242985660362721
 40
0.0574854405833881
 40
0.1168451996790247
 40
0.2403839653712904
 40
0.348214056124683
 40
0.5001133211548346
 40
0.6286204411080794
 40
0.7955946128060066
 40
0.879869305958983
 40
1.0
 40
1.0
 40
1.0
 40
1.0
 10
62.29167230640935
 20
193.9959223962643
 30
0.0
 10
62.29222891506053
 20
193.9962438789889
 30
0.0
 10
62.29354573735774
 20
193.9970044414038
 30
0.0
 10
62.30096876088883
 20
193.9947690900945
 30
0.0
 10
62.32635583739262
 20
193.9946094129833
 30
0.0
 10
62.39222061510777
 20
193.9903640724509
 30
0.0
 10
62.52830977788652
 20
193.9841130539979
 30
0.0
 10
62.71833355595062
 20
193.9733610115895
 30
0.0
 10
62.98994867568567
 20
193.9595648850859
 30
0.0
 10
63.258528279758
 20
193.945184440302
 30
0.0
 10
63.53763848731654
 20
193.9307058060708
 30
0.0
 10
63.69620036844719
 20
193.9223444530259
 30
0.0
 10
63.78938846436854
 20
193.9174304184293
 30
0.0
  0
LINE
  5
171
330
1F
100
AcDbEntity
  8
0
  6
SLD-実線
 62
     7
370
    18
100
AcDbLine
 10
62.1142869111
 20
190.6112074216
 30
0.0
 11
63.612003069
 21
190.5327154438
 31
0.0
  0
SPLINE
  5
172
330
1F
100
AcDbEntity
  8
0
  6
SLD-実線
 62
     7
370
    18
100
AcDbSpline
210
0.0
220
0.0
230
1.0
 70
     8
 71
     3
 72
    24
 73
    20
 74
     0
 42
0.000000001
 43
0.00000001
 40
0.0
 40
0.0
 40
0.0
 40
0.0
 40
0.0538950620191047
 40
0.105571071659321
 40
0.1550272204834852
 40
0.2022629461408535
 40
0.2472779007206027
 40
0.2900719211330383
 40
0.3306450015871679
 40
0.3689972682591328
 40
0.4051289562849605
 40
0.4390403892708137
 40
0.4707319616075049
 40
0.5002041240261512
 40
0.6046598707873005
 40
0.7068577322698093
 40
0.8068066389058005
 40
0.9045169594158231
 40
1.0
 40
1.0
 40
1.0
 40
1.0
 10
96.24528048743183
 20
161.4615383953661
 30
0.0
 10
96.2474629494638
 20
161.4197492941263
 30
0.0
 10
96.2517380137635
 20
161.3378916983412
 30
0.0
 10
96.25791116111682
 20
161.2185113524274
 30
0.0
 10
96.26373642662142
 20
161.105736094006
 30
0.0
 10
96.2692071606972
 20
160.9999941485777
 30
0.0
 10
96.27432503618626
 20
160.9015445338109
 30
0.0
 10
96.27908966851503
 20
160.8104984103647
 30
0.0
 10
96.28350125574353
 20
160.7268404570873
 30
0.0
 10
96.28755976002826
 20
160.6504497044922
 30
0.0
 10
96.2912656512019
 20
160.5811189052287
 30
0.0
 10
96.29461787920238
 20
160.5185741658597
 30
0.0
 10
96.29762063147962
 20
160.4624878022899
 30
0.0
 10
96.30256575865842
 20
160.3688664855412
 30
0.0
 10
96.30880605857321
 20
160.2485754344256
 30
0.0
 10
96.31532900325459
 20
160.1232235006385
 30
0.0
 10
96.3200097118124
 20
160.033884543031
 30
0.0
 10
96.32303303927921
 20
159.9773549571348
 30
0.0
 10
96.32352789161557
 20
159.9682983401278
 30
0.0
 10
96.3237724652668
 20
159.9638222374069
 30
0.0
  0
LINE
  5
173
330
1F
100
AcDbEntity
  8
0
  6
SLD-実線
 62
     7
370
    18
100
AcDbLine
 10
92.9390574906
 20
159.7864368421
 30
0.0
 11
96.3237724653
 21
159.9638222374
 31
0.0
  0
LINE
  5
174
330
1F
100
AcDbEntity
  8
0
  6
SLD-実線
 62
     7
370
    18
100
AcDbLine
 10
92.9390574906
 20
159.7864368421
 30
0.0
 11
92.8605655128
 21
161.284153
 31
0.0
  0
LINE
  5
175
330
1F
100
AcDbEntity
  8
0
  6
SLD-実線
 62
     7
370
    18
100
AcDbLine
 10
89.1796640346
 20
156.027043386
 30
0.0
 11
87.6819478767
 21
156.1055353639
 31
0.0
  0
LINE
  5
176
330
1F
100
AcDbEntity
  8
0
  6
SLD-実線
 62
     7
370
    18
100
AcDbLine
 10
89.0022786393
 20
152.6423284114
 30
0.0
 11
89.1796640346
 21
156.027043386
 31
0.0
  0
SPLINE
  5
177
330
1F
100
AcDbEntity
  8
0
  6
SLD-実線
 62
     7
370
    18
100
AcDbSpline
210
0.0
220
0.0
230
1.0
 70
     8
 71
     3
 72
    17
 73
    13
 74
     0
 42
0.000000001
 43
0.00000001
 40
0.0
 40
0.0
 40
0.0
 40
0.0
 40
0.0242985660366065
 40
0.0574854405832175
 40
0.1168451996786931
 40
0.240383965370605
 40
0.3482140561033206
 40
0.500113321153361
 40
0.6286204410430213
 40
0.7955946128034809
 40
0.8798693073570728
 40
1.0
 40
1.0
 40
1.0
 40
1.0
 10
89.00227863928436
 20
152.6423284114239
 30
0.0
 10
89.00172203063316
 20
152.6420069286996
 30
0.0
 10
89.00040520833598
 20
152.6412463662854
 30
0.0
 10
88.99298218480479
 20
152.6434817175933
 30
0.0
 10
88.96759510830105
 20
152.6436413947047
 30
0.0
 10
88.90173033059078
 20
152.6478867352423
 30
0.0
 10
88.76564116781526
 20
152.6541377536703
 30
0.0
 10
88.57561738978642
 20
152.6648897960959
 30
0.0
 10
88.30400227005151
 20
152.6786859226182
 30
0.0
 10
88.03542266499687
 20
152.6930663674264
 30
0.0
 10
87.75631245728263
 20
152.7075450016901
 30
0.0
 10
87.59775057615755
 20
152.7159063547253
 30
0.0
 10
87.50456248132517
 20
152.7208203892589
 30
0.0
  0
LINE
  5
178
330
1F
100
AcDbEntity
  8
0
  6
SLD-実線
 62
     7
370
    18
100
AcDbLine
 10
74.9469754728
 20
151.2210488465
 30
0.0
 11
74.9469754728
 21
152.7208203893
 31
0.0
  0
LINE
  5
179
330
1F
100
AcDbEntity
  8
0
  6
SLD-実線
 62
     7
370
    18
100
AcDbLine
 10
74.9469754728
 20
151.2210488465
 30
0.0
 11
57.5482896962
 21
151.2210488465
 31
0.0
  0
LINE
  5
17A
330
1F
100
AcDbEntity
  8
0
  6
SLD-実線
 62
     7
370
    18
100
AcDbLine
 10
57.5482896962
 20
151.2210488465
 30
0.0
 11
57.5482896962
 21
152.7208203893
 31
0.0
  0
LINE
  5
17B
330
1F
100
AcDbEntity
  8
0
  6
SLD-実線
 62
     7
370
    18
100
AcDbLine
 10
76.3469754728
 20
195.4172019612
 30
0.0
 11
76.3469754728
 21
193.9174304184
 31
0.0
  0
LINE
  5
17C
330
1F
100
AcDbEntity
  8
0
  6
SLD-実線
 62
     7
370
    18
100
AcDbLine
 10
76.3469754728
 20
195.4172019612
 30
0.0
 11
93.7456612495
 21
195.4172019612
 31
0.0
  0
LINE
  5
17D
330
1F
100
AcDbEntity
  8
0
  6
SLD-実線
 62
     7
370
    18
100
AcDbLine
 10
93.7456612495
 20
195.4172019612
 30
0.0
 11
93.7456612495
 21
193.9174304184
 31
0.0
  0
LINE
  5
17E
330
1F
100
AcDbEntity
  8
0
  6
SLD-実線
 62
     7
370
    18
100
AcDbLine
 10
55.0486704583
 20
172.6191254038
 30
0.0
 11
53.5488989155
 21
172.6191254038
 31
0.0
  0
LINE
  5
17F
330
1F
100
AcDbEntity
  8
0
  6
SLD-実線
 62
     7
370
    18
100
AcDbLine
 10
53.5488989155
 20
155.2204396271
 30
0.0
 11
55.0486704583
 21
155.2204396271
 31
0.0
  0
LINE
  5
180
330
1F
100
AcDbEntity
  8
0
  6
SLD-実線
 62
     7
370
    18
100
AcDbLine
 10
53.5488989155
 20
155.2204396271
 30
0.0
 11
53.5488989155
 21
172.6191254038
 31
0.0
  0
SPLINE
  5
181
330
1F
100
AcDbEntity
  8
0
  6
SLD-実線
 62
     7
370
    18
100
AcDbSpline
210
0.0
220
0.0
230
1.0
 70
    24
 71
     3
 72
    14
 73
    10
 74
     0
 42
0.000000001
 43
0.00000001
 40
0.0
 40
0.0
 40
0.0
 40
0.0
 40
0.25
 40
0.25
 40
0.5
 40
0.5
 40
0.75
 40
0.75
 40
1.0
 40
1.0
 40
1.0
 40
1.0
 10
96.2453312621572
 20
174.0191254038441
 30
0.0
 10
96.43949491010318
 20
174.0191254038441
 30
0.0
 10
96.63358420467296
 20
174.0191254038441
 30
0.0
 10
96.99299311297924
 20
174.0191254038441
 30
0.0
 10
97.15817748544184
 20
174.0191254038441
 30
0.0
 10
97.43514749711588
 20
174.0191254038441
 30
0.0
 10
97.54682891582429
 20
174.0191254038441
 30
0.0
 10
97.70011571089285
 20
174.0191254038441
 30
0.0
 10
97.74166340726521
 20
174.0191254038441
 30
0.0
 10
97.74505203016643
 20
174.0191254038441
 30
0.0
  0
LINE
  5
182
330
1F
100
AcDbEntity
  8
0
  6
SLD-実線
 62
     7
370
    18
100
AcDbLine
 10
97.7450520302
 20
191.4178111805
 30
0.0
 11
96.2452804874
 21
191.4178111805
 31
0.0
  0
LINE
  5
183
330
1F
100
AcDbEntity
  8
0
  6
SLD-実線
 62
     7
370
    18
100
AcDbLine
 10
97.7450520302
 20
191.4178111805
 30
0.0
 11
97.7450520302
 21
174.0191254038
 31
0.0
  0
LINE
  5
184
330
1F
100
AcDbEntity
  8
0
  6
SLD-実線
 62
     7
370
    18
100
AcDbLine
 10
96.2453312622
 20
172.8191254038
 30
0.0
 11
97.5451332659
 21
172.8191254038
 31
0.0
  0
ARC
  5
185
330
1F
100
AcDbEntity
  8
0
  6
SLD-実線
 62
     7
370
    18
100
AcDbCircle
 10
97.7451180456
 20
172.8191101797
 30
0.0
 40
0.199984780312566
100
AcDbArc
 50
179.9956382732
 51
269.9810865336
  0
SPLINE
  5
186
330
1F
100
AcDbEntity
  8
0
  6
SLD-実線
 62
     7
370
    18
100
AcDbSpline
210
0.0
220
0.0
230
1.0
 70
    24
 71
     3
 72
    14
 73
    10
 74
     0
 42
0.000000001
 43
0.00000001
 40
0.0
 40
0.0
 40
0.0
 40
0.0
 40
0.25
 40
0.25
 40
0.5
 40
0.5
 40
0.75
 40
0.75
 40
1.0
 40
1.0
 40
1.0
 40
1.0
 10
97.74505203016648
 20
172.6191254102873
 30
0.0
 10
97.7416634072652
 20
172.6191254102873
 30
0.0
 10
97.70011571089285
 20
172.6191254102873
 30
0.0
 10
97.54682891582428
 20
172.6191254102873
 30
0.0
 10
97.43514749711588
 20
172.6191254102873
 30
0.0
 10
97.15817748544184
 20
172.6191254102873
 30
0.0
 10
96.99299311297924
 20
172.6191254102873
 30
0.0
 10
96.63358420467296
 20
172.6191254102873
 30
0.0
 10
96.43949491010316
 20
172.6191254102873
 30
0.0
 10
96.24533126215715
 20
172.6191254102873
 30
0.0
  0
ARC
  5
187
330
1F
100
AcDbEntity
  8
0
  6
SLD-実線
 62
     7
370
    18
100
AcDbCircle
 10
97.7451180456
 20
173.819140628
 30
0.0
 40
0.1999847803126482
100
AcDbArc
 50
90.0189090356
 51
180.0043617253
  0
LINE
  5
188
330
1F
100
AcDbEntity
  8
0
  6
SLD-実線
 62
     7
370
    18
100
AcDbLine
 10
97.5451332659
 20
173.8191254038
 30
0.0
 11
96.2453312622
 21
173.8191254038
 31
0.0
  0
LINE
  5
189
330
1F
100
AcDbEntity
  8
0
  6
SLD-実線
 62
     7
370
    18
100
AcDbLine
 10
53.5488989155
 20
174.0191254038
 30
0.0
 11
55.0486704583
 21
174.0191254038
 31
0.0
  0
LINE
  5
18A
330
1F
100
AcDbEntity
  8
0
  6
SLD-実線
 62
     7
370
    18
100
AcDbLine
 10
53.5488989155
 20
174.0191254038
 30
0.0
 11
53.5488989155
 21
185.1767124123
 31
0.0
  0
LINE
  5
18B
330
1F
100
AcDbEntity
  8
0
  6
SLD-実線
 62
     7
370
    18
100
AcDbLine
 10
55.0486704583
 20
185.1767124123
 30
0.0
 11
53.5488989155
 21
185.1767124123
 31
0.0
  0
LINE
  5
18C
330
1F
100
AcDbEntity
  8
0
  6
SLD-実線
 62
     7
370
    18
100
AcDbLine
 10
96.2452804874
 20
161.4615383954
 30
0.0
 11
97.7450520302
 21
161.4615383954
 31
0.0
  0
LINE
  5
18D
330
1F
100
AcDbEntity
  8
0
  6
SLD-実線
 62
     7
370
    18
100
AcDbLine
 10
97.7450520302
 20
172.6191254103
 30
0.0
 11
97.7450520302
 21
161.4615383954
 31
0.0
  0
LINE
  5
18E
330
1F
100
AcDbEntity
  8
0
  6
SLD-実線
 62
     7
370
    18
100
AcDbLine
 10
87.5045624813
 20
151.2210488465
 30
0.0
 11
76.3469754728
 21
151.2210488465
 31
0.0
  0
LINE
  5
18F
330
1F
100
AcDbEntity
  8
0
  6
SLD-実線
 62
     7
370
    18
100
AcDbLine
 10
76.3469754728
 20
152.7208203893
 30
0.0
 11
76.3469754728
 21
151.2210488465
 31
0.0
  0
LINE
  5
190
330
1F
100
AcDbEntity
  8
0
  6
SLD-実線
 62
     7
370
    18
100
AcDbLine
 10
87.5045624813
 20
151.2210488465
 30
0.0
 11
87.5045624813
 21
152.7208203893
 31
0.0
  0
LINE
  5
191
330
1F
100
AcDbEntity
  8
0
  6
SLD-実線
 62
     7
370
    18
100
AcDbLine
 10
63.7893884644
 20
195.4172019612
 30
0.0
 11
74.9469754728
 21
195.4172019612
 31
0.0
  0
LINE
  5
192
330
1F
100
AcDbEntity
  8
0
  6
SLD-実線
 62
     7
370
    18
100
AcDbLine
 10
74.9469754728
 20
193.9174304184
 30
0.0
 11
74.9469754728
 21
195.4172019612
 31
0.0
  0
LINE
  5
193
330
1F
100
AcDbEntity
  8
0
  6
SLD-実線
 62
     7
370
    18
100
AcDbLine
 10
63.7893884644
 20
195.4172019612
 30
0.0
 11
63.7893884644
 21
193.9174304184
 31
0.0
  0
ARC
  5
194
330
1F
100
AcDbEntity
  8
0
  6
SLD-実線
 62
     7
370
    18
100
AcDbCircle
 10
58.1469754728
 20
190.8191254038
 30
0.0
 40
3.972755962210244
100
AcDbArc
 50
273.0
 51
357.0
  0
ARC
  5
195
330
1F
100
AcDbEntity
  8
0
  6
SLD-実線
 62
     7
370
    18
100
AcDbCircle
 10
93.1469754728
 20
155.8191254038
 30
0.0
 40
3.972755962211489
100
AcDbArc
 50
93.0
 51
177.0
  0
LINE
  5
196
330
1F
100
AcDbEntity
  8
0
  6
SLD-実線
 62
     7
370
    18
100
AcDbLine
 10
54.7204086472
 20
152.3925585782
 30
0.0
 11
55.7807458054
 21
153.4528957364
 31
0.0
  0
SPLINE
  5
197
330
1F
100
AcDbEntity
  8
0
  6
SLD-実線
 62
     7
370
    18
100
AcDbSpline
210
0.0
220
0.0
230
1.0
 70
     8
 71
     3
 72
    22
 73
    18
 74
     0
 42
0.000000001
 43
0.00000001
 40
0.0
 40
0.0
 40
0.0
 40
0.0
 40
0.0632595334284372
 40
0.1270056477980456
 40
0.1912383808718512
 40
0.2559577694908331
 40
0.3211638496008438
 40
0.386856656278549
 40
0.4530362237564282
 40
0.5197025854468498
 40
0.5868557739652935
 40
0.6544958211527262
 40
0.7226227580971932
 40
0.7912366151546418
 40
0.8603374219690156
 40
0.929925207491652
 40
1.0
 40
1.0
 40
1.0
 40
1.0
 10
54.7204086472415
 20
152.3925585782389
 30
0.0
 10
54.67424703242883
 20
152.440064579511
 30
0.0
 10
54.5815687359738
 20
152.5354419896635
 30
0.0
 10
54.4513077088188
 20
152.6876443995426
 30
0.0
 10
54.3273902815541
 20
152.8469189202928
 30
0.0
 10
54.21095948983309
 20
153.0136475276276
 30
0.0
 10
54.10233216735286
 20
153.187358258569
 30
0.0
 10
54.00203949015516
 20
153.367767628855
 30
0.0
 10
53.91054229918303
 20
153.5544977518406
 30
0.0
 10
53.82830474927863
 20
153.7471527831857
 30
0.0
 10
53.75577344574354
 20
153.9452981804331
 30
0.0
 10
53.69337201764815
 20
154.1484664886945
 30
0.0
 10
53.64152951471507
 20
154.3561561492639
 30
0.0
 10
53.60055594993285
 20
154.5678323988722
 30
0.0
 10
53.57110101481617
 20
154.7829278877365
 30
0.0
 10
53.55241116788034
 20
155.0008433870395
 30
0.0
 10
53.55007238477693
 20
155.1470709140694
 30
0.0
 10
53.54889891552693
 20
155.2204396271499
 30
0.0
  0
SPLINE
  5
198
330
1F
100
AcDbEntity
  8
0
  6
SLD-実線
 62
     7
370
    18
100
AcDbSpline
210
0.0
220
0.0
230
1.0
 70
     8
 71
     3
 72
    23
 73
    19
 74
     0
 42
0.000000001
 43
0.00000001
 40
0.0
 40
0.0
 40
0.0
 40
0.0
 40
0.0657102124300875
 40
0.1309922785070709
 40
0.1958462217298729
 40
0.2602720661146309
 40
0.3242698362081795
 40
0.3878395571020076
 40
0.4509812544466488
 40
0.5136949544666168
 40
0.5759806839757814
 40
0.6378384703933364
 40
0.6992683417602805
 40
0.7602703267565017
 40
0.8208444547184351
 40
0.8809907556573691
 40
0.9407092602783866
 40
1.0
 40
1.0
 40
1.0
 40
1.0
 10
57.5482896961525
 20
151.2210488465243
 30
0.0
 10
57.47949081546978
 20
151.2220811797142
 30
0.0
 10
57.34234132521431
 20
151.2241391197469
 30
0.0
 10
57.13783488203877
 20
151.2405857153988
 30
0.0
 10
56.93573953152583
 20
151.2665276028711
 30
0.0
 10
56.73655303413161
 20
151.3026503669404
 30
0.0
 10
56.54074864298074
 20
151.3484070780718
 30
0.0
 10
56.34877461425396
 20
151.4035522233339
 30
0.0
 10
56.16105360866089
 20
151.4677371000288
 30
0.0
 10
55.97798239449565
 20
151.5406195947236
 30
0.0
 10
55.79993119693344
 20
151.6218370482143
 30
0.0
 10
55.62724485697866
 20
151.7110169698558
 30
0.0
 10
55.46023784674555
 20
151.8077718635976
 30
0.0
 10
55.29921247448472
 20
151.9117196417349
 30
0.0
 10
55.14439192337782
 20
152.0224180565016
 30
0.0
 10
54.99616824712717
 20
152.1396141059093
 30
0.0
 10
54.85418777810235
 20
152.2623307277308
 30
0.0
 10
54.76489470633837
 20
152.3492534392648
 30
0.0
 10
54.7204086472415
 20
152.3925585782389
 30
0.0
  0
LINE
  5
199
330
1F
100
AcDbEntity
  8
0
  6
SLD-実線
 62
     7
370
    18
100
AcDbLine
 10
96.5735422985
 20
194.2456922294
 30
0.0
 11
95.5132051402
 21
193.1853550712
 31
0.0
  0
SPLINE
  5
19A
330
1F
100
AcDbEntity
  8
0
  6
SLD-実線
 62
     7
370
    18
100
AcDbSpline
210
0.0
220
0.0
230
1.0
 70
     8
 71
     3
 72
    22
 73
    18
 74
     0
 42
0.000000001
 43
0.00000001
 40
0.0
 40
0.0
 40
0.0
 40
0.0
 40
0.0632587549321643
 40
0.1270042020255438
 40
0.1912363790423288
 40
0.2559553228224256
 40
0.3211610693103966
 40
0.3868536535814194
 40
0.4530331098662888
 40
0.5196994715755037
 40
0.5868527713225045
 40
0.6544930409460554
 40
0.7226203115318465
 40
0.7912346134333251
 40
0.860335976291798
 40
0.929924429055835
 40
1.0
 40
1.0
 40
1.0
 40
1.0
 10
96.57354229845186
 20
194.2456922294493
 30
0.0
 10
96.61970335322383
 20
194.1981868211165
 30
0.0
 10
96.71238061081857
 20
194.1028105133835
 30
0.0
 10
96.84264041040382
 20
193.9506098167644
 30
0.0
 10
96.96655697849187
 20
193.7913368424166
 30
0.0
 10
97.08298726057984
 20
193.6246095857135
 30
0.0
 10
97.19161438312169
 20
193.4508999671374
 30
0.0
 10
97.29190713002308
 20
193.2704914359
 30
0.0
 10
97.3834046155044
 20
193.0837618466595
 30
0.0
 10
97.46564263649881
 20
192.891107016365
 30
0.0
 10
97.53817453616598
 20
192.6929614648477
 30
0.0
 10
97.60057663108785
 20
192.489792629582
 30
0.0
 10
97.65241981444113
 20
192.2821020574337
 30
0.0
 10
97.69339401549787
 20
192.0704245057516
 30
0.0
 10
97.72284947757936
 20
191.8553273246271
 30
0.0
 10
97.74153970173052
 20
191.6374097496993
 30
0.0
 10
97.74387853490487
 20
191.4911807087763
 30
0.0
 10
97.74505203016645
 20
191.4178111805383
 30
0.0
  0
SPLINE
  5
19B
330
1F
100
AcDbEntity
  8
0
  6
SLD-実線
 62
     7
370
    18
100
AcDbSpline
210
0.0
220
0.0
230
1.0
 70
     8
 71
     3
 72
    23
 73
    19
 74
     0
 42
0.000000001
 43
0.00000001
 40
0.0
 40
0.0
 40
0.0
 40
0.0
 40
0.0657102124237639
 40
0.1309922784952671
 40
0.1958462217134333
 40
0.2602720660943953
 40
0.3242698361849929
 40
0.38783955707671
 40
0.4509812544200906
 40
0.513694954439635
 40
0.5759806839492191
 40
0.6378384703680389
 40
0.6992683417370905
 40
0.7602703267362646
 40
0.8208444547019924
 40
0.8809907556455654
 40
0.9407092602720637
 40
1.0
 40
1.0
 40
1.0
 40
1.0
 10
93.74566124954087
 20
195.4172019611639
 30
0.0
 10
93.81446013021696
 20
195.4161696279742
 30
0.0
 10
93.95160962046006
 20
195.4141116879419
 30
0.0
 10
94.15611606361854
 20
195.3976650922929
 30
0.0
 10
94.35821141411732
 20
195.3717232048247
 30
0.0
 10
94.5573979115003
 20
195.3356004407604
 30
0.0
 10
94.75320230264292
 20
195.2898437296344
 30
0.0
 10
94.94517633136438
 20
195.2346985843778
 30
0.0
 10
95.132897336955
 20
195.170513707688
 30
0.0
 10
95.31596855112053
 20
195.0976312129975
 30
0.0
 10
95.49401974868566
 20
195.0164137595101
 30
0.0
 10
95.66670608864578
 20
194.9272338378703
 30
0.0
 10
95.83371309888648
 20
194.8304789441283
 30
0.0
 10
95.99473847115686
 20
194.7265311659887
 30
0.0
 10
96.14955902227508
 20
194.6158327512174
 30
0.0
 10
96.29778269853844
 20
194.4986367018022
 30
0.0
 10
96.43976316757723
 20
194.3759200799705
 30
0.0
 10
96.52905623935018
 20
194.288997368428
 30
0.0
 10
96.57354229845186
 20
194.2456922294493
 30
0.0
  0
SPLINE
  5
19C
330
1F
100
AcDbEntity
  8
0
  6
SLD-実線
 62
     7
370
    18
100
AcDbSpline
210
0.0
220
0.0
230
1.0
 70
     8
 71
     3
 72
    14
 73
    10
 74
     0
 42
0.000000001
 43
0.00000001
 40
0.0
 40
0.0
 40
0.0
 40
0.0
 40
0.25
 40
0.25
 40
0.5
 40
0.5
 40
0.75
 40
0.75
 40
1.0
 40
1.0
 40
1.0
 40
1.0
 10
53.54889891552693
 20
185.1767124123222
 30
0.0
 10
53.54895375901078
 20
185.3664548175018
 30
0.0
 10
53.58544117829059
 20
185.5561320525409
 30
0.0
 10
53.7261363726607
 20
185.9086113300595
 30
0.0
 10
53.83029582367933
 20
186.0712923077512
 30
0.0
 10
54.09155175192552
 20
186.3465986125489
 30
0.0
 10
54.24855849652035
 20
186.4591293811899
 30
0.0
 10
54.5931912959033
 20
186.6180790977307
 30
0.0
 10
54.78069898090503
 20
186.6644434517438
 30
0.0
 10
54.97017848042651
 20
186.6744285702815
 30
0.0
  0
SPLINE
  5
19D
330
1F
100
AcDbEntity
  8
0
  6
SLD-実線
 62
     7
370
    18
100
AcDbSpline
210
0.0
220
0.0
230
1.0
 70
     8
 71
     3
 72
    14
 73
    10
 74
     0
 42
0.000000001
 43
0.00000001
 40
0.0
 40
0.0
 40
0.0
 40
0.0
 40
0.25
 40
0.25
 40
0.5
 40
0.5
 40
0.75
 40
0.75
 40
1.0
 40
1.0
 40
1.0
 40
1.0
 10
97.74505203016648
 20
161.4615383953661
 30
0.0
 10
97.74499718668257
 20
161.2717959901865
 30
0.0
 10
97.70850976740277
 20
161.0821187551475
 30
0.0
 10
97.56781457303265
 20
160.7296394776288
 30
0.0
 10
97.46365512201403
 20
160.5669584999372
 30
0.0
 10
97.20239919376783
 20
160.2916521951395
 30
0.0
 10
97.045392449173
 20
160.1791214264985
 30
0.0
 10
96.70075964979006
 20
160.0201717099577
 30
0.0
 10
96.51325196478832
 20
159.9738073559446
 30
0.0
 10
96.3237724652668
 20
159.9638222374069
 30
0.0
  0
SPLINE
  5
19E
330
1F
100
AcDbEntity
  8
0
  6
SLD-実線
 62
     7
370
    18
100
AcDbSpline
210
0.0
220
0.0
230
1.0
 70
     8
 71
     3
 72
    14
 73
    10
 74
     0
 42
0.000000001
 43
0.00000001
 40
0.0
 40
0.0
 40
0.0
 40
0.0
 40
0.25
 40
0.25
 40
0.5
 40
0.5
 40
0.75
 40
0.75
 40
1.0
 40
1.0
 40
1.0
 40
1.0
 10
89.00227863928436
 20
152.6423284114239
 30
0.0
 10
88.99229352074668
 20
152.4528489119024
 30
0.0
 10
88.94592916673362
 20
152.2653412269007
 30
0.0
 10
88.78697945019282
 20
151.9207084275177
 30
0.0
 10
88.67444868155178
 20
151.7637016829229
 30
0.0
 10
88.3991423767541
 20
151.5024457546767
 30
0.0
 10
88.23646139906245
 20
151.3982863036581
 30
0.0
 10
87.8839821215438
 20
151.257591109288
 30
0.0
 10
87.69430488650474
 20
151.2211036900082
 30
0.0
 10
87.50456248132517
 20
151.2210488465243
 30
0.0
  0
SPLINE
  5
19F
330
1F
100
AcDbEntity
  8
0
  6
SLD-実線
 62
     7
370
    18
100
AcDbSpline
210
0.0
220
0.0
230
1.0
 70
     8
 71
     3
 72
    14
 73
    10
 74
     0
 42
0.000000001
 43
0.00000001
 40
0.0
 40
0.0
 40
0.0
 40
0.0
 40
0.25
 40
0.25
 40
0.5
 40
0.5
 40
0.75
 40
0.75
 40
1.0
 40
1.0
 40
1.0
 40
1.0
 10
62.29167230640935
 20
193.9959223962643
 30
0.0
 10
62.30165742494702
 20
194.1854018957858
 30
0.0
 10
62.3480217789601
 20
194.3729095807875
 30
0.0
 10
62.5069714955009
 20
194.7175423801705
 30
0.0
 10
62.61950226414194
 20
194.8745491247653
 30
0.0
 10
62.89480856893962
 20
195.1358050530115
 30
0.0
 10
63.05748954663125
 20
195.2399645040301
 30
0.0
 10
63.40996882414991
 20
195.3806596984003
 30
0.0
 10
63.59964605918896
 20
195.4171471176801
 30
0.0
 10
63.78938846436854
 20
195.4172019611639
 30
0.0
  0
ARC
  5
1A0
330
1F
100
AcDbEntity
  8
0
  6
SLD-実線
 62
     7
370
    18
100
AcDbCircle
 10
76.1469907022
 20
151.2210336149
 30
0.0
 40
0.1999847712555934
100
AcDbArc
 50
0.004363877
 51
90.0043632123
  0
LINE
  5
1A1
330
1F
100
AcDbEntity
  8
0
  6
SLD-実線
 62
     7
370
    18
100
AcDbLine
 10
76.1469754728
 20
151.4210183856
 30
0.0
 11
76.1469754728
 21
152.7208203893
 31
0.0
  0
ARC
  5
1A2
330
1F
100
AcDbEntity
  8
0
  6
SLD-実線
 62
     7
370
    18
100
AcDbCircle
 10
75.1469602435
 20
151.2210336149
 30
0.0
 40
0.1999847712555873
100
AcDbArc
 50
89.9956367877
 51
179.995636123
  0
LINE
  5
1A3
330
1F
100
AcDbEntity
  8
0
  6
SLD-実線
 62
     7
370
    18
100
AcDbLine
 10
75.1469754728
 20
152.7208203893
 30
0.0
 11
75.1469754728
 21
151.4210183856
 31
0.0
  0
ARC
  5
1A4
330
1F
100
AcDbEntity
  8
0
  6
SLD-実線
 62
     7
370
    18
100
AcDbCircle
 10
75.1469602435
 20
195.4172171928
 30
0.0
 40
0.1999847712555366
100
AcDbArc
 50
180.004363877
 51
270.0043632123
  0
LINE
  5
1A5
330
1F
100
AcDbEntity
  8
0
  6
SLD-実線
 62
     7
370
    18
100
AcDbLine
 10
75.1469754728
 20
195.2172324221
 30
0.0
 11
75.1469754728
 21
193.9174304184
 31
0.0
  0
ARC
  5
1A6
330
1F
100
AcDbEntity
  8
0
  6
SLD-実線
 62
     7
370
    18
100
AcDbCircle
 10
53.5488836839
 20
172.8191101745
 30
0.0
 40
0.1999847712555162
100
AcDbArc
 50
270.004363877
 51
0.0043632123
  0
LINE
  5
1A7
330
1F
100
AcDbEntity
  8
0
  6
SLD-実線
 62
     7
370
    18
100
AcDbLine
 10
53.7488684546
 20
172.8191254038
 30
0.0
 11
55.0486704583
 21
172.8191254038
 31
0.0
  0
LINE
  5
1A8
330
1F
100
AcDbEntity
  8
0
  6
SLD-実線
 62
     7
370
    18
100
AcDbLine
 10
55.0486704583
 20
173.8191254038
 30
0.0
 11
53.7488684546
 21
173.8191254038
 31
0.0
  0
ARC
  5
1A9
330
1F
100
AcDbEntity
  8
0
  6
SLD-実線
 62
     7
370
    18
100
AcDbCircle
 10
53.5488836839
 20
173.8191406332
 30
0.0
 40
0.1999847712555659
100
AcDbArc
 50
359.9956367877
 51
89.995636123
  0
ARC
  5
1AA
330
1F
100
AcDbEntity
  8
0
  6
SLD-実線
 62
     7
370
    18
100
AcDbCircle
 10
76.1469907022
 20
195.4172171928
 30
0.0
 40
0.1999847712556157
100
AcDbArc
 50
269.9956367877
 51
359.995636123
  0
LINE
  5
1AB
330
1F
100
AcDbEntity
  8
0
  6
SLD-実線
 62
     7
370
    18
100
AcDbLine
 10
76.1469754728
 20
193.9174304184
 30
0.0
 11
76.1469754728
 21
195.2172324221
 31
0.0
  0
LINE
  5
1AC
330
1F
100
AcDbEntity
  8
0
  6
SLD-実線
 62
     7
370
    18
100
AcDbLine
 10
76.1469754728
 20
152.7208203893
 30
0.0
 11
75.1469754728
 21
152.7208203893
 31
0.0
  0
LINE
  5
1AD
330
1F
100
AcDbEntity
  8
0
  6
SLD-実線
 62
     7
370
    18
100
AcDbLine
 10
75.1469754728
 20
193.9174304184
 30
0.0
 11
76.1469754728
 21
193.9174304184
 31
0.0
  0
LINE
  5
1AE
330
1F
100
AcDbEntity
  8
0
  6
SLD-実線
 62
     7
370
    18
100
AcDbLine
 10
96.2453312622
 20
173.8191254038
 30
0.0
 11
96.2453312622
 21
172.8191254038
 31
0.0
  0
LINE
  5
1AF
330
1F
100
AcDbEntity
  8
0
  6
SLD-実線
 62
     7
370
    18
100
AcDbLine
 10
55.0486704583
 20
172.8191254038
 30
0.0
 11
55.0486704583
 21
173.8191254038
 31
0.0
  0
LINE
  5
1B0
330
1F
100
AcDbEntity
  8
0
  6
SLD-実線
 62
     7
370
    18
100
AcDbLine
 10
97.5451332659
 20
172.8191254038
 30
0.0
 11
97.5451332659
 21
173.8191254038
 31
0.0
  0
LINE
  5
1B1
330
1F
100
AcDbEntity
  8
0
  6
SLD-実線
 62
     7
370
    18
100
AcDbLine
 10
76.1469754728
 20
195.2172324221
 30
0.0
 11
75.1469754728
 21
195.2172324221
 31
0.0
  0
LINE
  5
1B2
330
1F
100
AcDbEntity
  8
0
  6
SLD-実線
 62
     7
370
    18
100
AcDbLine
 10
53.7488684546
 20
172.8191254038
 30
0.0
 11
53.7488684546
 21
173.8191254038
 31
0.0
  0
LINE
  5
1B3
330
1F
100
AcDbEntity
  8
0
  6
SLD-実線
 62
     7
370
    18
100
AcDbLine
 10
76.1469754728
 20
151.4210183856
 30
0.0
 11
75.1469754728
 21
151.4210183856
 31
0.0
  0
LINE
  5
1B4
330
1F
100
AcDbEntity
  8
0
  6
SLD-実線
 62
     7
370
    18
100
AcDbLine
 10
94.1475846922
 20
195.8191254038
 30
0.0
 11
93.7456612495
 21
195.4172019612
 31
0.0
  0
SPLINE
  5
1B5
330
1F
100
AcDbEntity
  8
0
  6
SLD-実線
 62
     7
370
    18
100
AcDbSpline
210
0.0
220
0.0
230
1.0
 70
     8
 71
     3
 72
    31
 73
    27
 74
     0
 42
0.000000001
 43
0.00000001
 40
0.0
 40
0.0
 40
0.0
 40
0.0
 40
0.0328617967588429
 40
0.0655091590456773
 40
0.097942118372175
 40
0.1301607069034761
 40
0.162164957475441
 40
0.1939549036124788
 40
0.2255305795459676
 40
0.2568920202333014
 40
0.2880392613775841
 40
0.3189723394479955
 40
0.3496912917008585
 40
0.3801961562014358
 40
0.4104869718464875
 40
0.4405637783876238
 40
0.4704266164554753
 40
0.5000755275847343
 40
0.559569303533144
 40
0.6199187342788736
 40
0.681124121055588
 40
0.7431857511190405
 40
0.8061038984829337
 40
0.8698788246059679
 40
0.9345107790338874
 40
0.9999999999999999
 40
0.9999999999999999
 40
0.9999999999999999
 40
0.9999999999999999
 10
98.14697547284673
 20
191.8197346232186
 30
0.0
 10
98.14595088418785
 20
191.8885409776433
 30
0.0
 10
98.1439083926618
 20
192.0257047014788
 30
0.0
 10
98.12748326649853
 20
192.2302324002323
 30
0.0
 10
98.10156145709773
 20
192.4323475214533
 30
0.0
 10
98.06545728549877
 20
192.6315523796919
 30
0.0
 10
98.01971769225514
 20
192.8273737006473
 30
0.0
 10
97.96458818321152
 20
193.0193632367655
 30
0.0
 10
97.9004174385406
 20
193.2070983080111
 30
0.0
 10
97.82754762568078
 20
193.3901822042177
 30
0.0
 10
97.74634117257547
 20
193.5682444752635
 30
0.0
 10
97.65717139474054
 20
193.7409410964476
 30
0.0
 10
97.56042271383414
 20
193.9079545638809
 30
0.0
 10
97.45648854628219
 20
194.068993747143
 30
0.0
 10
97.34576927956306
 20
194.2237941622766
 30
0.0
 10
97.22867247168635
 20
194.3721162436012
 30
0.0
 10
97.10560447953972
 20
194.5137505833737
 30
0.0
 10
96.93353148749534
 20
194.6940333857405
 30
0.0
 10
96.70176302103644
 20
194.9050952604622
 30
0.0
 10
96.39831487336235
 20
195.1331520179832
 30
0.0
 10
96.06988501964267
 20
195.3340805328943
 30
0.0
 10
95.71871176975556
 20
195.5046177046219
 30
0.0
 10
95.34743849073011
 20
195.6419918860627
 30
0.0
 10
94.95913641120673
 20
195.7423805131199
 30
0.0
 10
94.55729148741366
 20
195.8069611631309
 30
0.0
 10
94.2847521400713
 20
195.815052886929
 30
0.0
 10
94.14758469222113
 20
195.8191254038442
 30
0.0
  0
LINE
  5
1B6
330
1F
100
AcDbEntity
  8
0
  6
SLD-実線
 62
     7
370
    18
100
AcDbLine
 10
98.1469754728
 20
191.8197346232
 30
0.0
 11
97.7450520302
 21
191.4178111805
 31
0.0
  0
LINE
  5
1B7
330
1F
100
AcDbEntity
  8
0
  6
SLD-実線
 62
     7
370
    18
100
AcDbLine
 10
57.1463662535
 20
150.8191254038
 30
0.0
 11
57.5482896962
 21
151.2210488465
 31
0.0
  0
SPLINE
  5
1B8
330
1F
100
AcDbEntity
  8
0
  6
SLD-実線
 62
     7
370
    18
100
AcDbSpline
210
0.0
220
0.0
230
1.0
 70
     8
 71
     3
 72
    31
 73
    27
 74
     0
 42
0.000000001
 43
0.00000001
 40
0.0
 40
0.0
 40
0.0
 40
0.0
 40
0.0328614859120122
 40
0.0655085787918907
 40
0.0979413101532014
 40
0.1301597121628858
 40
0.1621638176585057
 40
0.1939536601660628
 40
0.2255292739184173
 40
0.2568906938743282
 40
0.2880379557381351
 40
0.3189710959801196
 40
0.3496901518575678
 40
0.3801951614365542
 40
0.4104861636144956
 40
0.4405631981434835
 40
0.4704263056544625
 40
0.5000755276822452
 40
0.5595693036160694
 40
0.6199187343478983
 40
0.681124121111397
 40
0.7431857511623174
 40
0.8061038985143651
 40
0.8698788246262367
 40
0.9345107790436805
 40
1.0
 40
1.0
 40
1.0
 40
1.0
 10
53.14697547284665
 20
154.8185161844696
 30
0.0
 10
53.14800004200609
 20
154.7497104810306
 30
0.0
 10
53.1500424958893
 20
154.6125479723988
 30
0.0
 10
53.16646733741607
 20
154.4080219517253
 30
0.0
 10
53.19238874502492
 20
154.2059082238292
 30
0.0
 10
53.22849242477706
 20
154.0067044686658
 30
0.0
 10
53.27423148215594
 20
153.8108839593439
 30
0.0
 10
53.3293604519039
 20
153.6188949463519
 30
0.0
 10
53.39353069428765
 20
153.4311601166043
 30
0.0
 10
53.46640008057479
 20
153.2480761908854
 30
0.0
 10
53.54760621981038
 20
153.0700136334526
 30
0.0
 10
53.63677583144204
 20
152.8973164864235
 30
0.0
 10
53.73352452654294
 20
152.7303022741363
 30
0.0
 10
53.83745891899015
 20
152.5692621502347
 30
0.0
 10
53.94817864901415
 20
152.414460624408
 30
0.0
 10
54.06527618356862
 20
152.2661372903093
 30
0.0
 10
54.1883451879153
 20
152.1245015855984
 30
0.0
 10
54.36041897642234
 20
151.9442178606892
 30
0.0
 10
54.59218792455919
 20
151.7331555473119
 30
0.0
 10
54.89563607232928
 20
151.505098789702
 30
0.0
 10
55.22406592601066
 20
151.304170274818
 30
0.0
 10
55.57523917590168
 20
151.1336331030809
 30
0.0
 10
55.946512454926
 20
150.9962589216372
 30
0.0
 10
56.33481453445688
 20
150.8958702945741
 30
0.0
 10
56.73665945826269
 20
150.8312896445583
 30
0.0
 10
57.00919880561579
 20
150.8231979207596
 30
0.0
 10
57.14636625347221
 20
150.819125403844
 30
0.0
  0
LINE
  5
1B9
330
1F
100
AcDbEntity
  8
0
  6
SLD-実線
 62
     7
370
    18
100
AcDbLine
 10
53.1469754728
 20
154.8185161845
 30
0.0
 11
53.5488989155
 21
155.2204396271
 31
0.0
  0
LINE
  5
1BA
330
1F
100
AcDbEntity
  8
0
  6
SLD-実線
 62
     7
370
    18
100
AcDbLine
 10
62.0328365629
 20
194.2686783585
 30
0.0
 11
62.2916723064
 21
193.9959223963
 31
0.0
  0
SPLINE
  5
1BB
330
1F
100
AcDbEntity
  8
0
  6
SLD-実線
 62
     7
370
    18
100
AcDbSpline
210
0.0
220
0.0
230
1.0
 70
     8
 71
     3
 72
    16
 73
    12
 74
     0
 42
0.000000001
 43
0.00000001
 40
0.0
 40
0.0
 40
0.0
 40
0.0
 40
0.084174678428916
 40
0.1674221851446386
 40
0.2501908643459237
 40
0.3329368439197714
 40
0.4161166251836915
 40
0.500179642516883
 40
0.667129011421211
 40
0.8325170897642155
 40
1.0
 40
1.0
 40
1.0
 40
1.0
 10
62.0328365629104
 20
194.2686783584758
 30
0.0
 10
62.03555197358776
 20
194.3056379169585
 30
0.0
 10
62.04095288509289
 20
194.3791499298187
 30
0.0
 10
62.05906283945829
 20
194.4879026460488
 30
0.0
 10
62.08448339224393
 20
194.5944662515402
 30
0.0
 10
62.1179061544437
 20
194.6987968641709
 30
0.0
 10
62.15916163618707
 20
194.8008861078445
 30
0.0
 10
62.22405476221446
 20
194.9330041824355
 30
0.0
 10
62.32248172723406
 20
195.0882295819702
 30
0.0
 10
62.46585989534193
 20
195.2566293662387
 30
0.0
 10
62.58007309000235
 20
195.3487823053257
 30
0.0
 10
62.6375390719755
 20
195.3951487444406
 30
0.0
  0
SPLINE
  5
1BC
330
1F
100
AcDbEntity
  8
0
  6
SLD-実線
 62
     7
370
    18
100
AcDbSpline
210
0.0
220
0.0
230
1.0
 70
     8
 71
     3
 72
    16
 73
    12
 74
     0
 42
0.000000001
 43
0.00000001
 40
0.0
 40
0.0
 40
0.0
 40
0.0
 40
0.128411235797046
 40
0.2426004943287546
 40
0.3425783330337199
 40
0.4283616137647808
 40
0.4999783297867521
 40
0.6337262092559093
 40
0.7495118506225357
 40
0.8794812540354785
 40
1.0
 40
1.0
 40
1.0
 40
1.0
 10
63.52567017517649
 20
195.6951030529876
 30
0.0
 10
63.48642517065847
 20
195.6939035240441
 30
0.0
 10
63.41228167817585
 20
195.6916373180314
 30
0.0
 10
63.30771409790123
 20
195.67830337821
 30
0.0
 10
63.21664575981992
 20
195.6609725951523
 30
0.0
 10
63.13900282212952
 20
195.6413861712832
 30
0.0
 10
63.05157972431148
 20
195.6147353159351
 30
0.0
 10
62.95579386726188
 20
195.5787210602484
 30
0.0
 10
62.8446621998951
 20
195.5263536535703
 30
0.0
 10
62.73907628087803
 20
195.4668942703016
 30
0.0
 10
62.67052265594474
 20
195.4184547285447
 30
0.0
 10
62.63753907197553
 20
195.3951487444407
 30
0.0
  0
LINE
  5
1BD
330
1F
100
AcDbEntity
  8
0
  6
SLD-実線
 62
     7
370
    18
100
AcDbLine
 10
63.5256701752
 20
195.695103053
 30
0.0
 11
63.7893884644
 21
195.4172019612
 31
0.0
  0
LINE
  5
1BE
330
1F
100
AcDbEntity
  8
0
  6
SLD-実線
 62
     7
370
    18
100
AcDbLine
 10
53.5488989155
 20
185.1767124123
 30
0.0
 11
53.2709978237
 21
185.4404307015
 31
0.0
  0
SPLINE
  5
1BF
330
1F
100
AcDbEntity
  8
0
  6
SLD-実線
 62
     7
370
    18
100
AcDbSpline
210
0.0
220
0.0
230
1.0
 70
     8
 71
     3
 72
    15
 73
    11
 74
     0
 42
0.000000001
 43
0.00000001
 40
0.0
 40
0.0
 40
0.0
 40
0.0
 40
0.1286715656768535
 40
0.2430221081516669
 40
0.3430531547723203
 40
0.4287679379314115
 40
0.5001726265805394
 40
0.690739887900574
 40
0.8571712215246422
 40
1.0
 40
1.0
 40
1.0
 40
1.0
 10
53.27099782370326
 20
185.4404307015143
 30
0.0
 10
53.2722043137889
 20
185.4796908161563
 30
0.0
 10
53.27448301275823
 20
185.5538414319228
 30
0.0
 10
53.28791610714993
 20
185.6582534543311
 30
0.0
 10
53.30529516170238
 20
185.7493544077527
 30
0.0
 10
53.32482661073482
 20
185.8271457816372
 30
0.0
 10
53.35651592664603
 20
185.9317590354288
 30
0.0
 10
53.40750502066675
 20
186.0589930602926
 30
0.0
 10
53.48425378425176
 20
186.2043531274358
 30
0.0
 10
53.54356145887017
 20
186.2893204651873
 30
0.0
 10
53.57095213225013
 20
186.3285618047153
 30
0.0
  0
SPLINE
  5
1C0
330
1F
100
AcDbEntity
  8
0
  6
SLD-実線
 62
     7
370
    18
100
AcDbSpline
210
0.0
220
0.0
230
1.0
 70
     8
 71
     3
 72
    18
 73
    14
 74
     0
 42
0.000000001
 43
0.00000001
 40
0.0
 40
0.0
 40
0.0
 40
0.0
 40
0.0949700581388934
 40
0.1891271497001357
 40
0.2824715180399804
 40
0.3750034133458317
 40
0.4667230928726016
 40
0.557630821189487
 40
0.6477268704376222
 40
0.7370115205992397
 40
0.8254850597789173
 40
0.9131477844975889
 40
1.0
 40
1.0
 40
1.0
 40
1.0
 10
54.69742251821504
 20
186.9332643137803
 30
0.0
 10
54.65571991630895
 20
186.9300681748888
 30
0.0
 10
54.5726716968159
 20
186.9237032568248
 30
0.0
 10
54.45018596832168
 20
186.901147285567
 30
0.0
 10
54.33093083671273
 20
186.8695817327433
 30
0.0
 10
54.21569221314347
 20
186.8285387420313
 30
0.0
 10
54.10513469741135
 20
186.7787843773726
 30
0.0
 10
53.99987221927822
 20
186.720816844145
 30
0.0
 10
53.90046690003104
 20
186.6552403580388
 30
0.0
 10
53.80735561296633
 20
186.582711416912
 30
0.0
 10
53.72113573682544
 20
186.5037469727839
 30
0.0
 10
53.64150775170136
 20
186.4194948626173
 30
0.0
 10
53.59439774020544
 20
186.3587788284241
 30
0.0
 10
53.57095213225016
 20
186.3285618047153
 30
0.0
  0
LINE
  5
1C1
330
1F
100
AcDbEntity
  8
0
  6
SLD-実線
 62
     7
370
    18
100
AcDbLine
 10
54.9701784804
 20
186.6744285703
 30
0.0
 11
54.6974225182
 21
186.9332643138
 31
0.0
  0
LINE
  5
1C2
330
1F
100
AcDbEntity
  8
0
  6
SLD-実線
 62
     7
370
    18
100
AcDbLine
 10
97.7450520302
 20
161.4615383954
 30
0.0
 11
98.022953122
 21
161.1978201062
 31
0.0
  0
SPLINE
  5
1C3
330
1F
100
AcDbEntity
  8
0
  6
SLD-実線
 62
     7
370
    18
100
AcDbSpline
210
0.0
220
0.0
230
1.0
 70
     8
 71
     3
 72
    15
 73
    11
 74
     0
 42
0.000000001
 43
0.00000001
 40
0.0
 40
0.0
 40
0.0
 40
0.0
 40
0.1286715300489823
 40
0.2430220408508678
 40
0.3430530597530923
 40
0.4287678191473356
 40
0.500172487983415
 40
0.690771536384494
 40
0.8572028238907323
 40
1.0
 40
1.0
 40
1.0
 40
1.0
 10
98.02295312199017
 20
161.197820106174
 30
0.0
 10
98.02174663180942
 20
161.1585599916009
 30
0.0
 10
98.01946793266073
 20
161.0844093759677
 30
0.0
 10
98.00603483943799
 20
160.9799973525982
 30
0.0
 10
97.98865578123232
 20
160.8888964021288
 30
0.0
 10
97.96912434302509
 20
160.8111050195019
 30
0.0
 10
97.93743207523765
 20
160.7064822259661
 30
0.0
 10
97.8864382225594
 20
160.5792385568926
 30
0.0
 10
97.8096894750988
 20
160.4338772561648
 30
0.0
 10
97.75038483005723
 20
160.3489206976011
 30
0.0
 10
97.72299881344321
 20
160.3096890029731
 30
0.0
  0
SPLINE
  5
1C4
330
1F
100
AcDbEntity
  8
0
  6
SLD-実線
 62
     7
370
    18
100
AcDbSpline
210
0.0
220
0.0
230
1.0
 70
     8
 71
     3
 72
    18
 73
    14
 74
     0
 42
0.000000001
 43
0.00000001
 40
0.0
 40
0.0
 40
0.0
 40
0.0
 40
0.094970058130978
 40
0.1891271496858777
 40
0.2824715180209753
 40
0.3750034133236568
 40
0.4667230928488426
 40
0.5576308211657264
 40
0.6477268704154464
 40
0.7370115205802322
 40
0.8254850597646618
 40
0.9131477844896695
 40
1.0
 40
1.0
 40
1.0
 40
1.0
 10
96.59652842747826
 20
159.704986493908
 30
0.0
 10
96.63823102938093
 20
159.7081826327992
 30
0.0
 10
96.72127924886773
 20
159.7145475508625
 30
0.0
 10
96.84376497735389
 20
159.7371035221176
 30
0.0
 10
96.96302010895722
 20
159.7686690749379
 30
0.0
 10
97.07825873252328
 20
159.8097120656465
 30
0.0
 10
97.1888162482545
 20
159.8594664303021
 30
0.0
 10
97.29407872638883
 20
159.9174339635275
 30
0.0
 10
97.3934840456391
 20
159.9830104496328
 30
0.0
 10
97.48659533270843
 20
160.0555393907605
 30
0.0
 10
97.57281520885512
 20
160.1345038348916
 30
0.0
 10
97.65244319398582
 20
160.2187559450635
 30
0.0
 10
97.6995532054857
 20
160.2794719792616
 30
0.0
 10
97.72299881344321
 20
160.3096890029731
 30
0.0
  0
LINE
  5
1C5
330
1F
100
AcDbEntity
  8
0
  6
SLD-実線
 62
     7
370
    18
100
AcDbLine
 10
96.3237724653
 20
159.9638222374
 30
0.0
 11
96.5965284275
 21
159.7049864939
 31
0.0
  0
LINE
  5
1C6
330
1F
100
AcDbEntity
  8
0
  6
SLD-実線
 62
     7
370
    18
100
AcDbLine
 10
89.2611143828
 20
152.3695724492
 30
0.0
 11
89.0022786393
 21
152.6423284114
 31
0.0
  0
SPLINE
  5
1C7
330
1F
100
AcDbEntity
  8
0
  6
SLD-実線
 62
     7
370
    18
100
AcDbSpline
210
0.0
220
0.0
230
1.0
 70
     8
 71
     3
 72
    16
 73
    12
 74
     0
 42
0.000000001
 43
0.00000001
 40
0.0
 40
0.0
 40
0.0
 40
0.0
 40
0.0841746784291517
 40
0.1674221851450144
 40
0.2501908643463477
 40
0.3329368439201483
 40
0.4161166251839337
 40
0.5001796425169059
 40
0.6671290114215795
 40
0.8325170897645832
 40
1.0
 40
1.0
 40
1.0
 40
1.0
 10
89.26111438278325
 20
152.3695724492124
 30
0.0
 10
89.25839897210588
 20
152.3326128907296
 30
0.0
 10
89.25299806060075
 20
152.2591008778692
 30
0.0
 10
89.23488810623533
 20
152.1503481616389
 30
0.0
 10
89.20946755344968
 20
152.0437845561475
 30
0.0
 10
89.17604479124994
 20
151.9394539435168
 30
0.0
 10
89.13478930950657
 20
151.8373646998434
 30
0.0
 10
89.06989618347902
 20
151.7052466252524
 30
0.0
 10
88.97146921845925
 20
151.5500212257179
 30
0.0
 10
88.82809105035145
 20
151.3816214414493
 30
0.0
 10
88.71387785569115
 20
151.2894685023624
 30
0.0
 10
88.65641187371814
 20
151.2431020632475
 30
0.0
  0
LINE
  5
1C8
330
1F
100
AcDbEntity
  8
0
  6
SLD-実線
 62
     7
370
    18
100
AcDbLine
 10
87.7682807705
 20
150.9431477547
 30
0.0
 11
87.5045624813
 21
151.2210488465
 31
0.0
  0
SPLINE
  5
1C9
330
1F
100
AcDbEntity
  8
0
  6
SLD-実線
 62
     7
370
    18
100
AcDbSpline
210
0.0
220
0.0
230
1.0
 70
     8
 71
     3
 72
    16
 73
    12
 74
     0
 42
0.000000001
 43
0.00000001
 40
0.0
 40
0.0
 40
0.0
 40
0.0
 40
0.1284117235705735
 40
0.2426012262687408
 40
0.3425790651600625
 40
0.428362101706069
 40
0.4999783288551499
 40
0.6337262086437869
 40
0.7495118501562181
 40
0.8794812538565332
 40
1.0
 40
1.0
 40
1.0
 40
1.0
 10
87.76828077051722
 20
150.9431477547006
 30
0.0
 10
87.80752592951633
 20
150.9443472915369
 30
0.0
 10
87.88166965591111
 20
150.94661351069
 30
0.0
 10
87.98623746083739
 20
150.9599475219912
 30
0.0
 10
88.07730579097046
 20
150.9772783475626
 30
0.0
 10
88.15494849525236
 20
150.9968647450859
 30
0.0
 10
88.2423713651435
 20
151.0235155461005
 30
0.0
 10
88.33815707904978
 20
151.059529747589
 30
0.0
 10
88.44928874566115
 20
151.1118971540952
 30
0.0
 10
88.55487466487061
 20
151.1713565374047
 30
0.0
 10
88.6234282897752
 20
151.2197960791553
 30
0.0
 10
88.65641187371817
 20
151.2431020632475
 30
0.0
  0
LINE
  5
1CA
330
1F
100
AcDbEntity
  8
0
  6
SLD-実線
 62
     7
370
    18
100
AcDbLine
 10
54.6974225182
 20
186.9332643138
 30
0.0
 11
58.3406185109
 21
187.1241961253
 31
0.0
  0
LINE
  5
1CB
330
1F
100
AcDbEntity
  8
0
  6
SLD-実線
 62
     7
370
    18
100
AcDbLine
 10
58.3406185109
 20
187.1241961253
 30
0.0
 11
58.354893455
 21
186.8518139656
 31
0.0
  0
LINE
  5
1CC
330
1F
100
AcDbEntity
  8
0
  6
SLD-実線
 62
     7
370
    18
100
AcDbLine
 10
96.5965284275
 20
159.7049864939
 30
0.0
 11
92.9533324347
 21
159.5140546824
 31
0.0
  0
LINE
  5
1CD
330
1F
100
AcDbEntity
  8
0
  6
SLD-実線
 62
     7
370
    18
100
AcDbLine
 10
92.9533324347
 20
159.5140546824
 30
0.0
 11
92.9390574906
 21
159.7864368421
 31
0.0
  0
LINE
  5
1CE
330
1F
100
AcDbEntity
  8
0
  6
SLD-実線
 62
     7
370
    18
100
AcDbLine
 10
89.1796640346
 20
156.027043386
 30
0.0
 11
89.4520461943
 21
156.0127684419
 31
0.0
  0
LINE
  5
1CF
330
1F
100
AcDbEntity
  8
0
  6
SLD-実線
 62
     7
370
    18
100
AcDbLine
 10
89.4520461943
 20
156.0127684419
 30
0.0
 11
89.2611143828
 21
152.3695724492
 31
0.0
  0
LINE
  5
1D0
330
1F
100
AcDbEntity
  8
0
  6
SLD-実線
 62
     7
370
    18
100
AcDbLine
 10
62.1142869111
 20
190.6112074216
 30
0.0
 11
61.8419047514
 21
190.6254823657
 31
0.0
  0
LINE
  5
1D1
330
1F
100
AcDbEntity
  8
0
  6
SLD-実線
 62
     7
370
    18
100
AcDbLine
 10
61.8419047514
 20
190.6254823657
 30
0.0
 11
62.0328365629
 21
194.2686783585
 31
0.0
  0
LINE
  5
1D2
330
1F
100
AcDbEntity
  8
0
  6
SLD-実線
 62
     7
370
    18
100
AcDbLine
 10
76.3469754728
 20
195.8191254038
 30
0.0
 11
76.3469754728
 21
195.4172019612
 31
0.0
  0
LINE
  5
1D3
330
1F
100
AcDbEntity
  8
0
  6
SLD-実線
 62
     7
370
    18
100
AcDbLine
 10
76.3469754728
 20
195.8191254038
 30
0.0
 11
94.1475846922
 21
195.8191254038
 31
0.0
  0
LINE
  5
1D4
330
1F
100
AcDbEntity
  8
0
  6
SLD-実線
 62
     7
370
    18
100
AcDbLine
 10
74.9469754728
 20
150.8191254038
 30
0.0
 11
74.9469754728
 21
151.2210488465
 31
0.0
  0
LINE
  5
1D5
330
1F
100
AcDbEntity
  8
0
  6
SLD-実線
 62
     7
370
    18
100
AcDbLine
 10
74.9469754728
 20
150.8191254038
 30
0.0
 11
57.1463662535
 21
150.8191254038
 31
0.0
  0
LINE
  5
1D6
330
1F
100
AcDbEntity
  8
0
  6
SLD-実線
 62
     7
370
    18
100
AcDbLine
 10
98.1469754728
 20
191.8197346232
 30
0.0
 11
97.9410930244
 21
183.2463775481
 31
0.0
  0
SPLINE
  5
1D7
330
1F
100
AcDbEntity
  8
0
  6
SLD-実線
 62
     7
370
    18
100
AcDbSpline
210
0.0
220
0.0
230
1.0
 70
     8
 71
     3
 72
    20
 73
    16
 74
     0
 42
0.000000001
 43
0.00000001
 40
0.0
 40
0.0
 40
0.0
 40
0.0
 40
0.0781910887620299
 40
0.1585385995690506
 40
0.2409661372846637
 40
0.3264444651865331
 40
0.4128435204843893
 40
0.4999809248235613
 40
0.5870881230971895
 40
0.6734865223283069
 40
0.7589957058018026
 40
0.8413922955423285
 40
0.9217634083826807
 40
0.9999620015941348
 40
1.0
 40
1.0
 40
1.0
 40
1.0
 10
97.76708243565588
 20
174.0191253974009
 30
0.0
 10
97.7678303618266
 20
174.4064659198096
 30
0.0
 10
97.76934684112831
 20
175.1918293793967
 30
0.0
 10
97.77474328330695
 20
176.355399594443
 30
0.0
 10
97.78262510185019
 20
177.5084697409916
 30
0.0
 10
97.79326241439173
 20
178.6223502649934
 30
0.0
 10
97.80653214768424
 20
179.6681374182115
 30
0.0
 10
97.82215569228849
 20
180.6125812420957
 30
0.0
 10
97.83978183899012
 20
181.4329812431523
 30
0.0
 10
97.85899200083067
 20
182.111868516088
 30
0.0
 10
97.87918616127786
 20
182.632894207154
 30
0.0
 10
97.89985727151563
 20
183.0013323284593
 30
0.0
 10
97.92050724623277
 20
183.1991231273925
 30
0.0
 10
97.93431828284143
 20
183.2787653193827
 30
0.0
 10
97.94110424924735
 20
183.256037107814
 30
0.0
 10
97.9410930244329
 20
183.2463775480553
 30
0.0
  0
LINE
  5
1D8
330
1F
100
AcDbEntity
  8
0
  6
SLD-実線
 62
     7
370
    18
100
AcDbLine
 10
98.022953122
 20
161.1978201062
 30
0.0
 11
98.022953122
 21
155.9423862305
 31
0.0
  0
LINE
  5
1D9
330
1F
100
AcDbEntity
  8
0
  6
SLD-実線
 62
     7
370
    18
100
AcDbLine
 10
97.7669279616
 20
172.6191254103
 30
0.0
 11
97.7450520302
 21
172.6191254103
 31
0.0
  0
SPLINE
  5
1DA
330
1F
100
AcDbEntity
  8
0
  6
SLD-実線
 62
     7
370
    18
100
AcDbSpline
210
0.0
220
0.0
230
1.0
 70
     8
 71
     3
 72
    21
 73
    17
 74
     0
 42
0.000000001
 43
0.00000001
 40
0.0
 40
0.0
 40
0.0
 40
0.0
 40
0.0030724383605693
 40
0.075303596797897
 40
0.1475069793478085
 40
0.2217799773013839
 40
0.2979859604541445
 40
0.3770647092273131
 40
0.4570106044675901
 40
0.5376518252776897
 40
0.6182654420493332
 40
0.6982107478193013
 40
0.7773176840611541
 40
0.8534954137331972
 40
0.9277618643247181
 40
1.0
 40
1.0
 40
1.0
 40
1.0
 10
97.96245346677816
 20
163.3340654202399
 30
0.0
 10
97.96216705581901
 20
163.331071552847
 30
0.0
 10
97.95514729728967
 20
163.2576936827109
 30
0.0
 10
97.9410721051798
 20
163.2430614132575
 30
0.0
 10
97.92037367540105
 20
163.3000791936585
 30
0.0
 10
97.89954734054326
 20
163.5183880457789
 30
0.0
 10
97.87872371392847
 20
163.8877660502691
 30
0.0
 10
97.85838174770238
 20
164.4186708845565
 30
0.0
 10
97.83905008690554
 20
165.1082993584256
 30
0.0
 10
97.82134389373518
 20
165.9422059439609
 30
0.0
 10
97.8056916677948
 20
166.901567572348
 30
0.0
 10
97.79244918754657
 20
167.9630216328445
 30
0.0
 10
97.78190052120286
 20
169.0923427138543
 30
0.0
 10
97.77416307388383
 20
170.2597591580225
 30
0.0
 10
97.76895326574308
 20
171.4358666519159
 30
0.0
 10
97.76759680302017
 20
172.2283631212964
 30
0.0
 10
97.76692796158173
 20
172.6191254102873
 30
0.0
  0
LINE
  5
1DB
330
1F
100
AcDbEntity
  8
0
  6
SLD-実線
 62
     7
370
    18
100
AcDbLine
 10
97.9624534668
 20
163.3340654202
 30
0.0
 11
98.1469754728
 21
155.8183638796
 31
0.0
  0
LINE
  5
1DC
330
1F
100
AcDbEntity
  8
0
  6
SLD-実線
 62
     7
370
    18
100
AcDbLine
 10
98.1469754728
 20
155.8183638796
 30
0.0
 11
98.022953122
 21
155.9423862305
 31
0.0
  0
LINE
  5
1DD
330
1F
100
AcDbEntity
  8
0
  6
SLD-実線
 62
     7
370
    18
100
AcDbLine
 10
93.1477369971
 20
150.8191254038
 30
0.0
 11
93.0237146462
 21
150.9431477547
 31
0.0
  0
LINE
  5
1DE
330
1F
100
AcDbEntity
  8
0
  6
SLD-実線
 62
     7
370
    18
100
AcDbLine
 10
93.1477369971
 20
150.8191254038
 30
0.0
 11
76.3469754728
 21
150.8191254038
 31
0.0
  0
LINE
  5
1DF
330
1F
100
AcDbEntity
  8
0
  6
SLD-実線
 62
     7
370
    18
100
AcDbLine
 10
76.3469754728
 20
151.2210488465
 30
0.0
 11
76.3469754728
 21
150.8191254038
 31
0.0
  0
LINE
  5
1E0
330
1F
100
AcDbEntity
  8
0
  6
SLD-実線
 62
     7
370
    18
100
AcDbLine
 10
93.0237146462
 20
150.9431477547
 30
0.0
 11
87.7682807705
 21
150.9431477547
 31
0.0
  0
LINE
  5
1E1
330
1F
100
AcDbEntity
  8
0
  6
SLD-実線
 62
     7
370
    18
100
AcDbLine
 10
53.1469754728
 20
154.8185161845
 30
0.0
 11
53.1469754728
 21
172.6191254038
 31
0.0
  0
LINE
  5
1E2
330
1F
100
AcDbEntity
  8
0
  6
SLD-実線
 62
     7
370
    18
100
AcDbLine
 10
53.5488989155
 20
172.6191254038
 30
0.0
 11
53.1469754728
 21
172.6191254038
 31
0.0
  0
LINE
  5
1E3
330
1F
100
AcDbEntity
  8
0
  6
SLD-実線
 62
     7
370
    18
100
AcDbLine
 10
97.5451332659
 20
172.8191254038
 30
0.0
 11
97.6192502549
 21
172.8191254038
 31
0.0
  0
SPLINE
  5
1E4
330
1F
100
AcDbEntity
  8
0
  6
SLD-実線
 62
     7
370
    18
100
AcDbSpline
210
0.0
220
0.0
230
1.0
 70
     8
 71
     3
 72
    11
 73
     7
 74
     0
 42
0.000000001
 43
0.00000001
 40
0.0
 40
0.0
 40
0.0
 40
0.0
 40
0.3010416340950469
 40
0.6021414493903834
 40
0.89573191452821
 40
1.0
 40
1.0
 40
1.0
 40
1.0
 10
97.61925025486234
 20
172.8191254038441
 30
0.0
 10
97.62227411154943
 20
172.792920686789
 30
0.0
 10
97.62832240933321
 20
172.7405061881905
 30
0.0
 10
97.67436471277664
 20
172.675091806879
 30
0.0
 10
97.72496035020197
 20
172.6387653100599
 30
0.0
 10
97.75821072829318
 20
172.6294774922191
 30
0.0
 10
97.76692796158173
 20
172.6191254102873
 30
0.0
  0
LINE
  5
1E5
330
1F
100
AcDbEntity
  8
0
  6
SLD-実線
 62
     7
370
    18
100
AcDbLine
 10
58.1462139486
 20
195.8191254038
 30
0.0
 11
58.2702362995
 21
195.695103053
 31
0.0
  0
LINE
  5
1E6
330
1F
100
AcDbEntity
  8
0
  6
SLD-実線
 62
     7
370
    18
100
AcDbLine
 10
58.1462139486
 20
195.8191254038
 30
0.0
 11
74.9469754728
 21
195.8191254038
 31
0.0
  0
LINE
  5
1E7
330
1F
100
AcDbEntity
  8
0
  6
SLD-実線
 62
     7
370
    18
100
AcDbLine
 10
74.9469754728
 20
195.4172019612
 30
0.0
 11
74.9469754728
 21
195.8191254038
 31
0.0
  0
LINE
  5
1E8
330
1F
100
AcDbEntity
  8
0
  6
SLD-実線
 62
     7
370
    18
100
AcDbLine
 10
58.2702362995
 20
195.695103053
 30
0.0
 11
63.5256701752
 21
195.695103053
 31
0.0
  0
LINE
  5
1E9
330
1F
100
AcDbEntity
  8
0
  6
SLD-実線
 62
     7
370
    18
100
AcDbLine
 10
53.1469754728
 20
174.0191254038
 30
0.0
 11
53.5488989155
 21
174.0191254038
 31
0.0
  0
LINE
  5
1EA
330
1F
100
AcDbEntity
  8
0
  6
SLD-実線
 62
     7
370
    18
100
AcDbLine
 10
53.1469754728
 20
174.0191254038
 30
0.0
 11
53.1469754728
 21
190.8198869281
 31
0.0
  0
LINE
  5
1EB
330
1F
100
AcDbEntity
  8
0
  6
SLD-実線
 62
     7
370
    18
100
AcDbLine
 10
53.1469754728
 20
190.8198869281
 30
0.0
 11
53.2709978237
 21
190.6958645772
 31
0.0
  0
LINE
  5
1EC
330
1F
100
AcDbEntity
  8
0
  6
SLD-実線
 62
     7
370
    18
100
AcDbLine
 10
53.2709978237
 20
185.4404307015
 30
0.0
 11
53.2709978237
 21
190.6958645772
 31
0.0
  0
LINE
  5
1ED
330
1F
100
AcDbEntity
  8
0
  6
SLD-実線
 62
     7
370
    18
100
AcDbLine
 10
97.6194079008
 20
173.8191254038
 30
0.0
 11
97.5451332659
 21
173.8191254038
 31
0.0
  0
SPLINE
  5
1EE
330
1F
100
AcDbEntity
  8
0
  6
SLD-実線
 62
     7
370
    18
100
AcDbSpline
210
0.0
220
0.0
230
1.0
 70
     8
 71
     3
 72
    11
 73
     7
 74
     0
 42
0.000000001
 43
0.00000001
 40
0.0
 40
0.0
 40
0.0
 40
0.0
 40
0.1686350343094987
 40
0.3455834309321185
 40
0.6726533065800715
 40
1.0
 40
1.0
 40
1.0
 40
1.0
 10
97.7450520456318
 20
174.0191253974009
 30
0.0
 10
97.73439107816576
 20
173.9996554053827
 30
0.0
 10
97.70930714280298
 20
173.9880829176268
 30
0.0
 10
97.66788024091673
 20
173.9536955090935
 30
0.0
 10
97.62842585596051
 20
173.8975220722307
 30
0.0
 10
97.62241473340208
 20
173.8452649948759
 30
0.0
 10
97.61940790077243
 20
173.8191254038441
 30
0.0
  0
SPLINE
  5
1EF
330
1F
100
AcDbEntity
  8
0
  6
SLD-実線
 62
     7
370
    18
100
AcDbSpline
210
0.0
220
0.0
230
1.0
 70
     8
 71
     3
 72
    22
 73
    18
 74
     0
 42
0.000000001
 43
0.00000001
 40
0.0
 40
0.0
 40
0.0
 40
0.0
 40
0.0347329060197744
 40
0.0692406118135755
 40
0.1036109415100101
 40
0.1379327738248612
 40
0.1722953637908824
 40
0.206787650038885
 40
0.2414975742360421
 40
0.3707126395115538
 40
0.5000255176932542
 40
0.629240540535595
 40
0.7585533821292626
 40
0.8190987033558524
 40
0.8792033746401914
 40
0.939344921873183
 40
1.0
 40
1.0
 40
1.0
 40
1.0
 10
58.34061851094548
 20
187.1241961252522
 30
0.0
 10
58.40324327511656
 20
187.1283885739223
 30
0.0
 10
58.52808675879795
 20
187.1367462883833
 30
0.0
 10
58.71381356909121
 20
187.1610732368869
 30
0.0
 10
58.89739767562525
 20
187.1940030070345
 30
0.0
 10
59.0787928656422
 20
187.2363699870812
 30
0.0
 10
59.25800292907485
 20
187.2879470088063
 30
0.0
 10
59.43503689209324
 20
187.3488073388301
 30
0.0
 10
59.76783372118283
 20
187.4822096604404
 30
0.0
 10
60.23642723497998
 20
187.737174187425
 30
0.0
 10
60.77842412368447
 20
188.1874071907751
 30
0.0
 10
61.22887346939677
 20
188.7295527822604
 30
0.0
 10
61.50614449179072
 20
189.2393140873791
 30
0.0
 10
61.66682076002347
 20
189.6618775379216
 30
0.0
 10
61.75493410229966
 20
189.9767917395416
 30
0.0
 10
61.81652468822347
 20
190.2984234368552
 30
0.0
 10
61.83342078745478
 20
190.5161541836301
 30
0.0
 10
61.84190475143855
 20
190.6254823657453
 30
0.0
  0
SPLINE
  5
1F0
330
1F
100
AcDbEntity
  8
0
  6
SLD-実線
 62
     7
370
    18
100
AcDbSpline
210
0.0
220
0.0
230
1.0
 70
     8
 71
     3
 72
    13
 73
     9
 74
     0
 42
0.000000001
 43
0.00000001
 40
0.0
 40
0.0
 40
0.0
 40
0.0
 40
0.1281386196779282
 40
0.2510761536452937
 40
0.3737244853611308
 40
0.5010289782004791
 40
0.7483364250330429
 40
1.0
 40
1.0
 40
1.0
 40
1.0
 10
75.14697547284666
 20
151.0191558694528
 30
0.0
 10
75.13357573592006
 20
151.0183965364345
 30
0.0
 10
75.1073201510241
 20
151.0169086913643
 30
0.0
 10
75.06966310980079
 20
151.0053505907602
 30
0.0
 10
75.03514761741773
 20
150.9867431480763
 30
0.0
 10
74.99520305065384
 20
150.9534489766679
 30
0.0
 10
74.95519201323432
 20
150.8982634693504
 30
0.0
 10
74.94973021388412
 20
150.8456578452837
 30
0.0
 10
74.94697547284672
 20
150.819125403844
 30
0.0
  0
LINE
  5
1F1
330
1F
100
AcDbEntity
  8
0
  6
SLD-実線
 62
     7
370
    18
100
AcDbLine
 10
75.1469754728
 20
151.4210183856
 30
0.0
 11
75.1469754728
 21
151.0191558695
 31
0.0
  0
SPLINE
  5
1F2
330
1F
100
AcDbEntity
  8
0
  6
SLD-実線
 62
     7
370
    18
100
AcDbSpline
210
0.0
220
0.0
230
1.0
 70
     8
 71
     3
 72
    13
 73
     9
 74
     0
 42
0.000000001
 43
0.00000001
 40
0.0
 40
0.0
 40
0.0
 40
0.0
 40
0.1281578478598676
 40
0.2511110920653134
 40
0.3737697774103632
 40
0.5010780350288603
 40
0.7483718277712205
 40
1.0
 40
1.0
 40
1.0
 40
1.0
 10
76.34697547284667
 20
150.819125403844
 30
0.0
 10
76.34621626686284
 20
150.8325271328363
 30
0.0
 10
76.34472868692217
 20
150.8587863347427
 30
0.0
 10
76.3331726200871
 20
150.8964487390884
 30
0.0
 10
76.31456828709028
 20
150.9309694093526
 30
0.0
 10
76.2812804088888
 20
150.9709189679075
 30
0.0
 10
76.22610490247826
 20
151.0109370805977
 30
0.0
 10
76.17350427187137
 20
151.0164004521728
 30
0.0
 10
76.14697547284672
 20
151.0191558694528
 30
0.0
  0
LINE
  5
1F3
330
1F
100
AcDbEntity
  8
0
  6
SLD-実線
 62
     7
370
    18
100
AcDbLine
 10
76.1469754728
 20
151.0191558695
 30
0.0
 11
76.1469754728
 21
151.4210183856
 31
0.0
  0
SPLINE
  5
1F4
330
1F
100
AcDbEntity
  8
0
  6
SLD-実線
 62
     7
370
    18
100
AcDbSpline
210
0.0
220
0.0
230
1.0
 70
     8
 71
     3
 72
    13
 73
     9
 74
     0
 42
0.000000001
 43
0.00000001
 40
0.0
 40
0.0
 40
0.0
 40
0.0
 40
0.1281578478602197
 40
0.251111092065792
 40
0.3737697774107311
 40
0.5010780350289579
 40
0.7483718277717315
 40
1.0
 40
1.0
 40
1.0
 40
1.0
 10
53.14697547284665
 20
172.6191254038441
 30
0.0
 10
53.16037720183903
 20
172.619884609828
 30
0.0
 10
53.1866364037454
 20
172.6213721897686
 30
0.0
 10
53.22429880809123
 20
172.6329282566037
 30
0.0
 10
53.25881947835537
 20
172.6515325896005
 30
0.0
 10
53.29876903691019
 20
172.6848204678021
 30
0.0
 10
53.3387871496003
 20
172.7399959742126
 30
0.0
 10
53.34425052117543
 20
172.7925966048195
 30
0.0
 10
53.34700593845544
 20
172.8191254038441
 30
0.0
  0
LINE
  5
1F5
330
1F
100
AcDbEntity
  8
0
  6
SLD-実線
 62
     7
370
    18
100
AcDbLine
 10
53.3470059385
 20
172.8191254038
 30
0.0
 11
53.7488684546
 21
172.8191254038
 31
0.0
  0
SPLINE
  5
1F6
330
1F
100
AcDbEntity
  8
0
  6
SLD-実線
 62
     7
370
    18
100
AcDbSpline
210
0.0
220
0.0
230
1.0
 70
     8
 71
     3
 72
    13
 73
     9
 74
     0
 42
0.000000001
 43
0.00000001
 40
0.0
 40
0.0
 40
0.0
 40
0.0
 40
0.1281386196777662
 40
0.2510761536450606
 40
0.373724485360962
 40
0.5010289782004468
 40
0.7483364250327985
 40
1.0
 40
1.0
 40
1.0
 40
1.0
 10
76.14697547284666
 20
195.6190949382354
 30
0.0
 10
76.16037520977336
 20
195.6198542712538
 30
0.0
 10
76.18663079466931
 20
195.6213421163239
 30
0.0
 10
76.22428783589261
 20
195.632900216928
 30
0.0
 10
76.25880332827566
 20
195.6515076596119
 30
0.0
 10
76.2987478950396
 20
195.6848018310203
 30
0.0
 10
76.33875893245914
 20
195.7399873383377
 30
0.0
 10
76.34422073180934
 20
195.7925929624045
 30
0.0
 10
76.34697547284674
 20
195.8191254038442
 30
0.0
  0
LINE
  5
1F7
330
1F
100
AcDbEntity
  8
0
  6
SLD-実線
 62
     7
370
    18
100
AcDbLine
 10
76.1469754728
 20
195.2172324221
 30
0.0
 11
76.1469754728
 21
195.6190949382
 31
0.0
  0
SPLINE
  5
1F8
330
1F
100
AcDbEntity
  8
0
  6
SLD-実線
 62
     7
370
    18
100
AcDbSpline
210
0.0
220
0.0
230
1.0
 70
     8
 71
     3
 72
    13
 73
     9
 74
     0
 42
0.000000001
 43
0.00000001
 40
0.0
 40
0.0
 40
0.0
 40
0.0
 40
0.1281578478598421
 40
0.2511110920653248
 40
0.3737697774103912
 40
0.5010780350288959
 40
0.748371827771226
 40
1.0
 40
1.0
 40
1.0
 40
1.0
 10
74.94697547284666
 20
195.8191254038442
 30
0.0
 10
74.9477346788306
 20
195.8057236748518
 30
0.0
 10
74.94922225877127
 20
195.7794644729455
 30
0.0
 10
74.96077832560636
 20
195.7418020685997
 30
0.0
 10
74.97938265860317
 20
195.7072813983355
 30
0.0
 10
75.01267053680466
 20
195.6673318397807
 30
0.0
 10
75.06784604321518
 20
195.6273137270905
 30
0.0
 10
75.12044667382209
 20
195.6218503555154
 30
0.0
 10
75.14697547284672
 20
195.6190949382354
 30
0.0
  0
LINE
  5
1F9
330
1F
100
AcDbEntity
  8
0
  6
SLD-実線
 62
     7
370
    18
100
AcDbLine
 10
75.1469754728
 20
195.6190949382
 30
0.0
 11
75.1469754728
 21
195.2172324221
 31
0.0
  0
SPLINE
  5
1FA
330
1F
100
AcDbEntity
  8
0
  6
SLD-実線
 62
     7
370
    18
100
AcDbSpline
210
0.0
220
0.0
230
1.0
 70
     8
 71
     3
 72
    22
 73
    18
 74
     0
 42
0.000000001
 43
0.00000001
 40
0.0
 40
0.0
 40
0.0
 40
0.0
 40
0.0347329060202251
 40
0.0692406118143258
 40
0.1036109415109094
 40
0.1379327738257603
 40
0.1722953637916352
 40
0.2067876500393485
 40
0.2414975742360781
 40
0.3707126395120574
 40
0.5000255176932412
 40
0.6292405405354766
 40
0.7585533821292751
 40
0.8190987033560793
 40
0.8792033746404913
 40
0.9393449218734085
 40
1.0
 40
1.0
 40
1.0
 40
1.0
 10
92.95333243474823
 20
159.5140546824362
 30
0.0
 10
92.89070767057633
 20
159.5098622337661
 30
0.0
 10
92.7658641868936
 20
159.5015045193051
 30
0.0
 10
92.58013737659869
 20
159.4771775708014
 30
0.0
 10
92.39655327006385
 20
159.4442478006538
 30
0.0
 10
92.21515808004688
 20
159.4018808206071
 30
0.0
 10
92.03594801661504
 20
159.350303798882
 30
0.0
 10
91.85891405359823
 20
159.2894434688584
 30
0.0
 10
91.5261172245097
 20
159.1560411472466
 30
0.0
 10
91.05752371071412
 20
158.9010766202612
 30
0.0
 10
90.51552682200867
 20
158.450843616913
 30
0.0
 10
90.06507747629617
 20
157.9086980254288
 30
0.0
 10
89.78780645390275
 20
157.3989367203092
 30
0.0
 10
89.62713018567028
 20
156.9763732697659
 30
0.0
 10
89.53901684339402
 20
156.6614590681455
 30
0.0
 10
89.4774262574702
 20
156.3398273708323
 30
0.0
 10
89.4605301582389
 20
156.122096624058
 30
0.0
 10
89.45204619425513
 20
156.0127684419432
 30
0.0
  0
LINE
  5
1FB
330
1F
100
AcDbEntity
  8
0
  6
SLD-実線
 62
     7
370
    18
100
AcDbLine
 10
53.7488684546
 20
173.8191254038
 30
0.0
 11
53.3470059385
 21
173.8191254038
 31
0.0
  0
SPLINE
  5
1FC
330
1F
100
AcDbEntity
  8
0
  6
SLD-実線
 62
     7
370
    18
100
AcDbSpline
210
0.0
220
0.0
230
1.0
 70
     8
 71
     3
 72
    13
 73
     9
 74
     0
 42
0.000000001
 43
0.00000001
 40
0.0
 40
0.0
 40
0.0
 40
0.0
 40
0.128138619677764
 40
0.2510761536450661
 40
0.3737244853609494
 40
0.5010289782004309
 40
0.7483364250327981
 40
1.0
 40
1.0
 40
1.0
 40
1.0
 10
53.34700593845544
 20
173.8191254038441
 30
0.0
 10
53.34624660543707
 20
173.8325251407707
 30
0.0
 10
53.34475876036691
 20
173.8587807256667
 30
0.0
 10
53.33320065976287
 20
173.89643776689
 30
0.0
 10
53.31459321707897
 20
173.930953259273
 30
0.0
 10
53.28129904567054
 20
173.970897826037
 30
0.0
 10
53.22611353835313
 20
174.0109088634565
 30
0.0
 10
53.17350791428638
 20
174.0163706628067
 30
0.0
 10
53.14697547284665
 20
174.0191254038441
 30
0.0
  0
SPLINE
  5
1FD
330
1F
100
AcDbEntity
  8
0
  6
SLD-実線
 62
     7
370
    18
100
AcDbSpline
210
0.0
220
0.0
230
1.0
 70
     8
 71
     3
 72
     9
 73
     5
 74
     0
 42
0.000000001
 43
0.00000001
 40
0.0
 40
0.0
 40
0.0
 40
0.0
 40
0.4999999999998918
 40
1.0
 40
1.0
 40
1.0
 40
1.0
 10
97.61925025486234
 20
172.8191254038441
 30
0.0
 10
97.61916544743079
 20
172.9122466731392
 30
0.0
 10
97.61899583256772
 20
173.0984892117295
 30
0.0
 10
97.6190190370661
 20
173.2849804144354
 30
0.0
 10
97.61903063931528
 20
173.3782260157883
 30
0.0
  0
SPLINE
  5
1FE
330
1F
100
AcDbEntity
  8
0
  6
SLD-実線
 62
     7
370
    18
100
AcDbSpline
210
0.0
220
0.0
230
1.0
 70
     8
 71
     3
 72
     9
 73
     5
 74
     0
 42
0.000000001
 43
0.00000001
 40
0.0
 40
0.0
 40
0.0
 40
0.0
 40
0.5000000000000139
 40
1.0
 40
1.0
 40
1.0
 40
1.0
 10
97.61903063931528
 20
173.3782260157883
 30
0.0
 10
97.61906351964188
 20
173.4517935154032
 30
0.0
 10
97.61912928029508
 20
173.5989285146329
 30
0.0
 10
97.61931502728
 20
173.7457264407737
 30
0.0
 10
97.61940790077243
 20
173.8191254038441
 30
0.0
  0
LINE
  5
1FF
330
1F
100
AcDbEntity
  8
0
  6
SLD-実線
 62
     7
370
    18
100
AcDbLine
 10
76.1469754728
 20
195.6190949382
 30
0.0
 11
75.1469754728
 21
195.6190949382
 31
0.0
  0
LINE
  5
200
330
1F
100
AcDbEntity
  8
0
  6
SLD-実線
 62
     7
370
    18
100
AcDbLine
 10
75.1469754728
 20
151.0191558695
 30
0.0
 11
76.1469754728
 21
151.0191558695
 31
0.0
  0
LINE
  5
201
330
1F
100
AcDbEntity
  8
0
  6
SLD-実線
 62
     7
370
    18
100
AcDbLine
 10
53.3470059385
 20
173.8191254038
 30
0.0
 11
53.3470059385
 21
172.8191254038
 31
0.0
  0
SPLINE
  5
202
330
1F
100
AcDbEntity
  8
0
  6
SLD-実線
 62
     7
370
    18
100
AcDbSpline
210
0.0
220
0.0
230
1.0
 70
     8
 71
     3
 72
     8
 73
     4
 74
     0
 42
0.000000001
 43
0.00000001
 40
0.0
 40
0.0
 40
0.0
 40
0.0
 40
1.0
 40
1.0
 40
1.0
 40
1.0
 10
101.0627889814732
 20
173.1338923256663
 30
0.0
 10
101.0620693971712
 20
170.7717563530083
 30
0.0
 10
101.0405957553353
 20
168.5892055353439
 30
0.0
 10
101.0056968877819
 20
167.3311320523657
 30
0.0
  0
SPLINE
  5
203
330
1F
100
AcDbEntity
  8
0
  6
SLD-実線
 62
     7
370
    18
100
AcDbSpline
210
0.0
220
0.0
230
1.0
 70
     8
 71
     3
 72
    14
 73
    10
 74
     0
 42
0.000000001
 43
0.00000001
 40
0.0
 40
0.0
 40
0.0
 40
0.0
 40
0.0846950421870656
 40
0.1932231051104722
 40
0.4100696260733175
 40
0.5164157016241284
 40
0.6226825955858596
 40
0.8265474819594553
 40
1.0
 40
1.0
 40
1.0
 40
1.0
 10
100.8698025720467
 20
167.5608163218847
 30
0.0
 10
100.8671504856444
 20
167.6713313125038
 30
0.0
 10
100.8611000208659
 20
167.9234599979292
 30
0.0
 10
100.8495727161365
 20
168.5512520153277
 30
0.0
 10
100.8391500554654
 20
169.3079296310339
 30
0.0
 10
100.8310080969253
 20
170.1398199795153
 30
0.0
 10
100.8246159937956
 20
170.9877481938263
 30
0.0
 10
100.8194516033732
 20
172.0298660323012
 30
0.0
 10
100.8189056549849
 20
172.8677632808443
 30
0.0
 10
100.8186546829344
 20
173.2529439958572
 30
0.0
  0
SPLINE
  5
204
330
1F
100
AcDbEntity
  8
0
  6
SLD-実線
 62
     7
370
    18
100
AcDbSpline
210
0.0
220
0.0
230
1.0
 70
     8
 71
     3
 72
    15
 73
    11
 74
     0
 42
0.000000001
 43
0.00000001
 40
0.0
 40
0.0
 40
0.0
 40
0.0
 40
0.1260140703863975
 40
0.255863928249184
 40
0.3893440665978203
 40
0.493760952963712
 40
0.5981000941305028
 40
0.7047387782964359
 40
0.8112980629201374
 40
1.0
 40
1.0
 40
1.0
 40
1.0
 10
100.8184925045557
 20
173.3782260157883
 30
0.0
 10
100.818754457562
 20
173.6626770804363
 30
0.0
 10
100.8192863372561
 20
174.2402377176916
 30
0.0
 10
100.8224839354156
 20
175.1034551583555
 30
0.0
 10
100.8271637635868
 20
175.8912334808685
 30
0.0
 10
100.8329809758656
 20
176.5897572392775
 30
0.0
 10
100.8394418001216
 20
177.1996124897995
 30
0.0
 10
100.8470248273813
 20
177.7707258419589
 30
0.0
 10
100.857760740378
 20
178.4422992404716
 30
0.0
 10
100.8672607204932
 20
178.8312527349471
 30
0.0
 10
100.8733321735598
 20
179.0798335591341
 30
0.0
  0
SPLINE
  5
205
330
1F
100
AcDbEntity
  8
0
  6
SLD-実線
 62
     7
370
    18
100
AcDbSpline
210
0.0
220
0.0
230
1.0
 70
     8
 71
     3
 72
    14
 73
    10
 74
     0
 42
0.000000001
 43
0.00000001
 40
0.0
 40
0.0
 40
0.0
 40
0.0
 40
0.1059518005163171
 40
0.2118247129258941
 40
0.4233660608641197
 40
0.5271103684546997
 40
0.6307774316351135
 40
0.8296547420445924
 40
0.9999999999999999
 40
0.9999999999999999
 40
0.9999999999999999
 40
0.9999999999999999
 10
101.0092660131349
 20
179.0472845108072
 30
0.0
 10
101.0126737411333
 20
178.9060465072472
 30
0.0
 10
101.0194866598518
 20
178.6236756611404
 30
0.0
 10
101.0317219484053
 20
177.9617971088787
 30
0.0
 10
101.0421294192373
 20
177.2040435221541
 30
0.0
 10
101.0502736804833
 20
176.3723243029584
 30
0.0
 10
101.0566657320073
 20
175.524358690553
 30
0.0
 10
101.061839148371
 20
174.4797231118764
 30
0.0
 10
101.0623849776709
 20
173.6392240999063
 30
0.0
 10
101.0626368025616
 20
173.2514498052868
 30
0.0
  0
SPLINE
  5
206
330
1F
100
AcDbEntity
  8
0
  6
SLD-実線
 62
     7
370
    18
100
AcDbSpline
210
0.0
220
0.0
230
1.0
 70
     8
 71
     3
 72
     8
 73
     4
 74
     0
 42
0.000000001
 43
0.00000001
 40
0.0
 40
0.0
 40
0.0
 40
0.0
 40
0.9999999999999999
 40
0.9999999999999999
 40
0.9999999999999999
 40
0.9999999999999999
 10
97.76708243565588
 20
174.0191253974009
 30
0.0
 10
97.76682005407523
 20
173.8226773508046
 30
0.0
 10
97.76666018442019
 20
173.6275757131132
 30
0.0
 10
97.7666001740328
 20
173.4305832351002
 30
0.0
  0
SPLINE
  5
207
330
1F
100
AcDbEntity
  8
0
  6
SLD-実線
 62
     7
370
    18
100
AcDbSpline
210
0.0
220
0.0
230
1.0
 70
     8
 71
     3
 72
     8
 73
     4
 74
     0
 42
0.000000001
 43
0.00000001
 40
0.0
 40
0.0
 40
0.0
 40
0.0
 40
1.0
 40
1.0
 40
1.0
 40
1.0
 10
97.7666001740328
 20
173.4305832351002
 30
0.0
 10
97.76651760934188
 20
173.1595531056916
 30
0.0
 10
97.76662663786881
 20
172.8896464188764
 30
0.0
 10
97.76692796158173
 20
172.6191254102873
 30
0.0
  0
LINE
  5
208
330
1F
100
AcDbEntity
  8
0
  6
SLD-実線
 62
     7
370
    18
100
AcDbLine
 10
97.7229988134
 20
160.309689003
 30
0.0
 11
97.7229988134
 21
155.9423862305
 31
0.0
  0
SPLINE
  5
209
330
1F
100
AcDbEntity
  8
0
  6
SLD-実線
 62
     7
370
    18
100
AcDbSpline
210
0.0
220
0.0
230
1.0
 70
     8
 71
     3
 72
    10
 73
     6
 74
     0
 42
0.000000001
 43
0.00000001
 40
0.0
 40
0.0
 40
0.0
 40
0.0
 40
0.5
 40
0.5
 40
1.0
 40
1.0
 40
1.0
 40
1.0
 10
97.72299881344321
 20
155.9423862304826
 30
0.0
 10
97.72299881344215
 20
155.3270722913843
 30
0.0
 10
97.60069978437147
 20
154.7122594763012
 30
0.0
 10
97.12993038549727
 20
153.5756202244678
 30
0.0
 10
96.7817234502645
 20
153.054430005489
 30
0.0
 10
96.34669716073387
 20
152.6194037159569
 30
0.0
  0
SPLINE
  5
20A
330
1F
100
AcDbEntity
  8
0
  6
SLD-実線
 62
     7
370
    18
100
AcDbSpline
210
0.0
220
0.0
230
1.0
 70
     8
 71
     3
 72
    10
 73
     6
 74
     0
 42
0.000000001
 43
0.00000001
 40
0.0
 40
0.0
 40
0.0
 40
0.0
 40
0.5
 40
0.5
 40
1.0
 40
1.0
 40
1.0
 40
1.0
 10
96.34669716073387
 20
152.6194037159569
 30
0.0
 10
95.91167087119992
 20
152.1843774264281
 30
0.0
 10
95.39048065222305
 20
151.8361704911933
 30
0.0
 10
94.25384140038946
 20
151.3654010923194
 30
0.0
 10
93.63902858530658
 20
151.2431020632507
 30
0.0
 10
93.02371464620815
 20
151.2431020632475
 30
0.0
  0
LINE
  5
20B
330
1F
100
AcDbEntity
  8
0
  6
SLD-実線
 62
     7
370
    18
100
AcDbLine
 10
93.0237146462
 20
151.2431020632
 30
0.0
 11
88.6564118737
 21
151.2431020632
 31
0.0
  0
LINE
  5
20C
330
1F
100
AcDbEntity
  8
0
  6
SLD-実線
 62
     7
370
    18
100
AcDbLine
 10
53.5709521323
 20
186.3285618047
 30
0.0
 11
53.5709521323
 21
190.6958645772
 31
0.0
  0
SPLINE
  5
20D
330
1F
100
AcDbEntity
  8
0
  6
SLD-実線
 62
     7
370
    18
100
AcDbSpline
210
0.0
220
0.0
230
1.0
 70
     8
 71
     3
 72
    10
 73
     6
 74
     0
 42
0.000000001
 43
0.00000001
 40
0.0
 40
0.0
 40
0.0
 40
0.0
 40
0.5
 40
0.5
 40
1.0
 40
1.0
 40
1.0
 40
1.0
 10
53.57095213225013
 20
190.6958645772056
 30
0.0
 10
53.57095213225013
 20
191.311178516304
 30
0.0
 10
53.69325116132349
 20
191.9259913313871
 30
0.0
 10
54.16402056019447
 20
193.0626305832205
 30
0.0
 10
54.5122274954303
 20
193.583820802199
 30
0.0
 10
54.94725378495947
 20
194.0188470917313
 30
0.0
  0
SPLINE
  5
20E
330
1F
100
AcDbEntity
  8
0
  6
SLD-実線
 62
     7
370
    18
100
AcDbSpline
210
0.0
220
0.0
230
1.0
 70
     8
 71
     3
 72
    10
 73
     6
 74
     0
 42
0.000000001
 43
0.00000001
 40
0.0
 40
0.0
 40
0.0
 40
0.0
 40
0.5
 40
0.5
 40
1.0
 40
1.0
 40
1.0
 40
1.0
 10
54.94725378495947
 20
194.0188470917313
 30
0.0
 10
55.38228007448883
 20
194.4538733812629
 30
0.0
 10
55.90347029347159
 20
194.802080316496
 30
0.0
 10
57.04010954530251
 20
195.2728497153677
 30
0.0
 10
57.65492236038773
 20
195.3951487444417
 30
0.0
 10
58.27023629948516
 20
195.3951487444407
 30
0.0
  0
LINE
  5
20F
330
1F
100
AcDbEntity
  8
0
  6
SLD-実線
 62
     7
370
    18
100
AcDbLine
 10
58.2702362995
 20
195.3951487444
 30
0.0
 11
62.637539072
 21
195.3951487444
 31
0.0
  0
LINE
  5
210
330
1F
100
AcDbEntity
  8
0
  6
SLD-実線
 62
     7
370
    18
100
AcDbLine
 10
58.2702362995
 20
195.695103053
 30
0.0
 11
58.2702362995
 21
195.3951487444
 31
0.0
  0
LINE
  5
211
330
1F
100
AcDbEntity
  8
0
  6
SLD-実線
 62
     7
370
    18
100
AcDbLine
 10
53.2709978237
 20
190.6958645772
 30
0.0
 11
53.5709521323
 21
190.6958645772
 31
0.0
  0
LINE
  5
212
330
1F
100
AcDbEntity
  8
0
  6
SLD-実線
 62
     7
370
    18
100
AcDbLine
 10
98.022953122
 20
155.9423862305
 30
0.0
 11
97.7229988134
 21
155.9423862305
 31
0.0
  0
SPLINE
  5
213
330
1F
100
AcDbEntity
  8
0
  6
SLD-実線
 62
     7
370
    18
100
AcDbSpline
210
0.0
220
0.0
230
1.0
 70
     8
 71
     3
 72
    25
 73
    21
 74
     0
 42
0.000000001
 43
0.00000001
 40
0.0
 40
0.0
 40
0.0
 40
0.0
 40
0.0584324447419648
 40
0.1165262081099063
 40
0.1742813291985528
 40
0.2316978478183753
 40
0.2887758045123555
 40
0.3455152405732376
 40
0.4019161980613001
 40
0.4579787198226509
 40
0.5137028495080801
 40
0.5690886315924766
 40
0.6241361113948333
 40
0.678845335098875
 40
0.7332163497743064
 40
0.7872492033987302
 40
0.8409439448802368
 40
0.8943006240807064
 40
0.947319291839849
 40
1.0
 40
1.0
 40
1.0
 40
1.0
 10
53.2709978237032
 20
190.6958645772056
 30
0.0
 10
53.27201187204393
 20
190.7723419307774
 30
0.0
 10
53.27403409118108
 20
190.9248533661171
 30
0.0
 10
53.29028981305273
 20
191.1524764107917
 30
0.0
 10
53.31597917417359
 20
191.3778295681543
 30
0.0
 10
53.35181680065647
 20
191.600470089592
 30
0.0
 10
53.3973010851209
 20
191.8199741030217
 30
0.0
 10
53.45223270055276
 20
192.0359370428295
 30
0.0
 10
53.51631293670205
 20
192.2479740793352
 30
0.0
 10
53.58925202427593
 20
192.4557204410802
 30
0.0
 10
53.6707419691297
 20
192.6588317001276
 30
0.0
 10
53.76046545999879
 20
192.856983862253
 30
0.0
 10
53.85809475565804
 20
193.0498738359943
 30
0.0
 10
53.96329474174223
 20
193.2372181778089
 30
0.0
 10
54.07571916017727
 20
193.4187579010964
 30
0.0
 10
54.19502964354345
 20
193.5942405682173
 30
0.0
 10
54.32083090614043
 20
193.7634860928818
 30
0.0
 10
54.45291559689951
 20
193.9261427915855
 30
0.0
 10
54.59036425330463
 20
194.0825882942021
 30
0.0
 10
54.68701532960463
 20
194.1815779490372
 30
0.0
 10
54.73518635331828
 20
194.2309145233725
 30
0.0
  0
LINE
  5
214
330
1F
100
AcDbEntity
  8
0
  6
SLD-実線
 62
     7
370
    18
100
AcDbLine
 10
54.7351863533
 20
194.2309145234
 30
0.0
 11
54.947253785
 21
194.0188470917
 31
0.0
  0
SPLINE
  5
215
330
1F
100
AcDbEntity
  8
0
  6
SLD-実線
 62
     7
370
    18
100
AcDbSpline
210
0.0
220
0.0
230
1.0
 70
     8
 71
     3
 72
    25
 73
    21
 74
     0
 42
0.000000001
 43
0.00000001
 40
0.0
 40
0.0
 40
0.0
 40
0.0
 40
0.0584329704913493
 40
0.1165271977652515
 40
0.1742827209142382
 40
0.2316995797466828
 40
0.2887778148035734
 40
0.3455174673757665
 40
0.4019185795217626
 40
0.4579811940860185
 40
0.5137053547177889
 40
0.5690911058905658
 40
0.6241384929220836
 40
0.6788475619949524
 40
0.733218360177916
 40
0.7872509354477767
 40
0.840945336711997
 40
0.894301613832007
 40
0.947319817647252
 40
1.0
 40
1.0
 40
1.0
 40
1.0
 10
98.02295312199013
 20
155.9423862304826
 30
0.0
 10
98.02193905528635
 20
155.8659081887164
 30
0.0
 10
98.01991680054995
 20
155.7133954579301
 30
0.0
 10
98.00366080775244
 20
155.4857706037798
 30
0.0
 10
97.97797105781025
 20
155.2604159008628
 30
0.0
 10
97.94213294512029
 20
155.0377741033548
 30
0.0
 10
97.89664811598514
 20
154.8182690856945
 30
0.0
 10
97.8417159313254
 20
154.6023054127548
 30
0.0
 10
97.77763513559896
 20
154.3902679104898
 30
0.0
 10
97.70469553110165
 20
154.182521343774
 30
0.0
 10
97.6232051438868
 20
153.9794101312398
 30
0.0
 10
97.53348131579095
 20
153.7812582552332
 30
0.0
 10
97.43585181712697
 20
153.5883687929211
 30
0.0
 10
97.33065178972606
 20
153.4010251712871
 30
0.0
 10
97.2182275173309
 20
153.2194863583227
 30
0.0
 10
97.09891739132031
 20
153.0440047709796
 30
0.0
 10
96.97311671867995
 20
152.8747604738208
 30
0.0
 10
96.84103287263623
 20
152.7121051241353
 30
0.0
 10
96.70358532361789
 20
152.5556610765648
 30
0.0
 10
96.6069351409637
 20
152.4566723603776
 30
0.0
 10
96.55876459237504
 20
152.4073362843157
 30
0.0
  0
LINE
  5
216
330
1F
100
AcDbEntity
  8
0
  6
SLD-実線
 62
     7
370
    18
100
AcDbLine
 10
96.5587645924
 20
152.4073362843
 30
0.0
 11
96.3466971607
 21
152.619403716
 31
0.0
  0
SPLINE
  5
217
330
1F
100
AcDbEntity
  8
0
  6
SLD-実線
 62
     7
370
    18
100
AcDbSpline
210
0.0
220
0.0
230
1.0
 70
     8
 71
     3
 72
    23
 73
    19
 74
     0
 42
0.000000001
 43
0.00000001
 40
0.0
 40
0.0
 40
0.0
 40
0.0
 40
0.0592890999650818
 40
0.1190060010953131
 40
0.1791507765849806
 40
0.239723498029519
 40
0.3007242354697875
 40
0.3621530574348025
 40
0.4240100309830488
 40
0.4862952217423351
 40
0.5490086939483542
 40
0.6121505104819132
 40
0.6757207329049435
 40
0.7397194214953109
 40
0.8041466352804821
 40
0.8690024320700909
 40
0.934286868487437
 40
1.0
 40
1.0
 40
1.0
 40
1.0
 10
96.55876459237504
 20
152.4073362843157
 30
0.0
 10
96.50315689806244
 20
152.3532050400867
 30
0.0
 10
96.39154027149581
 20
152.2445519670295
 30
0.0
 10
96.21406230419144
 20
152.0911586432755
 30
0.0
 10
96.02877887857022
 20
151.9446674577908
 30
0.0
 10
95.83524776300534
 20
151.8062998855966
 30
0.0
 10
95.63395906279402
 20
151.6763721413184
 30
0.0
 10
95.42519174446171
 20
151.5554370478416
 30
0.0
 10
95.2093236950673
 20
151.4439722141327
 30
0.0
 10
94.98674800285076
 20
151.34246201363
 30
0.0
 10
94.75789571844517
 20
151.2513720620718
 30
0.0
 10
94.5232296227683
 20
151.1711556863788
 30
0.0
 10
94.28324567554903
 20
151.1022405310039
 30
0.0
 10
94.0384722039635
 20
151.0450624783999
 30
0.0
 10
93.78946952355592
 20
150.9999284178658
 30
0.0
 10
93.53682922002419
 20
150.9675220363986
 30
0.0
 10
93.28117342436519
 20
150.9469862596372
 30
0.0
 10
93.10972126707853
 20
150.9444300447866
 30
0.0
 10
93.02371464620815
 20
150.9431477547006
 30
0.0
  0
LINE
  5
218
330
1F
100
AcDbEntity
  8
0
  6
SLD-実線
 62
     7
370
    18
100
AcDbLine
 10
93.0237146462
 20
150.9431477547
 30
0.0
 11
93.0237146462
 21
151.2431020632
 31
0.0
  0
SPLINE
  5
219
330
1F
100
AcDbEntity
  8
0
  6
SLD-実線
 62
     7
370
    18
100
AcDbSpline
210
0.0
220
0.0
230
1.0
 70
     8
 71
     3
 72
    23
 73
    19
 74
     0
 42
0.000000001
 43
0.00000001
 40
0.0
 40
0.0
 40
0.0
 40
0.0
 40
0.0592891000016656
 40
0.1190060011636026
 40
0.1791507766800987
 40
0.2397234981465883
 40
0.3007242356039262
 40
0.3621530575811369
 40
0.4240100311366976
 40
0.4862952218984223
 40
0.5490086941020007
 40
0.6121505106282419
 40
0.6757207330390776
 40
0.7397194216123726
 40
0.8041466353755943
 40
0.8690024321383735
 40
0.9342868685240184
 40
1.0
 40
1.0
 40
1.0
 40
1.0
 10
54.73518635331828
 20
194.2309145233725
 30
0.0
 10
54.79079404766566
 20
194.2850457676344
 30
0.0
 10
54.90241067429725
 20
194.3936988407531
 30
0.0
 10
55.07988864170251
 20
194.5470921645811
 30
0.0
 10
55.26517206741576
 20
194.6935833501193
 30
0.0
 10
55.45870318306237
 20
194.8319509223476
 30
0.0
 10
55.65999188334287
 20
194.9618786666423
 30
0.0
 10
55.86875920172999
 20
195.0828137601202
 30
0.0
 10
56.08462725116306
 20
195.1942785938169
 30
0.0
 10
56.30720294340067
 20
195.2957887942966
 30
0.0
 10
56.53605522780843
 20
195.3868787458233
 30
0.0
 10
56.77072132346754
 20
195.4670951214794
 30
0.0
 10
57.01070527064833
 20
195.5360102768146
 30
0.0
 10
57.25547874217416
 20
195.5931883293792
 30
0.0
 10
57.50448142250059
 20
195.6383223898771
 30
0.0
 10
57.75712172592984
 20
195.6707287713147
 30
0.0
 10
58.0127775214654
 20
195.6912645480552
 30
0.0
 10
58.18422967866266
 20
195.693820762903
 30
0.0
 10
58.27023629948516
 20
195.6951030529876
 30
0.0
  0
ELLIPSE
  5
21A
330
1F
100
AcDbEntity
  8
0
  6
SLD-実線
 62
     7
370
    18
100
AcDbEllipse
 10
93.1462138326
 20
155.8198870441
 30
0.0
 11
3.536610945847911
 21
-3.536610945847883
 31
0.0
210
0.0
220
0.0
230
1.0
 40
0.9996954599
 41
5.497939437029726
 42
7.068431177329452
  0
ELLIPSE
  5
21B
330
1F
100
AcDbEntity
  8
0
  6
SLD-実線
 62
     7
370
    18
100
AcDbEllipse
 10
58.1477371131
 20
190.8183637636
 30
0.0
 11
-3.536610945847905
 21
3.536610945847912
 31
0.0
210
0.0
220
0.0
230
1.0
 40
0.9996954599
 41
5.497939437029734
 42
7.068431177329452
  0
LINE
  5
21C
330
1F
100
AcDbEntity
  8
0
  6
SLD-実線
 62
     7
370
    18
100
AcDbLine
 10
94.825869312
 20
156.2449369547
 30
0.0
 11
93.6176587722
 21
157.4859958942
 31
0.0
  0
LINE
  5
21D
330
1F
100
AcDbEntity
  8
0
  6
SLD-実線
 62
     7
370
    18
100
AcDbLine
 10
93.6176587722
 20
157.4859958942
 30
0.0
 11
91.938764933
 21
157.0601843434
 31
0.0
  0
CIRCLE
  5
21E
330
1F
100
AcDbEntity
  8
0
  6
SLD-実線
 62
     7
370
    18
100
AcDbCircle
 10
93.1469754728
 20
155.8191254038
 30
0.0
 40
3.099999999999997
  0
CIRCLE
  5
21F
330
1F
100
AcDbEntity
  8
0
  6
SLD-実線
 62
     7
370
    18
100
AcDbCircle
 10
93.1469754728
 20
155.8191254038
 30
0.0
 40
3.500000000000031
  0
LINE
  5
220
330
1F
100
AcDbEntity
  8
0
  6
SLD-実線
 62
     7
370
    18
100
AcDbLine
 10
92.6762921735
 20
154.1522549135
 30
0.0
 11
94.3551860127
 21
154.5780664643
 31
0.0
  0
LINE
  5
221
330
1F
100
AcDbEntity
  8
0
  6
SLD-実線
 62
     7
370
    18
100
AcDbLine
 10
91.938764933
 20
157.0601843434
 30
0.0
 11
91.4680816337
 21
155.393313853
 31
0.0
  0
LINE
  5
222
330
1F
100
AcDbEntity
  8
0
  6
SLD-実線
 62
     7
370
    18
100
AcDbLine
 10
91.4680816337
 20
155.393313853
 30
0.0
 11
92.6762921735
 21
154.1522549135
 31
0.0
  0
LINE
  5
223
330
1F
100
AcDbEntity
  8
0
  6
SLD-実線
 62
     7
370
    18
100
AcDbLine
 10
94.3551860127
 20
154.5780664643
 30
0.0
 11
94.825869312
 21
156.2449369547
 31
0.0
  0
SPLINE
  5
224
330
1F
100
AcDbEntity
  8
0
  6
SLD-実線
 62
     7
370
    18
100
AcDbSpline
210
0.0
220
0.0
230
1.0
 70
    24
 71
     3
 72
     8
 73
     4
 74
     0
 42
0.000000001
 43
0.00000001
 40
0.0
 40
0.0
 40
0.0
 40
0.0
 40
1.0
 40
1.0
 40
1.0
 40
1.0
 10
91.93876493302344
 20
157.0601843434037
 30
0.0
 10
91.97903861768422
 20
157.0188157120851
 30
0.0
 10
92.38177546429189
 20
156.6051293988986
 30
0.0
 10
93.14697547284646
 20
155.8191254038442
 30
0.0
  0
SPLINE
  5
225
330
1F
100
AcDbEntity
  8
0
  6
SLD-実線
 62
     7
370
    18
100
AcDbSpline
210
0.0
220
0.0
230
1.0
 70
    24
 71
     3
 72
     8
 73
     4
 74
     0
 42
0.000000001
 43
0.00000001
 40
0.0
 40
0.0
 40
0.0
 40
0.0
 40
1.0
 40
1.0
 40
1.0
 40
1.0
 10
91.46808163368266
 20
155.3933138530171
 30
0.0
 10
91.52404476165479
 20
155.407507571378
 30
0.0
 10
92.08367604137605
 20
155.5494447549871
 30
0.0
 10
93.14697547284646
 20
155.8191254038442
 30
0.0
  0
SPLINE
  5
226
330
1F
100
AcDbEntity
  8
0
  6
SLD-実線
 62
     7
370
    18
100
AcDbSpline
210
0.0
220
0.0
230
1.0
 70
    24
 71
     3
 72
     8
 73
     4
 74
     0
 42
0.000000001
 43
0.00000001
 40
0.0
 40
0.0
 40
0.0
 40
0.0
 40
1.0
 40
1.0
 40
1.0
 40
1.0
 10
92.67629217350567
 20
154.1522549134576
 30
0.0
 10
92.69198161681702
 20
154.2078172631371
 30
0.0
 10
92.84887604993061
 20
154.7634407599327
 30
0.0
 10
93.14697547284646
 20
155.8191254038442
 30
0.0
  0
SPLINE
  5
227
330
1F
100
AcDbEntity
  8
0
  6
SLD-実線
 62
     7
370
    18
100
AcDbSpline
210
0.0
220
0.0
230
1.0
 70
    24
 71
     3
 72
     8
 73
     4
 74
     0
 42
0.000000001
 43
0.00000001
 40
0.0
 40
0.0
 40
0.0
 40
0.0
 40
1.0
 40
1.0
 40
1.0
 40
1.0
 10
93.61765877218728
 20
157.4859958942308
 30
0.0
 10
93.60196932887592
 20
157.4304335445512
 30
0.0
 10
93.44507489576232
 20
156.8748100477557
 30
0.0
 10
93.14697547284646
 20
155.8191254038442
 30
0.0
  0
SPLINE
  5
228
330
1F
100
AcDbEntity
  8
0
  6
SLD-実線
 62
     7
370
    18
100
AcDbSpline
210
0.0
220
0.0
230
1.0
 70
    24
 71
     3
 72
     8
 73
     4
 74
     0
 42
0.000000001
 43
0.00000001
 40
0.0
 40
0.0
 40
0.0
 40
0.0
 40
1.0
 40
1.0
 40
1.0
 40
1.0
 10
94.82586931201028
 20
156.2449369546713
 30
0.0
 10
94.76990618403816
 20
156.2307432363104
 30
0.0
 10
94.21027490431689
 20
156.0888060527014
 30
0.0
 10
93.14697547284646
 20
155.8191254038442
 30
0.0
  0
SPLINE
  5
229
330
1F
100
AcDbEntity
  8
0
  6
SLD-実線
 62
     8
370
    18
100
AcDbSpline
210
0.0
220
0.0
230
1.0
 70
     8
 71
     3
 72
    16
 73
    12
 74
     0
 42
0.000000001
 43
0.00000001
 40
0.0
 40
0.0
 40
0.0
 40
0.0
 40
0.0856554269768578
 40
0.1712470778883837
 40
0.3354480960838815
 40
0.4903693892578088
 40
0.6452906824317376
 40
0.8094917006272324
 40
0.8951471327380603
 40
0.980738788783605
 40
1.0
 40
1.0
 40
1.0
 40
1.0
 10
101.0056968877819
 20
167.3311320523657
 30
0.0
 10
101.0021490683957
 20
167.211349332239
 30
0.0
 10
100.9950560712086
 20
166.9718730781191
 30
0.0
 10
100.9802122616707
 20
166.6075897824783
 30
0.0
 10
100.9613329542247
 20
166.3144575959743
 30
0.0
 10
100.9384936531045
 20
166.218005891548
 30
0.0
 10
100.9157460539739
 20
166.360957140793
 30
0.0
 10
100.8970026307828
 20
166.687761178212
 30
0.0
 10
100.8824974849344
 20
167.0901622397381
 30
0.0
 10
100.8745270141464
 20
167.3523487459886
 30
0.0
 10
100.8705357562131
 20
167.5284643271688
 30
0.0
 10
100.8698025720467
 20
167.5608163218847
 30
0.0
  0
LINE
  5
22A
330
1F
100
AcDbEntity
  8
0
  6
SLD-実線
 62
     8
370
    18
100
AcDbLine
 10
100.8186546829
 20
173.2529439959
 30
0.0
 11
100.8184925046
 21
173.3782260158
 31
0.0
  0
SPLINE
  5
22B
330
1F
100
AcDbEntity
  8
0
  6
SLD-実線
 62
     8
370
    18
100
AcDbSpline
210
0.0
220
0.0
230
1.0
 70
     8
 71
     3
 72
    16
 73
    12
 74
     0
 42
0.000000001
 43
0.00000001
 40
0.0
 40
0.0
 40
0.0
 40
0.0
 40
0.0198487691794772
 40
0.1054528802200467
 40
0.1909932534054001
 40
0.3550958992137792
 40
0.5099243794588206
 40
0.6647528597038636
 40
0.8288555055122413
 40
0.9144596216852314
 40
1.0
 40
1.0
 40
1.0
 40
1.0
 10
100.8733321735598
 20
179.0798335591341
 30
0.0
 10
100.8740754172594
 20
179.1141772087998
 30
0.0
 10
100.8780241350923
 20
179.2966387378637
 30
0.0
 10
100.8863360859991
 20
179.5310892248393
 30
0.0
 10
100.9010080242847
 20
179.9095739362208
 30
0.0
 10
100.9199687065718
 20
180.1961406271426
 30
0.0
 10
100.9427796572587
 20
180.2942758445725
 30
0.0
 10
100.9655489393891
 20
180.1520081657824
 30
0.0
 10
100.9842404640161
 20
179.8213013883473
 30
0.0
 10
100.9988532489976
 20
179.4275193859942
 30
0.0
 10
101.0057959536262
 20
179.1739979969462
 30
0.0
 10
101.0092660131349
 20
179.0472845108072
 30
0.0
  0
LINE
  5
22C
330
1F
100
AcDbEntity
  8
0
  6
SLD-実線
 62
     8
370
    18
100
AcDbLine
 10
101.0626368026
 20
173.2514498053
 30
0.0
 11
101.0627889815
 21
173.1338923257
 31
0.0
  0
DIMENSION
  5
22D
330
1F
100
AcDbEntity
  8
0
  6
SLD-実線
 62
     7
370
    18
100
AcDbDimension
  2
_D
 10
98.1469754728
 20
205.825842749
 30
0.0
 11
75.6469754728
 21
205.825842749
 31
0.0
 70
   160
  1
<>
 71
     2
 42
-1.0
  3
SLDDIMSTYLE0
100
AcDbAlignedDimension
 13
53.1469754728
 23
190.8198869281
 33
0.0
 14
98.1469754728
 24
191.8197346232
 34
0.0
 50
0.0
100
AcDbRotatedDimension
  0
DIMENSION
  5
238
330
1F
100
AcDbEntity
  8
0
  6
SLD-実線
 62
     7
370
    18
100
AcDbDimension
  2
_D_1
 10
53.1469754728
 20
217.825842749
 30
0.0
 11
77.1048822272
 21
217.825842749
 31
0.0
 70
   160
  1
(<>)
 71
     2
 42
-1.0
  3
SLDDIMSTYLE0
100
AcDbAlignedDimension
 13
101.0627889815
 23
173.1338923257
 33
0.0
 14
53.1469754728
 24
190.8198869281
 34
0.0
 50
0.0
100
AcDbRotatedDimension
  0
DIMENSION
  5
244
330
1F
100
AcDbEntity
  8
0
  6
SLD-実線
 62
     7
370
    18
100
AcDbDimension
  2
_D_2
 10
33.8354912007
 20
195.8191254038
 30
0.0
 11
33.8354912007
 21
163.3191254038
 31
0.0
 70
   160
  1
<>
 71
     2
 42
-1.0
  3
SLDDIMSTYLE0
100
AcDbAlignedDimension
 13
60.1469754728
 23
130.8191254038
 33
0.0
 14
58.1462139486
 24
195.8191254038
 34
0.0
 50
90.0
100
AcDbRotatedDimension
  0
DIMENSION
  5
24E
330
1F
100
AcDbEntity
  8
0
  6
SLD-実線
 62
     7
370
    18
100
AcDbDimension
  2
_D_3
 10
44.139187644
 20
130.8191254038
 30
0.0
 11
44.139187644
 21
133.8191254038
 31
0.0
 70
   160
  1
<>
 71
     2
 42
-1.0
  3
SLDDIMSTYLE1
100
AcDbAlignedDimension
 13
57.8969754728
 23
136.8191254038
 33
0.0
 14
60.1469754728
 24
130.8191254038
 34
0.0
 50
90.0
100
AcDbRotatedDimension
  0
DIMENSION
  5
25B
330
1F
100
AcDbEntity
  8
0
  6
SLD-実線
 62
     7
370
    18
100
AcDbDimension
  2
_D_4
 10
63.1469754728
 20
119.1098126855
 30
0.0
 11
58.1469754728
 21
119.1098126855
 31
0.0
 70
   160
  1
<>
 71
     2
 42
-1.0
  3
SLDDIMSTYLE1
100
AcDbAlignedDimension
 13
53.1469754728
 23
143.8191254038
 33
0.0
 14
63.1469754728
 24
131.5691254038
 34
0.0
100
AcDbRotatedDimension
  0
DIMENSION
  5
267
330
1F
100
AcDbEntity
  8
0
  6
SLD-実線
 62
     7
370
    18
100
AcDbDimension
  2
_D_5
 10
88.1469754728
 20
119.1098126855
 30
0.0
 11
75.6469754728
 21
119.1098126855
 31
0.0
 70
   160
  1
<>
 71
     2
 42
-1.0
  3
SLDDIMSTYLE0
100
AcDbAlignedDimension
 13
63.1469754728
 23
131.5691254038
 33
0.0
 14
88.1469754728
 24
131.5691254038
 34
0.0
100
AcDbRotatedDimension
  0
INSERT
  5
277
330
1F
100
AcDbEntity
  8
0
  6
Continuous
 62
     7
370
     0
100
AcDbBlockReference
  2
SW_NOTE_0
 10
95.2089552239
 20
118.4875625765
 30
0.0
  0
LEADER
  5
279
330
1F
100
AcDbEntity
  8
0
  6
Continuous
 62
     7
370
     0
100
AcDbLeader
  3
SLDDIMSTYLE2
 76
     2
 10
89.5748798571
 20
134.4968938048
 30
0.0
 10
95.2089552239
 20
118.4875625765
 30
0.0
  0
INSERT
  5
285
330
1F
100
AcDbEntity
  8
0
  6
SLD-実線
 62
     7
370
    18
100
AcDbBlockReference
  2
SW_CENTERMARKSYMBOL_0
 10
63.1469754728
 20
136.8191254038
 30
0.0
  0
INSERT
  5
291
330
1F
100
AcDbEntity
  8
0
  6
SLD-実線
 62
     7
370
    18
100
AcDbBlockReference
  2
SW_CENTERMARKSYMBOL_1
 10
88.1469754728
 20
136.8191254038
 30
0.0
  0
LINE
  5
292
330
1F
100
AcDbEntity
  8
0
  6
SLD-実線
 62
     7
370
    18
100
AcDbLine
 10
151.2260412785
 20
134.0691254038
 30
0.0
 11
151.2260412785
 21
134.0691254038
 31
0.0
  0
LINE
  5
293
330
1F
100
AcDbEntity
  8
0
  6
SLD-実線
 62
     7
370
    18
100
AcDbLine
 10
151.2260412785
 20
139.5691254038
 30
0.0
 11
151.2260412785
 21
139.5691254038
 31
0.0
  0
ARC
  5
294
330
1F
100
AcDbEntity
  8
0
  6
SLD-実線
 62
     7
370
    18
100
AcDbCircle
 10
151.2315475656
 20
135.5691152974
 30
0.0
 40
1.500000000000044
100
AcDbArc
 50
198.8574704517
 51
269.7896748519
  0
ARC
  5
295
330
1F
100
AcDbEntity
  8
0
  6
SLD-実線
 62
     7
370
    18
100
AcDbCircle
 10
151.2315475656
 20
138.0691355103
 30
0.0
 40
1.49999999999999
100
AcDbArc
 50
90.2103251481
 51
161.1425295483
  0
LINE
  5
296
330
1F
100
AcDbEntity
  8
0
  6
SLD-実線
 62
     7
370
    18
100
AcDbLine
 10
153.2260412785
 20
135.3191254038
 30
0.0
 11
159.4373661439
 21
135.3191254038
 31
0.0
  0
LINE
  5
297
330
1F
100
AcDbEntity
  8
0
  6
SLD-実線
 62
     7
370
    18
100
AcDbLine
 10
159.4373661439
 20
138.3191254038
 30
0.0
 11
153.2260412785
 21
138.3191254038
 31
0.0
  0
LINE
  5
298
330
1F
100
AcDbEntity
  8
0
  6
SLD-実線
 62
     7
370
    18
100
AcDbLine
 10
159.4373661439
 20
135.3191254038
 30
0.0
 11
159.7260412785
 21
135.8191254038
 31
0.0
  0
LINE
  5
299
330
1F
100
AcDbEntity
  8
0
  6
SLD-実線
 62
     7
370
    18
100
AcDbLine
 10
159.7260412785
 20
137.8191254038
 30
0.0
 11
159.4373661439
 21
138.3191254038
 31
0.0
  0
SPLINE
  5
29A
330
1F
100
AcDbEntity
  8
0
  6
SLD-実線
 62
     7
370
    18
100
AcDbSpline
210
0.0
220
0.0
230
1.0
 70
     8
 71
     3
 72
     9
 73
     5
 74
     0
 42
0.000000001
 43
0.00000001
 40
0.0
 40
0.0
 40
0.0
 40
0.0
 40
0.0140932559579545
 40
1.0
 40
1.0
 40
1.0
 40
1.0
 10
144.9619837540425
 20
174.0191253974009
 30
0.0
 10
144.9552772078579
 20
173.9300112011447
 30
0.0
 10
144.9340597905432
 20
173.7051621586123
 30
0.0
 10
144.9332115546494
 20
173.4790171046048
 30
0.0
 10
144.9323752731612
 20
173.2560591707271
 30
0.0
  0
LINE
  5
29B
330
1F
100
AcDbEntity
  8
0
  6
SLD-実線
 62
     7
370
    18
100
AcDbLine
 10
144.9323752732
 20
173.2560591707
 30
0.0
 11
144.9693978728
 21
172.4354113342
 31
0.0
  0
LINE
  5
29C
330
1F
100
AcDbEntity
  8
0
  6
SLD-実線
 62
     7
370
    18
100
AcDbLine
 10
166.9828357213
 20
195.814033728
 30
0.0
 11
166.7190262139
 21
195.8186385401
 31
0.0
  0
SPLINE
  5
29D
330
1F
100
AcDbEntity
  8
0
  6
SLD-実線
 62
     7
370
    18
100
AcDbSpline
210
0.0
220
0.0
230
1.0
 70
     8
 71
     3
 72
    11
 73
     7
 74
     0
 42
0.000000001
 43
0.00000001
 40
0.0
 40
0.0
 40
0.0
 40
0.0
 40
0.2353557163243536
 40
0.4871509211899936
 40
0.7458343381362527
 40
0.9999999999999999
 40
0.9999999999999999
 40
0.9999999999999999
 40
0.9999999999999999
 10
143.699862668845
 20
195.4172019611639
 30
0.0
 10
143.5599933896345
 20
195.387263118668
 30
0.0
 10
143.2755310567628
 20
195.3655234800842
 30
0.0
 10
142.8761554950703
 20
195.173782101411
 30
0.0
 10
142.5321783329261
 20
194.8728463131158
 30
0.0
 10
142.3964942928582
 20
194.5996234401501
 30
0.0
 10
142.3292499021142
 20
194.4642154318043
 30
0.0
  0
SPLINE
  5
29E
330
1F
100
AcDbEntity
  8
0
  6
SLD-実線
 62
     7
370
    18
100
AcDbSpline
210
0.0
220
0.0
230
1.0
 70
     8
 71
     3
 72
    11
 73
     7
 74
     0
 42
0.000000001
 43
0.00000001
 40
0.0
 40
0.0
 40
0.0
 40
0.0
 40
0.249124423325747
 40
0.5018551855356127
 40
0.7534636595313261
 40
1.0
 40
1.0
 40
1.0
 40
1.0
 10
159.326041278501
 20
151.2431020632475
 30
0.0
 10
159.360092745509
 20
151.1069473003958
 30
0.0
 10
159.3871050394653
 20
151.0529672026242
 30
0.0
 10
159.4568279647785
 20
150.9958667314464
 30
0.0
 10
159.5381549783972
 20
150.9638259374209
 30
0.0
 10
159.5931168555369
 20
150.9662153360643
 30
0.0
 10
159.62031798192
 20
150.9673978709022
 30
0.0
  0
LINE
  5
29F
330
1F
100
AcDbEntity
  8
0
  6
SLD-実線
 62
     7
370
    18
100
AcDbLine
 10
166.7260412785
 20
150.8191254038
 30
0.0
 11
166.9828357213
 21
150.8242170797
 31
0.0
  0
LINE
  5
2A0
330
1F
100
AcDbEntity
  8
0
  6
SLD-実線
 62
     7
370
    18
100
AcDbLine
 10
159.0260412785
 20
159.3191254038
 30
0.0
 11
155.4260412785
 21
159.3191254038
 31
0.0
  0
LINE
  5
2A1
330
1F
100
AcDbEntity
  8
0
  6
SLD-実線
 62
     7
370
    18
100
AcDbLine
 10
155.4260412785
 20
152.3191254038
 30
0.0
 11
159.0260412785
 21
152.3191254038
 31
0.0
  0
LINE
  5
2A2
330
1F
100
AcDbEntity
  8
0
  6
SLD-実線
 62
     7
370
    18
100
AcDbLine
 10
155.4260412785
 20
159.3191254038
 30
0.0
 11
155.0260412785
 21
158.9191254038
 31
0.0
  0
LINE
  5
2A3
330
1F
100
AcDbEntity
  8
0
  6
SLD-実線
 62
     7
370
    18
100
AcDbLine
 10
155.0260412785
 20
152.7191254038
 30
0.0
 11
155.4260412785
 21
152.3191254038
 31
0.0
  0
LINE
  5
2A4
330
1F
100
AcDbEntity
  8
0
  6
SLD-実線
 62
     7
370
    18
100
AcDbLine
 10
171.2360412785
 20
189.3191254038
 30
0.0
 11
171.2360412785
 21
188.8191254038
 31
0.0
  0
LINE
  5
2A5
330
1F
100
AcDbEntity
  8
0
  6
SLD-実線
 62
     7
370
    18
100
AcDbLine
 10
171.2360412785
 20
189.3191254038
 30
0.0
 11
171.2360412785
 21
192.3191254038
 31
0.0
  0
LINE
  5
2A6
330
1F
100
AcDbEntity
  8
0
  6
SLD-実線
 62
     7
370
    18
100
AcDbLine
 10
171.2360412785
 20
192.8191254038
 30
0.0
 11
171.2360412785
 21
192.3191254038
 31
0.0
  0
LINE
  5
2A7
330
1F
100
AcDbEntity
  8
0
  6
SLD-実線
 62
     7
370
    18
100
AcDbLine
 10
171.2860412785
 20
190.8248723375
 30
0.0
 11
171.2860412785
 21
190.8248723375
 31
0.0
  0
SPLINE
  5
2A8
330
1F
100
AcDbEntity
  8
0
  6
SLD-実線
 62
     7
370
    18
100
AcDbSpline
210
0.0
220
0.0
230
1.0
 70
    24
 71
     3
 72
    23
 73
    19
 74
     0
 42
0.000000001
 43
0.00000001
 40
0.0
 40
0.0
 40
0.0
 40
0.0
 40
0.0440793286751639
 40
0.0893633000314139
 40
0.1367162385176004
 40
0.185823417089045
 40
0.2372944302463601
 40
0.2915121887979073
 40
0.3485009794901187
 40
0.4080365559422285
 40
0.4707535587072594
 40
0.5362649958261627
 40
0.6051487410552384
 40
0.6774251000096135
 40
0.752769336007125
 40
0.8316909001507695
 40
0.9142191633457031
 40
1.0
 40
1.0
 40
1.0
 40
1.0
 10
171.286041278501
 20
189.9172452188568
 30
0.0
 10
171.286041278501
 20
189.9274964733179
 30
0.0
 10
171.286041278501
 20
189.9482791384726
 30
0.0
 10
171.286041278501
 20
189.983150287664
 30
0.0
 10
171.286041278501
 20
190.0210478649699
 30
0.0
 10
171.286041278501
 20
190.0623954845736
 30
0.0
 10
171.286041278501
 20
190.1073159437857
 30
0.0
 10
171.286041278501
 20
190.1555709371613
 30
0.0
 10
171.286041278501
 20
190.2073799466759
 30
0.0
 10
171.286041278501
 20
190.2626012401151
 30
0.0
 10
171.286041278501
 20
190.3210142372686
 30
0.0
 10
171.286041278501
 20
190.3829437906109
 30
0.0
 10
171.286041278501
 20
190.448201761359
 30
0.0
 10
171.286041278501
 20
190.516939375911
 30
0.0
 10
171.286041278501
 20
190.5891002394335
 30
0.0
 10
171.286041278501
 20
190.6646485052819
 30
0.0
 10
171.286041278501
 20
190.7436457510017
 30
0.0
 10
171.286041278501
 20
190.7974502182137
 30
0.0
 10
171.286041278501
 20
190.8248723375009
 30
0.0
  0
LINE
  5
2A9
330
1F
100
AcDbEntity
  8
0
  6
SLD-実線
 62
     7
370
    18
100
AcDbLine
 10
171.2860412785
 20
189.9172452189
 30
0.0
 11
171.2860412785
 21
189.9172452189
 31
0.0
  0
SPLINE
  5
2AA
330
1F
100
AcDbEntity
  8
0
  6
SLD-実線
 62
     7
370
    18
100
AcDbSpline
210
0.0
220
0.0
230
1.0
 70
    24
 71
     3
 72
    23
 73
    19
 74
     0
 42
0.000000001
 43
0.00000001
 40
0.0
 40
0.0
 40
0.0
 40
0.0
 40
0.0854659829657969
 40
0.1676446297253732
 40
0.2461789565979258
 40
0.3215145575780775
 40
0.3933378556686157
 40
0.4621495370220769
 40
0.5275570302750708
 40
0.5901470881262291
 40
0.64993083361654
 40
0.7067515302568759
 40
0.7607879204922292
 40
0.8128204109454343
 40
0.8620996046054547
 40
0.9099690979100281
 40
0.9557470545256426
 40
0.9999999999999999
 40
0.9999999999999999
 40
0.9999999999999999
 40
0.9999999999999999
 10
171.286041278501
 20
190.8248723375009
 30
0.0
 10
171.286041278501
 20
190.8518989698269
 30
0.0
 10
171.286041278501
 20
190.904912690746
 30
0.0
 10
171.286041278501
 20
190.9827246220862
 30
0.0
 10
171.286041278501
 20
191.0572158837753
 30
0.0
 10
171.286041278501
 20
191.1283285825501
 30
0.0
 10
171.286041278501
 20
191.1961361943595
 30
0.0
 10
171.286041278501
 20
191.2604755661823
 30
0.0
 10
171.286041278501
 20
191.3216189977057
 30
0.0
 10
171.286041278501
 20
191.379351826114
 30
0.0
 10
171.286041278501
 20
191.4339518317788
 30
0.0
 10
171.286041278501
 20
191.485100372643
 30
0.0
 10
171.286041278501
 20
191.5327221567792
 30
0.0
 10
171.286041278501
 20
191.5774022133442
 30
0.0
 10
171.286041278501
 20
191.6184808546586
 30
0.0
 10
171.286041278501
 20
191.6563055812134
 30
0.0
 10
171.286041278501
 20
191.6911554222353
 30
0.0
 10
171.286041278501
 20
191.7117155551059
 30
0.0
 10
171.286041278501
 20
191.7218214900433
 30
0.0
  0
SPLINE
  5
2AB
330
1F
100
AcDbEntity
  8
0
  6
SLD-実線
 62
     7
370
    18
100
AcDbSpline
210
0.0
220
0.0
230
1.0
 70
    24
 71
     3
 72
    15
 73
    11
 74
     0
 42
0.000000001
 43
0.00000001
 40
0.0
 40
0.0
 40
0.0
 40
0.0
 40
0.1213168683304946
 40
0.2417533089794416
 40
0.361524158072824
 40
0.4816915395533748
 40
0.6047742771873866
 40
0.7314271915847952
 40
0.8632374624087975
 40
1.0
 40
1.0
 40
1.0
 40
1.0
 10
171.286041278501
 20
191.7218214900433
 30
0.0
 10
171.286041278501
 20
191.7328784512463
 30
0.0
 10
171.286041278501
 20
191.7549121304442
 30
0.0
 10
171.286041278501
 20
191.7834585321665
 30
0.0
 10
171.286041278501
 20
191.8072254952512
 30
0.0
 10
171.286041278501
 20
191.8266428555699
 30
0.0
 10
171.286041278501
 20
191.8423523553625
 30
0.0
 10
171.286041278501
 20
191.8526174516656
 30
0.0
 10
171.286041278501
 20
191.8597849507593
 30
0.0
 10
171.286041278501
 20
191.8603482210793
 30
0.0
 10
171.286041278501
 20
191.8606350493653
 30
0.0
  0
SPLINE
  5
2AC
330
1F
100
AcDbEntity
  8
0
  6
SLD-実線
 62
     7
370
    18
100
AcDbSpline
210
0.0
220
0.0
230
1.0
 70
    24
 71
     3
 72
    15
 73
    11
 74
     0
 42
0.000000001
 43
0.00000001
 40
0.0
 40
0.0
 40
0.0
 40
0.0
 40
0.1368844905311045
 40
0.2688122982940917
 40
0.3955781507484417
 40
0.5184631752654505
 40
0.6387377115685868
 40
0.7586153618914487
 40
0.8785749518344921
 40
1.0
 40
1.0
 40
1.0
 40
1.0
 10
171.286041278501
 20
189.7792226199867
 30
0.0
 10
171.286041278501
 20
189.7795127806438
 30
0.0
 10
171.286041278501
 20
189.7800825950383
 30
0.0
 10
171.286041278501
 20
189.7872029897047
 30
0.0
 10
171.286041278501
 20
189.7976290081238
 30
0.0
 10
171.286041278501
 20
189.8127141459868
 30
0.0
 10
171.286041278501
 20
189.8322464859448
 30
0.0
 10
171.286041278501
 20
189.8560459052881
 30
0.0
 10
171.286041278501
 20
189.8841192472857
 30
0.0
 10
171.286041278501
 20
189.906158627606
 30
0.0
 10
171.286041278501
 20
189.9172452188568
 30
0.0
  0
LINE
  5
2AD
330
1F
100
AcDbEntity
  8
0
  6
SLD-実線
 62
     7
370
    18
100
AcDbLine
 10
171.2860412785
 20
191.72182149
 30
0.0
 11
171.2860412785
 21
191.72182149
 31
0.0
  0
LINE
  5
2AE
330
1F
100
AcDbEntity
  8
0
  6
SLD-実線
 62
     7
370
    18
100
AcDbLine
 10
171.2360412785
 20
192.8191254038
 30
0.0
 11
171.2360412785
 21
192.8191254038
 31
0.0
  0
LINE
  5
2AF
330
1F
100
AcDbEntity
  8
0
  6
SLD-実線
 62
     7
370
    18
100
AcDbLine
 10
171.2360412785
 20
188.8191254038
 30
0.0
 11
171.2360412785
 21
188.8191254038
 31
0.0
  0
LINE
  5
2B0
330
1F
100
AcDbEntity
  8
0
  6
SLD-実線
 62
     7
370
    18
100
AcDbLine
 10
171.2860412785
 20
191.8606350494
 30
0.0
 11
171.2260412785
 21
191.8191254038
 31
0.0
  0
LINE
  5
2B1
330
1F
100
AcDbEntity
  8
0
  6
SLD-実線
 62
     7
370
    18
100
AcDbLine
 10
171.2860412785
 20
189.77922262
 30
0.0
 11
171.2360412785
 21
189.77922262
 31
0.0
  0
LINE
  5
2B2
330
1F
100
AcDbEntity
  8
0
  6
SLD-実線
 62
     7
370
    18
100
AcDbLine
 10
171.2860412785
 20
189.77922262
 30
0.0
 11
171.2360412785
 21
189.7606350494
 31
0.0
  0
LINE
  5
2B3
330
1F
100
AcDbEntity
  8
0
  6
SLD-実線
 62
     7
370
    18
100
AcDbLine
 10
167.2260412785
 20
191.8191254038
 30
0.0
 11
167.2260412785
 21
148.8191254038
 31
0.0
  0
LINE
  5
2B4
330
1F
100
AcDbEntity
  8
0
  6
SLD-実線
 62
     7
370
    18
100
AcDbLine
 10
171.2260412785
 20
191.8191254038
 30
0.0
 11
167.2260412785
 21
191.8191254038
 31
0.0
  0
LINE
  5
2B5
330
1F
100
AcDbEntity
  8
0
  6
SLD-実線
 62
     7
370
    18
100
AcDbLine
 10
171.2260412785
 20
191.8191254038
 30
0.0
 11
171.2260412785
 21
143.8191254038
 31
0.0
  0
LINE
  5
2B6
330
1F
100
AcDbEntity
  8
0
  6
SLD-実線
 62
     7
370
    18
100
AcDbLine
 10
148.7260412785
 20
143.8191254038
 30
0.0
 11
171.2260412785
 21
143.8191254038
 31
0.0
  0
LINE
  5
2B7
330
1F
100
AcDbEntity
  8
0
  6
SLD-実線
 62
     7
370
    18
100
AcDbLine
 10
148.7260412785
 20
146.8191254038
 30
0.0
 11
148.7260412785
 21
143.8191254038
 31
0.0
  0
LINE
  5
2B8
330
1F
100
AcDbEntity
  8
0
  6
SLD-実線
 62
     7
370
    18
100
AcDbLine
 10
150.7260412785
 20
148.8191254038
 30
0.0
 11
148.7260412785
 21
146.8191254038
 31
0.0
  0
LINE
  5
2B9
330
1F
100
AcDbEntity
  8
0
  6
SLD-実線
 62
     7
370
    18
100
AcDbLine
 10
150.7260412785
 20
148.8191254038
 30
0.0
 11
167.2260412785
 21
148.8191254038
 31
0.0
  0
LINE
  5
2BA
330
1F
100
AcDbEntity
  8
0
  6
SLD-実線
 62
     7
370
    18
100
AcDbLine
 10
167.2260412785
 20
191.8191254038
 30
0.0
 11
167.2260412785
 21
195.8191254038
 31
0.0
  0
LINE
  5
2BB
330
1F
100
AcDbEntity
  8
0
  6
SLD-実線
 62
     7
370
    18
100
AcDbLine
 10
148.7260412785
 20
140.0691254038
 30
0.0
 11
148.7260412785
 21
143.8191254038
 31
0.0
  0
LINE
  5
2BC
330
1F
100
AcDbEntity
  8
0
  6
SLD-実線
 62
     7
370
    18
100
AcDbLine
 10
148.7260412785
 20
140.0691254038
 30
0.0
 11
148.7260412785
 21
133.5691254038
 31
0.0
  0
LINE
  5
2BD
330
1F
100
AcDbEntity
  8
0
  6
SLD-実線
 62
     7
370
    18
100
AcDbLine
 10
148.7260412785
 20
130.8191254038
 30
0.0
 11
148.7260412785
 21
133.5691254038
 31
0.0
  0
LINE
  5
2BE
330
1F
100
AcDbEntity
  8
0
  6
SLD-実線
 62
     7
370
    18
100
AcDbLine
 10
167.2260412785
 20
195.8191254038
 30
0.0
 11
171.2260412785
 21
195.8191254038
 31
0.0
  0
LINE
  5
2BF
330
1F
100
AcDbEntity
  8
0
  6
SLD-実線
 62
     7
370
    18
100
AcDbLine
 10
171.2260412785
 20
195.8191254038
 30
0.0
 11
171.2260412785
 21
191.8191254038
 31
0.0
  0
LINE
  5
2C0
330
1F
100
AcDbEntity
  8
0
  6
SLD-実線
 62
     7
370
    18
100
AcDbLine
 10
148.7260412785
 20
140.0691254038
 30
0.0
 11
151.7260412785
 21
140.0691254038
 31
0.0
  0
LINE
  5
2C1
330
1F
100
AcDbEntity
  8
0
  6
SLD-実線
 62
     7
370
    18
100
AcDbLine
 10
153.2260412785
 20
143.8191254038
 30
0.0
 11
153.2260412785
 21
130.8191254038
 31
0.0
  0
LINE
  5
2C2
330
1F
100
AcDbEntity
  8
0
  6
SLD-実線
 62
     7
370
    18
100
AcDbLine
 10
153.2260412785
 20
130.8191254038
 30
0.0
 11
148.7260412785
 21
130.8191254038
 31
0.0
  0
LINE
  5
2C3
330
1F
100
AcDbEntity
  8
0
  6
SLD-実線
 62
     7
370
    18
100
AcDbLine
 10
151.7260412785
 20
133.5691254038
 30
0.0
 11
148.7260412785
 21
133.5691254038
 31
0.0
  0
LINE
  5
2C4
330
1F
100
AcDbEntity
  8
0
  6
SLD-実線
 62
     7
370
    18
100
AcDbLine
 10
151.7260412785
 20
133.5691254038
 30
0.0
 11
151.7260412785
 21
140.0691254038
 31
0.0
  0
SPLINE
  5
2C5
330
1F
100
AcDbEntity
  8
0
  6
SLD-実線
 62
     7
370
    18
100
AcDbSpline
210
0.0
220
0.0
230
1.0
 70
    27
 71
     3
 72
     8
 73
     4
 74
     0
 42
0.000000001
 43
0.00000001
 40
0.0
 40
0.0
 40
0.0
 40
0.0
 40
1.0
 40
1.0
 40
1.0
 40
1.0
 10
149.8120592619372
 20
135.0842926951501
 30
0.0
 10
149.8050568299976
 20
135.0830579774686
 30
0.0
 10
149.8050568299976
 20
135.0830579774686
 30
0.0
 10
149.8120592619372
 20
135.0842926951501
 30
0.0
  0
SPLINE
  5
2C6
330
1F
100
AcDbEntity
  8
0
  6
SLD-実線
 62
     7
370
    18
100
AcDbSpline
210
0.0
220
0.0
230
1.0
 70
     8
 71
     3
 72
     8
 73
     4
 74
     0
 42
0.000000001
 43
0.00000001
 40
0.0
 40
0.0
 40
0.0
 40
0.0
 40
1.0
 40
1.0
 40
1.0
 40
1.0
 10
149.726041278501
 20
135.5943805324526
 30
0.0
 10
149.726041278501
 20
135.420372093246
 30
0.0
 10
149.7548058650326
 20
135.2488328356863
 30
0.0
 10
149.8120592619372
 20
135.0842926951501
 30
0.0
  0
LINE
  5
2C7
330
1F
100
AcDbEntity
  8
0
  6
SLD-実線
 62
     7
370
    18
100
AcDbLine
 10
149.7260412785
 20
135.5943805325
 30
0.0
 11
149.7260412785
 21
136.5691254038
 31
0.0
  0
SPLINE
  5
2C8
330
1F
100
AcDbEntity
  8
0
  6
SLD-実線
 62
     7
370
    18
100
AcDbSpline
210
0.0
220
0.0
230
1.0
 70
    24
 71
     3
 72
     8
 73
     4
 74
     0
 42
0.000000001
 43
0.00000001
 40
0.0
 40
0.0
 40
0.0
 40
0.0
 40
1.0
 40
1.0
 40
1.0
 40
1.0
 10
149.8120592619372
 20
136.5842926951501
 30
0.0
 10
149.7548597656425
 20
136.5742068806704
 30
0.0
 10
149.726041278501
 20
136.5691254038442
 30
0.0
 10
149.726041278501
 20
136.5691254038442
 30
0.0
  0
SPLINE
  5
2C9
330
1F
100
AcDbEntity
  8
0
  6
SLD-実線
 62
     7
370
    18
100
AcDbSpline
210
0.0
220
0.0
230
1.0
 70
     8
 71
     3
 72
     8
 73
     4
 74
     0
 42
0.000000001
 43
0.00000001
 40
0.0
 40
0.0
 40
0.0
 40
0.0
 40
1.0
 40
1.0
 40
1.0
 40
1.0
 10
149.8120592619372
 20
137.0539581125383
 30
0.0
 10
149.8050568299976
 20
136.8974029734089
 30
0.0
 10
149.8050568299976
 20
136.7408478342795
 30
0.0
 10
149.8120592619372
 20
136.5842926951501
 30
0.0
  0
SPLINE
  5
2CA
330
1F
100
AcDbEntity
  8
0
  6
SLD-実線
 62
     7
370
    18
100
AcDbSpline
210
0.0
220
0.0
230
1.0
 70
    24
 71
     3
 72
     8
 73
     4
 74
     0
 42
0.000000001
 43
0.00000001
 40
0.0
 40
0.0
 40
0.0
 40
0.0
 40
1.0
 40
1.0
 40
1.0
 40
1.0
 10
149.726041278501
 20
137.0691254038442
 30
0.0
 10
149.726041278501
 20
137.0691254038442
 30
0.0
 10
149.7548058650326
 20
137.0640534311497
 30
0.0
 10
149.8120592619372
 20
137.0539581125383
 30
0.0
  0
LINE
  5
2CB
330
1F
100
AcDbEntity
  8
0
  6
SLD-実線
 62
     7
370
    18
100
AcDbLine
 10
149.7260412785
 20
137.0691254038
 30
0.0
 11
149.7260412785
 21
138.0438702752
 31
0.0
  0
SPLINE
  5
2CC
330
1F
100
AcDbEntity
  8
0
  6
SLD-実線
 62
     7
370
    18
100
AcDbSpline
210
0.0
220
0.0
230
1.0
 70
     8
 71
     3
 72
     8
 73
     4
 74
     0
 42
0.000000001
 43
0.00000001
 40
0.0
 40
0.0
 40
0.0
 40
0.0
 40
1.0
 40
1.0
 40
1.0
 40
1.0
 10
149.8120592619372
 20
138.5539581125383
 30
0.0
 10
149.7548597656425
 20
138.3895728765912
 30
0.0
 10
149.726041278501
 20
138.2171640345497
 30
0.0
 10
149.726041278501
 20
138.0438702752358
 30
0.0
  0
SPLINE
  5
2CD
330
1F
100
AcDbEntity
  8
0
  6
SLD-実線
 62
     7
370
    18
100
AcDbSpline
210
0.0
220
0.0
230
1.0
 70
    27
 71
     3
 72
     8
 73
     4
 74
     0
 42
0.000000001
 43
0.00000001
 40
0.0
 40
0.0
 40
0.0
 40
0.0
 40
1.0
 40
1.0
 40
1.0
 40
1.0
 10
149.8120592619372
 20
138.5539581125383
 30
0.0
 10
149.8050568299976
 20
138.5551928302198
 30
0.0
 10
149.8050568299976
 20
138.5551928302198
 30
0.0
 10
149.8120592619372
 20
138.5539581125383
 30
0.0
  0
LINE
  5
2CE
330
1F
100
AcDbEntity
  8
0
  6
SLD-実線
 62
     7
370
    18
100
AcDbLine
 10
159.4373661439
 20
135.3191254038
 30
0.0
 11
159.4373661439
 21
138.3191254038
 31
0.0
  0
LINE
  5
2CF
330
1F
100
AcDbEntity
  8
0
  6
SLD-実線
 62
     7
370
    18
100
AcDbLine
 10
159.7260412785
 20
137.8191254038
 30
0.0
 11
159.7260412785
 21
135.8191254038
 31
0.0
  0
SPLINE
  5
2D0
330
1F
100
AcDbEntity
  8
0
  6
SLD-実線
 62
     7
370
    18
100
AcDbSpline
210
0.0
220
0.0
230
1.0
 70
     8
 71
     3
 72
    34
 73
    30
 74
     0
 42
0.000000001
 43
0.00000001
 40
0.0
 40
0.0
 40
0.0
 40
0.0
 40
0.0098015252685167
 40
0.0195853713599644
 40
0.0293598792260679
 40
0.0391334137269294
 40
0.0489143422199799
 40
0.058711013116995
 40
0.0896386723450303
 40
0.1205837381315874
 40
0.1526697158581926
 40
0.1847730472704915
 40
0.2501083076574884
 40
0.3154435680444851
 40
0.3795588159283117
 40
0.4413652401644165
 40
0.5000030896625062
 40
0.5586409391605963
 40
0.6204473633967011
 40
0.6845626112805279
 40
0.7498978716675246
 40
0.8152331320545214
 40
0.8473191073248485
 40
0.879422437030291
 40
0.910350097945605
 40
0.9412951654228704
 40
0.9608631672535338
 40
0.9804091170862304
 40
1.0
 40
1.0
 40
1.0
 40
1.0
 10
144.9619837540425
 20
174.0191253974009
 30
0.0
 10
144.9702505006765
 20
174.1163300701005
 30
0.0
 10
144.9867690830738
 20
174.3105640857858
 30
0.0
 10
145.0222692372374
 20
174.6006636727542
 30
0.0
 10
145.0655901295487
 20
174.8893863408742
 30
0.0
 10
145.1174984178922
 20
175.1766708810634
 30
0.0
 10
145.1777929227253
 20
175.4625390160263
 30
0.0
 10
145.2958492348884
 20
175.9511661076747
 30
0.0
 10
145.5052985660091
 20
176.6342006127514
 30
0.0
 10
145.8617222203277
 20
177.5000660220449
 30
0.0
 10
146.3030507053322
 20
178.3394395871597
 30
0.0
 10
147.0107264276254
 20
179.4187590908738
 30
0.0
 10
148.093126419934
 20
180.6390069564662
 30
0.0
 10
149.6465046984038
 20
181.8186654912838
 30
0.0
 10
151.3657992562148
 20
182.6620225753768
 30
0.0
 10
153.1470590932842
 20
183.1506058326524
 30
0.0
 10
154.9313091343546
 20
183.307398737316
 30
0.0
 10
156.7155592053624
 20
183.1506058379566
 30
0.0
 10
158.4968189465388
 20
182.6620225524627
 30
0.0
 10
160.2161138750318
 20
181.8186655813635
 30
0.0
 10
161.7694907364869
 20
180.6390066135037
 30
0.0
 10
162.8517797218345
 20
179.418890206559
 30
0.0
 10
163.5594739228355
 20
178.3395873241992
 30
0.0
 10
164.0007625697215
 20
177.5003845287359
 30
0.0
 10
164.3572160484803
 20
176.6343467222561
 30
0.0
 10
164.5954331763688
 20
175.8582705794859
 30
0.0
 10
164.7488891141402
 20
175.1778436531644
 30
0.0
 10
164.8462263159899
 20
174.6012336916667
 30
0.0
 10
164.8824845789132
 20
174.2133099541794
 30
0.0
 10
164.9006345244694
 20
174.0191253974009
 30
0.0
  0
SPLINE
  5
2D1
330
1F
100
AcDbEntity
  8
0
  6
SLD-実線
 62
     7
370
    18
100
AcDbSpline
210
0.0
220
0.0
230
1.0
 70
     8
 71
     3
 72
    34
 73
    30
 74
     0
 42
0.000000001
 43
0.00000001
 40
0.0
 40
0.0
 40
0.0
 40
0.0
 40
0.0097908585072766
 40
0.0195638245975182
 40
0.0293273528938632
 40
0.0390899225395593
 40
0.0488600151737991
 40
0.0586460928751669
 40
0.0895674253979167
 40
0.1205059424210366
 40
0.1526064645973217
 40
0.1847241301852897
 40
0.2501100542766501
 40
0.3154959783680098
 40
0.3796387404448816
 40
0.4414312017300343
 40
0.5000031321549073
 40
0.5585750625797801
 40
0.6203675238649332
 40
0.684510285941805
 40
0.749896210033165
 40
0.8152821341245248
 40
0.8473826538653175
 40
0.8795003177435303
 40
0.9104216519911652
 40
0.941360170739442
 40
0.9609068148334616
 40
0.9804307916417526
 40
1.0
 40
1.0
 40
1.0
 40
1.0
 10
164.9094843382499
 20
172.6191254102873
 30
0.0
 10
164.9023895316564
 20
172.521109597089
 30
0.0
 10
164.8882128839553
 20
172.325257090818
 30
0.0
 10
164.8560530674892
 20
172.032613227757
 30
0.0
 10
164.8159407874124
 20
171.7412709991982
 30
0.0
 10
164.7670974637083
 20
171.4512826974543
 30
0.0
 10
164.70972745144
 20
171.1626288152366
 30
0.0
 10
164.5963927573687
 20
170.668814715634
 30
0.0
 10
164.392815527731
 20
169.9779419346305
 30
0.0
 10
164.0423015665866
 20
169.1011064411638
 30
0.0
 10
163.6051219871688
 20
168.2502673966289
 30
0.0
 10
162.900357173014
 20
167.1550741721066
 30
0.0
 10
161.8168373781337
 20
165.915622092628
 30
0.0
 10
160.2555949632768
 20
164.7166045574315
 30
0.0
 10
158.5241376702973
 20
163.8594029757356
 30
0.0
 10
156.7291899384553
 20
163.36311641625
 30
0.0
 10
154.9313091442101
 20
163.2039627882641
 30
0.0
 10
153.1334283196952
 20
163.3631164111021
 30
0.0
 10
151.3384806849216
 20
163.8594029980038
 30
0.0
 10
149.6070230163654
 20
164.7166044698162
 30
0.0
 10
148.0457820378915
 20
165.915622426328
 30
0.0
 10
146.9623718282504
 20
167.1549427299445
 30
0.0
 10
146.257588349718
 20
168.2501193843908
 30
0.0
 10
145.8204462491858
 20
169.1007878476445
 30
0.0
 10
145.4699053859205
 20
169.9777957687159
 30
0.0
 10
145.2383782263219
 20
170.7627067716433
 30
0.0
 10
145.091682456505
 20
171.4501378513988
 30
0.0
 10
145.0005943126681
 20
172.0321126307889
 30
0.0
 10
144.9689662624801
 20
172.4233036120154
 30
0.0
 10
144.9531339402619
 20
172.6191254102873
 30
0.0
  0
SPLINE
  5
2D2
330
1F
100
AcDbEntity
  8
0
  6
SLD-実線
 62
     7
370
    18
100
AcDbSpline
210
0.0
220
0.0
230
1.0
 70
     8
 71
     3
 72
    14
 73
    10
 74
     0
 42
0.000000001
 43
0.00000001
 40
0.0
 40
0.0
 40
0.0
 40
0.0
 40
0.25
 40
0.25
 40
0.5
 40
0.5
 40
0.75
 40
0.75
 40
1.0
 40
1.0
 40
1.0
 40
1.0
 10
161.8768198145109
 20
173.1338923256663
 30
0.0
 10
161.8444250042918
 20
171.2777121859561
 30
0.0
 10
161.0760441654074
 20
169.5102880529524
 30
0.0
 10
158.405595663224
 20
166.931073083761
 30
0.0
 10
156.6127011159696
 20
166.2247255597754
 30
0.0
 10
152.900906247001
 20
166.2895250494897
 30
0.0
 10
151.1337513012534
 20
167.0580229343243
 30
0.0
 10
148.5549291589946
 20
169.7288782207044
 30
0.0
 10
147.8486892151581
 20
171.5220458760782
 30
0.0
 10
147.8810840253772
 20
173.3782260157884
 30
0.0
  0
SPLINE
  5
2D3
330
1F
100
AcDbEntity
  8
0
  6
SLD-実線
 62
     7
370
    18
100
AcDbSpline
210
0.0
220
0.0
230
1.0
 70
     8
 71
     3
 72
    14
 73
    10
 74
     0
 42
0.000000001
 43
0.00000001
 40
0.0
 40
0.0
 40
0.0
 40
0.0
 40
0.25
 40
0.25
 40
0.5
 40
0.5
 40
0.75
 40
0.75
 40
1.0
 40
1.0
 40
1.0
 40
1.0
 10
147.8810840253772
 20
173.3782260157884
 30
0.0
 10
147.9134788355962
 20
175.2344061554985
 30
0.0
 10
148.6818596744807
 20
177.0018302885022
 30
0.0
 10
151.3523081766641
 20
179.5810452576936
 30
0.0
 10
153.1452027239185
 20
180.2873927816792
 30
0.0
 10
156.8569975928871
 20
180.2225932919649
 30
0.0
 10
158.6241525386347
 20
179.4540954071303
 30
0.0
 10
161.2029746808935
 20
176.7832401207502
 30
0.0
 10
161.90921462473
 20
174.9900724653764
 30
0.0
 10
161.8768198145109
 20
173.1338923256663
 30
0.0
  0
SPLINE
  5
2D4
330
1F
100
AcDbEntity
  8
0
  6
SLD-実線
 62
     7
370
    18
100
AcDbSpline
210
0.0
220
0.0
230
1.0
 70
     8
 71
     3
 72
     8
 73
     4
 74
     0
 42
0.000000001
 43
0.00000001
 40
0.0
 40
0.0
 40
0.0
 40
0.0
 40
1.0
 40
1.0
 40
1.0
 40
1.0
 10
164.9094843382499
 20
172.6191254102873
 30
0.0
 10
164.9193546715927
 20
172.7738007136139
 30
0.0
 10
164.9255587377124
 20
172.9265687039461
 30
0.0
 10
164.9282632743514
 20
173.0815351063545
 30
0.0
  0
SPLINE
  5
2D5
330
1F
100
AcDbEntity
  8
0
  6
SLD-実線
 62
     7
370
    18
100
AcDbSpline
210
0.0
220
0.0
230
1.0
 70
     8
 71
     3
 72
     8
 73
     4
 74
     0
 42
0.000000001
 43
0.00000001
 40
0.0
 40
0.0
 40
0.0
 40
0.0
 40
0.9999999999999999
 40
0.9999999999999999
 40
0.9999999999999999
 40
0.9999999999999999
 10
164.9282632743514
 20
173.0815351063545
 30
0.0
 10
164.9337277418934
 20
173.3946419298534
 30
0.0
 10
164.9245266487047
 20
173.7068839124836
 30
0.0
 10
164.9006345244694
 20
174.0191253974008
 30
0.0
  0
LINE
  5
2D6
330
1F
100
AcDbEntity
  8
0
  6
SLD-実線
 62
     7
370
    18
100
AcDbLine
 10
144.9323752732
 20
173.2560591707
 30
0.0
 11
144.9477197496
 21
173.7152763966
 31
0.0
  0
LINE
  5
2D7
330
1F
100
AcDbEntity
  8
0
  6
SLD-実線
 62
     7
370
    18
100
AcDbLine
 10
144.9531339403
 20
172.6191254103
 30
0.0
 11
144.944733134
 21
172.9821331945
 31
0.0
  0
LINE
  5
2D8
330
1F
100
AcDbEntity
  8
0
  6
SLD-実線
 62
     7
370
    18
100
AcDbLine
 10
167.0208055566
 20
191.8236612213
 30
0.0
 11
167.2260412785
 21
191.8272436241
 31
0.0
  0
SPLINE
  5
2D9
330
1F
100
AcDbEntity
  8
0
  6
SLD-実線
 62
     7
370
    18
100
AcDbSpline
210
0.0
220
0.0
230
1.0
 70
     8
 71
     3
 72
    13
 73
     9
 74
     0
 42
0.000000001
 43
0.00000001
 40
0.0
 40
0.0
 40
0.0
 40
0.0
 40
0.1219416306734297
 40
0.2437624525312186
 40
0.4996519757052283
 40
0.6563824104637933
 40
0.8910440640905364
 40
1.0
 40
1.0
 40
1.0
 40
1.0
 10
166.726041278501
 20
191.8197346232186
 30
0.0
 10
166.7270566965718
 20
191.5425759243599
 30
0.0
 10
166.7290865267283
 20
191.5802952538901
 30
0.0
 10
166.7515444874473
 20
191.6548197376704
 30
0.0
 10
166.7976899586675
 20
191.7264617036622
 30
0.0
 10
166.8767230494463
 20
191.7890951958563
 30
0.0
 10
166.9508004702765
 20
191.8188794475112
 30
0.0
 10
167.0039520084353
 20
191.8225100212943
 30
0.0
 10
167.0208055565698
 20
191.8236612212807
 30
0.0
  0
SPLINE
  5
2DA
330
1F
100
AcDbEntity
  8
0
  6
SLD-実線
 62
     7
370
    18
100
AcDbSpline
210
0.0
220
0.0
230
1.0
 70
     8
 71
     3
 72
    31
 73
    27
 74
     0
 42
0.000000001
 43
0.00000001
 40
0.0
 40
0.0
 40
0.0
 40
0.0
 40
0.0328617967588429
 40
0.0655091590456773
 40
0.097942118372175
 40
0.1301607069034761
 40
0.162164957475441
 40
0.1939549036124788
 40
0.2255305795459676
 40
0.2568920202333014
 40
0.2880392613775841
 40
0.3189723394479955
 40
0.3496912917008585
 40
0.3801961562014358
 40
0.4104869718464875
 40
0.4405637783876238
 40
0.4704266164554753
 40
0.5000755275847343
 40
0.559569303533144
 40
0.6199187342788736
 40
0.681124121055588
 40
0.7431857511190405
 40
0.8061038984829337
 40
0.8698788246059679
 40
0.9345107790338874
 40
0.9999999999999999
 40
0.9999999999999999
 40
0.9999999999999999
 40
0.9999999999999999
 10
166.726041278501
 20
191.8197346232186
 30
0.0
 10
166.7260398120008
 20
191.8885409776433
 30
0.0
 10
166.7260368885696
 20
192.0257047014788
 30
0.0
 10
166.7260188356848
 20
192.2302324002323
 30
0.0
 10
166.7259970241286
 20
192.4323475214533
 30
0.0
 10
166.7259740461373
 20
192.6315523796919
 30
0.0
 10
166.7259534084384
 20
192.8273737006473
 30
0.0
 10
166.7259373787012
 20
193.0193632367655
 30
0.0
 10
166.7259275860389
 20
193.2070983080111
 30
0.0
 10
166.7259248932235
 20
193.3901822042177
 30
0.0
 10
166.7259294641975
 20
193.5682444752635
 30
0.0
 10
166.7259407815977
 20
193.7409410964476
 30
0.0
 10
166.725957679205
 20
193.9079545638809
 30
0.0
 10
166.7259783714942
 20
194.068993747143
 30
0.0
 10
166.7260004861375
 20
194.2237941622766
 30
0.0
 10
166.7260210926623
 20
194.3721162436012
 30
0.0
 10
166.7260367474062
 20
194.5137505833737
 30
0.0
 10
166.7260457561616
 20
194.6940333857405
 30
0.0
 10
166.7260234428753
 20
194.9050952604622
 30
0.0
 10
166.7259775718393
 20
195.1331520179832
 30
0.0
 10
166.7259379952048
 20
195.3340805328943
 30
0.0
 10
166.7259212988227
 20
195.5046177046219
 30
0.0
 10
166.7259346017369
 20
195.6419918860627
 30
0.0
 10
166.7259724145311
 20
195.7423805131199
 30
0.0
 10
166.7260241460229
 20
195.8069611631309
 30
0.0
 10
166.7260355426472
 20
195.815052886929
 30
0.0
 10
166.726041278501
 20
195.8191254038442
 30
0.0
  0
LINE
  5
2DB
330
1F
100
AcDbEntity
  8
0
  6
SLD-実線
 62
     7
370
    18
100
AcDbLine
 10
167.2260412785
 20
195.8097790171
 30
0.0
 11
166.9828357213
 21
195.814033728
 31
0.0
  0
SPLINE
  5
2DC
330
1F
100
AcDbEntity
  8
0
  6
SLD-実線
 62
     7
370
    18
100
AcDbSpline
210
0.0
220
0.0
230
1.0
 70
    24
 71
     3
 72
    14
 73
    10
 74
     0
 42
0.000000001
 43
0.00000001
 40
0.0
 40
0.0
 40
0.0
 40
0.0
 40
0.25
 40
0.25
 40
0.5
 40
0.5
 40
0.75
 40
0.75
 40
1.0
 40
1.0
 40
1.0
 40
1.0
 10
167.2260412784854
 20
191.8272436241326
 30
0.0
 10
167.2260412784854
 20
192.3482441329245
 30
0.0
 10
167.2260412784854
 20
192.8688160395999
 30
0.0
 10
167.2260412784853
 20
193.8310652061364
 30
0.0
 10
167.2260412784854
 20
194.2723680455031
 30
0.0
 10
167.2260412784854
 20
195.0091757925491
 30
0.0
 10
167.2260412784854
 20
195.3043940011793
 30
0.0
 10
167.2260412784854
 20
195.7042037730881
 30
0.0
 10
167.2260412784854
 20
195.8086397665022
 30
0.0
 10
167.2260412784854
 20
195.8097790171451
 30
0.0
  0
LINE
  5
2DD
330
1F
100
AcDbEntity
  8
0
  6
SLD-実線
 62
     7
370
    18
100
AcDbLine
 10
166.7260412785
 20
191.8197346232
 30
0.0
 11
166.7260412785
 21
174.0191253974
 31
0.0
  0
LINE
  5
2DE
330
1F
100
AcDbEntity
  8
0
  6
SLD-実線
 62
     7
370
    18
100
AcDbLine
 10
164.9006345245
 20
174.0191253974
 30
0.0
 11
166.7260412785
 21
174.0191253974
 31
0.0
  0
LINE
  5
2DF
330
1F
100
AcDbEntity
  8
0
  6
SLD-実線
 62
     7
370
    18
100
AcDbLine
 10
143.6998635549
 20
174.0191253974
 30
0.0
 11
144.961983754
 21
174.0191253974
 31
0.0
  0
LINE
  5
2E0
330
1F
100
AcDbEntity
  8
0
  6
SLD-実線
 62
     7
370
    18
100
AcDbLine
 10
143.6998626688
 20
191.4178111805
 30
0.0
 11
143.6998626688
 21
174.0191254038
 31
0.0
  0
LINE
  5
2E1
330
1F
100
AcDbEntity
  8
0
  6
SLD-実線
 62
     7
370
    18
100
AcDbLine
 10
166.7260412785
 20
191.8197346232
 30
0.0
 11
143.6998626688
 21
191.4178111805
 31
0.0
  0
SPLINE
  5
2E2
330
1F
100
AcDbEntity
  8
0
  6
SLD-実線
 62
     7
370
    18
100
AcDbSpline
210
0.0
220
0.0
230
1.0
 70
     8
 71
     3
 72
    22
 73
    18
 74
     0
 42
0.000000001
 43
0.00000001
 40
0.0
 40
0.0
 40
0.0
 40
0.0
 40
0.0632587549321643
 40
0.1270042020255438
 40
0.1912363790423288
 40
0.2559553228224256
 40
0.3211610693103966
 40
0.3868536535814194
 40
0.4530331098662888
 40
0.5196994715755037
 40
0.5868527713225045
 40
0.6544930409460554
 40
0.7226203115318465
 40
0.7912346134333251
 40
0.860335976291798
 40
0.929924429055835
 40
1.0
 40
1.0
 40
1.0
 40
1.0
 10
143.6890247706164
 20
194.2456922294493
 30
0.0
 10
143.6890326376068
 20
194.1981868211165
 30
0.0
 10
143.6890484321136
 20
194.1028105133835
 30
0.0
 10
143.6891805225073
 20
193.9506098167644
 30
0.0
 10
143.6893979122833
 20
193.7913368424166
 30
0.0
 10
143.6897122534964
 20
193.6246095857135
 30
0.0
 10
143.6901248959927
 20
193.4508999671374
 30
0.0
 10
143.6906390654146
 20
193.2704914359
 30
0.0
 10
143.6912565075805
 20
193.0837618466595
 30
0.0
 10
143.6919783397426
 20
192.891107016365
 30
0.0
 10
143.6928047786484
 20
192.6929614648477
 30
0.0
 10
143.693735117851
 20
192.489792629582
 30
0.0
 10
143.6947678552632
 20
192.2821020574337
 30
0.0
 10
143.6958999702563
 20
192.0704245057516
 30
0.0
 10
143.697129499318
 20
191.8553273246271
 30
0.0
 10
143.6984456610531
 20
191.6374097496993
 30
0.0
 10
143.6993892359188
 20
191.4911807087763
 30
0.0
 10
143.6998626688451
 20
191.4178111805383
 30
0.0
  0
LINE
  5
2E3
330
1F
100
AcDbEntity
  8
0
  6
SLD-実線
 62
     7
370
    18
100
AcDbLine
 10
143.6998626688
 20
195.4172019612
 30
0.0
 11
143.6975575266
 21
195.3772474803
 31
0.0
  0
LINE
  5
2E4
330
1F
100
AcDbEntity
  8
0
  6
SLD-実線
 62
     7
370
    18
100
AcDbLine
 10
166.7260412785
 20
195.8191254038
 30
0.0
 11
143.6998626688
 21
195.4172019612
 31
0.0
  0
LINE
  5
2E5
330
1F
100
AcDbEntity
  8
0
  6
SLD-実線
 62
     7
370
    18
100
AcDbLine
 10
166.7260412785
 20
155.8183638796
 30
0.0
 11
166.7260412785
 21
150.8191254038
 31
0.0
  0
LINE
  5
2E6
330
1F
100
AcDbEntity
  8
0
  6
SLD-実線
 62
     7
370
    18
100
AcDbLine
 10
166.7260412785
 20
172.6191254103
 30
0.0
 11
166.7260412785
 21
155.8183638796
 31
0.0
  0
SPLINE
  5
2E7
330
1F
100
AcDbEntity
  8
0
  6
SLD-実線
 62
     7
370
    18
100
AcDbSpline
210
0.0
220
0.0
230
1.0
 70
    24
 71
     3
 72
    13
 73
     9
 74
     0
 42
0.000000001
 43
0.00000001
 40
0.0
 40
0.0
 40
0.0
 40
0.0
 40
0.1281377364457024
 40
0.2510760410891594
 40
0.3737251181731591
 40
0.50102864359284
 40
0.7483362646727028
 40
1.0
 40
1.0
 40
1.0
 40
1.0
 10
166.726041278501
 20
172.8191254038441
 30
0.0
 10
166.726041278501
 20
172.8057279270554
 30
0.0
 10
166.726041278501
 20
172.7794766015211
 30
0.0
 10
166.726041278501
 20
172.7418251668778
 30
0.0
 10
166.726041278501
 20
172.7073137332567
 30
0.0
 10
166.726041278501
 20
172.6673717863443
 30
0.0
 10
166.726041278501
 20
172.627359657271
 30
0.0
 10
166.726041278501
 20
172.6218860877141
 30
0.0
 10
166.726041278501
 20
172.6191254102873
 30
0.0
  0
LINE
  5
2E8
330
1F
100
AcDbEntity
  8
0
  6
SLD-実線
 62
     7
370
    18
100
AcDbLine
 10
166.7260412785
 20
172.8191254038
 30
0.0
 11
166.7260412785
 21
173.8191254038
 31
0.0
  0
SPLINE
  5
2E9
330
1F
100
AcDbEntity
  8
0
  6
SLD-実線
 62
     7
370
    18
100
AcDbSpline
210
0.0
220
0.0
230
1.0
 70
    24
 71
     3
 72
    13
 73
     9
 74
     0
 42
0.000000001
 43
0.00000001
 40
0.0
 40
0.0
 40
0.0
 40
0.0
 40
0.1281569636027036
 40
0.2511109768707248
 40
0.3737704061977454
 40
0.5010776958249736
 40
0.7483716646743855
 40
1.0
 40
1.0
 40
1.0
 40
1.0
 10
166.726041278501
 20
174.0191253974009
 30
0.0
 10
166.726041278501
 20
174.0183630098435
 30
0.0
 10
166.726041278501
 20
174.0168691863408
 30
0.0
 10
166.726041278501
 20
174.0053071344919
 30
0.0
 10
166.726041278501
 20
173.9866999238109
 30
0.0
 10
166.726041278501
 20
173.9534118740021
 30
0.0
 10
166.726041278501
 20
173.8982417774923
 30
0.0
 10
166.726041278501
 20
173.8456498251827
 30
0.0
 10
166.726041278501
 20
173.8191254038441
 30
0.0
  0
LINE
  5
2EA
330
1F
100
AcDbEntity
  8
0
  6
SLD-実線
 62
     7
370
    18
100
AcDbLine
 10
166.7260412785
 20
172.6191254103
 30
0.0
 11
164.9094843382
 21
172.6191254103
 31
0.0
  0
LINE
  5
2EB
330
1F
100
AcDbEntity
  8
0
  6
SLD-実線
 62
     7
370
    18
100
AcDbLine
 10
159.6208055566
 20
161.1978201062
 30
0.0
 11
159.6208055566
 21
155.9423862305
 31
0.0
  0
LINE
  5
2EC
330
1F
100
AcDbEntity
  8
0
  6
SLD-実線
 62
     7
370
    18
100
AcDbLine
 10
143.6998626688
 20
161.4615383954
 30
0.0
 11
159.6208055566
 21
161.1978201062
 31
0.0
  0
LINE
  5
2ED
330
1F
100
AcDbEntity
  8
0
  6
SLD-実線
 62
     7
370
    18
100
AcDbLine
 10
143.6998626688
 20
172.6191254103
 30
0.0
 11
143.6998626688
 21
161.4615383954
 31
0.0
  0
LINE
  5
2EE
330
1F
100
AcDbEntity
  8
0
  6
SLD-実線
 62
     7
370
    18
100
AcDbLine
 10
144.9531339403
 20
172.6191254103
 30
0.0
 11
143.6998626688
 21
172.6191254103
 31
0.0
  0
LINE
  5
2EF
330
1F
100
AcDbEntity
  8
0
  6
SLD-実線
 62
     7
370
    18
100
AcDbLine
 10
166.7260412785
 20
155.8183638796
 30
0.0
 11
159.6208055566
 21
155.9423862305
 31
0.0
  0
SPLINE
  5
2F0
330
1F
100
AcDbEntity
  8
0
  6
SLD-実線
 62
     7
370
    18
100
AcDbSpline
210
0.0
220
0.0
230
1.0
 70
     8
 71
     3
 72
    23
 73
    19
 74
     0
 42
0.000000001
 43
0.00000001
 40
0.0
 40
0.0
 40
0.0
 40
0.0
 40
0.0592890999650818
 40
0.1190060010953131
 40
0.1791507765849806
 40
0.239723498029519
 40
0.3007242354697875
 40
0.3621530574348025
 40
0.4240100309830488
 40
0.4862952217423351
 40
0.5490086939483542
 40
0.6121505104819132
 40
0.6757207329049435
 40
0.7397194214953109
 40
0.8041466352804821
 40
0.8690024320700909
 40
0.934286868487437
 40
1.0
 40
1.0
 40
1.0
 40
1.0
 10
159.6186379769241
 20
152.4073362843157
 30
0.0
 10
159.6186379897607
 20
152.3532050400867
 30
0.0
 10
159.6186380155266
 20
152.2445519670295
 30
0.0
 10
159.6186439436246
 20
152.0911586432755
 30
0.0
 10
159.6186605823349
 20
151.9446674577908
 30
0.0
 10
159.6186922747936
 20
151.8062998855966
 30
0.0
 10
159.6187426740065
 20
151.6763721413184
 30
0.0
 10
159.6188147484852
 20
151.5554370478416
 30
0.0
 10
159.6189107296298
 20
151.4439722141327
 30
0.0
 10
159.6190320758296
 20
151.34246201363
 30
0.0
 10
159.6191794335414
 20
151.2513720620718
 30
0.0
 10
159.6193525999047
 20
151.1711556863788
 30
0.0
 10
159.6195504900093
 20
151.1022405310039
 30
0.0
 10
159.6197710929993
 20
151.0450624783999
 30
0.0
 10
159.620011479224
 20
150.9999284178658
 30
0.0
 10
159.6202676247395
 20
150.9675220363986
 30
0.0
 10
159.6205349353874
 20
150.9469862596372
 30
0.0
 10
159.6207151529192
 20
150.9444300447866
 30
0.0
 10
159.6208055565698
 20
150.9431477547006
 30
0.0
  0
SPLINE
  5
2F1
330
1F
100
AcDbEntity
  8
0
  6
SLD-実線
 62
     7
370
    18
100
AcDbSpline
210
0.0
220
0.0
230
1.0
 70
     8
 71
     3
 72
    25
 73
    21
 74
     0
 42
0.000000001
 43
0.00000001
 40
0.0
 40
0.0
 40
0.0
 40
0.0
 40
0.0584329704913493
 40
0.1165271977652515
 40
0.1742827209142382
 40
0.2316995797466828
 40
0.2887778148035734
 40
0.3455174673757665
 40
0.4019185795217626
 40
0.4579811940860185
 40
0.5137053547177889
 40
0.5690911058905658
 40
0.6241384929220836
 40
0.6788475619949524
 40
0.733218360177916
 40
0.7872509354477767
 40
0.840945336711997
 40
0.894301613832007
 40
0.947319817647252
 40
1.0
 40
1.0
 40
1.0
 40
1.0
 10
159.6208055565698
 20
155.9423862304826
 30
0.0
 10
159.6207252038647
 20
155.8659081887164
 30
0.0
 10
159.6205649642692
 20
155.7133954579301
 30
0.0
 10
159.6203263984681
 20
155.4857706037798
 30
0.0
 10
159.6200956676188
 20
155.2604159008628
 30
0.0
 10
159.619876165532
 20
155.0377741033548
 30
0.0
 10
159.6196709990985
 20
154.8182690856945
 30
0.0
 10
159.6194825645983
 20
154.6023054127548
 30
0.0
 10
159.619312679633
 20
154.3902679104898
 30
0.0
 10
159.6191625690257
 20
154.182521343774
 30
0.0
 10
159.6190328908962
 20
153.9794101312398
 30
0.0
 10
159.6189237533221
 20
153.7812582552332
 30
0.0
 10
159.6188347345972
 20
153.5883687929211
 30
0.0
 10
159.6187649035692
 20
153.4010251712871
 30
0.0
 10
159.618712840581
 20
153.2194863583227
 30
0.0
 10
159.6186766597805
 20
153.0440047709796
 30
0.0
 10
159.6186540286491
 20
152.8747604738208
 30
0.0
 10
159.6186421998702
 20
152.7121051241353
 30
0.0
 10
159.6186379991268
 20
152.5556610765648
 30
0.0
 10
159.6186379843092
 20
152.4566723603776
 30
0.0
 10
159.6186379769241
 20
152.4073362843157
 30
0.0
  0
LINE
  5
2F2
330
1F
100
AcDbEntity
  8
0
  6
SLD-実線
 62
     7
370
    18
100
AcDbLine
 10
166.7260412785
 20
150.8191254038
 30
0.0
 11
159.6208055566
 21
150.9431477547
 31
0.0
  0
SPLINE
  5
2F3
330
1F
100
AcDbEntity
  8
0
  6
SLD-実線
 62
     7
370
    18
100
AcDbSpline
210
0.0
220
0.0
230
1.0
 70
     8
 71
     3
 72
    15
 73
    11
 74
     0
 42
0.000000001
 43
0.00000001
 40
0.0
 40
0.0
 40
0.0
 40
0.0
 40
0.1286715300489823
 40
0.2430220408508678
 40
0.3430530597530923
 40
0.4287678191473356
 40
0.500172487983415
 40
0.690771536384494
 40
0.8572028238907323
 40
1.0
 40
1.0
 40
1.0
 40
1.0
 10
159.6208055565698
 20
161.197820106174
 30
0.0
 10
159.6030912217905
 20
161.1585599916009
 30
0.0
 10
159.5696341408904
 20
161.0844093759677
 30
0.0
 10
159.5234455273283
 20
160.9799973525982
 30
0.0
 10
159.4847515645572
 20
160.8888964021288
 30
0.0
 10
159.4533946085833
 20
160.8111050195019
 30
0.0
 10
159.4133150194111
 20
160.7064822259661
 30
0.0
 10
159.3700523503406
 20
160.5792385568926
 30
0.0
 10
159.3334405601
 20
160.4338772561648
 30
0.0
 10
159.3283787488228
 20
160.3489206976011
 30
0.0
 10
159.326041278501
 20
160.3096890029731
 30
0.0
  0
LINE
  5
2F4
330
1F
100
AcDbEntity
  8
0
  6
SLD-実線
 62
     7
370
    18
100
AcDbLine
 10
159.6208055566
 20
155.9423862305
 30
0.0
 11
159.3260412785
 21
155.9423862305
 31
0.0
  0
LINE
  5
2F5
330
1F
100
AcDbEntity
  8
0
  6
SLD-実線
 62
     7
370
    18
100
AcDbLine
 10
159.3260412785
 20
160.309689003
 30
0.0
 11
159.3260412785
 21
155.9423862305
 31
0.0
  0
SPLINE
  5
2F6
330
1F
100
AcDbEntity
  8
0
  6
SLD-実線
 62
     7
370
    18
100
AcDbSpline
210
0.0
220
0.0
230
1.0
 70
     8
 71
     3
 72
    14
 73
    10
 74
     0
 42
0.000000001
 43
0.00000001
 40
0.0
 40
0.0
 40
0.0
 40
0.0
 40
0.25
 40
0.25
 40
0.5
 40
0.5
 40
0.75
 40
0.75
 40
1.0
 40
1.0
 40
1.0
 40
1.0
 10
143.6998626688451
 20
161.4615383953661
 30
0.0
 10
143.6967206877595
 20
161.2717959901865
 30
0.0
 10
143.6942157191438
 20
161.0821187551475
 30
0.0
 10
143.6908330122091
 20
160.7296394776288
 30
0.0
 10
143.6899564357363
 20
160.5669584999372
 30
0.0
 10
143.6899564357363
 20
160.2916521951395
 30
0.0
 10
143.6908330122091
 20
160.1791214264985
 30
0.0
 10
143.6942157191437
 20
160.0201717099577
 30
0.0
 10
143.6967206877596
 20
159.9738073559446
 30
0.0
 10
143.6998626688451
 20
159.9638222374069
 30
0.0
  0
LINE
  5
2F7
330
1F
100
AcDbEntity
  8
0
  6
SLD-実線
 62
     7
370
    18
100
AcDbLine
 10
143.6998626688
 20
159.9638222374
 30
0.0
 11
159.3260412785
 21
159.7049864939
 31
0.0
  0
ARC
  5
2F8
330
1F
100
AcDbEntity
  8
0
  6
SLD-実線
 62
     7
370
    18
100
AcDbCircle
 10
159.5863562436
 20
152.67068263
 30
0.0
 40
0.2653175608531247
100
AcDbArc
 50
191.1438971938
 51
276.9886115516
  0
SPLINE
  5
2F9
330
1F
100
AcDbEntity
  8
0
  6
SLD-実線
 62
     7
370
    18
100
AcDbSpline
210
0.0
220
0.0
230
1.0
 70
    24
 71
     3
 72
    10
 73
     6
 74
     0
 42
0.000000001
 43
0.00000001
 40
0.0
 40
0.0
 40
0.0
 40
0.0
 40
0.5
 40
0.5
 40
1.0
 40
1.0
 40
1.0
 40
1.0
 10
159.326041278501
 20
155.9423862304826
 30
0.0
 10
159.326041278501
 20
155.3270722913843
 30
0.0
 10
159.326041278501
 20
154.7122594763012
 30
0.0
 10
159.326041278501
 20
153.5756202244678
 30
0.0
 10
159.326041278501
 20
153.054430005489
 30
0.0
 10
159.326041278501
 20
152.6194037159569
 30
0.0
  0
ARC
  5
2FA
330
1F
100
AcDbEntity
  8
0
  6
SLD-実線
 62
     7
370
    18
100
AcDbCircle
 10
140.8340968814
 20
172.7691576657
 30
0.0
 40
2.869690440779245
100
AcDbArc
 50
357.0031137011
 51
0.997698272
  0
ARC
  5
2FB
330
1F
100
AcDbEntity
  8
0
  6
SLD-実線
 62
     7
370
    18
100
AcDbCircle
 10
140.8340977674
 20
173.869093142
 30
0.0
 40
2.869690440817712
100
AcDbArc
 50
359.002301728
 51
2.9968862989
  0
ARC
  5
2FC
330
1F
100
AcDbEntity
  8
0
  6
SLD-実線
 62
     7
370
    18
100
AcDbCircle
 10
142.2260412785
 20
172.8191254038
 30
0.0
 40
0.2000000000000171
100
AcDbArc
 50
270.0000002462
 51
0.0
  0
LINE
  5
2FD
330
1F
100
AcDbEntity
  8
0
  6
SLD-実線
 62
     7
370
    18
100
AcDbLine
 10
142.4260412785
 20
172.8191254038
 30
0.0
 11
143.7033531501
 21
172.8191254038
 31
0.0
  0
SPLINE
  5
2FE
330
1F
100
AcDbEntity
  8
0
  6
SLD-実線
 62
     7
370
    18
100
AcDbSpline
210
0.0
220
0.0
230
1.0
 70
     8
 71
     3
 72
    14
 73
    10
 74
     0
 42
0.000000001
 43
0.00000001
 40
0.0
 40
0.0
 40
0.0
 40
0.0
 40
0.25
 40
0.25
 40
0.5
 40
0.5
 40
0.75
 40
0.75
 40
1.0
 40
1.0
 40
1.0
 40
1.0
 10
143.6998626688451
 20
172.6191254102873
 30
0.0
 10
143.5057285928519
 20
172.6191254102873
 30
0.0
 10
143.3123336585517
 20
172.6191254102873
 30
0.0
 10
142.9555406550255
 20
172.6191254102873
 30
0.0
 10
142.7922768427398
 20
172.6191254102873
 30
0.0
 10
142.5200899555815
 20
172.6191254102873
 30
0.0
 10
142.4112693013795
 20
172.6191254102873
 30
0.0
 10
142.2642205831339
 20
172.6191254102873
 30
0.0
 10
142.2260478517643
 20
172.6191254102873
 30
0.0
 10
142.2260412793603
 20
172.6191254038441
 30
0.0
  0
LINE
  5
2FF
330
1F
100
AcDbEntity
  8
0
  6
SLD-実線
 62
     7
370
    18
100
AcDbLine
 10
143.7033531501
 20
173.8191254038
 30
0.0
 11
142.4260412785
 21
173.8191254038
 31
0.0
  0
ARC
  5
300
330
1F
100
AcDbEntity
  8
0
  6
SLD-実線
 62
     7
370
    18
100
AcDbCircle
 10
142.2260412785
 20
173.8191254038
 30
0.0
 40
0.2000000000000171
100
AcDbArc
 50
0.0
 51
89.9999997538
  0
SPLINE
  5
301
330
1F
100
AcDbEntity
  8
0
  6
SLD-実線
 62
     7
370
    18
100
AcDbSpline
210
0.0
220
0.0
230
1.0
 70
    24
 71
     3
 72
    14
 73
    10
 74
     0
 42
0.000000001
 43
0.00000001
 40
0.0
 40
0.0
 40
0.0
 40
0.0
 40
0.25
 40
0.25
 40
0.5
 40
0.5
 40
0.75
 40
0.75
 40
1.0
 40
1.0
 40
1.0
 40
1.0
 10
142.2260412793603
 20
174.0191254038441
 30
0.0
 10
142.2260478517643
 20
174.0191254038441
 30
0.0
 10
142.2642205831339
 20
174.0191254038441
 30
0.0
 10
142.4112693013795
 20
174.0191254038441
 30
0.0
 10
142.5200899555815
 20
174.0191254038441
 30
0.0
 10
142.7922768427398
 20
174.0191254038441
 30
0.0
 10
142.9555406550255
 20
174.0191254038441
 30
0.0
 10
143.3123336585517
 20
174.0191254038441
 30
0.0
 10
143.5057285928519
 20
174.0191254038441
 30
0.0
 10
143.6998626688451
 20
174.0191254038441
 30
0.0
  0
LINE
  5
302
330
1F
100
AcDbEntity
  8
0
  6
SLD-実線
 62
     7
370
    18
100
AcDbLine
 10
142.2260412785
 20
191.4178111805
 30
0.0
 11
142.2260412785
 21
174.0191254038
 31
0.0
  0
LINE
  5
303
330
1F
100
AcDbEntity
  8
0
  6
SLD-実線
 62
     7
370
    18
100
AcDbLine
 10
143.6998626688
 20
191.4178111805
 30
0.0
 11
142.2260412785
 21
191.4178111805
 31
0.0
  0
LINE
  5
304
330
1F
100
AcDbEntity
  8
0
  6
SLD-実線
 62
     7
370
    18
100
AcDbLine
 10
142.2260412785
 20
161.4615383954
 30
0.0
 11
143.6998626688
 21
161.4615383954
 31
0.0
  0
LINE
  5
305
330
1F
100
AcDbEntity
  8
0
  6
SLD-実線
 62
     7
370
    18
100
AcDbLine
 10
142.2260412785
 20
172.6191254038
 30
0.0
 11
142.2260412785
 21
161.4615383954
 31
0.0
  0
SPLINE
  5
306
330
1F
100
AcDbEntity
  8
0
  6
SLD-実線
 62
     7
370
    18
100
AcDbSpline
210
0.0
220
0.0
230
1.0
 70
    24
 71
     3
 72
    10
 73
     6
 74
     0
 42
0.000000001
 43
0.00000001
 40
0.0
 40
0.0
 40
0.0
 40
0.0
 40
0.5
 40
0.5
 40
1.0
 40
1.0
 40
1.0
 40
1.0
 10
142.226041278501
 20
193.1853550712435
 30
0.0
 10
142.226041278501
 20
192.9539581117933
 30
0.0
 10
142.226041278501
 20
192.6767292630636
 30
0.0
 10
142.226041278501
 20
192.0721339279046
 30
0.0
 10
142.226041278501
 20
191.7451058246534
 30
0.0
 10
142.226041278501
 20
191.4178111805383
 30
0.0
  0
ARC
  5
307
330
1F
100
AcDbEntity
  8
0
  6
SLD-実線
 62
     7
370
    18
100
AcDbCircle
 10
143.5276161041
 20
192.928960501
 30
0.0
 40
1.326587804263822
100
AcDbArc
 50
83.0113884483
 51
168.8561028063
  0
SPLINE
  5
308
330
1F
100
AcDbEntity
  8
0
  6
SLD-実線
 62
     7
370
    18
100
AcDbSpline
210
0.0
220
0.0
230
1.0
 70
     8
 71
     3
 72
     9
 73
     5
 74
     0
 42
0.000000001
 43
0.00000001
 40
0.0
 40
0.0
 40
0.0
 40
0.0
 40
0.7167352456530081
 40
0.9999999999999999
 40
0.9999999999999999
 40
0.9999999999999999
 40
0.9999999999999999
 10
142.226041278501
 20
161.4615383953661
 30
0.0
 10
142.2385740216227
 20
161.2623835845425
 30
0.0
 10
142.2560598969131
 20
160.9845197400734
 30
0.0
 10
142.4177732533936
 20
160.7655800516921
 30
0.0
 10
142.4635809475917
 20
160.703562154646
 30
0.0
  0
SPLINE
  5
309
330
1F
100
AcDbEntity
  8
0
  6
SLD-実線
 62
     7
370
    18
100
AcDbSpline
210
0.0
220
0.0
230
1.0
 70
    24
 71
     3
 72
    10
 73
     6
 74
     0
 42
0.000000001
 43
0.00000001
 40
0.0
 40
0.0
 40
0.0
 40
0.0
 40
0.5
 40
0.5
 40
1.0
 40
1.0
 40
1.0
 40
1.0
 10
159.326041278501
 20
152.6194037159569
 30
0.0
 10
159.326041278501
 20
152.1843774264281
 30
0.0
 10
159.326041278501
 20
151.8361704911933
 30
0.0
 10
159.326041278501
 20
151.3654010923194
 30
0.0
 10
159.326041278501
 20
151.2431020632507
 30
0.0
 10
159.326041278501
 20
151.2431020632475
 30
0.0
  0
LINE
  5
30A
330
1F
100
AcDbEntity
  8
0
  6
SLD-実線
 62
     7
370
    18
100
AcDbLine
 10
143.7033531501
 20
172.8191254038
 30
0.0
 11
143.7033531501
 21
173.8191254038
 31
0.0
  0
LINE
  5
30B
330
1F
100
AcDbEntity
  8
0
  6
SLD-実線
 62
     7
370
    18
100
AcDbLine
 10
142.4260412785
 20
173.8191254038
 30
0.0
 11
142.4260412785
 21
172.8191254038
 31
0.0
  0
LINE
  5
30C
330
1F
100
AcDbEntity
  8
0
  6
SLD-実線
 62
     7
370
    18
100
AcDbLine
 10
159.3260412785
 20
159.7049864939
 30
0.0
 11
143.6998626688
 21
159.7864368421
 31
0.0
  0
LINE
  5
30D
330
1F
100
AcDbEntity
  8
0
  6
SLD-実線
 62
     7
370
    18
100
AcDbLine
 10
143.6998626688
 20
159.7864368421
 30
0.0
 11
143.6998626688
 21
159.9638222374
 31
0.0
  0
SPLINE
  5
30E
330
1F
100
AcDbEntity
  8
0
  6
SLD-実線
 62
     7
370
    18
100
AcDbSpline
210
0.0
220
0.0
230
1.0
 70
    24
 71
     3
 72
    10
 73
     6
 74
     0
 42
0.000000001
 43
0.00000001
 40
0.0
 40
0.0
 40
0.0
 40
0.0
 40
0.5
 40
0.5
 40
1.0
 40
1.0
 40
1.0
 40
1.0
 10
142.226041278501
 20
193.9174304184293
 30
0.0
 10
142.226041278501
 20
193.9174304184242
 30
0.0
 10
142.226041278501
 20
193.8523777409973
 30
0.0
 10
142.226041278501
 20
193.6019684910646
 30
0.0
 10
142.226041278501
 20
193.4167520306868
 30
0.0
 10
142.226041278501
 20
193.1853550712435
 30
0.0
  0
LINE
  5
30F
330
1F
100
AcDbEntity
  8
0
  6
SLD-実線
 62
     7
370
    18
100
AcDbLine
 10
143.6998626688
 20
195.4172019612
 30
0.0
 11
143.4679332521
 21
195.395056977
 31
0.0
  0
ARC
  5
310
330
1F
100
AcDbEntity
  8
0
  6
SLD-実線
 62
     7
370
    18
100
AcDbCircle
 10
143.7260412785
 20
193.9174304184
 30
0.0
 40
1.499999999999995
100
AcDbArc
 50
158.6217486792
 51
180.0
  0
ARC
  5
311
330
1F
100
AcDbEntity
  8
0
  6
SLD-実線
 62
     7
370
    18
100
AcDbCircle
 10
159.6260412785
 20
151.2431020632
 30
0.0
 40
0.299999999999998
100
AcDbArc
 50
236.2084713689
 51
269.0
  0
ARC
  5
312
330
1F
100
AcDbEntity
  8
0
  6
SLD-実線
 62
     7
370
    18
100
AcDbCircle
 10
159.6260412785
 20
151.2431020632
 30
0.0
 40
0.3000000000000114
100
AcDbArc
 50
180.0
 51
236.2084713689
  0
LINE
  5
313
330
1F
100
AcDbEntity
  8
0
  6
SLD-実線
 62
     7
370
    18
100
AcDbLine
 10
142.2260412785
 20
161.4615383954
 30
0.0
 11
142.2260412785
 21
161.284153
 31
0.0
  0
ARC
  5
314
330
1F
100
AcDbEntity
  8
0
  6
SLD-実線
 62
     7
370
    18
100
AcDbCircle
 10
143.7249719054
 20
161.285157483
 30
0.0
 40
1.498930963511096
100
AcDbArc
 50
180.0383957912
 51
269.0401688864
  0
SPLINE
  5
315
330
1F
100
AcDbEntity
  8
0
  6
SLD-実線
 62
     7
370
    18
100
AcDbSpline
210
0.0
220
0.0
230
1.0
 70
     8
 71
     3
 72
    10
 73
     6
 74
     0
 42
0.000000001
 43
0.00000001
 40
0.0
 40
0.0
 40
0.0
 40
0.0
 40
0.5
 40
0.5
 40
1.0
 40
1.0
 40
1.0
 40
1.0
 10
142.226041278501
 20
174.0191254038441
 30
0.0
 10
142.2269576506861
 20
174.0191254038441
 30
0.0
 10
142.2278632635965
 20
173.9436841499947
 30
0.0
 10
142.2291555793814
 20
173.6845161513546
 30
0.0
 10
142.2295317597921
 20
173.5028996391009
 30
0.0
 10
142.2295317597884
 20
173.3191254038441
 30
0.0
  0
SPLINE
  5
316
330
1F
100
AcDbEntity
  8
0
  6
SLD-実線
 62
     7
370
    18
100
AcDbSpline
210
0.0
220
0.0
230
1.0
 70
     8
 71
     3
 72
    10
 73
     6
 74
     0
 42
0.000000001
 43
0.00000001
 40
0.0
 40
0.0
 40
0.0
 40
0.0
 40
0.5
 40
0.5
 40
1.0
 40
1.0
 40
1.0
 40
1.0
 10
142.2295317597884
 20
173.3191254038441
 30
0.0
 10
142.2295317597921
 20
173.1353511685872
 30
0.0
 10
142.2291555793814
 20
172.9537346563336
 30
0.0
 10
142.2278632635965
 20
172.6945666576934
 30
0.0
 10
142.2269576506861
 20
172.6191254038441
 30
0.0
 10
142.226041278501
 20
172.6191254038441
 30
0.0
  0
SPLINE
  5
317
330
1F
100
AcDbEntity
  8
0
  6
SLD-実線
 62
     7
370
    18
100
AcDbSpline
210
0.0
220
0.0
230
1.0
 70
    24
 71
     3
 72
    10
 73
     6
 74
     0
 42
0.000000001
 43
0.00000001
 40
0.0
 40
0.0
 40
0.0
 40
0.0
 40
0.4999999999999999
 40
0.4999999999999999
 40
0.9999999999999999
 40
0.9999999999999999
 40
0.9999999999999999
 40
0.9999999999999999
 10
142.226041278501
 20
161.2841530000402
 30
0.0
 10
142.226041278501
 20
161.2133783729902
 30
0.0
 10
142.226041278501
 20
160.6450168520142
 30
0.0
 10
142.226041278501
 20
158.732556573629
 30
0.0
 10
142.226041278501
 20
157.4559956966445
 30
0.0
 10
142.226041278501
 20
156.1055353638815
 30
0.0
  0
LINE
  5
318
330
1F
100
AcDbEntity
  8
0
  6
SLD-実線
 62
     7
370
    18
100
AcDbLine
 10
142.2260412785
 20
156.1055353639
 30
0.0
 11
142.2260412785
 21
152.7208203893
 31
0.0
  0
LINE
  5
319
330
1F
100
AcDbEntity
  8
0
  6
SLD-実線
 62
     7
370
    18
100
AcDbLine
 10
142.2295317598
 20
173.3191254038
 30
0.0
 11
142.2295317598
 21
173.3191254038
 31
0.0
  0
LINE
  5
31A
330
1F
100
AcDbEntity
  8
0
  6
SLD-実線
 62
     7
370
    18
100
AcDbLine
 10
159.6208055566
 20
150.9431477547
 30
0.0
 11
143.6998626688
 21
151.2210488465
 31
0.0
  0
LINE
  5
31B
330
1F
100
AcDbEntity
  8
0
  6
SLD-実線
 62
     7
370
    18
100
AcDbLine
 10
143.6998626688
 20
156.027043386
 30
0.0
 11
143.6998626688
 21
159.7864368421
 31
0.0
  0
ARC
  5
31C
330
1F
100
AcDbEntity
  8
0
  6
SLD-実線
 62
     7
370
    18
100
AcDbCircle
 10
143.3366934801
 20
163.083926615
 30
0.0
 40
7.066221958469775
100
AcDbArc
 50
260.956884956
 51
272.9460202903
  0
LINE
  5
31D
330
1F
100
AcDbEntity
  8
0
  6
SLD-実線
 62
     7
370
    18
100
AcDbLine
 10
143.6998626688
 20
152.6423284114
 30
0.0
 11
143.6998626688
 21
156.027043386
 31
0.0
  0
SPLINE
  5
31E
330
1F
100
AcDbEntity
  8
0
  6
SLD-実線
 62
     7
370
    18
100
AcDbSpline
210
0.0
220
0.0
230
1.0
 70
     8
 71
     3
 72
    14
 73
    10
 74
     0
 42
0.000000001
 43
0.00000001
 40
0.0
 40
0.0
 40
0.0
 40
0.0
 40
0.25
 40
0.25
 40
0.5
 40
0.5
 40
0.75
 40
0.75
 40
1.0
 40
1.0
 40
1.0
 40
1.0
 10
143.6998626688451
 20
152.6423284114239
 30
0.0
 10
143.6967206877596
 20
152.4528489119024
 30
0.0
 10
143.6942157191438
 20
152.2653412269007
 30
0.0
 10
143.690833012209
 20
151.9207084275177
 30
0.0
 10
143.6899564357363
 20
151.7637016829229
 30
0.0
 10
143.6899564357363
 20
151.5024457546767
 30
0.0
 10
143.6908330122091
 20
151.3982863036581
 30
0.0
 10
143.6942157191438
 20
151.257591109288
 30
0.0
 10
143.6967206877596
 20
151.2211036900082
 30
0.0
 10
143.6998626688451
 20
151.2210488465243
 30
0.0
  0
SPLINE
  5
31F
330
1F
100
AcDbEntity
  8
0
  6
SLD-実線
 62
     7
370
    18
100
AcDbSpline
210
0.0
220
0.0
230
1.0
 70
     8
 71
     3
 72
    17
 73
    13
 74
     0
 42
0.000000001
 43
0.00000001
 40
0.0
 40
0.0
 40
0.0
 40
0.0
 40
0.0242985660366065
 40
0.0574854405832175
 40
0.1168451996786931
 40
0.240383965370605
 40
0.3482140561033206
 40
0.500113321153361
 40
0.6286204410430213
 40
0.7955946128034809
 40
0.8798693073570728
 40
1.0
 40
1.0
 40
1.0
 40
1.0
 10
143.6998626688451
 20
152.6423284114239
 30
0.0
 10
143.6810283718736
 20
152.6420069286996
 30
0.0
 10
143.6364702749947
 20
152.6412463662854
 30
0.0
 10
143.5461282150044
 20
152.6434817175933
 30
0.0
 10
143.3803168965411
 20
152.6436413947047
 30
0.0
 10
143.1630957666588
 20
152.6478867352423
 30
0.0
 10
142.8976138942604
 20
152.6541377536703
 30
0.0
 10
142.6604329315141
 20
152.6648897960959
 30
0.0
 10
142.4416161131014
 20
152.6786859226182
 30
0.0
 10
142.3135863349814
 20
152.6930663674264
 30
0.0
 10
142.2394001940899
 20
152.7075450016901
 30
0.0
 10
142.230986231874
 20
152.7159063547253
 30
0.0
 10
142.226041278501
 20
152.7208203892589
 30
0.0
  0
ARC
  5
320
330
1F
100
AcDbEntity
  8
0
  6
SLD-実線
 62
     7
370
    18
100
AcDbCircle
 10
143.7260412785
 20
152.7208203893
 30
0.0
 40
1.500000000000057
100
AcDbArc
 50
180.0
 51
269.0
  0
LINE
  5
321
330
1F
100
AcDbEntity
  8
0
  6
SLD-実線
 62
     7
370
    18
100
AcDbLine
 10
167.0208055566
 20
150.8248831589
 30
0.0
 11
167.0208055566
 21
150.8248831589
 31
0.0
  0
SPLINE
  5
322
330
1F
100
AcDbEntity
  8
0
  6
SLD-実線
 62
     7
370
    18
100
AcDbSpline
210
0.0
220
0.0
230
1.0
 70
     8
 71
     3
 72
    14
 73
    10
 74
     0
 42
0.000000001
 43
0.00000001
 40
0.0
 40
0.0
 40
0.0
 40
0.0
 40
0.1025055785356385
 40
0.2036076483972462
 40
0.3059030581728348
 40
0.5003011694474261
 40
0.7562284737227013
 40
0.878028354007014
 40
0.9999999999999999
 40
0.9999999999999999
 40
0.9999999999999999
 40
0.9999999999999999
 10
167.0208055565641
 20
150.8248831589396
 30
0.0
 10
167.004923499053
 20
150.8246043746618
 30
0.0
 10
166.9733768415064
 20
150.8240506232254
 30
0.0
 10
166.9273159410852
 20
150.823250377323
 30
0.0
 10
166.8707248904399
 20
150.8223733289515
 30
0.0
 10
166.8009461393866
 20
150.8217443779658
 30
0.0
 10
166.7516094418209
 20
150.8232447336354
 30
0.0
 10
166.7290860916527
 20
150.8267191636878
 30
0.0
 10
166.7270566928683
 20
150.8293148223737
 30
0.0
 10
166.726041278501
 20
150.83061356619
 30
0.0
  0
SPLINE
  5
323
330
1F
100
AcDbEntity
  8
0
  6
SLD-実線
 62
     7
370
    18
100
AcDbSpline
210
0.0
220
0.0
230
1.0
 70
     8
 71
     3
 72
    15
 73
    11
 74
     0
 42
0.000000001
 43
0.00000001
 40
0.0
 40
0.0
 40
0.0
 40
0.0
 40
0.1221419407097619
 40
0.2288536542882035
 40
0.3201198942176985
 40
0.3959277133476389
 40
0.4562665423567957
 40
0.5011284000542119
 40
0.7572766014273886
 40
0.9999999999999999
 40
0.9999999999999999
 40
0.9999999999999999
 40
0.9999999999999999
 10
167.0208055565698
 20
154.8145895864075
 30
0.0
 10
167.0018721349737
 20
154.8159499355328
 30
0.0
 10
166.966397156475
 20
154.8184987804803
 30
0.0
 10
166.918660279482
 20
154.8332435124082
 30
0.0
 10
166.8802095692539
 20
154.8513918029714
 30
0.0
 10
166.850539491195
 20
154.8705508238252
 30
0.0
 10
166.8286562227895
 20
154.888174599262
 30
0.0
 10
166.7881549735106
 20
154.9267181356315
 30
0.0
 10
166.738578657334
 20
154.9994583626673
 30
0.0
 10
166.7301447516981
 20
155.0768765002456
 30
0.0
 10
166.726041278501
 20
155.1145438949544
 30
0.0
  0
LINE
  5
324
330
1F
100
AcDbEntity
  8
0
  6
SLD-実線
 62
     7
370
    18
100
AcDbLine
 10
167.0208055566
 20
154.8145895864
 30
0.0
 11
167.2260412785
 21
154.8110071836
 31
0.0
  0
LINE
  5
325
330
1F
100
AcDbEntity
  8
0
  6
SLD-実線
 62
     7
370
    18
100
AcDbLine
 10
155.4260412785
 20
159.3191254038
 30
0.0
 11
155.4260412785
 21
152.3191254038
 31
0.0
  0
LINE
  5
326
330
1F
100
AcDbEntity
  8
0
  6
SLD-実線
 62
     7
370
    18
100
AcDbLine
 10
159.0260412785
 20
152.3191254038
 30
0.0
 11
159.0260412785
 21
159.3191254038
 31
0.0
  0
LINE
  5
327
330
1F
100
AcDbEntity
  8
0
  6
SLD-実線
 62
     7
370
    18
100
AcDbLine
 10
155.0260412785
 20
152.7191254038
 30
0.0
 11
155.0260412785
 21
158.9191254038
 31
0.0
  0
LINE
  5
328
330
1F
100
AcDbEntity
  8
0
  6
SLD-実線
 62
     8
370
    18
100
AcDbLine
 10
151.2260412785
 20
134.0691254038
 30
0.0
 11
151.2260412785
 21
139.5691254038
 31
0.0
  0
SPLINE
  5
329
330
1F
100
AcDbEntity
  8
0
  6
SLD-実線
 62
     8
370
    18
100
AcDbSpline
210
0.0
220
0.0
230
1.0
 70
     8
 71
     3
 72
    11
 73
     7
 74
     0
 42
0.000000001
 43
0.00000001
 40
0.0
 40
0.0
 40
0.0
 40
0.0
 40
0.1547944654910784
 40
0.4443296427465806
 40
0.7260647626967903
 40
1.0
 40
1.0
 40
1.0
 40
1.0
 10
143.6975575265845
 20
195.3772474803098
 30
0.0
 10
143.6966902939023
 20
195.367092881311
 30
0.0
 10
143.6942009465818
 20
195.3379446211902
 30
0.0
 10
143.6914578989302
 20
195.1162880201289
 30
0.0
 10
143.6893631785426
 20
194.7549958509796
 30
0.0
 10
143.6891365126975
 20
194.4138639598941
 30
0.0
 10
143.6890247706164
 20
194.2456922294493
 30
0.0
  0
LINE
  5
32A
330
1F
100
AcDbEntity
  8
0
  6
SLD-実線
 62
     8
370
    18
100
AcDbLine
 10
166.7260412785
 20
173.8191254038
 30
0.0
 11
164.9006345245
 21
174.0191253974
 31
0.0
  0
LINE
  5
32B
330
1F
100
AcDbEntity
  8
0
  6
SLD-実線
 62
     8
370
    18
100
AcDbLine
 10
164.9094843382
 20
172.6191254103
 30
0.0
 11
166.7260412785
 21
172.8191254038
 31
0.0
  0
LINE
  5
32C
330
1F
100
AcDbEntity
  8
0
  6
SLD-実線
 62
     8
370
    18
100
AcDbLine
 10
143.7033531501
 20
172.8191254038
 30
0.0
 11
144.944733134
 21
172.9821331945
 31
0.0
  0
LINE
  5
32D
330
1F
100
AcDbEntity
  8
0
  6
SLD-実線
 62
     8
370
    18
100
AcDbLine
 10
144.9477197496
 20
173.7152763966
 30
0.0
 11
143.7033531501
 21
173.8191254038
 31
0.0
  0
SPLINE
  5
32E
330
1F
100
AcDbEntity
  8
0
  6
SLD-実線
 62
     8
370
    18
100
AcDbSpline
210
0.0
220
0.0
230
1.0
 70
     8
 71
     3
 72
    10
 73
     6
 74
     0
 42
0.000000001
 43
0.00000001
 40
0.0
 40
0.0
 40
0.0
 40
0.0
 40
0.232182214297717
 40
0.6160911071488601
 40
1.0
 40
1.0
 40
1.0
 40
1.0
 10
142.4635809475917
 20
160.703562154646
 30
0.0
 10
142.5221204690446
 20
160.6019163012455
 30
0.0
 10
142.6774539802396
 20
160.3322009548398
 30
0.0
 10
143.1234774952376
 20
160.0428802920499
 30
0.0
 10
143.5077342776426
 20
159.9901749222879
 30
0.0
 10
143.6998626688451
 20
159.9638222374069
 30
0.0
  0
LINE
  5
32F
330
1F
100
AcDbEntity
  8
0
  6
SLD-実線
 62
     8
370
    18
100
AcDbLine
 10
143.6998626688
 20
156.027043386
 30
0.0
 11
155.0260412785
 21
156.0166966103
 31
0.0
  0
LINE
  5
330
330
1F
100
AcDbEntity
  8
0
  6
SLD-実線
 62
     8
370
    18
100
AcDbLine
 10
159.0260412785
 20
156.0130425002
 30
0.0
 11
159.3260412785
 21
155.9423862305
 31
0.0
  0
LINE
  5
331
330
1F
100
AcDbEntity
  8
0
  6
SLD-実線
 62
     8
370
    18
100
AcDbLine
 10
159.3260412785
 20
152.619403716
 30
0.0
 11
159.0260412785
 21
152.3748089687
 31
0.0
  0
LINE
  5
332
330
1F
100
AcDbEntity
  8
0
  6
SLD-実線
 62
     8
370
    18
100
AcDbLine
 10
155.4260412785
 20
152.3191254038
 30
0.0
 11
143.6998626688
 21
152.6423284114
 31
0.0
  0
DIMENSION
  5
333
330
1F
100
AcDbEntity
  8
0
  6
SLD-実線
 62
     7
370
    18
100
AcDbDimension
  2
_D_6
 10
171.2260412785
 20
205.825842749
 30
0.0
 11
156.7260412785
 21
205.825842749
 31
0.0
 70
   160
  1
<>
 71
     2
 42
-1.0
  3
SLDDIMSTYLE0
100
AcDbAlignedDimension
 13
142.2260412785
 23
191.4178111805
 33
0.0
 14
171.2260412785
 24
191.8191254038
 34
0.0
100
AcDbRotatedDimension
  0
DIMENSION
  5
33D
330
1F
100
AcDbEntity
  8
0
  6
SLD-実線
 62
     7
370
    18
100
AcDbDimension
  2
_D_7
 10
148.7260412785
 20
118.5866176436
 30
0.0
 11
140.8596058956
 21
118.5866176436
 31
0.0
 70
   160
  1
<>
 71
     2
 42
-1.0
  3
SLDDIMSTYLE1
100
AcDbAlignedDimension
 13
153.2260412785
 23
130.8191254038
 33
0.0
 14
148.7260412785
 24
130.8191254038
 34
0.0
100
AcDbRotatedDimension
  0
ENDSEC
  0
SECTION
  2
OBJECTS
  0
DICTIONARY
  5
C
330
0
100
AcDbDictionary
281
     1
  3
ACAD_GROUP
350
D
  3
ACAD_LAYOUT
350
1A
  3
ACAD_MLINESTYLE
350
17
  3
ACAD_PLOTSETTINGS
350
19
  3
ACAD_PLOTSTYLENAME
350
E
  3
ACAD_SCALELIST
350
47
  0
DICTIONARY
  5
D
102
{ACAD_REACTORS
330
C
102
}
330
C
100
AcDbDictionary
281
     1
  0
DICTIONARY
  5
1A
102
{ACAD_REACTORS
330
C
102
}
330
C
100
AcDbDictionary
281
     1
  3
Layout1
350
1E
  3
Layout2
350
26
  3
Model
350
22
  0
DICTIONARY
  5
17
102
{ACAD_REACTORS
330
C
102
}
330
C
100
AcDbDictionary
281
     1
  3
Standard
350
18
  0
DICTIONARY
  5
19
102
{ACAD_REACTORS
330
C
102
}
330
C
100
AcDbDictionary
281
     1
  0
ACDBDICTIONARYWDFLT
  5
E
102
{ACAD_REACTORS
330
C
102
}
330
C
100
AcDbDictionary
281
     1
  3
Normal
350
F
100
AcDbDictionaryWithDefault
340
F
  0
DICTIONARY
  5
47
102
{ACAD_REACTORS
330
C
102
}
330
C
100
AcDbDictionary
281
     1
  3
A0
350
48
  3
A1
350
49
  3
A2
350
4A
  3
A3
350
4B
  3
A4
350
4C
  3
A5
350
4D
  3
A6
350
4E
  3
A7
350
4F
  3
A8
350
50
  3
A9
350
51
  3
B0
350
52
  3
B1
350
53
  3
B2
350
54
  3
B3
350
55
  3
B4
350
56
  3
B5
350
57
  3
B6
350
58
  3
B7
350
59
  3
B8
350
5A
  3
B9
350
5B
  3
C0
350
5C
  3
C1
350
5D
  3
C2
350
5E
  3
C3
350
5F
  3
C4
350
60
  3
C5
350
61
  3
C6
350
62
  3
C7
350
63
  3
C8
350
64
  3
C9
350
65
  3
D0
350
66
  3
D1
350
67
  3
D2
350
68
  0
LAYOUT
  5
1E
102
{ACAD_REACTORS
330
1A
102
}
330
1A
100
AcDbPlotSettings
  1

  2
none_device
  4

  6

 40
0.0
 41
0.0
 42
0.0
 43
0.0
 44
0.0
 45
0.0
 46
0.0
 47
0.0
 48
0.0
 49
0.0
140
0.0
141
0.0
142
1.0
143
1.0
 70
   688
 72
     1
 73
     0
 74
     5
  7

 75
    16
147
1.0
148
0.0
149
0.0
100
AcDbLayout
  1
Layout1
 70
     1
 71
     1
 10
0.0
 20
0.0
 11
420.0
 21
297.0
 12
0.0
 22
0.0
 32
0.0
 14
1.0000000000E+20
 24
1.0000000000E+20
 34
1.0000000000E+20
 15
-1.0000000000E+20
 25
-1.0000000000E+20
 35
-1.0000000000E+20
146
0.0
 13
0.0
 23
0.0
 33
0.0
 16
1.0
 26
0.0
 36
0.0
 17
0.0
 27
1.0
 37
0.0
 76
     0
330
1B
  0
LAYOUT
  5
26
102
{ACAD_REACTORS
330
1A
102
}
330
1A
100
AcDbPlotSettings
  1

  2
none_device
  4

  6

 40
0.0
 41
0.0
 42
0.0
 43
0.0
 44
0.0
 45
0.0
 46
0.0
 47
0.0
 48
0.0
 49
0.0
140
0.0
141
0.0
142
1.0
143
1.0
 70
   688
 72
     1
 73
     0
 74
     5
  7

 75
    16
147
1.0
148
0.0
149
0.0
100
AcDbLayout
  1
Layout2
 70
     1
 71
     2
 10
0.0
 20
0.0
 11
0.0
 21
0.0
 12
0.0
 22
0.0
 32
0.0
 14
0.0
 24
0.0
 34
0.0
 15
0.0
 25
0.0
 35
0.0
146
0.0
 13
0.0
 23
0.0
 33
0.0
 16
1.0
 26
0.0
 36
0.0
 17
0.0
 27
1.0
 37
0.0
 76
     0
330
23
  0
LAYOUT
  5
22
102
{ACAD_REACTORS
330
1A
102
}
330
1A
100
AcDbPlotSettings
  1

  2
none_device
  4
Letter_(8.50_x_11.00_Inches)
  6

 40
6.35
 41
6.35
 42
6.35000508
 43
6.35000508
 44
215.9
 45
279.4
 46
0.0
 47
0.0
 48
0.0
 49
0.0
140
0.0
141
0.0
142
1.0
143
1.0
 70
  1712
 72
     1
 73
     0
 74
     0
  7

 75
     0
147
1.0
148
0.0
149
0.0
100
AcDbLayout
  1
Model
 70
     1
 71
     0
 10
0.0
 20
0.0
 11
210.0
 21
297.0
 12
0.0
 22
0.0
 32
0.0
 14
0.0
 24
0.0
 34
0.0
 15
210.0
 25
297.0
 35
0.0
146
0.0
 13
0.0
 23
0.0
 33
0.0
 16
1.0
 26
0.0
 36
0.0
 17
0.0
 27
1.0
 37
0.0
 76
     0
330
1F
331
29
  0
MLINESTYLE
  5
18
102
{ACAD_REACTORS
330
17
102
}
330
17
100
AcDbMlineStyle
  2
Standard
 70
     0
  3

 62
   256
 51
90.0
 52
90.0
 71
     2
 49
0.5
 62
   256
  6
BYLAYER
 49
-0.5
 62
   256
  6
BYLAYER
  0
ACDBPLACEHOLDER
  5
F
102
{ACAD_REACTORS
330
E
102
}
330
E
  0
SCALE
  5
48
102
{ACAD_REACTORS
330
47
102
}
330
47
100
AcDbScale
 70
     0
300
1:1
140
1.0
141
1.0
290
     1
  0
SCALE
  5
49
102
{ACAD_REACTORS
330
47
102
}
330
47
100
AcDbScale
 70
     0
300
1:2
140
1.0
141
2.0
290
     0
  0
SCALE
  5
4A
102
{ACAD_REACTORS
330
47
102
}
330
47
100
AcDbScale
 70
     0
300
1:4
140
1.0
141
4.0
290
     0
  0
SCALE
  5
4B
102
{ACAD_REACTORS
330
47
102
}
330
47
100
AcDbScale
 70
     0
300
1:5
140
1.0
141
5.0
290
     0
  0
SCALE
  5
4C
102
{ACAD_REACTORS
330
47
102
}
330
47
100
AcDbScale
 70
     0
300
1:8
140
1.0
141
8.0
290
     0
  0
SCALE
  5
4D
102
{ACAD_REACTORS
330
47
102
}
330
47
100
AcDbScale
 70
     0
300
1:10
140
1.0
141
10.0
290
     0
  0
SCALE
  5
4E
102
{ACAD_REACTORS
330
47
102
}
330
47
100
AcDbScale
 70
     0
300
1:16
140
1.0
141
16.0
290
     0
  0
SCALE
  5
4F
102
{ACAD_REACTORS
330
47
102
}
330
47
100
AcDbScale
 70
     0
300
1:20
140
1.0
141
20.0
290
     0
  0
SCALE
  5
50
102
{ACAD_REACTORS
330
47
102
}
330
47
100
AcDbScale
 70
     0
300
1:30
140
1.0
141
30.0
290
     0
  0
SCALE
  5
51
102
{ACAD_REACTORS
330
47
102
}
330
47
100
AcDbScale
 70
     0
300
1:40
140
1.0
141
40.0
290
     0
  0
SCALE
  5
52
102
{ACAD_REACTORS
330
47
102
}
330
47
100
AcDbScale
 70
     0
300
1:50
140
1.0
141
50.0
290
     0
  0
SCALE
  5
53
102
{ACAD_REACTORS
330
47
102
}
330
47
100
AcDbScale
 70
     0
300
1:100
140
1.0
141
100.0
290
     0
  0
SCALE
  5
54
102
{ACAD_REACTORS
330
47
102
}
330
47
100
AcDbScale
 70
     0
300
2:1
140
2.0
141
1.0
290
     0
  0
SCALE
  5
55
102
{ACAD_REACTORS
330
47
102
}
330
47
100
AcDbScale
 70
     0
300
4:1
140
4.0
141
1.0
290
     0
  0
SCALE
  5
56
102
{ACAD_REACTORS
330
47
102
}
330
47
100
AcDbScale
 70
     0
300
8:1
140
8.0
141
1.0
290
     0
  0
SCALE
  5
57
102
{ACAD_REACTORS
330
47
102
}
330
47
100
AcDbScale
 70
     0
300
10:1
140
10.0
141
1.0
290
     0
  0
SCALE
  5
58
102
{ACAD_REACTORS
330
47
102
}
330
47
100
AcDbScale
 70
     0
300
100:1
140
100.0
141
1.0
290
     0
  0
SCALE
  5
59
102
{ACAD_REACTORS
330
47
102
}
330
47
100
AcDbScale
 70
     0
300
1/128" = 1'-0"
140
0.0078125
141
12.0
290
     0
  0
SCALE
  5
5A
102
{ACAD_REACTORS
330
47
102
}
330
47
100
AcDbScale
 70
     0
300
1/64" = 1'-0"
140
0.015625
141
12.0
290
     0
  0
SCALE
  5
5B
102
{ACAD_REACTORS
330
47
102
}
330
47
100
AcDbScale
 70
     0
300
1/32" = 1'-0"
140
0.03125
141
12.0
290
     0
  0
SCALE
  5
5C
102
{ACAD_REACTORS
330
47
102
}
330
47
100
AcDbScale
 70
     0
300
1/16" = 1'-0"
140
0.0625
141
12.0
290
     0
  0
SCALE
  5
5D
102
{ACAD_REACTORS
330
47
102
}
330
47
100
AcDbScale
 70
     0
300
3/32" = 1'-0"
140
0.09375
141
12.0
290
     0
  0
SCALE
  5
5E
102
{ACAD_REACTORS
330
47
102
}
330
47
100
AcDbScale
 70
     0
300
1/8" = 1'-0"
140
0.125
141
12.0
290
     0
  0
SCALE
  5
5F
102
{ACAD_REACTORS
330
47
102
}
330
47
100
AcDbScale
 70
     0
300
3/16" = 1'-0"
140
0.1875
141
12.0
290
     0
  0
SCALE
  5
60
102
{ACAD_REACTORS
330
47
102
}
330
47
100
AcDbScale
 70
     0
300
1/4" = 1'-0"
140
0.25
141
12.0
290
     0
  0
SCALE
  5
61
102
{ACAD_REACTORS
330
47
102
}
330
47
100
AcDbScale
 70
     0
300
3/8" = 1'-0"
140
0.375
141
12.0
290
     0
  0
SCALE
  5
62
102
{ACAD_REACTORS
330
47
102
}
330
47
100
AcDbScale
 70
     0
300
1/2" = 1'-0"
140
0.5
141
12.0
290
     0
  0
SCALE
  5
63
102
{ACAD_REACTORS
330
47
102
}
330
47
100
AcDbScale
 70
     0
300
3/4" = 1'-0"
140
0.75
141
12.0
290
     0
  0
SCALE
  5
64
102
{ACAD_REACTORS
330
47
102
}
330
47
100
AcDbScale
 70
     0
300
1" = 1'-0"
140
1.0
141
12.0
290
     0
  0
SCALE
  5
65
102
{ACAD_REACTORS
330
47
102
}
330
47
100
AcDbScale
 70
     0
300
1-1/2" = 1'-0"
140
1.5
141
12.0
290
     0
  0
SCALE
  5
66
102
{ACAD_REACTORS
330
47
102
}
330
47
100
AcDbScale
 70
     0
300
3" = 1'-0"
140
3.0
141
12.0
290
     0
  0
SCALE
  5
67
102
{ACAD_REACTORS
330
47
102
}
330
47
100
AcDbScale
 70
     0
300
6" = 1'-0"
140
6.0
141
12.0
290
     0
  0
SCALE
  5
68
102
{ACAD_REACTORS
330
47
102
}
330
47
100
AcDbScale
 70
     0
300
1'-0" = 1'-0"
140
12.0
141
12.0
290
     0
  0
ENDSEC
  0
EOF
