  0
SECTION
  2
HEADER
  9
$ACADVER
  1
AC1015
  9
$ACADMAINTVER
 70
     6
  9
$DWGCODEPAGE
  3
DOS932
  9
$INSBASE
 10
0.0
 20
0.0
 30
0.0
  9
$EXTMIN
 10
0.0
 20
0.0
 30
0.0
  9
$EXTMAX
 10
210.0
 20
297.0
 30
0.0
  9
$LIMMIN
 10
0.0
 20
0.0
  9
$LIMMAX
 10
210.0
 20
297.0
  9
$ORTHOMODE
 70
     0
  9
$REGENMODE
 70
     1
  9
$FILLMODE
 70
     1
  9
$QTEXTMODE
 70
     0
  9
$MIRRTEXT
 70
     1
  9
$LTSCALE
 40
1.0
  9
$ATTMODE
 70
     1
  9
$TEXTSIZE
 40
3.5
  9
$TRACEWID
 40
1.0
  9
$TEXTSTYLE
  7
Standard
  9
$CLAYER
  8
0
  9
$CELTYPE
  6
ByLayer
  9
$CECOLOR
 62
   256
  9
$CELTSCALE
 40
1.0
  9
$DISPSILH
 70
     0
  9
$DIMSCALE
 40
1.0
  9
$DIMASZ
 40
3.0
  9
$DIMEXO
 40
1.0
  9
$DIMDLI
 40
3.75
  9
$DIMRND
 40
0.0
  9
$DIMDLE
 40
0.0
  9
$DIMEXE
 40
1.0
  9
$DIMTP
 40
0.0
  9
$DIMTM
 40
0.0
  9
$DIMTXT
 40
3.5
  9
$DIMCEN
 40
2.5
  9
$DIMTSZ
 40
0.0
  9
$DIMTOL
 70
     0
  9
$DIMLIM
 70
     0
  9
$DIMTIH
 70
     1
  9
$DIMTOH
 70
     1
  9
$DIMSE1
 70
     0
  9
$DIMSE2
 70
     0
  9
$DIMTAD
 70
     1
  9
$DIMZIN
 70
     0
  9
$DIMBLK
  1

  9
$DIMASO
 70
     1
  9
$DIMSHO
 70
     1
  9
$DIMPOST
  1

  9
$DIMAPOST
  1

  9
$DIMALT
 70
     0
  9
$DIMALTD
 70
     3
  9
$DIMALTF
 40
0.0393700787
  9
$DIMLFAC
 40
1.0
  9
$DIMTOFL
 70
     1
  9
$DIMTVP
 40
0.0
  9
$DIMTIX
 70
     0
  9
$DIMSOXD
 70
     0
  9
$DIMSAH
 70
     0
  9
$DIMBLK1
  1

  9
$DIMBLK2
  1

  9
$DIMSTYLE
  2
ISO-25
  9
$DIMCLRD
 70
     0
  9
$DIMCLRE
 70
     0
  9
$DIMCLRT
 70
     0
  9
$DIMTFAC
 40
1.0
  9
$DIMGAP
 40
1.524
  9
$DIMJUST
 70
     0
  9
$DIMSD1
 70
     0
  9
$DIMSD2
 70
     0
  9
$DIMTOLJ
 70
     0
  9
$DIMTZIN
 70
     0
  9
$DIMALTZ
 70
     0
  9
$DIMALTTZ
 70
     0
  9
$DIMUPT
 70
     0
  9
$DIMDEC
 70
     1
  9
$DIMTDEC
 70
     3
  9
$DIMALTU
 70
     2
  9
$DIMALTTD
 70
     3
  9
$DIMTXSTY
  7
Standard
  9
$DIMAUNIT
 70
     0
  9
$DIMADEC
 70
     2
  9
$DIMALTRND
 40
0.0
  9
$DIMAZIN
 70
     0
  9
$DIMDSEP
 70
    44
  9
$DIMATFIT
 70
     3
  9
$DIMFRAC
 70
     0
  9
$DIMLDRBLK
  1

  9
$DIMLUNIT
 70
     2
  9
$DIMLWD
 70
    -2
  9
$DIMLWE
 70
    -2
  9
$DIMTMOVE
 70
     0
  9
$LUNITS
 70
     2
  9
$LUPREC
 70
     1
  9
$SKETCHINC
 40
1.0
  9
$FILLETRAD
 40
10.0
  9
$AUNITS
 70
     0
  9
$AUPREC
 70
     2
  9
$MENU
  1
.
  9
$ELEVATION
 40
0.0
  9
$PELEVATION
 40
0.0
  9
$THICKNESS
 40
0.0
  9
$LIMCHECK
 70
     0
  9
$CHAMFERA
 40
10.0
  9
$CHAMFERB
 40
10.0
  9
$CHAMFERC
 40
20.0
  9
$CHAMFERD
 40
0.0
  9
$SKPOLY
 70
     0
  9
$TDCREATE
 40
2456220.475326308
  9
$TDUCREATE
 40
2456220.100326308
  9
$TDUPDATE
 40
2456220.475326319
  9
$TDUUPDATE
 40
2456220.100326319
  9
$TDINDWG
 40
0.0000000116
  9
$TDUSRTIMER
 40
0.0000000116
  9
$USRTIMER
 70
     1
  9
$ANGBASE
 50
0.0
  9
$ANGDIR
 70
     0
  9
$PDMODE
 70
     0
  9
$PDSIZE
 40
-1.0
  9
$PLINEWID
 40
0.0
  9
$SPLFRAME
 70
     0
  9
$SPLINETYPE
 70
     6
  9
$SPLINESEGS
 70
     8
  9
$HANDSEED
  5
29A
  9
$SURFTAB1
 70
     6
  9
$SURFTAB2
 70
     6
  9
$SURFTYPE
 70
     6
  9
$SURFU
 70
     6
  9
$SURFV
 70
     6
  9
$UCSBASE
  2

  9
$UCSNAME
  2

  9
$UCSORG
 10
0.0
 20
0.0
 30
0.0
  9
$UCSXDIR
 10
1.0
 20
0.0
 30
0.0
  9
$UCSYDIR
 10
0.0
 20
1.0
 30
0.0
  9
$UCSORTHOREF
  2

  9
$UCSORTHOVIEW
 70
     0
  9
$UCSORGTOP
 10
0.0
 20
0.0
 30
0.0
  9
$UCSORGBOTTOM
 10
0.0
 20
0.0
 30
0.0
  9
$UCSORGLEFT
 10
0.0
 20
0.0
 30
0.0
  9
$UCSORGRIGHT
 10
0.0
 20
0.0
 30
0.0
  9
$UCSORGFRONT
 10
0.0
 20
0.0
 30
0.0
  9
$UCSORGBACK
 10
0.0
 20
0.0
 30
0.0
  9
$PUCSBASE
  2

  9
$PUCSNAME
  2

  9
$PUCSORG
 10
0.0
 20
0.0
 30
0.0
  9
$PUCSXDIR
 10
1.0
 20
0.0
 30
0.0
  9
$PUCSYDIR
 10
0.0
 20
1.0
 30
0.0
  9
$PUCSORTHOREF
  2

  9
$PUCSORTHOVIEW
 70
     0
  9
$PUCSORGTOP
 10
0.0
 20
0.0
 30
0.0
  9
$PUCSORGBOTTOM
 10
0.0
 20
0.0
 30
0.0
  9
$PUCSORGLEFT
 10
0.0
 20
0.0
 30
0.0
  9
$PUCSORGRIGHT
 10
0.0
 20
0.0
 30
0.0
  9
$PUCSORGFRONT
 10
0.0
 20
0.0
 30
0.0
  9
$PUCSORGBACK
 10
0.0
 20
0.0
 30
0.0
  9
$USERI1
 70
     0
  9
$USERI2
 70
     0
  9
$USERI3
 70
     0
  9
$USERI4
 70
     0
  9
$USERI5
 70
     0
  9
$USERR1
 40
0.0
  9
$USERR2
 40
0.0
  9
$USERR3
 40
0.0
  9
$USERR4
 40
0.0
  9
$USERR5
 40
0.0
  9
$WORLDVIEW
 70
     1
  9
$SHADEDGE
 70
     3
  9
$SHADEDIF
 70
    70
  9
$TILEMODE
 70
     1
  9
$MAXACTVP
 70
    64
  9
$PINSBASE
 10
0.0
 20
0.0
 30
0.0
  9
$PLIMCHECK
 70
     0
  9
$PEXTMIN
 10
1.0000000000E+20
 20
1.0000000000E+20
 30
1.0000000000E+20
  9
$PEXTMAX
 10
-1.0000000000E+20
 20
-1.0000000000E+20
 30
-1.0000000000E+20
  9
$PLIMMIN
 10
0.0
 20
0.0
  9
$PLIMMAX
 10
420.0
 20
297.0
  9
$UNITMODE
 70
     0
  9
$VISRETAIN
 70
     1
  9
$PLINEGEN
 70
     0
  9
$PSLTSCALE
 70
     1
  9
$TREEDEPTH
 70
  3020
  9
$CMLSTYLE
  2
Standard
  9
$CMLJUST
 70
     0
  9
$CMLSCALE
 40
20.0
  9
$PROXYGRAPHICS
 70
     1
  9
$MEASUREMENT
 70
     1
  9
$CELWEIGHT
370
    -1
  9
$ENDCAPS
280
     0
  9
$JOINSTYLE
280
     0
  9
$LWDISPLAY
290
     1
  9
$INSUNITS
 70
     4
  9
$HYPERLINKBASE
  1

  9
$STYLESHEET
  1

  9
$XEDIT
290
     1
  9
$CEPSNTYPE
380
     0
  9
$PSTYLEMODE
290
     1
  9
$FINGERPRINTGUID
  2
{94F78021-57E6-499F-ABF7-804D1770D1AC}
  9
$VERSIONGUID
  2
{FAEB1C32-E019-11D5-929B-00C0DF256EC4}
  9
$EXTNAMES
290
     1
  9
$PSVPSCALE
 40
0.0
  9
$OLESTARTUP
290
     0
  0
ENDSEC
  0
SECTION
  2
CLASSES
  0
CLASS
  1
ACDBDICTIONARYWDFLT
  2
AcDbDictionaryWithDefault
  3
ObjectDBX Classes
 90
        0
280
     0
281
     0
  0
CLASS
  1
VISUALSTYLE
  2
AcDbVisualStyle
  3
ObjectDBX Classes
 90
     4095
280
     0
281
     0
  0
CLASS
  1
MATERIAL
  2
AcDbMaterial
  3
ObjectDBX Classes
 90
     1153
280
     0
281
     0
  0
CLASS
  1
SCALE
  2
AcDbScale
  3
ObjectDBX Classes
 90
     1153
280
     0
281
     0
  0
CLASS
  1
DICTIONARYVAR
  2
AcDbDictionaryVar
  3
ObjectDBX Classes
 90
        0
280
     0
281
     0
  0
CLASS
  1
ACDBPLACEHOLDER
  2
AcDbPlaceHolder
  3
ObjectDBX Classes
 90
        0
280
     0
281
     0
  0
CLASS
  1
LAYOUT
  2
AcDbLayout
  3
ObjectDBX Classes
 90
        0
280
     0
281
     0
  0
ENDSEC
  0
SECTION
  2
TABLES
  0
TABLE
  2
VPORT
  5
8
330
0
100
AcDbSymbolTable
 70
     1
  0
VPORT
  5
29
330
8
100
AcDbSymbolTableRecord
100
AcDbViewportTableRecord
  2
*Active
 70
     0
 10
0.0
 20
0.0
 11
1.0
 21
1.0
 12
105.0
 22
148.5
 13
0.0
 23
0.0
 14
10.0
 24
10.0
 15
10.0
 25
10.0
 16
0.0
 26
0.0
 36
1.0
 17
0.0
 27
0.0
 37
0.0
 40
297.0
 41
0.7070707071
 42
50.0
 43
0.0
 44
0.0
 50
0.0
 51
0.0
 71
     0
 72
  2000
 73
     1
 74
     3
 75
     0
 76
     0
 77
     0
 78
     0
281
     0
 65
     1
110
0.0
120
0.0
130
0.0
111
1.0
121
0.0
131
0.0
112
0.0
122
1.0
132
0.0
 79
     0
146
0.0
  0
ENDTAB
  0
TABLE
  2
LTYPE
  5
5
330
0
100
AcDbSymbolTable
 70
     6
  0
LTYPE
  5
14
330
5
100
AcDbSymbolTableRecord
100
AcDbLinetypeTableRecord
  2
ByBlock
 70
     0
  3

 72
    65
 73
     0
 40
0.0
  0
LTYPE
  5
15
330
5
100
AcDbSymbolTableRecord
100
AcDbLinetypeTableRecord
  2
ByLayer
 70
     0
  3

 72
    65
 73
     0
 40
0.0
  0
LTYPE
  5
16
330
5
100
AcDbSymbolTableRecord
100
AcDbLinetypeTableRecord
  2
Continuous
 70
     0
  3
Solid line
 72
    65
 73
     0
 40
0.0
  0
LTYPE
  5
3F
330
5
100
AcDbSymbolTableRecord
100
AcDbLinetypeTableRecord
  2
HIDDEN
 70
     0
  3
Hidden __ __ __ __ __ __ __ __ __ __ __ __ __ __
 72
    65
 73
     2
 40
1.905
 49
1.27
 74
     0
 49
-0.635
 74
     0
  0
LTYPE
  5
40
330
5
100
AcDbSymbolTableRecord
100
AcDbLinetypeTableRecord
  2
PHANTOM
 70
     0
  3
Phantom ______  __  __  ______  __  __  ______
 72
    65
 73
     6
 40
12.7
 49
6.35
 74
     0
 49
-1.27
 74
     0
 49
1.27
 74
     0
 49
-1.27
 74
     0
 49
1.27
 74
     0
 49
-1.27
 74
     0
  0
LTYPE
  5
41
330
5
100
AcDbSymbolTableRecord
100
AcDbLinetypeTableRecord
  2
CENTER
 70
     0
  3
Center ____ _ ____ _ ____ _ ____ _ ____ _ ____
 72
    65
 73
     4
 40
10.16
 49
6.35
 74
     0
 49
-1.27
 74
     0
 49
1.27
 74
     0
 49
-1.27
 74
     0
  0
LTYPE
  5
42
330
5
100
AcDbSymbolTableRecord
100
AcDbLinetypeTableRecord
  2
CENTERX2
 70
     0
  3
Center (2x) ________  __  ________  __  _____
 72
    65
 73
     4
 40
20.32
 49
12.7
 74
     0
 49
-2.54
 74
     0
 49
2.54
 74
     0
 49
-2.54
 74
     0
  0
LTYPE
  5
43
330
5
100
AcDbSymbolTableRecord
100
AcDbLinetypeTableRecord
  2
DOT2
 70
     0
  3
Dot (.5x) ........................................
 72
    65
 73
     2
 40
0.635
 49
0.0
 74
     0
 49
-0.635
 74
     0
  0
ENDTAB
  0
TABLE
  2
LAYER
  5
2
330
0
100
AcDbSymbolTable
 70
     1
  0
LAYER
  5
10
330
2
100
AcDbSymbolTableRecord
100
AcDbLayerTableRecord
  2
0
 70
     0
 62
     7
  6
Continuous
370
    -3
390
F
  0
ENDTAB
  0
TABLE
  2
STYLE
  5
3
330
0
100
AcDbSymbolTable
 70
     2
  0
STYLE
  5
11
330
3
100
AcDbSymbolTableRecord
100
AcDbTextStyleTableRecord
  2
Standard
 70
     0
 40
0.0
 41
1.0
 50
0.0
 71
     0
 42
2.5
  3
txt
  4
bigfont
  0
STYLE
  5
4C
330
3
100
AcDbSymbolTableRecord
100
AcDbTextStyleTableRecord
  2
SLDTEXTSTYLE0
 70
     0
 40
0.0
 41
0.7
 50
0.0
 71
     0
 42
0.2
  3
TXT
  4
bigfont
  0
ENDTAB
  0
TABLE
  2
VIEW
  5
6
330
0
100
AcDbSymbolTable
 70
     0
  0
ENDTAB
  0
TABLE
  2
UCS
  5
7
330
0
100
AcDbSymbolTable
 70
     0
  0
ENDTAB
  0
TABLE
  2
APPID
  5
9
330
0
100
AcDbSymbolTable
 70
     1
  0
APPID
  5
12
330
9
100
AcDbSymbolTableRecord
100
AcDbRegAppTableRecord
  2
ACAD
 70
     0
  0
ENDTAB
  0
TABLE
  2
DIMSTYLE
  5
A
330
0
100
AcDbSymbolTable
 70
     5
100
AcDbDimStyleTable
  0
DIMSTYLE
105
27
330
A
100
AcDbSymbolTableRecord
100
AcDbDimStyleTableRecord
  2
ISO-25
 70
     0
 41
2.5
 42
0.625
 43
3.75
 44
1.25
 73
     0
 74
     0
 77
     1
 78
     8
140
2.5
141
2.5
143
0.0393700787
147
0.625
171
     3
172
     1
271
     2
272
     2
274
     3
278
    44
283
     0
284
     8
340
11
  0
DIMSTYLE
105
105
102
{ACAD_REACTORS
330
104
330
10F
330
119
330
123
330
12D
330
1A3
330
1FE
330
208
330
212
102
}
330
A
100
AcDbSymbolTableRecord
100
AcDbDimStyleTableRecord
  2
SLDDIMSTYLE0
 70
     0
 41
3.0
 44
0.0
 45
0.000000001
 73
     0
 74
     0
 77
     3
 78
    12
140
3.5
147
0.875
173
     1
271
     1
272
     3
276
     2
284
    12
340
4C
  0
DIMSTYLE
105
138
102
{ACAD_REACTORS
330
137
102
}
330
A
100
AcDbSymbolTableRecord
100
AcDbDimStyleTableRecord
  2
SLDDIMSTYLE1
 70
     0
 41
3.0
 44
0.0
 45
0.000000001
 78
    12
140
3.5
141
0.0
147
0.875
173
     1
271
     1
272
     3
276
     2
284
    12
340
4C
  0
DIMSTYLE
105
143
330
A
100
AcDbSymbolTableRecord
100
AcDbDimStyleTableRecord
  2
SLDDIMSTYLE2
 70
     0
 41
3.0
 44
0.0
 45
0.000000001
140
0.0
146
3.0
147
0.0
173
     1
271
     0
272
     0
276
     2
340
11
341
144
343
144
344
144
  0
DIMSTYLE
105
1AE
102
{ACAD_REACTORS
330
1AD
330
21C
102
}
330
A
100
AcDbSymbolTableRecord
100
AcDbDimStyleTableRecord
  2
SLDDIMSTYLE3
 70
     0
  3
<>
 41
3.0
 44
0.0
 45
0.000000001
 78
    12
140
3.5
141
0.0
147
0.875
173
     1
271
     1
272
     3
276
     2
284
    12
340
4C
  0
ENDTAB
  0
TABLE
  2
BLOCK_RECORD
  5
1
330
0
100
AcDbSymbolTable
 70
    22
  0
BLOCK_RECORD
  5
1F
330
1
100
AcDbSymbolTableRecord
100
AcDbBlockTableRecord
  2
*Model_Space
340
22
  0
BLOCK_RECORD
  5
1B
330
1
100
AcDbSymbolTableRecord
100
AcDbBlockTableRecord
  2
*Paper_Space
340
1E
  0
BLOCK_RECORD
  5
23
330
1
100
AcDbSymbolTableRecord
100
AcDbBlockTableRecord
  2
*Paper_Space0
340
26
  0
BLOCK_RECORD
  5
106
330
1
100
AcDbSymbolTableRecord
100
AcDbBlockTableRecord
  2
*D1
340
0
  0
BLOCK_RECORD
  5
110
330
1
100
AcDbSymbolTableRecord
100
AcDbBlockTableRecord
  2
*D2
340
0
  0
BLOCK_RECORD
  5
11A
330
1
100
AcDbSymbolTableRecord
100
AcDbBlockTableRecord
  2
*D3
340
0
  0
BLOCK_RECORD
  5
124
330
1
100
AcDbSymbolTableRecord
100
AcDbBlockTableRecord
  2
*D4
340
0
  0
BLOCK_RECORD
  5
12E
330
1
100
AcDbSymbolTableRecord
100
AcDbBlockTableRecord
  2
*D5
340
0
  0
BLOCK_RECORD
  5
139
330
1
100
AcDbSymbolTableRecord
100
AcDbBlockTableRecord
  2
*D6
340
0
  0
BLOCK_RECORD
  5
144
330
1
100
AcDbSymbolTableRecord
100
AcDbBlockTableRecord
  2
_OPEN30
340
0
  0
BLOCK_RECORD
  5
14B
330
1
100
AcDbSymbolTableRecord
100
AcDbBlockTableRecord
  2
SW_CENTERMARKSYMBOL_0
340
0
102
{BLKREFS
331
156
102
}
  0
BLOCK_RECORD
  5
157
330
1
100
AcDbSymbolTableRecord
100
AcDbBlockTableRecord
  2
SW_CENTERMARKSYMBOL_1
340
0
102
{BLKREFS
331
162
102
}
  0
BLOCK_RECORD
  5
163
330
1
100
AcDbSymbolTableRecord
100
AcDbBlockTableRecord
  2
SW_CENTERMARKSYMBOL_2
340
0
102
{BLKREFS
331
16E
102
}
  0
BLOCK_RECORD
  5
1A4
330
1
100
AcDbSymbolTableRecord
100
AcDbBlockTableRecord
  2
*D11
340
0
  0
BLOCK_RECORD
  5
1AF
330
1
100
AcDbSymbolTableRecord
100
AcDbBlockTableRecord
  2
*D12
340
0
  0
BLOCK_RECORD
  5
1B6
330
1
100
AcDbSymbolTableRecord
100
AcDbBlockTableRecord
  2
SW_CENTERMARKSYMBOL_3
340
0
102
{BLKREFS
331
1C1
102
}
  0
BLOCK_RECORD
  5
1FF
330
1
100
AcDbSymbolTableRecord
100
AcDbBlockTableRecord
  2
*D14
340
0
  0
BLOCK_RECORD
  5
209
330
1
100
AcDbSymbolTableRecord
100
AcDbBlockTableRecord
  2
*D15
340
0
  0
BLOCK_RECORD
  5
213
330
1
100
AcDbSymbolTableRecord
100
AcDbBlockTableRecord
  2
*D16
340
0
  0
BLOCK_RECORD
  5
21D
330
1
100
AcDbSymbolTableRecord
100
AcDbBlockTableRecord
  2
*D17
340
0
  0
BLOCK_RECORD
  5
224
330
1
100
AcDbSymbolTableRecord
100
AcDbBlockTableRecord
  2
SW_CENTERMARKSYMBOL_4
340
0
102
{BLKREFS
331
22F
102
}
  0
BLOCK_RECORD
  5
230
330
1
100
AcDbSymbolTableRecord
100
AcDbBlockTableRecord
  2
SW_CENTERMARKSYMBOL_5
340
0
102
{BLKREFS
331
23B
102
}
  0
BLOCK_RECORD
  5
268
330
1
100
AcDbSymbolTableRecord
100
AcDbBlockTableRecord
  2
SW_CENTERMARKSYMBOL_6
340
0
102
{BLKREFS
331
273
102
}
  0
BLOCK_RECORD
  5
28C
330
1
100
AcDbSymbolTableRecord
100
AcDbBlockTableRecord
  2
SW_CENTERMARKSYMBOL_7
340
0
102
{BLKREFS
331
297
102
}
  0
ENDTAB
  0
ENDSEC
  0
SECTION
  2
BLOCKS
  0
BLOCK
  5
20
330
1F
100
AcDbEntity
  8
0
100
AcDbBlockBegin
  2
*Model_Space
 70
     0
 10
0.0
 20
0.0
 30
0.0
  3
*Model_Space
  1

  0
ENDBLK
  5
21
330
1F
100
AcDbEntity
  8
0
100
AcDbBlockEnd
  0
BLOCK
  5
1C
330
1B
100
AcDbEntity
 67
     1
  8
0
100
AcDbBlockBegin
  2
*Paper_Space
 70
     0
 10
0.0
 20
0.0
 30
0.0
  3
*Paper_Space
  1

  0
ENDBLK
  5
1D
330
1B
100
AcDbEntity
 67
     1
  8
0
100
AcDbBlockEnd
  0
BLOCK
  5
24
330
23
100
AcDbEntity
  8
0
100
AcDbBlockBegin
  2
*Paper_Space0
 70
     0
 10
0.0
 20
0.0
 30
0.0
  3
*Paper_Space0
  1

  0
ENDBLK
  5
25
330
23
100
AcDbEntity
  8
0
100
AcDbBlockEnd
  0
BLOCK
  5
107
330
106
100
AcDbEntity
  8
0
100
AcDbBlockBegin
  2
*D1
 70
     1
 10
0.0
 20
0.0
 30
0.0
  3
*D1
  1

  0
SOLID
  5
109
330
106
100
AcDbEntity
  8
0
  6
Continuous
 62
     7
370
     0
100
AcDbTrace
 10
141.4182386437
 20
169.3891584683
 30
0.0
 11
140.6682386437
 21
166.3891584683
 31
0.0
 12
142.1682386437
 22
166.3891584683
 32
0.0
 13
142.1682386437
 23
166.3891584683
 33
0.0
  0
SOLID
  5
10A
330
106
100
AcDbEntity
  8
0
  6
Continuous
 62
     7
370
     0
100
AcDbTrace
 10
141.4182386437
 20
151.3891584683
 30
0.0
 11
142.1682386437
 21
154.3891584683
 31
0.0
 12
140.6682386437
 22
154.3891584683
 32
0.0
 13
140.6682386437
 23
154.3891584683
 33
0.0
  0
LINE
  5
10B
330
106
100
AcDbEntity
  8
0
  6
Continuous
 62
     7
370
     0
100
AcDbLine
 10
132.1682386437
 20
169.3891584683
 30
0.0
 11
142.4182386437
 21
169.3891584683
 31
0.0
  0
LINE
  5
10C
330
106
100
AcDbEntity
  8
0
  6
Continuous
 62
     7
370
     0
100
AcDbLine
 10
132.1682386437
 20
151.3891584683
 30
0.0
 11
142.4182386437
 21
151.3891584683
 31
0.0
  0
LINE
  5
10D
330
106
100
AcDbEntity
  8
0
  6
Continuous
 62
     7
370
     0
100
AcDbLine
 10
141.4182386437
 20
169.3891584683
 30
0.0
 11
141.4182386437
 21
151.3891584683
 31
0.0
  0
MTEXT
  5
10E
330
106
100
AcDbEntity
  8
0
  6
Continuous
 62
     7
370
     0
100
AcDbMText
 10
136.9065017873
 20
158.3538264332
 30
0.0
 40
3.5
 41
0.0
 71
     1
 72
     1
  1
18
  7
SLDTEXTSTYLE0
 11
-7.044195017643634E-15
 21
1.0
 31
0.0
 73
     1
 44
1.0
  0
ENDBLK
  5
108
330
106
100
AcDbEntity
  8
0
100
AcDbBlockEnd
  0
BLOCK
  5
111
330
110
100
AcDbEntity
  8
0
100
AcDbBlockBegin
  2
*D2
 70
     1
 10
0.0
 20
0.0
 30
0.0
  3
*D2
  1

  0
SOLID
  5
113
330
110
100
AcDbEntity
  8
0
  6
Continuous
 62
     7
370
     0
100
AcDbTrace
 10
126.9182386437
 20
131.8891584683
 30
0.0
 11
123.9182386437
 21
132.6391584683
 31
0.0
 12
123.9182386437
 22
131.1391584683
 32
0.0
 13
123.9182386437
 23
131.1391584683
 33
0.0
  0
SOLID
  5
114
330
110
100
AcDbEntity
  8
0
  6
Continuous
 62
     7
370
     0
100
AcDbTrace
 10
112.9182386437
 20
131.8891584683
 30
0.0
 11
115.9182386437
 21
131.1391584683
 31
0.0
 12
115.9182386437
 22
132.6391584683
 32
0.0
 13
115.9182386437
 23
132.6391584683
 33
0.0
  0
LINE
  5
115
330
110
100
AcDbEntity
  8
0
  6
Continuous
 62
     7
370
     0
100
AcDbLine
 10
126.9182386437
 20
146.1391584683
 30
0.0
 11
126.9182386437
 21
130.8891584683
 31
0.0
  0
LINE
  5
116
330
110
100
AcDbEntity
  8
0
  6
Continuous
 62
     7
370
     0
100
AcDbLine
 10
112.9182386437
 20
155.1391584683
 30
0.0
 11
112.9182386437
 21
130.8891584683
 31
0.0
  0
LINE
  5
117
330
110
100
AcDbEntity
  8
0
  6
Continuous
 62
     7
370
     0
100
AcDbLine
 10
126.9182386437
 20
131.8891584683
 30
0.0
 11
112.9182386437
 21
131.8891584683
 31
0.0
  0
MTEXT
  5
118
330
110
100
AcDbEntity
  8
0
  6
Continuous
 62
     7
370
     0
100
AcDbMText
 10
117.8829066086
 20
136.4008953247
 30
0.0
 40
3.5
 41
0.0
 71
     1
 72
     1
  1
14
  7
SLDTEXTSTYLE0
 73
     1
 44
1.0
  0
ENDBLK
  5
112
330
110
100
AcDbEntity
  8
0
100
AcDbBlockEnd
  0
BLOCK
  5
11B
330
11A
100
AcDbEntity
  8
0
100
AcDbBlockBegin
  2
*D3
 70
     1
 10
0.0
 20
0.0
 30
0.0
  3
*D3
  1

  0
SOLID
  5
11D
330
11A
100
AcDbEntity
  8
0
  6
Continuous
 62
     7
370
     0
100
AcDbTrace
 10
131.4182386437
 20
123.535426029
 30
0.0
 11
128.4182386437
 21
124.285426029
 31
0.0
 12
128.4182386437
 22
122.785426029
 32
0.0
 13
128.4182386437
 23
122.785426029
 33
0.0
  0
SOLID
  5
11E
330
11A
100
AcDbEntity
  8
0
  6
Continuous
 62
     7
370
     0
100
AcDbTrace
 10
108.4182386437
 20
123.535426029
 30
0.0
 11
111.4182386437
 21
122.785426029
 31
0.0
 12
111.4182386437
 22
124.285426029
 32
0.0
 13
111.4182386437
 23
124.285426029
 33
0.0
  0
LINE
  5
11F
330
11A
100
AcDbEntity
  8
0
  6
Continuous
 62
     7
370
     0
100
AcDbLine
 10
131.4182386437
 20
141.8891584683
 30
0.0
 11
131.4182386437
 21
122.535426029
 31
0.0
  0
LINE
  5
120
330
11A
100
AcDbEntity
  8
0
  6
Continuous
 62
     7
370
     0
100
AcDbLine
 10
108.4182386437
 20
141.8891584683
 30
0.0
 11
108.4182386437
 21
122.535426029
 31
0.0
  0
LINE
  5
121
330
11A
100
AcDbEntity
  8
0
  6
Continuous
 62
     7
370
     0
100
AcDbLine
 10
131.4182386437
 20
123.535426029
 30
0.0
 11
108.4182386437
 21
123.535426029
 31
0.0
  0
MTEXT
  5
122
330
11A
100
AcDbEntity
  8
0
  6
Continuous
 62
     7
370
     0
100
AcDbMText
 10
117.8829066086
 20
128.0471628854
 30
0.0
 40
3.5
 41
0.0
 71
     1
 72
     1
  1
23
  7
SLDTEXTSTYLE0
 73
     1
 44
1.0
  0
ENDBLK
  5
11C
330
11A
100
AcDbEntity
  8
0
100
AcDbBlockEnd
  0
BLOCK
  5
125
330
124
100
AcDbEntity
  8
0
100
AcDbBlockBegin
  2
*D4
 70
     1
 10
0.0
 20
0.0
 30
0.0
  3
*D4
  1

  0
SOLID
  5
127
330
124
100
AcDbEntity
  8
0
  6
Continuous
 62
     7
370
     0
100
AcDbTrace
 10
89.6081630566
 20
178.8891584683
 30
0.0
 11
88.8581630566
 21
175.8891584683
 31
0.0
 12
90.3581630566
 22
175.8891584683
 32
0.0
 13
90.3581630566
 23
175.8891584683
 33
0.0
  0
SOLID
  5
128
330
124
100
AcDbEntity
  8
0
  6
Continuous
 62
     7
370
     0
100
AcDbTrace
 10
89.6081630566
 20
141.8891584683
 30
0.0
 11
90.3581630566
 21
144.8891584683
 31
0.0
 12
88.8581630566
 22
144.8891584683
 32
0.0
 13
88.8581630566
 23
144.8891584683
 33
0.0
  0
LINE
  5
129
330
124
100
AcDbEntity
  8
0
  6
Continuous
 62
     7
370
     0
100
AcDbLine
 10
108.4182386437
 20
178.8891584683
 30
0.0
 11
88.6081630566
 21
178.8891584683
 31
0.0
  0
LINE
  5
12A
330
124
100
AcDbEntity
  8
0
  6
Continuous
 62
     7
370
     0
100
AcDbLine
 10
108.4182386437
 20
141.8891584683
 30
0.0
 11
88.6081630566
 21
141.8891584683
 31
0.0
  0
LINE
  5
12B
330
124
100
AcDbEntity
  8
0
  6
Continuous
 62
     7
370
     0
100
AcDbLine
 10
89.6081630566
 20
178.8891584683
 30
0.0
 11
89.6081630566
 21
141.8891584683
 31
0.0
  0
MTEXT
  5
12C
330
124
100
AcDbEntity
  8
0
  6
Continuous
 62
     7
370
     0
100
AcDbMText
 10
85.0964262003
 20
158.3538264332
 30
0.0
 40
3.5
 41
0.0
 71
     1
 72
     1
  1
37
  7
SLDTEXTSTYLE0
 11
-1.414962237524464E-14
 21
1.0
 31
0.0
 73
     1
 44
1.0
  0
ENDBLK
  5
126
330
124
100
AcDbEntity
  8
0
100
AcDbBlockEnd
  0
BLOCK
  5
12F
330
12E
100
AcDbEntity
  8
0
100
AcDbBlockBegin
  2
*D5
 70
     1
 10
0.0
 20
0.0
 30
0.0
  3
*D5
  1

  0
SOLID
  5
131
330
12E
100
AcDbEntity
  8
0
  6
Continuous
 62
     7
370
     0
100
AcDbTrace
 10
98.6536410213
 20
160.3891584683
 30
0.0
 11
99.4036410213
 21
163.3891584683
 31
0.0
 12
97.9036410213
 22
163.3891584683
 32
0.0
 13
97.9036410213
 23
163.3891584683
 33
0.0
  0
SOLID
  5
132
330
12E
100
AcDbEntity
  8
0
  6
Continuous
 62
     7
370
     0
100
AcDbTrace
 10
98.6536410213
 20
169.3891584683
 30
0.0
 11
97.9036410213
 21
166.3891584683
 31
0.0
 12
99.4036410213
 22
166.3891584683
 32
0.0
 13
99.4036410213
 23
166.3891584683
 33
0.0
  0
LINE
  5
133
330
12E
100
AcDbEntity
  8
0
  6
Continuous
 62
     7
370
     0
100
AcDbLine
 10
107.6682386437
 20
160.3891584683
 30
0.0
 11
97.6536410213
 21
160.3891584683
 31
0.0
  0
LINE
  5
134
330
12E
100
AcDbEntity
  8
0
  6
Continuous
 62
     7
370
     0
100
AcDbLine
 10
121.6682386437
 20
169.3891584683
 30
0.0
 11
97.6536410213
 21
169.3891584683
 31
0.0
  0
LINE
  5
135
330
12E
100
AcDbEntity
  8
0
  6
Continuous
 62
     7
370
     0
100
AcDbLine
 10
98.6536410213
 20
160.3891584683
 30
0.0
 11
98.6536410213
 21
169.3891584683
 31
0.0
  0
MTEXT
  5
136
330
12E
100
AcDbEntity
  8
0
  6
Continuous
 62
     7
370
     0
100
AcDbMText
 10
94.141904165
 20
163.8714924508
 30
0.0
 40
3.5
 41
0.0
 71
     1
 72
     1
  1
9
  7
SLDTEXTSTYLE0
 11
6.123233995736766E-17
 21
1.0
 31
0.0
 73
     1
 44
1.0
  0
ENDBLK
  5
130
330
12E
100
AcDbEntity
  8
0
100
AcDbBlockEnd
  0
BLOCK
  5
13A
330
139
100
AcDbEntity
  8
0
100
AcDbBlockBegin
  2
*D6
 70
     1
 10
0.0
 20
0.0
 30
0.0
  3
*D6
  1

  0
SOLID
  5
13C
330
139
100
AcDbEntity
  8
0
  6
Continuous
 62
     7
370
     0
100
AcDbTrace
 10
127.7921725677
 20
149.8729990122
 30
0.0
 11
128.6405623849
 21
146.8993254057
 31
0.0
 12
129.940127633
 22
147.6484116263
 32
0.0
 13
129.940127633
 23
147.6484116263
 33
0.0
  0
LINE
  5
13D
330
139
100
AcDbEntity
  8
0
  6
Continuous
 62
     7
370
     0
100
AcDbLine
 10
127.7921725677
 20
149.8729990122
 30
0.0
 11
138.1646252707
 21
131.8781691791
 31
0.0
  0
LINE
  5
13E
330
139
100
AcDbEntity
  8
0
  6
Continuous
 62
     7
370
     0
100
AcDbLine
 10
138.1646252707
 20
131.8781691791
 30
0.0
 11
156.9768158257
 21
131.8781691791
 31
0.0
  0
MTEXT
  5
13F
330
139
100
AcDbEntity
  8
0
  6
Continuous
 62
     7
370
     0
100
AcDbMText
 10
141.3396252707
 20
136.3899060355
 30
0.0
 40
3.5
 41
0.0
 71
     1
 72
     1
  1
3-
  7
SLDTEXTSTYLE0
 73
     1
 44
1.0
  0
MTEXT
  5
140
330
139
100
AcDbEntity
  8
0
  6
Continuous
 62
     7
370
     0
100
AcDbMText
 10
145.4132362656
 20
136.3899060355
 30
0.0
 40
3.5
 41
0.0
 71
     1
 72
     1
  1
%%c
  7
SLDTEXTSTYLE0
 73
     1
 44
1.0
  0
MTEXT
  5
141
330
139
100
AcDbEntity
  8
0
  6
Continuous
 62
     7
370
     0
100
AcDbMText
 10
149.2803699639
 20
136.3899060355
 30
0.0
 40
3.5
 41
0.0
 71
     1
 72
     1
  1
3.5
  7
SLDTEXTSTYLE0
 73
     1
 44
1.0
  0
ENDBLK
  5
13B
330
139
100
AcDbEntity
  8
0
100
AcDbBlockEnd
  0
BLOCK
  5
145
330
144
100
AcDbEntity
  8
0
100
AcDbBlockBegin
  2
_OPEN30
 70
     0
 10
0.0
 20
0.0
 30
0.0
  3
_OPEN30
  1

  0
LINE
  5
147
330
144
100
AcDbEntity
  8
0
  6
ByBlock
 62
     0
370
    -2
100
AcDbLine
 10
-1.0
 20
0.267949
 30
0.0
 11
0.0
 21
0.0
 31
0.0
  0
LINE
  5
148
330
144
100
AcDbEntity
  8
0
  6
ByBlock
 62
     0
370
    -2
100
AcDbLine
 10
0.0
 20
0.0
 30
0.0
 11
-1.0
 21
-0.267949
 31
0.0
  0
LINE
  5
149
330
144
100
AcDbEntity
  8
0
  6
ByBlock
 62
     0
370
    -2
100
AcDbLine
 10
0.0
 20
0.0
 30
0.0
 11
-1.0
 21
0.0
 31
0.0
  0
ENDBLK
  5
146
330
144
100
AcDbEntity
  8
0
100
AcDbBlockEnd
  0
BLOCK
  5
14C
330
14B
100
AcDbEntity
  8
0
100
AcDbBlockBegin
  2
SW_CENTERMARKSYMBOL_0
 70
     0
 10
0.0
 20
0.0
 30
0.0
  3
SW_CENTERMARKSYMBOL_0
  1

  0
LINE
  5
14E
330
14B
100
AcDbEntity
  8
0
  6
Continuous
 62
     0
370
     0
100
AcDbLine
 10
0.0
 20
0.0
 30
0.0
 11
0.0
 21
2.5
 31
0.0
  0
LINE
  5
14F
330
14B
100
AcDbEntity
  8
0
  6
Continuous
 62
     0
370
     0
100
AcDbLine
 10
0.0
 20
0.0
 30
0.0
 11
-2.5
 21
0.0
 31
0.0
  0
LINE
  5
150
330
14B
100
AcDbEntity
  8
0
  6
Continuous
 62
     0
370
     0
100
AcDbLine
 10
0.0
 20
0.0
 30
0.0
 11
0.0
 21
-2.5
 31
0.0
  0
LINE
  5
151
330
14B
100
AcDbEntity
  8
0
  6
Continuous
 62
     0
370
     0
100
AcDbLine
 10
0.0
 20
0.0
 30
0.0
 11
2.5
 21
0.0
 31
0.0
  0
LINE
  5
152
330
14B
100
AcDbEntity
  8
0
  6
Continuous
 62
     0
370
     0
100
AcDbLine
 10
0.0
 20
2.5
 30
0.0
 11
0.0
 21
4.25
 31
0.0
  0
LINE
  5
153
330
14B
100
AcDbEntity
  8
0
  6
Continuous
 62
     0
370
     0
100
AcDbLine
 10
-2.5
 20
0.0
 30
0.0
 11
-4.25
 21
0.0
 31
0.0
  0
LINE
  5
154
330
14B
100
AcDbEntity
  8
0
  6
Continuous
 62
     0
370
     0
100
AcDbLine
 10
0.0
 20
-2.5
 30
0.0
 11
0.0
 21
-4.25
 31
0.0
  0
LINE
  5
155
330
14B
100
AcDbEntity
  8
0
  6
Continuous
 62
     0
370
     0
100
AcDbLine
 10
2.5
 20
0.0
 30
0.0
 11
4.25
 21
0.0
 31
0.0
  0
ENDBLK
  5
14D
330
14B
100
AcDbEntity
  8
0
100
AcDbBlockEnd
  0
BLOCK
  5
158
330
157
100
AcDbEntity
  8
0
100
AcDbBlockBegin
  2
SW_CENTERMARKSYMBOL_1
 70
     0
 10
0.0
 20
0.0
 30
0.0
  3
SW_CENTERMARKSYMBOL_1
  1

  0
LINE
  5
15A
330
157
100
AcDbEntity
  8
0
  6
Continuous
 62
     0
370
     0
100
AcDbLine
 10
0.0
 20
0.0
 30
0.0
 11
0.0
 21
2.5
 31
0.0
  0
LINE
  5
15B
330
157
100
AcDbEntity
  8
0
  6
Continuous
 62
     0
370
     0
100
AcDbLine
 10
0.0
 20
0.0
 30
0.0
 11
-2.5
 21
0.0
 31
0.0
  0
LINE
  5
15C
330
157
100
AcDbEntity
  8
0
  6
Continuous
 62
     0
370
     0
100
AcDbLine
 10
0.0
 20
0.0
 30
0.0
 11
0.0
 21
-2.5
 31
0.0
  0
LINE
  5
15D
330
157
100
AcDbEntity
  8
0
  6
Continuous
 62
     0
370
     0
100
AcDbLine
 10
0.0
 20
0.0
 30
0.0
 11
2.5
 21
0.0
 31
0.0
  0
LINE
  5
15E
330
157
100
AcDbEntity
  8
0
  6
Continuous
 62
     0
370
     0
100
AcDbLine
 10
0.0
 20
2.5
 30
0.0
 11
0.0
 21
4.25
 31
0.0
  0
LINE
  5
15F
330
157
100
AcDbEntity
  8
0
  6
Continuous
 62
     0
370
     0
100
AcDbLine
 10
-2.5
 20
0.0
 30
0.0
 11
-4.25
 21
0.0
 31
0.0
  0
LINE
  5
160
330
157
100
AcDbEntity
  8
0
  6
Continuous
 62
     0
370
     0
100
AcDbLine
 10
0.0
 20
-2.5
 30
0.0
 11
0.0
 21
-4.25
 31
0.0
  0
LINE
  5
161
330
157
100
AcDbEntity
  8
0
  6
Continuous
 62
     0
370
     0
100
AcDbLine
 10
2.5
 20
0.0
 30
0.0
 11
4.25
 21
0.0
 31
0.0
  0
ENDBLK
  5
159
330
157
100
AcDbEntity
  8
0
100
AcDbBlockEnd
  0
BLOCK
  5
164
330
163
100
AcDbEntity
  8
0
100
AcDbBlockBegin
  2
SW_CENTERMARKSYMBOL_2
 70
     0
 10
0.0
 20
0.0
 30
0.0
  3
SW_CENTERMARKSYMBOL_2
  1

  0
LINE
  5
166
330
163
100
AcDbEntity
  8
0
  6
Continuous
 62
     0
370
     0
100
AcDbLine
 10
0.0
 20
0.0
 30
0.0
 11
0.0
 21
2.5
 31
0.0
  0
LINE
  5
167
330
163
100
AcDbEntity
  8
0
  6
Continuous
 62
     0
370
     0
100
AcDbLine
 10
0.0
 20
0.0
 30
0.0
 11
-2.5
 21
0.0
 31
0.0
  0
LINE
  5
168
330
163
100
AcDbEntity
  8
0
  6
Continuous
 62
     0
370
     0
100
AcDbLine
 10
0.0
 20
0.0
 30
0.0
 11
0.0
 21
-2.5
 31
0.0
  0
LINE
  5
169
330
163
100
AcDbEntity
  8
0
  6
Continuous
 62
     0
370
     0
100
AcDbLine
 10
0.0
 20
0.0
 30
0.0
 11
2.5
 21
0.0
 31
0.0
  0
LINE
  5
16A
330
163
100
AcDbEntity
  8
0
  6
Continuous
 62
     0
370
     0
100
AcDbLine
 10
0.0
 20
2.5
 30
0.0
 11
0.0
 21
4.25
 31
0.0
  0
LINE
  5
16B
330
163
100
AcDbEntity
  8
0
  6
Continuous
 62
     0
370
     0
100
AcDbLine
 10
-2.5
 20
0.0
 30
0.0
 11
-4.25
 21
0.0
 31
0.0
  0
LINE
  5
16C
330
163
100
AcDbEntity
  8
0
  6
Continuous
 62
     0
370
     0
100
AcDbLine
 10
0.0
 20
-2.5
 30
0.0
 11
0.0
 21
-4.25
 31
0.0
  0
LINE
  5
16D
330
163
100
AcDbEntity
  8
0
  6
Continuous
 62
     0
370
     0
100
AcDbLine
 10
2.5
 20
0.0
 30
0.0
 11
4.25
 21
0.0
 31
0.0
  0
ENDBLK
  5
165
330
163
100
AcDbEntity
  8
0
100
AcDbBlockEnd
  0
BLOCK
  5
1A5
330
1A4
100
AcDbEntity
  8
0
100
AcDbBlockBegin
  2
*D11
 70
     1
 10
0.0
 20
0.0
 30
0.0
  3
*D11
  1

  0
SOLID
  5
1A7
330
1A4
100
AcDbEntity
  8
0
  6
Continuous
 62
     7
370
     0
100
AcDbTrace
 10
158.8068842014
 20
141.8891584683
 30
0.0
 11
159.5568842014
 21
144.8891584683
 31
0.0
 12
158.0568842014
 22
144.8891584683
 32
0.0
 13
158.0568842014
 23
144.8891584683
 33
0.0
  0
SOLID
  5
1A8
330
1A4
100
AcDbEntity
  8
0
  6
Continuous
 62
     7
370
     0
100
AcDbTrace
 10
158.8068842014
 20
160.3891584683
 30
0.0
 11
158.0568842014
 21
157.3891584683
 31
0.0
 12
159.5568842014
 22
157.3891584683
 32
0.0
 13
159.5568842014
 23
157.3891584683
 33
0.0
  0
LINE
  5
1A9
330
1A4
100
AcDbEntity
  8
0
  6
Continuous
 62
     7
370
     0
100
AcDbLine
 10
168.8068842014
 20
141.8891584683
 30
0.0
 11
157.8068842014
 21
141.8891584683
 31
0.0
  0
LINE
  5
1AA
330
1A4
100
AcDbEntity
  8
0
  6
Continuous
 62
     7
370
     0
100
AcDbLine
 10
169.027087633
 20
160.3891584683
 30
0.0
 11
157.8068842014
 21
160.3891584683
 31
0.0
  0
LINE
  5
1AB
330
1A4
100
AcDbEntity
  8
0
  6
Continuous
 62
     7
370
     0
100
AcDbLine
 10
158.8068842014
 20
141.8891584683
 30
0.0
 11
158.8068842014
 21
160.3891584683
 31
0.0
  0
MTEXT
  5
1AC
330
1A4
100
AcDbEntity
  8
0
  6
Continuous
 62
     7
370
     0
100
AcDbMText
 10
154.295147345
 20
147.0670195199
 30
0.0
 40
3.5
 41
0.0
 71
     1
 72
     1
  1
18.5
  7
SLDTEXTSTYLE0
 11
6.123233995736766E-17
 21
1.0
 31
0.0
 73
     1
 44
1.0
  0
ENDBLK
  5
1A6
330
1A4
100
AcDbEntity
  8
0
100
AcDbBlockEnd
  0
BLOCK
  5
1B0
330
1AF
100
AcDbEntity
  8
0
100
AcDbBlockBegin
  2
*D12
 70
     1
 10
0.0
 20
0.0
 30
0.0
  3
*D12
  1

  0
SOLID
  5
1B2
330
1AF
100
AcDbEntity
  8
0
  6
Continuous
 62
     7
370
     0
100
AcDbTrace
 10
174.7920702525
 20
164.3121260603
 30
0.0
 11
173.9416532207
 21
167.2852205546
 31
0.0
 12
172.6425989918
 22
166.5352484815
 32
0.0
 13
172.6425989918
 23
166.5352484815
 33
0.0
  0
LINE
  5
1B3
330
1AF
100
AcDbEntity
  8
0
  6
Continuous
 62
     7
370
     0
100
AcDbLine
 10
174.7920702525
 20
164.3121260603
 30
0.0
 11
163.8890665849
 21
183.1976199729
 31
0.0
  0
LINE
  5
1B4
330
1AF
100
AcDbEntity
  8
0
  6
Continuous
 62
     7
370
     0
100
AcDbLine
 10
163.8890665849
 20
183.1976199729
 30
0.0
 11
146.9086748614
 21
183.1976199729
 31
0.0
  0
MTEXT
  5
1B5
330
1AF
100
AcDbEntity
  8
0
  6
Continuous
 62
     7
370
     0
100
AcDbMText
 10
148.4961748614
 20
187.7093568292
 30
0.0
 40
3.5
 41
0.0
 71
     1
 72
     1
  1
PT 1/8
  7
SLDTEXTSTYLE0
 73
     1
 44
1.0
  0
ENDBLK
  5
1B1
330
1AF
100
AcDbEntity
  8
0
100
AcDbBlockEnd
  0
BLOCK
  5
1B7
330
1B6
100
AcDbEntity
  8
0
100
AcDbBlockBegin
  2
SW_CENTERMARKSYMBOL_3
 70
     0
 10
0.0
 20
0.0
 30
0.0
  3
SW_CENTERMARKSYMBOL_3
  1

  0
LINE
  5
1B9
330
1B6
100
AcDbEntity
  8
0
  6
Continuous
 62
     0
370
     0
100
AcDbLine
 10
0.0
 20
0.0
 30
0.0
 11
0.0
 21
2.5
 31
0.0
  0
LINE
  5
1BA
330
1B6
100
AcDbEntity
  8
0
  6
Continuous
 62
     0
370
     0
100
AcDbLine
 10
0.0
 20
0.0
 30
0.0
 11
-2.5
 21
0.0
 31
0.0
  0
LINE
  5
1BB
330
1B6
100
AcDbEntity
  8
0
  6
Continuous
 62
     0
370
     0
100
AcDbLine
 10
0.0
 20
0.0
 30
0.0
 11
0.0
 21
-2.5
 31
0.0
  0
LINE
  5
1BC
330
1B6
100
AcDbEntity
  8
0
  6
Continuous
 62
     0
370
     0
100
AcDbLine
 10
0.0
 20
0.0
 30
0.0
 11
2.5
 21
0.0
 31
0.0
  0
LINE
  5
1BD
330
1B6
100
AcDbEntity
  8
0
  6
Continuous
 62
     0
370
     0
100
AcDbLine
 10
0.0
 20
5.0
 30
0.0
 11
0.0
 21
7.0297965684
 31
0.0
  0
LINE
  5
1BE
330
1B6
100
AcDbEntity
  8
0
  6
Continuous
 62
     0
370
     0
100
AcDbLine
 10
-5.0
 20
0.0
 30
0.0
 11
-7.0297965684
 21
0.0
 31
0.0
  0
LINE
  5
1BF
330
1B6
100
AcDbEntity
  8
0
  6
Continuous
 62
     0
370
     0
100
AcDbLine
 10
0.0
 20
-5.0
 30
0.0
 11
0.0
 21
-7.0297965684
 31
0.0
  0
LINE
  5
1C0
330
1B6
100
AcDbEntity
  8
0
  6
Continuous
 62
     0
370
     0
100
AcDbLine
 10
5.0
 20
0.0
 30
0.0
 11
7.0297965684
 21
0.0
 31
0.0
  0
ENDBLK
  5
1B8
330
1B6
100
AcDbEntity
  8
0
100
AcDbBlockEnd
  0
BLOCK
  5
200
330
1FF
100
AcDbEntity
  8
0
100
AcDbBlockBegin
  2
*D14
 70
     1
 10
0.0
 20
0.0
 30
0.0
  3
*D14
  1

  0
SOLID
  5
202
330
1FF
100
AcDbEntity
  8
0
  6
Continuous
 62
     7
370
     0
100
AcDbTrace
 10
49.6478213868
 20
204.6928627069
 30
0.0
 11
52.6478213868
 21
203.9428627069
 31
0.0
 12
52.6478213868
 22
205.4428627069
 32
0.0
 13
52.6478213868
 23
205.4428627069
 33
0.0
  0
SOLID
  5
203
330
1FF
100
AcDbEntity
  8
0
  6
Continuous
 62
     7
370
     0
100
AcDbTrace
 10
66.1478213868
 20
204.6928627069
 30
0.0
 11
63.1478213868
 21
205.4428627069
 31
0.0
 12
63.1478213868
 22
203.9428627069
 32
0.0
 13
63.1478213868
 23
203.9428627069
 33
0.0
  0
LINE
  5
204
330
1FF
100
AcDbEntity
  8
0
  6
Continuous
 62
     7
370
     0
100
AcDbLine
 10
49.6478213868
 20
178.8891584683
 30
0.0
 11
49.6478213868
 21
205.6928627069
 31
0.0
  0
LINE
  5
205
330
1FF
100
AcDbEntity
  8
0
  6
Continuous
 62
     7
370
     0
100
AcDbLine
 10
66.1478213868
 20
178.8891584683
 30
0.0
 11
66.1478213868
 21
205.6928627069
 31
0.0
  0
LINE
  5
206
330
1FF
100
AcDbEntity
  8
0
  6
Continuous
 62
     7
370
     0
100
AcDbLine
 10
49.6478213868
 20
204.6928627069
 30
0.0
 11
66.1478213868
 21
204.6928627069
 31
0.0
  0
MTEXT
  5
207
330
1FF
100
AcDbEntity
  8
0
  6
Continuous
 62
     7
370
     0
100
AcDbMText
 10
53.8256824384
 20
209.2045995633
 30
0.0
 40
3.5
 41
0.0
 71
     1
 72
     1
  1
16.5
  7
SLDTEXTSTYLE0
 73
     1
 44
1.0
  0
ENDBLK
  5
201
330
1FF
100
AcDbEntity
  8
0
100
AcDbBlockEnd
  0
BLOCK
  5
20A
330
209
100
AcDbEntity
  8
0
100
AcDbBlockBegin
  2
*D15
 70
     1
 10
0.0
 20
0.0
 30
0.0
  3
*D15
  1

  0
SOLID
  5
20C
330
209
100
AcDbEntity
  8
0
  6
Continuous
 62
     7
370
     0
100
AcDbTrace
 10
30.9611100292
 20
141.8891584683
 30
0.0
 11
31.7111100292
 21
144.8891584683
 31
0.0
 12
30.2111100292
 22
144.8891584683
 32
0.0
 13
30.2111100292
 23
144.8891584683
 33
0.0
  0
SOLID
  5
20D
330
209
100
AcDbEntity
  8
0
  6
Continuous
 62
     7
370
     0
100
AcDbTrace
 10
30.9611100292
 20
191.8891584683
 30
0.0
 11
30.2111100292
 21
188.8891584683
 31
0.0
 12
31.7111100292
 22
188.8891584683
 32
0.0
 13
31.7111100292
 23
188.8891584683
 33
0.0
  0
LINE
  5
20E
330
209
100
AcDbEntity
  8
0
  6
Continuous
 62
     7
370
     0
100
AcDbLine
 10
49.6478213868
 20
141.8891584683
 30
0.0
 11
29.9611100292
 21
141.8891584683
 31
0.0
  0
LINE
  5
20F
330
209
100
AcDbEntity
  8
0
  6
Continuous
 62
     7
370
     0
100
AcDbLine
 10
56.8978213868
 20
191.8891584683
 30
0.0
 11
29.9611100292
 21
191.8891584683
 31
0.0
  0
LINE
  5
210
330
209
100
AcDbEntity
  8
0
  6
Continuous
 62
     7
370
     0
100
AcDbLine
 10
30.9611100292
 20
141.8891584683
 30
0.0
 11
30.9611100292
 21
191.8891584683
 31
0.0
  0
MTEXT
  5
211
330
209
100
AcDbEntity
  8
0
  6
Continuous
 62
     7
370
     0
100
AcDbMText
 10
26.4493731728
 20
164.8538264332
 30
0.0
 40
3.5
 41
0.0
 71
     1
 72
     1
  1
50
  7
SLDTEXTSTYLE0
 11
6.123233995736766E-17
 21
1.0
 31
0.0
 73
     1
 44
1.0
  0
ENDBLK
  5
20B
330
209
100
AcDbEntity
  8
0
100
AcDbBlockEnd
  0
BLOCK
  5
214
330
213
100
AcDbEntity
  8
0
100
AcDbBlockBegin
  2
*D16
 70
     1
 10
0.0
 20
0.0
 30
0.0
  3
*D16
  1

  0
SOLID
  5
216
330
213
100
AcDbEntity
  8
0
  6
Continuous
 62
     7
370
     0
100
AcDbTrace
 10
41.6015768443
 20
152.0891584683
 30
0.0
 11
42.3515768443
 21
155.0891584683
 31
0.0
 12
40.8515768443
 22
155.0891584683
 32
0.0
 13
40.8515768443
 23
155.0891584683
 33
0.0
  0
SOLID
  5
217
330
213
100
AcDbEntity
  8
0
  6
Continuous
 62
     7
370
     0
100
AcDbTrace
 10
41.6015768443
 20
168.6891584683
 30
0.0
 11
40.8515768443
 21
165.6891584683
 31
0.0
 12
42.3515768443
 22
165.6891584683
 32
0.0
 13
42.3515768443
 23
165.6891584683
 33
0.0
  0
LINE
  5
218
330
213
100
AcDbEntity
  8
0
  6
Continuous
 62
     7
370
     0
100
AcDbLine
 10
49.8680248184
 20
152.0891584683
 30
0.0
 11
40.6015768443
 21
152.0891584683
 31
0.0
  0
LINE
  5
219
330
213
100
AcDbEntity
  8
0
  6
Continuous
 62
     7
370
     0
100
AcDbLine
 10
49.8680248184
 20
168.6891584683
 30
0.0
 11
40.6015768443
 21
168.6891584683
 31
0.0
  0
LINE
  5
21A
330
213
100
AcDbEntity
  8
0
  6
Continuous
 62
     7
370
     0
100
AcDbLine
 10
41.6015768443
 20
152.0891584683
 30
0.0
 11
41.6015768443
 21
168.6891584683
 31
0.0
  0
MTEXT
  5
21B
330
213
100
AcDbEntity
  8
0
  6
Continuous
 62
     7
370
     0
100
AcDbMText
 10
37.0898399879
 20
156.3170195199
 30
0.0
 40
3.5
 41
0.0
 71
     1
 72
     1
  1
16.6
  7
SLDTEXTSTYLE0
 11
6.123233995736766E-17
 21
1.0
 31
0.0
 73
     1
 44
1.0
  0
ENDBLK
  5
215
330
213
100
AcDbEntity
  8
0
100
AcDbBlockEnd
  0
BLOCK
  5
21E
330
21D
100
AcDbEntity
  8
0
100
AcDbBlockBegin
  2
*D17
 70
     1
 10
0.0
 20
0.0
 30
0.0
  3
*D17
  1

  0
SOLID
  5
220
330
21D
100
AcDbEntity
  8
0
  6
Continuous
 62
     7
370
     0
100
AcDbTrace
 10
61.1014612416
 20
171.8916182467
 30
0.0
 11
63.7534047045
 21
173.4821200132
 31
0.0
 12
62.6929399364
 22
174.5429755526
 32
0.0
 13
62.6929399364
 23
174.5429755526
 33
0.0
  0
LINE
  5
221
330
21D
100
AcDbEntity
  8
0
  6
Continuous
 62
     7
370
     0
100
AcDbLine
 10
61.1014612416
 20
171.8916182467
 30
0.0
 11
74.1491890565
 21
184.9345398673
 31
0.0
  0
LINE
  5
222
330
21D
100
AcDbEntity
  8
0
  6
Continuous
 62
     7
370
     0
100
AcDbLine
 10
74.1491890565
 20
184.9345398673
 30
0.0
 11
95.2031946067
 21
184.9345398673
 31
0.0
  0
MTEXT
  5
223
330
21D
100
AcDbEntity
  8
0
  6
Continuous
 62
     7
370
     0
100
AcDbMText
 10
77.3241890565
 20
189.4462767237
 30
0.0
 40
3.5
 41
0.0
 71
     1
 72
     1
  1
2-PT 1/8
  7
SLDTEXTSTYLE0
 73
     1
 44
1.0
  0
ENDBLK
  5
21F
330
21D
100
AcDbEntity
  8
0
100
AcDbBlockEnd
  0
BLOCK
  5
225
330
224
100
AcDbEntity
  8
0
100
AcDbBlockBegin
  2
SW_CENTERMARKSYMBOL_4
 70
     0
 10
0.0
 20
0.0
 30
0.0
  3
SW_CENTERMARKSYMBOL_4
  1

  0
LINE
  5
227
330
224
100
AcDbEntity
  8
0
  6
Continuous
 62
     0
370
     0
100
AcDbLine
 10
0.0
 20
0.0
 30
0.0
 11
0.0
 21
2.5
 31
0.0
  0
LINE
  5
228
330
224
100
AcDbEntity
  8
0
  6
Continuous
 62
     0
370
     0
100
AcDbLine
 10
0.0
 20
0.0
 30
0.0
 11
-2.5
 21
0.0
 31
0.0
  0
LINE
  5
229
330
224
100
AcDbEntity
  8
0
  6
Continuous
 62
     0
370
     0
100
AcDbLine
 10
0.0
 20
0.0
 30
0.0
 11
0.0
 21
-2.5
 31
0.0
  0
LINE
  5
22A
330
224
100
AcDbEntity
  8
0
  6
Continuous
 62
     0
370
     0
100
AcDbLine
 10
0.0
 20
0.0
 30
0.0
 11
2.5
 21
0.0
 31
0.0
  0
LINE
  5
22B
330
224
100
AcDbEntity
  8
0
  6
Continuous
 62
     0
370
     0
100
AcDbLine
 10
0.0
 20
5.0
 30
0.0
 11
0.0
 21
7.0297965684
 31
0.0
  0
LINE
  5
22C
330
224
100
AcDbEntity
  8
0
  6
Continuous
 62
     0
370
     0
100
AcDbLine
 10
-5.0
 20
0.0
 30
0.0
 11
-7.0297965684
 21
0.0
 31
0.0
  0
LINE
  5
22D
330
224
100
AcDbEntity
  8
0
  6
Continuous
 62
     0
370
     0
100
AcDbLine
 10
0.0
 20
-5.0
 30
0.0
 11
0.0
 21
-7.0297965684
 31
0.0
  0
LINE
  5
22E
330
224
100
AcDbEntity
  8
0
  6
Continuous
 62
     0
370
     0
100
AcDbLine
 10
5.0
 20
0.0
 30
0.0
 11
7.0297965684
 21
0.0
 31
0.0
  0
ENDBLK
  5
226
330
224
100
AcDbEntity
  8
0
100
AcDbBlockEnd
  0
BLOCK
  5
231
330
230
100
AcDbEntity
  8
0
100
AcDbBlockBegin
  2
SW_CENTERMARKSYMBOL_5
 70
     0
 10
0.0
 20
0.0
 30
0.0
  3
SW_CENTERMARKSYMBOL_5
  1

  0
LINE
  5
233
330
230
100
AcDbEntity
  8
0
  6
Continuous
 62
     0
370
     0
100
AcDbLine
 10
0.0
 20
0.0
 30
0.0
 11
0.0
 21
2.5
 31
0.0
  0
LINE
  5
234
330
230
100
AcDbEntity
  8
0
  6
Continuous
 62
     0
370
     0
100
AcDbLine
 10
0.0
 20
0.0
 30
0.0
 11
-2.5
 21
0.0
 31
0.0
  0
LINE
  5
235
330
230
100
AcDbEntity
  8
0
  6
Continuous
 62
     0
370
     0
100
AcDbLine
 10
0.0
 20
0.0
 30
0.0
 11
0.0
 21
-2.5
 31
0.0
  0
LINE
  5
236
330
230
100
AcDbEntity
  8
0
  6
Continuous
 62
     0
370
     0
100
AcDbLine
 10
0.0
 20
0.0
 30
0.0
 11
2.5
 21
0.0
 31
0.0
  0
LINE
  5
237
330
230
100
AcDbEntity
  8
0
  6
Continuous
 62
     0
370
     0
100
AcDbLine
 10
0.0
 20
5.0
 30
0.0
 11
0.0
 21
7.0297965684
 31
0.0
  0
LINE
  5
238
330
230
100
AcDbEntity
  8
0
  6
Continuous
 62
     0
370
     0
100
AcDbLine
 10
-5.0
 20
0.0
 30
0.0
 11
-7.0297965684
 21
0.0
 31
0.0
  0
LINE
  5
239
330
230
100
AcDbEntity
  8
0
  6
Continuous
 62
     0
370
     0
100
AcDbLine
 10
0.0
 20
-5.0
 30
0.0
 11
0.0
 21
-7.0297965684
 31
0.0
  0
LINE
  5
23A
330
230
100
AcDbEntity
  8
0
  6
Continuous
 62
     0
370
     0
100
AcDbLine
 10
5.0
 20
0.0
 30
0.0
 11
7.0297965684
 21
0.0
 31
0.0
  0
ENDBLK
  5
232
330
230
100
AcDbEntity
  8
0
100
AcDbBlockEnd
  0
BLOCK
  5
269
330
268
100
AcDbEntity
  8
0
100
AcDbBlockBegin
  2
SW_CENTERMARKSYMBOL_6
 70
     0
 10
0.0
 20
0.0
 30
0.0
  3
SW_CENTERMARKSYMBOL_6
  1

  0
LINE
  5
26B
330
268
100
AcDbEntity
  8
0
  6
Continuous
 62
     0
370
     0
100
AcDbLine
 10
0.0
 20
0.0
 30
0.0
 11
0.0
 21
2.5
 31
0.0
  0
LINE
  5
26C
330
268
100
AcDbEntity
  8
0
  6
Continuous
 62
     0
370
     0
100
AcDbLine
 10
0.0
 20
0.0
 30
0.0
 11
-2.5
 21
0.0
 31
0.0
  0
LINE
  5
26D
330
268
100
AcDbEntity
  8
0
  6
Continuous
 62
     0
370
     0
100
AcDbLine
 10
0.0
 20
0.0
 30
0.0
 11
0.0
 21
-2.5
 31
0.0
  0
LINE
  5
26E
330
268
100
AcDbEntity
  8
0
  6
Continuous
 62
     0
370
     0
100
AcDbLine
 10
0.0
 20
0.0
 30
0.0
 11
2.5
 21
0.0
 31
0.0
  0
LINE
  5
26F
330
268
100
AcDbEntity
  8
0
  6
Continuous
 62
     0
370
     0
100
AcDbLine
 10
0.0
 20
5.0
 30
0.0
 11
0.0
 21
7.5
 31
0.0
  0
LINE
  5
270
330
268
100
AcDbEntity
  8
0
  6
Continuous
 62
     0
370
     0
100
AcDbLine
 10
-5.0
 20
0.0
 30
0.0
 11
-7.5
 21
0.0
 31
0.0
  0
LINE
  5
271
330
268
100
AcDbEntity
  8
0
  6
Continuous
 62
     0
370
     0
100
AcDbLine
 10
0.0
 20
-5.0
 30
0.0
 11
0.0
 21
-7.5
 31
0.0
  0
LINE
  5
272
330
268
100
AcDbEntity
  8
0
  6
Continuous
 62
     0
370
     0
100
AcDbLine
 10
5.0
 20
0.0
 30
0.0
 11
7.5
 21
0.0
 31
0.0
  0
ENDBLK
  5
26A
330
268
100
AcDbEntity
  8
0
100
AcDbBlockEnd
  0
BLOCK
  5
28D
330
28C
100
AcDbEntity
  8
0
100
AcDbBlockBegin
  2
SW_CENTERMARKSYMBOL_7
 70
     0
 10
0.0
 20
0.0
 30
0.0
  3
SW_CENTERMARKSYMBOL_7
  1

  0
LINE
  5
28F
330
28C
100
AcDbEntity
  8
0
  6
Continuous
 62
     0
370
     0
100
AcDbLine
 10
0.0
 20
0.0
 30
0.0
 11
0.0
 21
2.5
 31
0.0
  0
LINE
  5
290
330
28C
100
AcDbEntity
  8
0
  6
Continuous
 62
     0
370
     0
100
AcDbLine
 10
0.0
 20
0.0
 30
0.0
 11
-2.5
 21
0.0
 31
0.0
  0
LINE
  5
291
330
28C
100
AcDbEntity
  8
0
  6
Continuous
 62
     0
370
     0
100
AcDbLine
 10
0.0
 20
0.0
 30
0.0
 11
0.0
 21
-2.5
 31
0.0
  0
LINE
  5
292
330
28C
100
AcDbEntity
  8
0
  6
Continuous
 62
     0
370
     0
100
AcDbLine
 10
0.0
 20
0.0
 30
0.0
 11
2.5
 21
0.0
 31
0.0
  0
LINE
  5
293
330
28C
100
AcDbEntity
  8
0
  6
Continuous
 62
     0
370
     0
100
AcDbLine
 10
0.0
 20
5.0
 30
0.0
 11
0.0
 21
8.5
 31
0.0
  0
LINE
  5
294
330
28C
100
AcDbEntity
  8
0
  6
Continuous
 62
     0
370
     0
100
AcDbLine
 10
-5.0
 20
0.0
 30
0.0
 11
-8.5
 21
0.0
 31
0.0
  0
LINE
  5
295
330
28C
100
AcDbEntity
  8
0
  6
Continuous
 62
     0
370
     0
100
AcDbLine
 10
0.0
 20
-5.0
 30
0.0
 11
0.0
 21
-8.5
 31
0.0
  0
LINE
  5
296
330
28C
100
AcDbEntity
  8
0
  6
Continuous
 62
     0
370
     0
100
AcDbLine
 10
5.0
 20
0.0
 30
0.0
 11
8.5
 21
0.0
 31
0.0
  0
ENDBLK
  5
28E
330
28C
100
AcDbEntity
  8
0
100
AcDbBlockEnd
  0
ENDSEC
  0
SECTION
  2
ENTITIES
  0
LINE
  5
44
330
1F
100
AcDbEntity
  8
0
  6
Continuous
 62
     7
370
     0
100
AcDbLine
 10
20.2604743903
 20
285.0
 30
0.0
 11
196.7604743903
 21
285.0
 31
0.0
  0
LINE
  5
45
330
1F
100
AcDbEntity
  8
0
  6
Continuous
 62
     7
370
     0
100
AcDbLine
 10
20.2604743903
 20
285.0
 30
0.0
 11
20.2604743903
 21
10.0
 31
0.0
  0
LINE
  5
46
330
1F
100
AcDbEntity
  8
0
  6
Continuous
 62
     7
370
     0
100
AcDbLine
 10
20.2604743903
 20
10.0
 30
0.0
 11
196.7604743903
 21
10.0
 31
0.0
  0
LINE
  5
47
330
1F
100
AcDbEntity
  8
0
  6
Continuous
 62
     7
370
     0
100
AcDbLine
 10
196.7604743903
 20
285.0
 30
0.0
 11
196.7604743903
 21
10.0
 31
0.0
  0
LINE
  5
48
330
1F
100
AcDbEntity
  8
0
  6
Continuous
 62
     7
370
     0
100
AcDbLine
 10
127.0104743903
 20
50.75
 30
0.0
 11
196.7604743903
 21
50.75
 31
0.0
  0
LINE
  5
49
330
1F
100
AcDbEntity
  8
0
  6
Continuous
 62
     7
370
     0
100
AcDbLine
 10
127.0104743903
 20
50.75
 30
0.0
 11
127.0104743903
 21
10.0
 31
0.0
  0
LINE
  5
4A
330
1F
100
AcDbEntity
  8
0
  6
Continuous
 62
     7
370
     0
100
AcDbLine
 10
127.0104743903
 20
22.75
 30
0.0
 11
196.7604743903
 21
22.75
 31
0.0
  0
LINE
  5
4B
330
1F
100
AcDbEntity
  8
0
  6
Continuous
 62
     7
370
     0
100
AcDbLine
 10
127.0104743903
 20
36.75
 30
0.0
 11
196.7604743903
 21
36.75
 31
0.0
  0
MTEXT
  5
6F
330
1F
100
AcDbEntity
  8
0
  6
Continuous
 62
     7
370
     0
100
AcDbMText
 10
156.8520185072
 20
30.4171582345
 30
0.0
 40
4.2333333333
 41
0.0
 71
     1
 72
     1
  1
PB1-E
  7
SLDTEXTSTYLE0
 73
     1
 44
1.0
  0
MTEXT
  5
70
330
1F
100
AcDbEntity
  8
0
  6
Continuous
 62
     7
370
     0
100
AcDbMText
 10
142.8262616157
 20
43.9409718514
 30
0.0
 40
4.2333333333
 41
0.0
 71
     1
 72
     1
  1
押ボタン型バルブ
  7
SLDTEXTSTYLE0
 73
     1
 44
1.0
  0
MTEXT
  5
71
330
1F
100
AcDbEntity
  8
0
  6
Continuous
 62
     7
370
     0
100
AcDbMText
 10
155.436255432
 20
16.8228189052
 30
0.0
 40
4.2333333333
 41
0.0
 71
     1
 72
     1
  1
152308
  7
SLDTEXTSTYLE0
 73
     1
 44
1.0
  0
ARC
  5
72
330
1F
100
AcDbEntity
  8
0
  6
Continuous
 62
     7
370
     0
100
AcDbCircle
 10
124.1682386437
 20
190.1907977058
 30
0.0
 40
1.000000000000012
100
AcDbArc
 50
0.0
 51
71.3370751151
  0
ARC
  5
73
330
1F
100
AcDbEntity
  8
0
  6
Continuous
 62
     7
370
     0
100
AcDbCircle
 10
115.6682386437
 20
190.1907977058
 30
0.0
 40
1.000000000000012
100
AcDbArc
 50
108.6629248849
 51
180.0
  0
LINE
  5
74
330
1F
100
AcDbEntity
  8
0
  6
Continuous
 62
     7
370
     0
100
AcDbLine
 10
114.6682387144
 20
190.1907984722
 30
0.0
 11
114.6682387144
 21
188.8891578275
 31
0.0
  0
LINE
  5
75
330
1F
100
AcDbEntity
  8
0
  6
Continuous
 62
     7
370
     0
100
AcDbLine
 10
125.1682385729
 20
188.8891578275
 30
0.0
 11
125.1682385729
 21
190.1907984722
 31
0.0
  0
ARC
  5
76
330
1F
100
AcDbEntity
  8
0
  6
Continuous
 62
     7
370
     0
100
AcDbCircle
 10
119.9182386437
 20
177.6079084683
 30
0.0
 40
14.28124999999998
100
AcDbArc
 50
71.3370751151
 51
108.6629248849
  0
LINE
  5
77
330
1F
100
AcDbEntity
  8
0
  6
Continuous
 62
     7
370
     0
100
AcDbLine
 10
115.4182388374
 20
188.8891578275
 30
0.0
 11
115.4182388374
 21
185.8891591984
 31
0.0
  0
LINE
  5
78
330
1F
100
AcDbEntity
  8
0
  6
Continuous
 62
     7
370
     0
100
AcDbLine
 10
124.41823845
 20
185.8891591984
 30
0.0
 11
124.41823845
 21
188.8891578275
 31
0.0
  0
LINE
  5
79
330
1F
100
AcDbEntity
  8
0
  6
Continuous
 62
     7
370
     0
100
AcDbLine
 10
125.9182386958
 20
185.3891581852
 30
0.0
 11
125.4182386139
 21
185.8891591984
 31
0.0
  0
LINE
  5
7A
330
1F
100
AcDbEntity
  8
0
  6
Continuous
 62
     7
370
     0
100
AcDbLine
 10
114.4182386735
 20
185.8891591984
 30
0.0
 11
113.9182385915
 21
185.3891581852
 31
0.0
  0
LINE
  5
7B
330
1F
100
AcDbEntity
  8
0
  6
Continuous
 62
     7
370
     0
100
AcDbLine
 10
113.9182385915
 20
185.3891581852
 30
0.0
 11
113.9182385915
 21
179.889158215
 31
0.0
  0
LINE
  5
7C
330
1F
100
AcDbEntity
  8
0
  6
Continuous
 62
     7
370
     0
100
AcDbLine
 10
125.9182386958
 20
179.889158215
 30
0.0
 11
125.9182386958
 21
185.3891581852
 31
0.0
  0
LINE
  5
7D
330
1F
100
AcDbEntity
  8
0
  6
Continuous
 62
     7
370
     0
100
AcDbLine
 10
125.4182386139
 20
178.8891580511
 30
0.0
 11
125.4182386139
 21
179.889158215
 31
0.0
  0
LINE
  5
7E
330
1F
100
AcDbEntity
  8
0
  6
Continuous
 62
     7
370
     0
100
AcDbLine
 10
114.4182386735
 20
179.889158215
 30
0.0
 11
114.4182386735
 21
178.8891580511
 31
0.0
  0
LINE
  5
7F
330
1F
100
AcDbEntity
  8
0
  6
Continuous
 62
     7
370
     0
100
AcDbLine
 10
114.6682387144
 20
188.8891578275
 30
0.0
 11
125.1682385729
 21
188.8891578275
 31
0.0
  0
SPLINE
  5
80
330
1F
100
AcDbEntity
  8
0
  6
Continuous
 62
     7
370
     0
100
AcDbSpline
210
0.0
220
0.0
230
1.0
 70
     8
 71
     3
 72
    11
 73
     7
 74
     0
 42
0.00000001
 43
0.00000001
 40
0.0
 40
0.0
 40
0.0
 40
0.0
 40
0.2516095171558474
 40
0.4964930798665583
 40
0.7426069856111301
 40
1.0
 40
1.0
 40
1.0
 40
1.0
 10
115.5533737788016
 20
167.211801281545
 30
0.0
 10
115.5893727512613
 20
167.213879728545
 30
0.0
 10
115.6604083818312
 20
167.2179810620875
 30
0.0
 10
115.7629319319874
 20
167.2490138455955
 30
0.0
 10
115.8574894666777
 20
167.3009957700152
 30
0.0
 10
115.9111021041738
 20
167.3492803432988
 30
0.0
 10
115.9385089139367
 20
167.3739634437072
 30
0.0
  0
SPLINE
  5
81
330
1F
100
AcDbEntity
  8
0
  6
Continuous
 62
     7
370
     0
100
AcDbSpline
210
0.0
220
0.0
230
1.0
 70
     8
 71
     3
 72
    15
 73
    11
 74
     0
 42
0.00000001
 43
0.00000001
 40
0.0
 40
0.0
 40
0.0
 40
0.0
 40
0.121504244690735
 40
0.239919438213271
 40
0.3607014484775885
 40
0.4813982058565637
 40
0.6046686543565307
 40
0.7308278400410386
 40
0.8619579002966866
 40
1.0
 40
1.0
 40
1.0
 40
1.0
 10
115.1276981031259
 20
167.3739634437072
 30
0.0
 10
115.1413864358199
 20
167.360807548562
 30
0.0
 10
115.168415097233
 20
167.334830225873
 30
0.0
 10
115.2147779551134
 20
167.3026885891594
 30
0.0
 10
115.2629491217188
 20
167.2736478932133
 30
0.0
 10
115.3155343743785
 20
167.2516014724766
 30
0.0
 10
115.370273780919
 20
167.2328548851526
 30
0.0
 10
115.4287053409922
 20
167.221841830563
 30
0.0
 10
115.4897647253792
 20
167.2124853457694
 30
0.0
 10
115.5318108617715
 20
167.2120331733799
 30
0.0
 10
115.5533737788016
 20
167.211801281545
 30
0.0
  0
SPLINE
  5
82
330
1F
100
AcDbEntity
  8
0
  6
Continuous
 62
     7
370
     0
100
AcDbSpline
210
0.0
220
0.0
230
1.0
 70
     8
 71
     3
 72
    11
 73
     7
 74
     0
 42
0.00000001
 43
0.00000001
 40
0.0
 40
0.0
 40
0.0
 40
0.0
 40
0.2562600332085395
 40
0.5016208045865221
 40
0.7449078564687259
 40
0.9999999999999999
 40
0.9999999999999999
 40
0.9999999999999999
 40
0.9999999999999999
 10
114.985806211234
 20
167.7185580383018
 30
0.0
 10
114.9875029433796
 20
167.6858343883453
 30
0.0
 10
114.9908242421922
 20
167.6217788920018
 30
0.0
 10
115.0180546299353
 20
167.5299187621506
 30
0.0
 10
115.0631176597994
 20
167.4454909688245
 30
0.0
 10
115.1058340150487
 20
167.3981795070935
 30
0.0
 10
115.1276981031259
 20
167.3739634437072
 30
0.0
  0
LINE
  5
83
330
1F
100
AcDbEntity
  8
0
  6
Continuous
 62
     7
370
     0
100
AcDbLine
 10
114.9858062082
 20
168.8131525736
 30
0.0
 11
114.9858062082
 21
167.7185579758
 31
0.0
  0
LINE
  5
84
330
1F
100
AcDbEntity
  8
0
  6
Continuous
 62
     7
370
     0
100
AcDbLine
 10
116.061632095
 20
168.8131525736
 30
0.0
 11
114.9858062082
 21
168.8131525736
 31
0.0
  0
LINE
  5
85
330
1F
100
AcDbEntity
  8
0
  6
Continuous
 62
     7
370
     0
100
AcDbLine
 10
116.061632095
 20
167.6780175041
 30
0.0
 11
116.061632095
 21
168.8131525736
 31
0.0
  0
SPLINE
  5
86
330
1F
100
AcDbEntity
  8
0
  6
Continuous
 62
     7
370
     0
100
AcDbSpline
210
0.0
220
0.0
230
1.0
 70
     8
 71
     3
 72
    11
 73
     7
 74
     0
 42
0.00000001
 43
0.00000001
 40
0.0
 40
0.0
 40
0.0
 40
0.0
 40
0.2499695538886852
 40
0.4922399851273404
 40
0.7405148106355975
 40
1.0
 40
1.0
 40
1.0
 40
1.0
 10
115.9385089139367
 20
167.3739634437072
 30
0.0
 10
115.9575550662965
 20
167.3947359346193
 30
0.0
 10
115.995060744922
 20
167.4356411187051
 30
0.0
 10
116.0334902843865
 20
167.5102865892989
 30
0.0
 10
116.057824393426
 20
167.5916503344666
 30
0.0
 10
116.060344277783
 20
167.6488078010455
 30
0.0
 10
116.0616320370599
 20
167.6780174977612
 30
0.0
  0
SPLINE
  5
87
330
1F
100
AcDbEntity
  8
0
  6
Continuous
 62
     7
370
     0
100
AcDbSpline
210
0.0
220
0.0
230
1.0
 70
     8
 71
     3
 72
    15
 73
    11
 74
     0
 42
0.00000001
 43
0.00000001
 40
0.0
 40
0.0
 40
0.0
 40
0.0
 40
0.1527361015877024
 40
0.2952181086740848
 40
0.4290874134391423
 40
0.5545521925653671
 40
0.6733637484672589
 40
0.7865648625534073
 40
0.8937655467091831
 40
1.0
 40
1.0
 40
1.0
 40
1.0
 10
125.8709413463692
 20
158.9309587934658
 30
0.0
 10
125.8987531567757
 20
158.931174842413
 30
0.0
 10
125.9525096032325
 20
158.9315924356402
 30
0.0
 10
126.0300879949022
 20
158.9409097936881
 30
0.0
 10
126.1024997381925
 20
158.9516724112299
 30
0.0
 10
126.1687839174351
 20
158.9704677280464
 30
0.0
 10
126.2302802840444
 20
158.9921239818133
 30
0.0
 10
126.2847627500591
 20
159.021360024796
 30
0.0
 10
126.3351423371336
 20
159.0532940621883
 30
0.0
 10
126.3635557240397
 20
159.0798854513028
 30
0.0
 10
126.3776981031259
 20
159.093120955628
 30
0.0
  0
SPLINE
  5
88
330
1F
100
AcDbEntity
  8
0
  6
Continuous
 62
     7
370
     0
100
AcDbSpline
210
0.0
220
0.0
230
1.0
 70
     8
 71
     3
 72
    15
 73
    11
 74
     0
 42
0.00000001
 43
0.00000001
 40
0.0
 40
0.0
 40
0.0
 40
0.0
 40
0.1195207678016626
 40
0.2385769889400714
 40
0.3570583175167636
 40
0.4780520139443323
 40
0.6008398709279152
 40
0.7288671597165913
 40
0.8606123388176886
 40
1.0
 40
1.0
 40
1.0
 40
1.0
 10
125.3844548598827
 20
159.1133912258983
 30
0.0
 10
125.399860056932
 20
159.0986903335705
 30
0.0
 10
125.4306105749688
 20
159.0693456875243
 30
0.0
 10
125.4830827689192
 20
159.0332391286447
 30
0.0
 10
125.5380948819453
 20
159.0007728014569
 30
0.0
 10
125.5976926542043
 20
158.9758777041993
 30
0.0
 10
125.6605362107049
 20
158.9549924321151
 30
0.0
 10
125.7272955820019
 20
158.9411248304237
 30
0.0
 10
125.7979032846672
 20
158.9327314032926
 30
0.0
 10
125.8461420864989
 20
158.9315606633775
 30
0.0
 10
125.8709413463692
 20
158.9309587934658
 30
0.0
  0
LINE
  5
89
330
1F
100
AcDbEntity
  8
0
  6
Continuous
 62
     7
370
     0
100
AcDbLine
 10
125.2222925351
 20
160.6133911848
 30
0.0
 11
125.2222925351
 21
159.5593372915
 31
0.0
  0
LINE
  5
8A
330
1F
100
AcDbEntity
  8
0
  6
Continuous
 62
     7
370
     0
100
AcDbLine
 10
126.5616321863
 20
160.6133911848
 30
0.0
 11
125.2222925351
 21
160.6133911848
 31
0.0
  0
LINE
  5
8B
330
1F
100
AcDbEntity
  8
0
  6
Continuous
 62
     7
370
     0
100
AcDbLine
 10
126.5616321863
 20
159.5593372915
 30
0.0
 11
126.5616321863
 21
160.6133911848
 31
0.0
  0
SPLINE
  5
8C
330
1F
100
AcDbEntity
  8
0
  6
Continuous
 62
     7
370
     0
100
AcDbSpline
210
0.0
220
0.0
230
1.0
 70
     8
 71
     3
 72
    15
 73
    11
 74
     0
 42
0.00000001
 43
0.00000001
 40
0.0
 40
0.0
 40
0.0
 40
0.0
 40
0.1238293196962772
 40
0.2456784877591813
 40
0.365912990855484
 40
0.4878667205807038
 40
0.6095501489246158
 40
0.7350748476280489
 40
0.8657813166352119
 40
1.0
 40
1.0
 40
1.0
 40
1.0
 10
126.3776981031259
 20
159.093120955628
 30
0.0
 10
126.3922722434187
 20
159.108618328574
 30
0.0
 10
126.4211874692821
 20
159.1393652563529
 30
0.0
 10
126.4588036075833
 20
159.1898801850589
 30
0.0
 10
126.4906405447093
 20
159.2437893292909
 30
0.0
 10
126.5167923632312
 20
159.3006434126394
 30
0.0
 10
126.5374248395188
 20
159.3607023274237
 30
0.0
 10
126.5515831180992
 20
159.4241464094283
 30
0.0
 10
126.5597458980343
 20
159.4908047244181
 30
0.0
 10
126.5609977917729
 20
159.5362920085779
 30
0.0
 10
126.5616320370599
 20
159.5593371718442
 30
0.0
  0
SPLINE
  5
8D
330
1F
100
AcDbEntity
  8
0
  6
Continuous
 62
     7
370
     0
100
AcDbSpline
210
0.0
220
0.0
230
1.0
 70
     8
 71
     3
 72
    15
 73
    11
 74
     0
 42
0.00000001
 43
0.00000001
 40
0.0
 40
0.0
 40
0.0
 40
0.0
 40
0.1418032572055074
 40
0.2768956124422274
 40
0.4056005815718948
 40
0.5283792299702879
 40
0.6485398625937348
 40
0.7671999810702819
 40
0.8821728056706531
 40
1.0
 40
1.0
 40
1.0
 40
1.0
 10
125.2222926977205
 20
159.5593371718442
 30
0.0
 10
125.2225265600501
 20
159.5362751210413
 30
0.0
 10
125.222983217071
 20
159.4912424412066
 30
0.0
 10
125.2323129801259
 20
159.4259318785274
 30
0.0
 10
125.2431234552016
 20
159.3639608322631
 30
0.0
 10
125.2621265378814
 20
159.3065298924951
 30
0.0
 10
125.2839541780396
 20
159.2518682330414
 30
0.0
 10
125.3129825115364
 20
159.2021242185178
 30
0.0
 10
125.3453140195763
 20
159.1548895833994
 30
0.0
 10
125.3713017011357
 20
159.1273366210323
 30
0.0
 10
125.3844548598827
 20
159.1133912258983
 30
0.0
  0
SPLINE
  5
8E
330
1F
100
AcDbEntity
  8
0
  6
Continuous
 62
     7
370
     0
100
AcDbSpline
210
0.0
220
0.0
230
1.0
 70
     8
 71
     3
 72
    15
 73
    11
 74
     0
 42
0.00000001
 43
0.00000001
 40
0.0
 40
0.0
 40
0.0
 40
0.0
 40
0.1417962611116217
 40
0.2768819513476977
 40
0.4055805706087827
 40
0.5298229690785615
 40
0.6485572024501441
 40
0.7672114666371234
 40
0.8821786188665559
 40
1.0
 40
1.0
 40
1.0
 40
1.0
 10
119.2222926977205
 20
159.03186889495
 30
0.0
 10
119.2453536762704
 20
159.0321059500199
 30
0.0
 10
119.2903842623438
 20
159.0325688414237
 30
0.0
 10
119.3557097244405
 20
159.0418542399785
 30
0.0
 10
119.417863528408
 20
159.052863260865
 30
0.0
 10
119.47547586175
 20
159.0713644225559
 30
0.0
 10
119.5299190910894
 20
159.0937534138611
 30
0.0
 10
119.5795165219655
 20
159.1225313271011
 30
0.0
 10
119.6267375263694
 20
159.1548971681785
 30
0.0
 10
119.6542923211116
 20
159.1808802343526
 30
0.0
 10
119.6682386436665
 20
159.1940310571121
 30
0.0
  0
SPLINE
  5
8F
330
1F
100
AcDbEntity
  8
0
  6
Continuous
 62
     7
370
     0
100
AcDbSpline
210
0.0
220
0.0
230
1.0
 70
     8
 71
     3
 72
    15
 73
    11
 74
     0
 42
0.00000001
 43
0.00000001
 40
0.0
 40
0.0
 40
0.0
 40
0.0
 40
0.1452459980297222
 40
0.2839773123111038
 40
0.4135645357275257
 40
0.5387150251446053
 40
0.6570052502158956
 40
0.7736984629726806
 40
0.8866940707303842
 40
1.0
 40
1.0
 40
1.0
 40
1.0
 10
118.6141845896124
 20
159.6805175435986
 30
0.0
 10
118.6144306177028
 20
159.6559586185441
 30
0.0
 10
118.6149116388449
 20
159.6079423039825
 30
0.0
 10
118.6240414860861
 20
159.5385892486239
 30
0.0
 10
118.6352057523105
 20
159.4729809344924
 30
0.0
 10
118.6535732935539
 20
159.4125830021875
 30
0.0
 10
118.6758625350568
 20
159.3558206765244
 30
0.0
 10
118.704916185426
 20
159.3046221351096
 30
0.0
 10
118.7367430415498
 20
159.2559696031135
 30
0.0
 10
118.7631334522012
 20
159.2282034443007
 30
0.0
 10
118.7763467517746
 20
159.2143013273824
 30
0.0
  0
LINE
  5
90
330
1F
100
AcDbEntity
  8
0
  6
Continuous
 62
     7
370
     0
100
AcDbLine
 10
118.614184593
 20
160.7143013827
 30
0.0
 11
118.614184593
 21
159.6805177252
 31
0.0
  0
LINE
  5
91
330
1F
100
AcDbEntity
  8
0
  6
Continuous
 62
     7
370
     0
100
AcDbLine
 10
119.8521725775
 20
160.7143013827
 30
0.0
 11
118.614184593
 21
160.7143013827
 31
0.0
  0
LINE
  5
92
330
1F
100
AcDbEntity
  8
0
  6
Continuous
 62
     7
370
     0
100
AcDbLine
 10
119.8521725775
 20
159.6805177252
 30
0.0
 11
119.8521725775
 21
160.7143013827
 31
0.0
  0
SPLINE
  5
93
330
1F
100
AcDbEntity
  8
0
  6
Continuous
 62
     7
370
     0
100
AcDbSpline
210
0.0
220
0.0
230
1.0
 70
     8
 71
     3
 72
    15
 73
    11
 74
     0
 42
0.00000001
 43
0.00000001
 40
0.0
 40
0.0
 40
0.0
 40
0.0
 40
0.1193556939378547
 40
0.2390663805212355
 40
0.3573840708360854
 40
0.478772892602903
 40
0.6013911634438112
 40
0.7292416297469766
 40
0.8608048514681802
 40
1.0
 40
1.0
 40
1.0
 40
1.0
 10
119.6682386436665
 20
159.1940310571121
 30
0.0
 10
119.6828767351578
 20
159.2094800156501
 30
0.0
 10
119.7121964553581
 20
159.240423881658
 30
0.0
 10
119.749300921246
 20
159.2923824675932
 30
0.0
 10
119.7813834914407
 20
159.3478911922852
 30
0.0
 10
119.8074666092608
 20
159.4070631671108
 30
0.0
 10
119.8280700920212
 20
159.4701435207939
 30
0.0
 10
119.8420257928905
 20
159.5368630788798
 30
0.0
 10
119.8503947668523
 20
159.6074818322634
 30
0.0
 10
119.8515689417739
 20
159.6557190817691
 30
0.0
 10
119.8521725776004
 20
159.6805175435986
 30
0.0
  0
SPLINE
  5
94
330
1F
100
AcDbEntity
  8
0
  6
Continuous
 62
     7
370
     0
100
AcDbSpline
210
0.0
220
0.0
230
1.0
 70
     8
 71
     3
 72
    15
 73
    11
 74
     0
 42
0.00000001
 43
0.00000001
 40
0.0
 40
0.0
 40
0.0
 40
0.0
 40
0.1277118540336129
 40
0.252362114195531
 40
0.3748537650566261
 40
0.4969693854038487
 40
0.6192731655242181
 40
0.742485444301997
 40
0.8694478780376614
 40
1.0
 40
1.0
 40
1.0
 40
1.0
 10
118.7763467517746
 20
159.2143013273824
 30
0.0
 10
118.7915416146021
 20
159.1996603488304
 30
0.0
 10
118.8215670788558
 20
159.1707293750439
 30
0.0
 10
118.8717456186823
 20
159.1343106330611
 30
0.0
 10
118.9235729941383
 20
159.1020819918973
 30
0.0
 10
118.9787729041455
 20
159.0768834173064
 30
0.0
 10
119.035918206245
 20
159.0562651904669
 30
0.0
 10
119.09583150267
 20
159.0419673603576
 30
0.0
 10
119.1582481349515
 20
159.0337452024929
 30
0.0
 10
119.2007470354646
 20
159.0325001161943
 30
0.0
 10
119.2222926977205
 20
159.03186889495
 30
0.0
  0
LINE
  5
95
330
1F
100
AcDbEntity
  8
0
  6
Continuous
 62
     7
370
     0
100
AcDbLine
 10
120.9490193679
 20
157.6624995652
 30
0.0
 11
121.188508968
 21
157.6624995652
 31
0.0
  0
LINE
  5
96
330
1F
100
AcDbEntity
  8
0
  6
Continuous
 62
     7
370
     0
100
AcDbLine
 10
120.9490193679
 20
157.0679050494
 30
0.0
 11
120.9490193679
 21
157.6624995652
 31
0.0
  0
LINE
  5
97
330
1F
100
AcDbEntity
  8
0
  6
Continuous
 62
     7
370
     0
100
AcDbLine
 10
118.2493197658
 20
157.0679050494
 30
0.0
 11
120.9490193679
 21
157.0679050494
 31
0.0
  0
LINE
  5
98
330
1F
100
AcDbEntity
  8
0
  6
Continuous
 62
     7
370
     0
100
AcDbLine
 10
118.2493197658
 20
156.5881752033
 30
0.0
 11
118.2493197658
 21
157.0679050494
 31
0.0
  0
LINE
  5
99
330
1F
100
AcDbEntity
  8
0
  6
Continuous
 62
     7
370
     0
100
AcDbLine
 10
121.7560765027
 20
156.5881752033
 30
0.0
 11
118.2493197658
 21
156.5881752033
 31
0.0
  0
LINE
  5
9A
330
1F
100
AcDbEntity
  8
0
  6
Continuous
 62
     7
370
     0
100
AcDbLine
 10
121.7560765027
 20
156.831418499
 30
0.0
 11
121.7560765027
 21
156.5881752033
 31
0.0
  0
SPLINE
  5
9B
330
1F
100
AcDbEntity
  8
0
  6
Continuous
 62
     7
370
     0
100
AcDbSpline
210
0.0
220
0.0
230
1.0
 70
     8
 71
     3
 72
    11
 73
     7
 74
     0
 42
0.00000001
 43
0.00000001
 40
0.0
 40
0.0
 40
0.0
 40
0.0
 40
0.2682823389612924
 40
0.5197997967341368
 40
0.76046563126196
 40
1.0
 40
1.0
 40
1.0
 40
1.0
 10
121.3506710760989
 20
157.0341211472022
 30
0.0
 10
121.3810650897202
 20
157.0059525859548
 30
0.0
 10
121.4399538043612
 20
156.9513757082244
 30
0.0
 10
121.5407264828142
 20
156.8903378517128
 30
0.0
 10
121.6459417341051
 20
156.8473334818013
 30
0.0
 10
121.719422611841
 20
156.8367151171366
 30
0.0
 10
121.7560764815043
 20
156.8314184444995
 30
0.0
  0
SPLINE
  5
9C
330
1F
100
AcDbEntity
  8
0
  6
Continuous
 62
     7
370
     0
100
AcDbSpline
210
0.0
220
0.0
230
1.0
 70
     8
 71
     3
 72
    15
 73
    11
 74
     0
 42
0.00000001
 43
0.00000001
 40
0.0
 40
0.0
 40
0.0
 40
0.0
 40
0.141803257205507
 40
0.2768956124422268
 40
0.4056005815718941
 40
0.528379229970287
 40
0.6485398625937319
 40
0.7671999810702798
 40
0.882172805670652
 40
0.9999999999999999
 40
0.9999999999999999
 40
0.9999999999999999
 40
0.9999999999999999
 10
121.1885089139367
 20
157.4800670931481
 30
0.0
 10
121.1887427762664
 20
157.4570050423452
 30
0.0
 10
121.1891994332873
 20
157.4119723625105
 30
0.0
 10
121.1985291963422
 20
157.3466617998313
 30
0.0
 10
121.2093396714178
 20
157.284690753567
 30
0.0
 10
121.2283427540976
 20
157.227259813799
 30
0.0
 10
121.2501703942559
 20
157.1725981543454
 30
0.0
 10
121.2791987277526
 20
157.1228541398217
 30
0.0
 10
121.3115302357926
 20
157.0756195047033
 30
0.0
 10
121.337517917352
 20
157.0480665423362
 30
0.0
 10
121.3506710760989
 20
157.0341211472022
 30
0.0
  0
LINE
  5
9D
330
1F
100
AcDbEntity
  8
0
  6
Continuous
 62
     7
370
     0
100
AcDbLine
 10
121.188508968
 20
157.6624995652
 30
0.0
 11
121.188508968
 21
157.480066977
 31
0.0
  0
LINE
  5
9E
330
1F
100
AcDbEntity
  8
0
  6
Continuous
 62
     7
370
     0
100
AcDbLine
 10
119.5886590677
 20
163.9537908051
 30
0.0
 11
118.2290494136
 21
163.9537908051
 31
0.0
  0
LINE
  5
9F
330
1F
100
AcDbEntity
  8
0
  6
Continuous
 62
     7
370
     0
100
AcDbLine
 10
119.5886590677
 20
162.7983853543
 30
0.0
 11
119.5886590677
 21
163.9537908051
 31
0.0
  0
SPLINE
  5
A0
330
1F
100
AcDbEntity
  8
0
  6
Continuous
 62
     7
370
     0
100
AcDbSpline
210
0.0
220
0.0
230
1.0
 70
     8
 71
     3
 72
    15
 73
    11
 74
     0
 42
0.00000001
 43
0.00000001
 40
0.0
 40
0.0
 40
0.0
 40
0.0
 40
0.1134379491612229
 40
0.2278316283988335
 40
0.3439746828196714
 40
0.4632843510369724
 40
0.5879523799245373
 40
0.718288641668789
 40
0.855413464248272
 40
1.0
 40
1.0
 40
1.0
 40
1.0
 10
119.8506710760989
 20
162.0483854114665
 30
0.0
 10
119.82954155946
 20
162.0709044842824
 30
0.0
 10
119.7871045071444
 20
162.1161323561509
 30
0.0
 10
119.7341605966155
 20
162.1936236107394
 30
0.0
 10
119.6887958100522
 20
162.2773778452496
 30
0.0
 10
119.6518716324788
 20
162.3682725089922
 30
0.0
 10
119.6234577349696
 20
162.4661781807279
 30
0.0
 10
119.6037143352818
 20
162.5710371179532
 30
0.0
 10
119.5902304652129
 20
162.6824202883089
 30
0.0
 10
119.5891920328119
 20
162.759053771179
 30
0.0
 10
119.5886590640869
 20
162.7983854114665
 30
0.0
  0
SPLINE
  5
A1
330
1F
100
AcDbEntity
  8
0
  6
Continuous
 62
     7
370
     0
100
AcDbSpline
210
0.0
220
0.0
230
1.0
 70
     8
 71
     3
 72
    15
 73
    11
 74
     0
 42
0.00000001
 43
0.00000001
 40
0.0
 40
0.0
 40
0.0
 40
0.0
 40
0.1474010611502689
 40
0.2856974574838594
 40
0.4173170259111328
 40
0.5418311731195041
 40
0.6607761138044996
 40
0.7757147634118141
 40
0.8886130455433362
 40
1.0
 40
1.0
 40
1.0
 40
1.0
 10
120.6209413463692
 20
161.7848718979529
 30
0.0
 10
120.5798555779165
 20
161.7853786952251
 30
0.0
 10
120.5002218256619
 20
161.786360985929
 30
0.0
 10
120.3846374716905
 20
161.8000512948955
 30
0.0
 10
120.2763115093795
 20
161.819214517423
 30
0.0
 10
120.1759907600767
 20
161.8490775036887
 30
0.0
 10
120.082913017877
 20
161.885587551994
 30
0.0
 10
119.9973263688725
 20
161.930826683968
 30
0.0
 10
119.9194285720609
 20
161.9848904379509
 30
0.0
 10
119.8734870503607
 20
162.0273157133744
 30
0.0
 10
119.8506710760989
 20
162.0483854114665
 30
0.0
  0
SPLINE
  5
A2
330
1F
100
AcDbEntity
  8
0
  6
Continuous
 62
     7
370
     0
100
AcDbSpline
210
0.0
220
0.0
230
1.0
 70
     8
 71
     3
 72
    15
 73
    11
 74
     0
 42
0.00000001
 43
0.00000001
 40
0.0
 40
0.0
 40
0.0
 40
0.0
 40
0.1158830802717858
 40
0.2315534497979606
 40
0.3480625771524271
 40
0.4678553783950306
 40
0.5925908197539047
 40
0.721311503017262
 40
0.8571441704632062
 40
1.0
 40
1.0
 40
1.0
 40
1.0
 10
121.4114818869097
 20
162.0686556817367
 30
0.0
 10
121.3872892182699
 20
162.0456746722988
 30
0.0
 10
121.3389482881685
 20
161.9997548365236
 30
0.0
 10
121.2558032506489
 20
161.9434905530231
 30
0.0
 10
121.1675838615669
 20
161.8936529165371
 30
0.0
 10
121.0713165468362
 20
161.8542539551956
 30
0.0
 10
120.9686645255198
 20
161.8224258556973
 30
0.0
 10
120.8586151697703
 20
161.80125354028
 30
0.0
 10
120.7421758362169
 20
161.7872241955823
 30
0.0
 10
120.6620261209139
 20
161.7856690606901
 30
0.0
 10
120.6209413463692
 20
161.7848718979529
 30
0.0
  0
LINE
  5
A3
330
1F
100
AcDbEntity
  8
0
  6
Continuous
 62
     7
370
     0
100
AcDbLine
 10
121.6952656788
 20
164.4335205458
 30
0.0
 11
121.6952656788
 21
162.7983853543
 31
0.0
  0
LINE
  5
A4
330
1F
100
AcDbEntity
  8
0
  6
Continuous
 62
     7
370
     0
100
AcDbLine
 10
118.2290494136
 20
164.4335205458
 30
0.0
 11
121.6952656788
 21
164.4335205458
 31
0.0
  0
LINE
  5
A5
330
1F
100
AcDbEntity
  8
0
  6
Continuous
 62
     7
370
     0
100
AcDbLine
 10
118.2290494136
 20
163.9537908051
 30
0.0
 11
118.2290494136
 21
164.4335205458
 31
0.0
  0
SPLINE
  5
A6
330
1F
100
AcDbEntity
  8
0
  6
Continuous
 62
     7
370
     0
100
AcDbSpline
210
0.0
220
0.0
230
1.0
 70
     8
 71
     3
 72
    15
 73
    11
 74
     0
 42
0.00000001
 43
0.00000001
 40
0.0
 40
0.0
 40
0.0
 40
0.0
 40
0.1086277469152502
 40
0.2195300404679355
 40
0.3340583594962493
 40
0.4525037346025801
 40
0.5781660321028789
 40
0.7098017975268056
 40
0.8504665399585416
 40
1.0
 40
1.0
 40
1.0
 40
1.0
 10
113.2222926977205
 20
166.9482877680315
 30
0.0
 10
113.2030146735538
 20
166.9693878094254
 30
0.0
 10
113.1640549644036
 20
167.0120297040852
 30
0.0
 10
113.1142649917882
 20
167.0847761590929
 30
0.0
 10
113.073294175997
 20
167.1655717634059
 30
0.0
 10
113.0393851146038
 20
167.2536783340032
 30
0.0
 10
113.0123204596392
 20
167.3488413570568
 30
0.0
 10
112.993926710918
 20
167.4519576518635
 30
0.0
 10
112.9825297930784
 20
167.5623935477375
 30
0.0
 10
112.9812238717217
 20
167.6386988614551
 30
0.0
 10
112.9805509559788
 20
167.6780174977612
 30
0.0
  0
SPLINE
  5
A7
330
1F
100
AcDbEntity
  8
0
  6
Continuous
 62
     7
370
     0
100
AcDbSpline
210
0.0
220
0.0
230
1.0
 70
     8
 71
     3
 72
    15
 73
    11
 74
     0
 42
0.00000001
 43
0.00000001
 40
0.0
 40
0.0
 40
0.0
 40
0.0
 40
0.1319114978615546
 40
0.2585593955794505
 40
0.382928204599213
 40
0.5051155152535459
 40
0.6266776175559884
 40
0.7489849223246641
 40
0.8728415720964475
 40
1.0
 40
1.0
 40
1.0
 40
1.0
 10
113.9722926977205
 20
166.6442337139774
 30
0.0
 10
113.9357075678161
 20
166.6450015668797
 30
0.0
 10
113.8639971465972
 20
166.6465066334244
 30
0.0
 10
113.7586230192583
 20
166.6612590318476
 30
0.0
 10
113.657868954877
 20
166.6853066840458
 30
0.0
 10
113.5611174037019
 20
166.7182934937973
 30
0.0
 10
113.4689653812288
 20
166.7613153484567
 30
0.0
 10
113.3817787465289
 20
166.8143921668034
 30
0.0
 10
113.2982245490096
 20
166.8758720359125
 30
0.0
 10
113.2478242981507
 20
166.9239384402338
 30
0.0
 10
113.2222926977205
 20
166.9482877680315
 30
0.0
  0
SPLINE
  5
A8
330
1F
100
AcDbEntity
  8
0
  6
Continuous
 62
     7
370
     0
100
AcDbSpline
210
0.0
220
0.0
230
1.0
 70
     8
 71
     3
 72
    15
 73
    11
 74
     0
 42
0.00000001
 43
0.00000001
 40
0.0
 40
0.0
 40
0.0
 40
0.0
 40
0.1263812889588907
 40
0.249104946497317
 40
0.3706105362999222
 40
0.4913917559424301
 40
0.6138158455532666
 40
0.7388355742356975
 40
0.8671181754268785
 40
1.0
 40
1.0
 40
1.0
 40
1.0
 10
114.5804008058286
 20
166.8874769572207
 30
0.0
 10
114.5597171600371
 20
166.868077240609
 30
0.0
 10
114.5189484788446
 20
166.8298392592716
 30
0.0
 10
114.4524439351041
 20
166.7795513867379
 30
0.0
 10
114.3812994873352
 20
166.7388085763837
 30
0.0
 10
114.3074769866025
 20
166.7031947171735
 30
0.0
 10
114.2287565148826
 20
166.6776085795555
 30
0.0
 10
114.1468073512825
 20
166.6575760520581
 30
0.0
 10
114.0606909942216
 20
166.6463657702137
 30
0.0
 10
114.0021027185446
 20
166.6449526943573
 30
0.0
 10
113.9722926977205
 20
166.6442337139774
 30
0.0
  0
SPLINE
  5
A9
330
1F
100
AcDbEntity
  8
0
  6
Continuous
 62
     7
370
     0
100
AcDbSpline
210
0.0
220
0.0
230
1.0
 70
     8
 71
     3
 72
    11
 73
     7
 74
     0
 42
0.00000001
 43
0.00000001
 40
0.0
 40
0.0
 40
0.0
 40
0.0
 40
0.2758864184465418
 40
0.5310076877713118
 40
0.7722766677115268
 40
1.0
 40
1.0
 40
1.0
 40
1.0
 10
114.8033737788016
 20
167.2726120923558
 30
0.0
 10
114.7894543016006
 20
167.2337181728813
 30
0.0
 10
114.7626630247951
 20
167.1588577634242
 30
0.0
 10
114.7100360751714
 20
167.05572791781
 30
0.0
 10
114.6506710242609
 20
166.9646422552813
 30
0.0
 10
114.6033688106782
 20
166.9126986368969
 30
0.0
 10
114.5804008058286
 20
166.8874769572207
 30
0.0
  0
SPLINE
  5
AA
330
1F
100
AcDbEntity
  8
0
  6
Continuous
 62
     7
370
     0
100
AcDbSpline
210
0.0
220
0.0
230
1.0
 70
     8
 71
     3
 72
    11
 73
     7
 74
     0
 42
0.00000001
 43
0.00000001
 40
0.0
 40
0.0
 40
0.0
 40
0.0
 40
0.2409277974217338
 40
0.4854864172424135
 40
0.738041046499391
 40
1.0
 40
1.0
 40
1.0
 40
1.0
 10
114.985806211234
 20
166.9685580383018
 30
0.0
 10
114.9662326028246
 20
166.989620499853
 30
0.0
 10
114.9267904084374
 20
167.032062837791
 30
0.0
 10
114.8771001565922
 20
167.1050851685805
 30
0.0
 10
114.8358431797317
 20
167.1858706158542
 30
0.0
 10
114.8143279979031
 20
167.2433480741859
 30
0.0
 10
114.8033737788016
 20
167.2726120923558
 30
0.0
  0
SPLINE
  5
AB
330
1F
100
AcDbEntity
  8
0
  6
Continuous
 62
     7
370
     0
100
AcDbSpline
210
0.0
220
0.0
230
1.0
 70
     8
 71
     3
 72
    15
 73
    11
 74
     0
 42
0.00000001
 43
0.00000001
 40
0.0
 40
0.0
 40
0.0
 40
0.0
 40
0.1312072932871431
 40
0.2585055422472052
 40
0.3817646425439865
 40
0.503369267050067
 40
0.6250492974901226
 40
0.7476118725723037
 40
0.8722462138971594
 40
1.0
 40
1.0
 40
1.0
 40
1.0
 10
115.5331035085313
 20
166.7455850653288
 30
0.0
 10
115.5065425907061
 20
166.7463421413216
 30
0.0
 10
115.4542120815325
 20
166.7478337378263
 30
0.0
 10
115.377521097041
 20
166.758535236181
 30
0.0
 10
115.3041267322839
 20
166.7758777466219
 30
0.0
 10
115.2337548681847
 20
166.7998216411383
 30
0.0
 10
115.1667390130089
 20
166.8316884393991
 30
0.0
 10
115.1027414115633
 20
166.8702728615274
 30
0.0
 10
115.04122701988
 20
166.9150722466588
 30
0.0
 10
115.0044314085127
 20
166.9505831396077
 30
0.0
 10
114.985806211234
 20
166.9685580383018
 30
0.0
  0
SPLINE
  5
AC
330
1F
100
AcDbEntity
  8
0
  6
Continuous
 62
     7
370
     0
100
AcDbSpline
210
0.0
220
0.0
230
1.0
 70
     8
 71
     3
 72
    15
 73
    11
 74
     0
 42
0.00000001
 43
0.00000001
 40
0.0
 40
0.0
 40
0.0
 40
0.0
 40
0.1195027114365311
 40
0.2380939422658884
 40
0.3566476293726345
 40
0.4775806195769136
 40
0.6003630199241495
 40
0.7278327340041416
 40
0.8606471500295819
 40
1.0
 40
1.0
 40
1.0
 40
1.0
 10
116.18175215718
 20
166.988828308572
 30
0.0
 10
116.1611406198998
 20
166.9693342062799
 30
0.0
 10
116.1200747552998
 20
166.9304946886666
 30
0.0
 10
116.0512565456829
 20
166.8807905572981
 30
0.0
 10
115.9768578989897
 20
166.8395598013338
 30
0.0
 10
115.8981622294617
 20
166.8046158312868
 30
0.0
 10
115.8138455515359
 20
166.7787190680046
 30
0.0
 10
115.7250796038644
 20
166.7588196605175
 30
0.0
 10
115.6307348278944
 20
166.7476798613797
 30
0.0
 10
115.5661643531213
 20
166.7462944250623
 30
0.0
 10
115.5331035085313
 20
166.7455850653288
 30
0.0
  0
SPLINE
  5
AD
330
1F
100
AcDbEntity
  8
0
  6
Continuous
 62
     7
370
     0
100
AcDbSpline
210
0.0
220
0.0
230
1.0
 70
     8
 71
     3
 72
    15
 73
    11
 74
     0
 42
0.00000001
 43
0.00000001
 40
0.0
 40
0.0
 40
0.0
 40
0.0
 40
0.1342477572737635
 40
0.263461772575684
 40
0.3884666271730289
 40
0.5118790511869576
 40
0.632408074152589
 40
0.7535525248235476
 40
0.8755084805282745
 40
1.0
 40
1.0
 40
1.0
 40
1.0
 10
116.4452656706935
 20
167.6577472274909
 30
0.0
 10
116.4447228713981
 20
167.6246634710394
 30
0.0
 10
116.4436576255614
 20
167.5597364637271
 30
0.0
 10
116.4300174623514
 20
167.4648676487238
 30
0.0
 10
116.4103149788507
 20
167.3738743970555
 30
0.0
 10
116.3807836624834
 20
167.2877467216312
 30
0.0
 10
116.3436482657433
 20
167.2057567264953
 30
0.0
 10
116.2988087459458
 20
167.1280324485247
 30
0.0
 10
116.2440972396861
 20
167.0556280902688
 30
0.0
 10
116.2026759051945
 20
167.01124710639
 30
0.0
 10
116.18175215718
 20
166.988828308572
 30
0.0
  0
LINE
  5
AE
330
1F
100
AcDbEntity
  8
0
  6
Continuous
 62
     7
370
     0
100
AcDbLine
 10
116.4452657496
 20
169.2928824197
 30
0.0
 11
116.4452657496
 21
167.6577472683
 31
0.0
  0
LINE
  5
AF
330
1F
100
AcDbEntity
  8
0
  6
Continuous
 62
     7
370
     0
100
AcDbLine
 10
112.9805508928
 20
169.2928824197
 30
0.0
 11
116.4452657496
 21
169.2928824197
 31
0.0
  0
LINE
  5
B0
330
1F
100
AcDbEntity
  8
0
  6
Continuous
 62
     7
370
     0
100
AcDbLine
 10
112.9805508928
 20
167.6780175041
 30
0.0
 11
112.9805508928
 21
169.2928824197
 31
0.0
  0
CIRCLE
  5
B1
330
1F
100
AcDbEntity
  8
0
  6
Continuous
 62
     7
370
     0
100
AcDbCircle
 10
126.9182386437
 20
151.3891584683
 30
0.0
 40
1.75
  0
LINE
  5
B2
330
1F
100
AcDbEntity
  8
0
  6
Continuous
 62
     7
370
     0
100
AcDbLine
 10
130.4182385021
 20
177.8891588185
 30
0.0
 11
109.4182387852
 21
177.8891588185
 31
0.0
  0
LINE
  5
B3
330
1F
100
AcDbEntity
  8
0
  6
Continuous
 62
     7
370
     0
100
AcDbLine
 10
130.4182385021
 20
142.8891577381
 30
0.0
 11
130.4182385021
 21
177.8891588185
 31
0.0
  0
LINE
  5
B4
330
1F
100
AcDbEntity
  8
0
  6
Continuous
 62
     7
370
     0
100
AcDbLine
 10
109.4182387852
 20
142.8891577381
 30
0.0
 11
130.4182385021
 21
142.8891577381
 31
0.0
  0
LINE
  5
B5
330
1F
100
AcDbEntity
  8
0
  6
Continuous
 62
     7
370
     0
100
AcDbLine
 10
109.4182387852
 20
177.8891588185
 30
0.0
 11
109.4182387852
 21
142.8891577381
 31
0.0
  0
CIRCLE
  5
B6
330
1F
100
AcDbEntity
  8
0
  6
Continuous
 62
     7
370
     0
100
AcDbCircle
 10
126.9182386437
 20
169.3891584683
 30
0.0
 40
1.75
  0
LINE
  5
B7
330
1F
100
AcDbEntity
  8
0
  6
Continuous
 62
     7
370
     0
100
AcDbLine
 10
124.8386588806
 20
160.6133911848
 30
0.0
 11
123.4790494592
 21
160.6133911848
 31
0.0
  0
LINE
  5
B8
330
1F
100
AcDbEntity
  8
0
  6
Continuous
 62
     7
370
     0
100
AcDbLine
 10
124.8386588806
 20
159.4579856466
 30
0.0
 11
124.8386588806
 21
160.6133911848
 31
0.0
  0
SPLINE
  5
B9
330
1F
100
AcDbEntity
  8
0
  6
Continuous
 62
     7
370
     0
100
AcDbSpline
210
0.0
220
0.0
230
1.0
 70
     8
 71
     3
 72
    15
 73
    11
 74
     0
 42
0.00000001
 43
0.00000001
 40
0.0
 40
0.0
 40
0.0
 40
0.0
 40
0.147401061150269
 40
0.2856974574838594
 40
0.4173170259111328
 40
0.5418311731195036
 40
0.6607761138044993
 40
0.7757147634118144
 40
0.8886130455433361
 40
1.0
 40
1.0
 40
1.0
 40
1.0
 10
125.8709413463692
 20
158.4444723069793
 30
0.0
 10
125.8298555779165
 20
158.4449791042515
 30
0.0
 10
125.7502218256619
 20
158.4459613949554
 30
0.0
 10
125.6346374716905
 20
158.459651703922
 30
0.0
 10
125.5263115093795
 20
158.4788149264494
 30
0.0
 10
125.4259907600767
 20
158.5086779127151
 30
0.0
 10
125.332913017877
 20
158.5451879610204
 30
0.0
 10
125.2473263688725
 20
158.5904270929944
 30
0.0
 10
125.1694285720609
 20
158.6444908469773
 30
0.0
 10
125.1234870503607
 20
158.6869161224008
 30
0.0
 10
125.1006710760989
 20
158.7079858204929
 30
0.0
  0
SPLINE
  5
BA
330
1F
100
AcDbEntity
  8
0
  6
Continuous
 62
     7
370
     0
100
AcDbSpline
210
0.0
220
0.0
230
1.0
 70
     8
 71
     3
 72
    15
 73
    11
 74
     0
 42
0.00000001
 43
0.00000001
 40
0.0
 40
0.0
 40
0.0
 40
0.0
 40
0.1354534708710496
 40
0.2653486496706543
 40
0.3914908732043521
 40
0.5142769133377455
 40
0.6353985379531486
 40
0.7554582103126819
 40
0.8764394999673364
 40
1.0
 40
1.0
 40
1.0
 40
1.0
 10
126.9452656706935
 20
159.4579858204929
 30
0.0
 10
126.9444622686119
 20
159.4216515109948
 30
0.0
 10
126.9428884318092
 20
159.3504738593626
 30
0.0
 10
126.9287088202685
 20
159.2462752662663
 30
0.0
 10
126.9073698960424
 20
159.1468679363664
 30
0.0
 10
126.8766549234211
 20
159.0522928540179
 30
0.0
 10
126.8357182600803
 20
158.963470329749
 30
0.0
 10
126.786385563726
 20
158.8797362051915
 30
0.0
 10
126.7296765458025
 20
158.7997622064581
 30
0.0
 10
126.6843727147792
 20
158.752258471779
 30
0.0
 10
126.6614818869097
 20
158.7282560907631
 30
0.0
  0
LINE
  5
BB
330
1F
100
AcDbEntity
  8
0
  6
Continuous
 62
     7
370
     0
100
AcDbLine
 10
126.9452658408
 20
161.0931210309
 30
0.0
 11
126.9452658408
 21
159.4579856466
 31
0.0
  0
LINE
  5
BC
330
1F
100
AcDbEntity
  8
0
  6
Continuous
 62
     7
370
     0
100
AcDbLine
 10
123.4790494592
 20
161.0931210309
 30
0.0
 11
126.9452658408
 21
161.0931210309
 31
0.0
  0
LINE
  5
BD
330
1F
100
AcDbEntity
  8
0
  6
Continuous
 62
     7
370
     0
100
AcDbLine
 10
123.4790494592
 20
160.6133911848
 30
0.0
 11
123.4790494592
 21
161.0931210309
 31
0.0
  0
LINE
  5
BE
330
1F
100
AcDbEntity
  8
0
  6
Continuous
 62
     7
370
     0
100
AcDbLine
 10
114.0346050189
 20
150.7783474955
 30
0.0
 11
114.0346050189
 21
152.1161858547
 31
0.0
  0
LINE
  5
BF
330
1F
100
AcDbEntity
  8
0
  6
Continuous
 62
     7
370
     0
100
AcDbLine
 10
112.9790496008
 20
150.3526716117
 30
0.0
 11
114.0346050189
 21
150.7783474955
 31
0.0
  0
LINE
  5
C0
330
1F
100
AcDbEntity
  8
0
  6
Continuous
 62
     7
370
     0
100
AcDbLine
 10
112.9790496008
 20
149.8661859516
 30
0.0
 11
112.9790496008
 21
150.3526716117
 31
0.0
  0
LINE
  5
C1
330
1F
100
AcDbEntity
  8
0
  6
Continuous
 62
     7
370
     0
100
AcDbLine
 10
116.4858062213
 20
151.2445638511
 30
0.0
 11
112.9790496008
 21
149.8661859516
 31
0.0
  0
LINE
  5
C2
330
1F
100
AcDbEntity
  8
0
  6
Continuous
 62
     7
370
     0
100
AcDbLine
 10
116.4858062213
 20
151.6499694992
 30
0.0
 11
116.4858062213
 21
151.2445638511
 31
0.0
  0
LINE
  5
C3
330
1F
100
AcDbEntity
  8
0
  6
Continuous
 62
     7
370
     0
100
AcDbLine
 10
112.9790496008
 20
153.0283473987
 30
0.0
 11
116.4858062213
 21
151.6499694992
 31
0.0
  0
LINE
  5
C4
330
1F
100
AcDbEntity
  8
0
  6
Continuous
 62
     7
370
     0
100
AcDbLine
 10
112.9790496008
 20
152.5418608073
 30
0.0
 11
112.9790496008
 21
153.0283473987
 31
0.0
  0
LINE
  5
C5
330
1F
100
AcDbEntity
  8
0
  6
Continuous
 62
     7
370
     0
100
AcDbLine
 10
114.0346050189
 20
152.1161858547
 30
0.0
 11
112.9790496008
 21
152.5418608073
 31
0.0
  0
SPLINE
  5
C6
330
1F
100
AcDbEntity
  8
0
  6
Continuous
 62
     7
370
     0
100
AcDbSpline
210
0.0
220
0.0
230
1.0
 70
     8
 71
     3
 72
    15
 73
    11
 74
     0
 42
0.00000001
 43
0.00000001
 40
0.0
 40
0.0
 40
0.0
 40
0.0
 40
0.1086277469152499
 40
0.2195300404679354
 40
0.3340583594962488
 40
0.4525037346025794
 40
0.5781660321028793
 40
0.7098017975268054
 40
0.850466539958542
 40
1.0
 40
1.0
 40
1.0
 40
1.0
 10
118.4722926977205
 20
158.8494364625175
 30
0.0
 10
118.4530146735538
 20
158.8705365039114
 30
0.0
 10
118.4140549644036
 20
158.9131783985712
 30
0.0
 10
118.3642649917881
 20
158.985924853579
 30
0.0
 10
118.323294175997
 20
159.0667204578919
 30
0.0
 10
118.2893851146038
 20
159.1548270284892
 30
0.0
 10
118.2623204596392
 20
159.2499900515428
 30
0.0
 10
118.243926710918
 20
159.3531063463495
 30
0.0
 10
118.2325297930784
 20
159.4635422422236
 30
0.0
 10
118.2312238717217
 20
159.5398475559411
 30
0.0
 10
118.2305509559788
 20
159.5791661922472
 30
0.0
  0
SPLINE
  5
C7
330
1F
100
AcDbEntity
  8
0
  6
Continuous
 62
     7
370
     0
100
AcDbSpline
210
0.0
220
0.0
230
1.0
 70
     8
 71
     3
 72
    15
 73
    11
 74
     0
 42
0.00000001
 43
0.00000001
 40
0.0
 40
0.0
 40
0.0
 40
0.0
 40
0.1263812889588909
 40
0.249104946497316
 40
0.3706105362999228
 40
0.4913917559424303
 40
0.6138158455532666
 40
0.7388355742356975
 40
0.8671181754268791
 40
1.0
 40
1.0
 40
1.0
 40
1.0
 10
119.8304008058286
 20
158.7886256517067
 30
0.0
 10
119.8097171600371
 20
158.7692259350951
 30
0.0
 10
119.7689484788446
 20
158.7309879537576
 30
0.0
 10
119.7024439351041
 20
158.6807000812239
 30
0.0
 10
119.6312994873352
 20
158.6399572708697
 30
0.0
 10
119.5574769866026
 20
158.6043434116595
 30
0.0
 10
119.4787565148826
 20
158.5787572740415
 30
0.0
 10
119.3968073512825
 20
158.5587247465441
 30
0.0
 10
119.3106909942216
 20
158.5475144646998
 30
0.0
 10
119.2521027185446
 20
158.5461013888434
 30
0.0
 10
119.2222926977205
 20
158.5453824084634
 30
0.0
  0
SPLINE
  5
C8
330
1F
100
AcDbEntity
  8
0
  6
Continuous
 62
     7
370
     0
100
AcDbSpline
210
0.0
220
0.0
230
1.0
 70
     8
 71
     3
 72
    11
 73
     7
 74
     0
 42
0.00000001
 43
0.00000001
 40
0.0
 40
0.0
 40
0.0
 40
0.0
 40
0.275886418446541
 40
0.531007687771311
 40
0.772276667711526
 40
0.9999999999999999
 40
0.9999999999999999
 40
0.9999999999999999
 40
0.9999999999999999
 10
120.0533737788016
 20
159.1737607868418
 30
0.0
 10
120.0394543016006
 20
159.1348668673673
 30
0.0
 10
120.0126630247951
 20
159.0600064579102
 30
0.0
 10
119.9600360751714
 20
158.956876612296
 30
0.0
 10
119.9006710242609
 20
158.8657909497674
 30
0.0
 10
119.8533688106782
 20
158.8138473313829
 30
0.0
 10
119.8304008058286
 20
158.7886256517067
 30
0.0
  0
SPLINE
  5
C9
330
1F
100
AcDbEntity
  8
0
  6
Continuous
 62
     7
370
     0
100
AcDbSpline
210
0.0
220
0.0
230
1.0
 70
     8
 71
     3
 72
    11
 73
     7
 74
     0
 42
0.00000001
 43
0.00000001
 40
0.0
 40
0.0
 40
0.0
 40
0.0
 40
0.2409277974217343
 40
0.4854864172424134
 40
0.7380410464993905
 40
1.0
 40
1.0
 40
1.0
 40
1.0
 10
120.235806211234
 20
158.8697067327878
 30
0.0
 10
120.2162326028246
 20
158.890769194339
 30
0.0
 10
120.1767904084374
 20
158.933211532277
 30
0.0
 10
120.1271001565922
 20
159.0062338630665
 30
0.0
 10
120.0858431797317
 20
159.0870193103402
 30
0.0
 10
120.0643279979031
 20
159.144496768672
 30
0.0
 10
120.0533737788016
 20
159.1737607868418
 30
0.0
  0
SPLINE
  5
CA
330
1F
100
AcDbEntity
  8
0
  6
Continuous
 62
     7
370
     0
100
AcDbSpline
210
0.0
220
0.0
230
1.0
 70
     8
 71
     3
 72
    15
 73
    11
 74
     0
 42
0.00000001
 43
0.00000001
 40
0.0
 40
0.0
 40
0.0
 40
0.0
 40
0.1312072932871418
 40
0.258505542247204
 40
0.3817646425439866
 40
0.5033692670500668
 40
0.6250492974901227
 40
0.7476118725723033
 40
0.8722462138971602
 40
1.0
 40
1.0
 40
1.0
 40
1.0
 10
120.7831035085313
 20
158.6467337598148
 30
0.0
 10
120.7565425907061
 20
158.6474908358076
 30
0.0
 10
120.7042120815325
 20
158.6489824323123
 30
0.0
 10
120.627521097041
 20
158.659683930667
 30
0.0
 10
120.5541267322839
 20
158.6770264411079
 30
0.0
 10
120.4837548681847
 20
158.7009703356243
 30
0.0
 10
120.4167390130089
 20
158.7328371338851
 30
0.0
 10
120.3527414115633
 20
158.7714215560134
 30
0.0
 10
120.29122701988
 20
158.8162209411448
 30
0.0
 10
120.2544314085127
 20
158.8517318340936
 30
0.0
 10
120.235806211234
 20
158.8697067327878
 30
0.0
  0
SPLINE
  5
CB
330
1F
100
AcDbEntity
  8
0
  6
Continuous
 62
     7
370
     0
100
AcDbSpline
210
0.0
220
0.0
230
1.0
 70
     8
 71
     3
 72
    15
 73
    11
 74
     0
 42
0.00000001
 43
0.00000001
 40
0.0
 40
0.0
 40
0.0
 40
0.0
 40
0.119502711436531
 40
0.2380939422658883
 40
0.3566476293726334
 40
0.4775806195769138
 40
0.6003630199241489
 40
0.7278327340041404
 40
0.8606471500295811
 40
1.0
 40
1.0
 40
1.0
 40
1.0
 10
121.43175215718
 20
158.889977003058
 30
0.0
 10
121.4111406198998
 20
158.8704829007659
 30
0.0
 10
121.3700747552998
 20
158.8316433831527
 30
0.0
 10
121.3012565456829
 20
158.7819392517841
 30
0.0
 10
121.2268578989897
 20
158.7407084958199
 30
0.0
 10
121.1481622294617
 20
158.7057645257728
 30
0.0
 10
121.0638455515359
 20
158.6798677624907
 30
0.0
 10
120.9750796038644
 20
158.6599683550035
 30
0.0
 10
120.8807348278944
 20
158.6488285558657
 30
0.0
 10
120.8161643531213
 20
158.6474431195483
 30
0.0
 10
120.7831035085313
 20
158.6467337598148
 30
0.0
  0
LINE
  5
CC
330
1F
100
AcDbEntity
  8
0
  6
Continuous
 62
     7
370
     0
100
AcDbLine
 10
121.6952656788
 20
161.194030996
 30
0.0
 11
121.6952656788
 21
159.5588958446
 31
0.0
  0
LINE
  5
CD
330
1F
100
AcDbEntity
  8
0
  6
Continuous
 62
     7
370
     0
100
AcDbLine
 10
118.2305509384
 20
161.194030996
 30
0.0
 11
121.6952656788
 21
161.194030996
 31
0.0
  0
LINE
  5
CE
330
1F
100
AcDbEntity
  8
0
  6
Continuous
 62
     7
370
     0
100
AcDbLine
 10
118.2305509384
 20
159.5791660804
 30
0.0
 11
118.2305509384
 21
161.194030996
 31
0.0
  0
CIRCLE
  5
CF
330
1F
100
AcDbEntity
  8
0
  6
Continuous
 62
     7
370
     0
100
AcDbCircle
 10
112.9182386437
 20
160.3891584683
 30
0.0
 40
1.75
  0
SPLINE
  5
D0
330
1F
100
AcDbEntity
  8
0
  6
Continuous
 62
     7
370
     0
100
AcDbSpline
210
0.0
220
0.0
230
1.0
 70
     8
 71
     3
 72
    15
 73
    11
 74
     0
 42
0.00000001
 43
0.00000001
 40
0.0
 40
0.0
 40
0.0
 40
0.0
 40
0.1134379491612228
 40
0.2278316283988336
 40
0.3439746828196708
 40
0.4632843510369729
 40
0.5879523799245376
 40
0.7182886416687889
 40
0.8554134642482711
 40
1.0
 40
1.0
 40
1.0
 40
1.0
 10
125.1006710760989
 20
158.7079858204929
 30
0.0
 10
125.07954155946
 20
158.7305048933088
 30
0.0
 10
125.0371045071444
 20
158.7757327651773
 30
0.0
 10
124.9841605966155
 20
158.8532240197658
 30
0.0
 10
124.9387958100522
 20
158.9369782542761
 30
0.0
 10
124.9018716324788
 20
159.0278729180186
 30
0.0
 10
124.8734577349696
 20
159.1257785897544
 30
0.0
 10
124.8537143352818
 20
159.2306375269796
 30
0.0
 10
124.8402304652129
 20
159.3420206973354
 30
0.0
 10
124.8391920328119
 20
159.4186541802054
 30
0.0
 10
124.8386590640869
 20
159.4579858204929
 30
0.0
  0
SPLINE
  5
D1
330
1F
100
AcDbEntity
  8
0
  6
Continuous
 62
     7
370
     0
100
AcDbSpline
210
0.0
220
0.0
230
1.0
 70
     8
 71
     3
 72
    15
 73
    11
 74
     0
 42
0.00000001
 43
0.00000001
 40
0.0
 40
0.0
 40
0.0
 40
0.0
 40
0.1158830802717854
 40
0.2315534497979608
 40
0.3480625771524268
 40
0.4678553783950311
 40
0.5925908197539047
 40
0.721311503017262
 40
0.8571441704632067
 40
1.0
 40
1.0
 40
1.0
 40
1.0
 10
126.6614818869097
 20
158.7282560907631
 30
0.0
 10
126.6372892182699
 20
158.7052750813252
 30
0.0
 10
126.5889482881685
 20
158.65935524555
 30
0.0
 10
126.5058032506489
 20
158.6030909620495
 30
0.0
 10
126.4175838615669
 20
158.5532533255636
 30
0.0
 10
126.3213165468362
 20
158.513854364222
 30
0.0
 10
126.2186645255198
 20
158.4820262647237
 30
0.0
 10
126.1086151697703
 20
158.4608539493065
 30
0.0
 10
125.9921758362169
 20
158.4468246046087
 30
0.0
 10
125.9120261209139
 20
158.4452694697165
 30
0.0
 10
125.8709413463692
 20
158.4444723069793
 30
0.0
  0
SPLINE
  5
D2
330
1F
100
AcDbEntity
  8
0
  6
Continuous
 62
     7
370
     0
100
AcDbSpline
210
0.0
220
0.0
230
1.0
 70
     8
 71
     3
 72
    15
 73
    11
 74
     0
 42
0.00000001
 43
0.00000001
 40
0.0
 40
0.0
 40
0.0
 40
0.0
 40
0.1319114978615547
 40
0.2585593955794499
 40
0.3829282045992122
 40
0.5051155152535458
 40
0.6266776175559875
 40
0.7489849223246638
 40
0.872841572096447
 40
1.0
 40
1.0
 40
1.0
 40
1.0
 10
119.2222926977205
 20
158.5453824084634
 30
0.0
 10
119.1857075678161
 20
158.5461502613657
 30
0.0
 10
119.1139971465972
 20
158.5476553279104
 30
0.0
 10
119.0086230192583
 20
158.5624077263336
 30
0.0
 10
118.907868954877
 20
158.5864553785318
 30
0.0
 10
118.8111174037019
 20
158.6194421882834
 30
0.0
 10
118.7189653812288
 20
158.6624640429427
 30
0.0
 10
118.6317787465289
 20
158.7155408612894
 30
0.0
 10
118.5482245490096
 20
158.7770207303985
 30
0.0
 10
118.4978242981507
 20
158.8250871347198
 30
0.0
 10
118.4722926977205
 20
158.8494364625175
 30
0.0
  0
SPLINE
  5
D3
330
1F
100
AcDbEntity
  8
0
  6
Continuous
 62
     7
370
     0
100
AcDbSpline
210
0.0
220
0.0
230
1.0
 70
     8
 71
     3
 72
    15
 73
    11
 74
     0
 42
0.00000001
 43
0.00000001
 40
0.0
 40
0.0
 40
0.0
 40
0.0
 40
0.134247757273764
 40
0.263461772575685
 40
0.3884666271730287
 40
0.5118790511869573
 40
0.6324080741525892
 40
0.7535525248235471
 40
0.8755084805282745
 40
1.0
 40
1.0
 40
1.0
 40
1.0
 10
121.6952656706935
 20
159.558895921977
 30
0.0
 10
121.6947228713981
 20
159.5258121655255
 30
0.0
 10
121.6936576255614
 20
159.4608851582131
 30
0.0
 10
121.6800174623514
 20
159.3660163432099
 30
0.0
 10
121.6603149788507
 20
159.2750230915415
 30
0.0
 10
121.6307836624834
 20
159.1888954161172
 30
0.0
 10
121.5936482657433
 20
159.1069054209813
 30
0.0
 10
121.5488087459458
 20
159.0291811430108
 30
0.0
 10
121.4940972396861
 20
158.9567767847549
 30
0.0
 10
121.4526759051945
 20
158.912395800876
 30
0.0
 10
121.43175215718
 20
158.889977003058
 30
0.0
  0
SPLINE
  5
D4
330
1F
100
AcDbEntity
  8
0
  6
Continuous
 62
     7
370
     0
100
AcDbSpline
210
0.0
220
0.0
230
1.0
 70
     8
 71
     3
 72
    15
 73
    11
 74
     0
 42
0.00000001
 43
0.00000001
 40
0.0
 40
0.0
 40
0.0
 40
0.0
 40
0.1354534708710494
 40
0.265348649670654
 40
0.3914908732043524
 40
0.5142769133377456
 40
0.6353985379531478
 40
0.7554582103126816
 40
0.8764394999673367
 40
1.0
 40
1.0
 40
1.0
 40
1.0
 10
121.6952656706935
 20
162.7983854114665
 30
0.0
 10
121.6944622686119
 20
162.7620511019684
 30
0.0
 10
121.6928884318092
 20
162.6908734503362
 30
0.0
 10
121.6787088202685
 20
162.5866748572398
 30
0.0
 10
121.6573698960424
 20
162.48726752734
 30
0.0
 10
121.6266549234211
 20
162.3926924449915
 30
0.0
 10
121.5857182600803
 20
162.3038699207227
 30
0.0
 10
121.536385563726
 20
162.2201357961651
 30
0.0
 10
121.4796765458025
 20
162.1401617974316
 30
0.0
 10
121.4343727147792
 20
162.0926580627525
 30
0.0
 10
121.4114818869097
 20
162.0686556817367
 30
0.0
  0
LINE
  5
D5
330
1F
100
AcDbEntity
  8
0
  6
Continuous
 62
     7
370
     0
100
AcDbLine
 10
119.9722926968
 20
163.9537908051
 30
0.0
 11
119.9722926968
 21
162.8997367663
 31
0.0
  0
LINE
  5
D6
330
1F
100
AcDbEntity
  8
0
  6
Continuous
 62
     7
370
     0
100
AcDbLine
 10
121.3116320242
 20
163.9537908051
 30
0.0
 11
119.9722926968
 21
163.9537908051
 31
0.0
  0
LINE
  5
D7
330
1F
100
AcDbEntity
  8
0
  6
Continuous
 62
     7
370
     0
100
AcDbLine
 10
121.3116320242
 20
162.8997367663
 30
0.0
 11
121.3116320242
 21
163.9537908051
 31
0.0
  0
SPLINE
  5
D8
330
1F
100
AcDbEntity
  8
0
  6
Continuous
 62
     7
370
     0
100
AcDbSpline
210
0.0
220
0.0
230
1.0
 70
     8
 71
     3
 72
    15
 73
    11
 74
     0
 42
0.00000001
 43
0.00000001
 40
0.0
 40
0.0
 40
0.0
 40
0.0
 40
0.1418032572055077
 40
0.2768956124422279
 40
0.4056005815718945
 40
0.5283792299702873
 40
0.6485398625937334
 40
0.7671999810702806
 40
0.8821728056706527
 40
1.0
 40
1.0
 40
1.0
 40
1.0
 10
119.9722926977205
 20
162.8997367628178
 30
0.0
 10
119.9725265600501
 20
162.8766747120149
 30
0.0
 10
119.972983217071
 20
162.8316420321802
 30
0.0
 10
119.9823129801259
 20
162.766331469501
 30
0.0
 10
119.9931234552015
 20
162.7043604232367
 30
0.0
 10
120.0121265378814
 20
162.6469294834687
 30
0.0
 10
120.0339541780396
 20
162.592267824015
 30
0.0
 10
120.0629825115364
 20
162.5425238094914
 30
0.0
 10
120.0953140195763
 20
162.4952891743729
 30
0.0
 10
120.1213017011358
 20
162.4677362120059
 30
0.0
 10
120.1344548598827
 20
162.4537908168719
 30
0.0
  0
SPLINE
  5
D9
330
1F
100
AcDbEntity
  8
0
  6
Continuous
 62
     7
370
     0
100
AcDbSpline
210
0.0
220
0.0
230
1.0
 70
     8
 71
     3
 72
    15
 73
    11
 74
     0
 42
0.00000001
 43
0.00000001
 40
0.0
 40
0.0
 40
0.0
 40
0.0
 40
0.1195207678016621
 40
0.2385769889400706
 40
0.3570583175167625
 40
0.4780520139443321
 40
0.600839870927914
 40
0.728867159716591
 40
0.8606123388176885
 40
1.0
 40
1.0
 40
1.0
 40
1.0
 10
120.1344548598827
 20
162.4537908168719
 30
0.0
 10
120.149860056932
 20
162.439089924544
 30
0.0
 10
120.1806105749688
 20
162.4097452784979
 30
0.0
 10
120.2330827689192
 20
162.3736387196182
 30
0.0
 10
120.2880948819453
 20
162.3411723924304
 30
0.0
 10
120.3476926542043
 20
162.3162772951729
 30
0.0
 10
120.4105362107049
 20
162.2953920230887
 30
0.0
 10
120.4772955820019
 20
162.2815244213973
 30
0.0
 10
120.5479032846672
 20
162.2731309942662
 30
0.0
 10
120.5961420864989
 20
162.2719602543511
 30
0.0
 10
120.6209413463692
 20
162.2713583844394
 30
0.0
  0
SPLINE
  5
DA
330
1F
100
AcDbEntity
  8
0
  6
Continuous
 62
     7
370
     0
100
AcDbSpline
210
0.0
220
0.0
230
1.0
 70
     8
 71
     3
 72
    15
 73
    11
 74
     0
 42
0.00000001
 43
0.00000001
 40
0.0
 40
0.0
 40
0.0
 40
0.0
 40
0.1527361015877016
 40
0.2952181086740849
 40
0.4290874134391431
 40
0.5545521925653667
 40
0.6733637484672584
 40
0.7865648625534073
 40
0.8937655467091831
 40
1.0
 40
1.0
 40
1.0
 40
1.0
 10
120.6209413463692
 20
162.2713583844394
 30
0.0
 10
120.6487531567757
 20
162.2715744333866
 30
0.0
 10
120.7025096032325
 20
162.2719920266137
 30
0.0
 10
120.7800879949022
 20
162.2813093846617
 30
0.0
 10
120.8524997381925
 20
162.2920720022034
 30
0.0
 10
120.9187839174351
 20
162.31086731902
 30
0.0
 10
120.9802802840444
 20
162.3325235727869
 30
0.0
 10
121.0347627500591
 20
162.3617596157696
 30
0.0
 10
121.0851423371336
 20
162.393693653162
 30
0.0
 10
121.1135557240396
 20
162.4202850422764
 30
0.0
 10
121.1276981031259
 20
162.4335205466016
 30
0.0
  0
SPLINE
  5
DB
330
1F
100
AcDbEntity
  8
0
  6
Continuous
 62
     7
370
     0
100
AcDbSpline
210
0.0
220
0.0
230
1.0
 70
     8
 71
     3
 72
    15
 73
    11
 74
     0
 42
0.00000001
 43
0.00000001
 40
0.0
 40
0.0
 40
0.0
 40
0.0
 40
0.1238293196962766
 40
0.2456784877591819
 40
0.3659129908554833
 40
0.4878667205807047
 40
0.6095501489246158
 40
0.7350748476280491
 40
0.8657813166352114
 40
1.0
 40
1.0
 40
1.0
 40
1.0
 10
121.1276981031259
 20
162.4335205466016
 30
0.0
 10
121.1422722434187
 20
162.4490179195476
 30
0.0
 10
121.1711874692821
 20
162.4797648473265
 30
0.0
 10
121.2088036075833
 20
162.5302797760325
 30
0.0
 10
121.2406405447093
 20
162.5841889202645
 30
0.0
 10
121.2667923632312
 20
162.641043003613
 30
0.0
 10
121.2874248395187
 20
162.7011019183972
 30
0.0
 10
121.3015831180992
 20
162.7645460004019
 30
0.0
 10
121.3097458980343
 20
162.8312043153917
 30
0.0
 10
121.3109977917729
 20
162.8766915995515
 30
0.0
 10
121.3116320370599
 20
162.8997367628178
 30
0.0
  0
SPLINE
  5
DC
330
1F
100
AcDbEntity
  8
0
  6
Continuous
 62
     7
370
     0
100
AcDbSpline
210
0.0
220
0.0
230
1.0
 70
     8
 71
     3
 72
    15
 73
    11
 74
     0
 42
0.00000001
 43
0.00000001
 40
0.0
 40
0.0
 40
0.0
 40
0.0
 40
0.1277118540336131
 40
0.2523621141955302
 40
0.3748537650566268
 40
0.4969693854038493
 40
0.6192731655242173
 40
0.7424854443019965
 40
0.8694478780376608
 40
1.0
 40
1.0
 40
1.0
 40
1.0
 10
113.5263467517746
 20
167.3131526328963
 30
0.0
 10
113.5415416146021
 20
167.2985116543444
 30
0.0
 10
113.5715670788558
 20
167.2695806805579
 30
0.0
 10
113.6217456186823
 20
167.2331619385751
 30
0.0
 10
113.6735729941383
 20
167.2009332974113
 30
0.0
 10
113.7287729041455
 20
167.1757347228203
 30
0.0
 10
113.785918206245
 20
167.1551164959808
 30
0.0
 10
113.84583150267
 20
167.1408186658716
 30
0.0
 10
113.9082481349515
 20
167.1325965080069
 30
0.0
 10
113.9507470354646
 20
167.1313514217083
 30
0.0
 10
113.9722926977205
 20
167.1307202004639
 30
0.0
  0
SPLINE
  5
DD
330
1F
100
AcDbEntity
  8
0
  6
Continuous
 62
     7
370
     0
100
AcDbSpline
210
0.0
220
0.0
230
1.0
 70
     8
 71
     3
 72
    15
 73
    11
 74
     0
 42
0.00000001
 43
0.00000001
 40
0.0
 40
0.0
 40
0.0
 40
0.0
 40
0.1452459980297221
 40
0.2839773123111047
 40
0.4135645357275265
 40
0.5387150251446063
 40
0.6570052502158956
 40
0.7736984629726804
 40
0.8866940707303835
 40
1.0
 40
1.0
 40
1.0
 40
1.0
 10
113.3641845896124
 20
167.7793688491126
 30
0.0
 10
113.3644306177028
 20
167.7548099240582
 30
0.0
 10
113.3649116388449
 20
167.7067936094965
 30
0.0
 10
113.3740414860861
 20
167.6374405541378
 30
0.0
 10
113.3852057523105
 20
167.5718322400064
 30
0.0
 10
113.4035732935539
 20
167.5114343077014
 30
0.0
 10
113.4258625350568
 20
167.4546719820383
 30
0.0
 10
113.454916185426
 20
167.4034734406236
 30
0.0
 10
113.4867430415498
 20
167.3548209086275
 30
0.0
 10
113.5131334522012
 20
167.3270547498146
 30
0.0
 10
113.5263467517746
 20
167.3131526328963
 30
0.0
  0
LINE
  5
DE
330
1F
100
AcDbEntity
  8
0
  6
Continuous
 62
     7
370
     0
100
AcDbLine
 10
113.3641845473
 20
168.8131525736
 30
0.0
 11
113.3641845473
 21
167.7793689161
 31
0.0
  0
LINE
  5
DF
330
1F
100
AcDbEntity
  8
0
  6
Continuous
 62
     7
370
     0
100
AcDbLine
 10
114.6021725536
 20
168.8131525736
 30
0.0
 11
113.3641845473
 21
168.8131525736
 31
0.0
  0
LINE
  5
E0
330
1F
100
AcDbEntity
  8
0
  6
Continuous
 62
     7
370
     0
100
AcDbLine
 10
114.6021725536
 20
167.7793689161
 30
0.0
 11
114.6021725536
 21
168.8131525736
 31
0.0
  0
SPLINE
  5
E1
330
1F
100
AcDbEntity
  8
0
  6
Continuous
 62
     7
370
     0
100
AcDbSpline
210
0.0
220
0.0
230
1.0
 70
     8
 71
     3
 72
    15
 73
    11
 74
     0
 42
0.00000001
 43
0.00000001
 40
0.0
 40
0.0
 40
0.0
 40
0.0
 40
0.1193556939378555
 40
0.2390663805212363
 40
0.3573840708360865
 40
0.4787728926029036
 40
0.6013911634438122
 40
0.729241629746977
 40
0.8608048514681805
 40
1.0
 40
1.0
 40
1.0
 40
1.0
 10
114.4182386436665
 20
167.2928823626261
 30
0.0
 10
114.4328767351578
 20
167.308331321164
 30
0.0
 10
114.4621964553581
 20
167.3392751871719
 30
0.0
 10
114.4993009212459
 20
167.3912337731072
 30
0.0
 10
114.5313834914407
 20
167.4467424977992
 30
0.0
 10
114.5574666092607
 20
167.5059144726247
 30
0.0
 10
114.5780700920212
 20
167.5689948263079
 30
0.0
 10
114.5920257928905
 20
167.6357143843938
 30
0.0
 10
114.6003947668523
 20
167.7063331377774
 30
0.0
 10
114.6015689417739
 20
167.7545703872831
 30
0.0
 10
114.6021725776004
 20
167.7793688491126
 30
0.0
  0
SPLINE
  5
E2
330
1F
100
AcDbEntity
  8
0
  6
Continuous
 62
     7
370
     0
100
AcDbSpline
210
0.0
220
0.0
230
1.0
 70
     8
 71
     3
 72
    15
 73
    11
 74
     0
 42
0.00000001
 43
0.00000001
 40
0.0
 40
0.0
 40
0.0
 40
0.0
 40
0.141796261111621
 40
0.2768819513476972
 40
0.4055805706087834
 40
0.5298229690785617
 40
0.6485572024501455
 40
0.7672114666371236
 40
0.8821786188665567
 40
1.0
 40
1.0
 40
1.0
 40
1.0
 10
113.9722926977205
 20
167.1307202004639
 30
0.0
 10
113.9953536762704
 20
167.1309572555339
 30
0.0
 10
114.0403842623438
 20
167.1314201469377
 30
0.0
 10
114.1057097244405
 20
167.1407055454924
 30
0.0
 10
114.167863528408
 20
167.1517145663789
 30
0.0
 10
114.22547586175
 20
167.1702157280699
 30
0.0
 10
114.2799190910894
 20
167.1926047193751
 30
0.0
 10
114.3295165219655
 20
167.221382632615
 30
0.0
 10
114.3767375263694
 20
167.2537484736925
 30
0.0
 10
114.4042923211115
 20
167.2797315398666
 30
0.0
 10
114.4182386436665
 20
167.2928823626261
 30
0.0
  0
LINE
  5
E3
330
1F
100
AcDbEntity
  8
0
  6
Continuous
 62
     7
370
     0
100
AcDbLine
 10
130.9182385841
 20
178.3891589004
 30
0.0
 11
130.4182385021
 21
177.8891588185
 31
0.0
  0
LINE
  5
E4
330
1F
100
AcDbEntity
  8
0
  6
Continuous
 62
     7
370
     0
100
AcDbLine
 10
131.418238666
 20
177.8891588185
 30
0.0
 11
130.9182385841
 21
178.3891589004
 31
0.0
  0
LINE
  5
E5
330
1F
100
AcDbEntity
  8
0
  6
Continuous
 62
     7
370
     0
100
AcDbLine
 10
131.418238666
 20
177.8891588185
 30
0.0
 11
131.418238666
 21
142.8891577381
 31
0.0
  0
LINE
  5
E6
330
1F
100
AcDbEntity
  8
0
  6
Continuous
 62
     7
370
     0
100
AcDbLine
 10
130.9182385841
 20
142.3891585875
 30
0.0
 11
131.418238666
 21
142.8891577381
 31
0.0
  0
LINE
  5
E7
330
1F
100
AcDbEntity
  8
0
  6
Continuous
 62
     7
370
     0
100
AcDbLine
 10
130.4182385021
 20
142.8891577381
 30
0.0
 11
130.9182385841
 21
142.3891585875
 31
0.0
  0
LINE
  5
E8
330
1F
100
AcDbEntity
  8
0
  6
Continuous
 62
     7
370
     0
100
AcDbLine
 10
109.4182387852
 20
177.8891588185
 30
0.0
 11
108.9182387033
 21
178.3891589004
 31
0.0
  0
LINE
  5
E9
330
1F
100
AcDbEntity
  8
0
  6
Continuous
 62
     7
370
     0
100
AcDbLine
 10
108.9182387033
 20
178.3891589004
 30
0.0
 11
109.4182387852
 21
178.8891580511
 31
0.0
  0
LINE
  5
EA
330
1F
100
AcDbEntity
  8
0
  6
Continuous
 62
     7
370
     0
100
AcDbLine
 10
109.4182387852
 20
178.8891580511
 30
0.0
 11
130.4182385021
 21
178.8891580511
 31
0.0
  0
LINE
  5
EB
330
1F
100
AcDbEntity
  8
0
  6
Continuous
 62
     7
370
     0
100
AcDbLine
 10
130.4182385021
 20
178.8891580511
 30
0.0
 11
130.9182385841
 21
178.3891589004
 31
0.0
  0
SPLINE
  5
EC
330
1F
100
AcDbEntity
  8
0
  6
Continuous
 62
     7
370
     0
100
AcDbSpline
210
0.0
220
0.0
230
1.0
 70
     8
 71
     3
 72
    11
 73
     7
 74
     0
 42
0.00000001
 43
0.00000001
 40
0.0
 40
0.0
 40
0.0
 40
0.0
 40
0.2516095171558482
 40
0.4964930798665564
 40
0.7426069856111289
 40
0.9999999999999999
 40
0.9999999999999999
 40
0.9999999999999999
 40
0.9999999999999999
 10
120.8033737788016
 20
159.112949976031
 30
0.0
 10
120.8393727512613
 20
159.115028423031
 30
0.0
 10
120.9104083818312
 20
159.1191297565736
 30
0.0
 10
121.0129319319874
 20
159.1501625400815
 30
0.0
 10
121.1074894666777
 20
159.2021444645012
 30
0.0
 10
121.1611021041738
 20
159.2504290377848
 30
0.0
 10
121.1885089139367
 20
159.2751121381932
 30
0.0
  0
LINE
  5
ED
330
1F
100
AcDbEntity
  8
0
  6
Continuous
 62
     7
370
     0
100
AcDbLine
 10
120.2358062247
 20
160.7143013827
 30
0.0
 11
120.2358062247
 21
159.6197065521
 31
0.0
  0
LINE
  5
EE
330
1F
100
AcDbEntity
  8
0
  6
Continuous
 62
     7
370
     0
100
AcDbLine
 10
121.3116320242
 20
160.7143013827
 30
0.0
 11
120.2358062247
 21
160.7143013827
 31
0.0
  0
LINE
  5
EF
330
1F
100
AcDbEntity
  8
0
  6
Continuous
 62
     7
370
     0
100
AcDbLine
 10
121.3116320242
 20
159.5791660804
 30
0.0
 11
121.3116320242
 21
160.7143013827
 31
0.0
  0
SPLINE
  5
F0
330
1F
100
AcDbEntity
  8
0
  6
Continuous
 62
     7
370
     0
100
AcDbSpline
210
0.0
220
0.0
230
1.0
 70
     8
 71
     3
 72
    11
 73
     7
 74
     0
 42
0.00000001
 43
0.00000001
 40
0.0
 40
0.0
 40
0.0
 40
0.0
 40
0.2562600332085396
 40
0.5016208045865221
 40
0.7449078564687267
 40
1.0
 40
1.0
 40
1.0
 40
1.0
 10
120.235806211234
 20
159.6197067327878
 30
0.0
 10
120.2375029433796
 20
159.5869830828313
 30
0.0
 10
120.2408242421922
 20
159.5229275864878
 30
0.0
 10
120.2680546299353
 20
159.4310674566366
 30
0.0
 10
120.3131176597994
 20
159.3466396633105
 30
0.0
 10
120.3558340150487
 20
159.2993282015795
 30
0.0
 10
120.3776981031259
 20
159.2751121381932
 30
0.0
  0
SPLINE
  5
F1
330
1F
100
AcDbEntity
  8
0
  6
Continuous
 62
     7
370
     0
100
AcDbSpline
210
0.0
220
0.0
230
1.0
 70
     8
 71
     3
 72
    15
 73
    11
 74
     0
 42
0.00000001
 43
0.00000001
 40
0.0
 40
0.0
 40
0.0
 40
0.0
 40
0.1215042446907362
 40
0.2399194382132709
 40
0.3607014484775896
 40
0.4813982058565635
 40
0.6046686543565309
 40
0.7308278400410385
 40
0.8619579002966858
 40
1.0
 40
1.0
 40
1.0
 40
1.0
 10
120.3776981031259
 20
159.2751121381932
 30
0.0
 10
120.3913864358199
 20
159.261956243048
 30
0.0
 10
120.418415097233
 20
159.2359789203591
 30
0.0
 10
120.4647779551134
 20
159.2038372836454
 30
0.0
 10
120.5129491217188
 20
159.1747965876994
 30
0.0
 10
120.5655343743785
 20
159.1527501669626
 30
0.0
 10
120.620273780919
 20
159.1340035796387
 30
0.0
 10
120.6787053409922
 20
159.122990525049
 30
0.0
 10
120.7397647253792
 20
159.1136340402554
 30
0.0
 10
120.7818108617715
 20
159.1131818678659
 30
0.0
 10
120.8033737788016
 20
159.112949976031
 30
0.0
  0
SPLINE
  5
F2
330
1F
100
AcDbEntity
  8
0
  6
Continuous
 62
     7
370
     0
100
AcDbSpline
210
0.0
220
0.0
230
1.0
 70
     8
 71
     3
 72
    11
 73
     7
 74
     0
 42
0.00000001
 43
0.00000001
 40
0.0
 40
0.0
 40
0.0
 40
0.0
 40
0.2499695538886838
 40
0.4922399851273406
 40
0.740514810635597
 40
0.9999999999999999
 40
0.9999999999999999
 40
0.9999999999999999
 40
0.9999999999999999
 10
121.1885089139367
 20
159.2751121381932
 30
0.0
 10
121.2075550662965
 20
159.2958846291053
 30
0.0
 10
121.245060744922
 20
159.3367898131911
 30
0.0
 10
121.2834902843865
 20
159.411435283785
 30
0.0
 10
121.307824393426
 20
159.4927990289526
 30
0.0
 10
121.310344277783
 20
159.5499564955315
 30
0.0
 10
121.3116320370599
 20
159.5791661922472
 30
0.0
  0
LINE
  5
F3
330
1F
100
AcDbEntity
  8
0
  6
Continuous
 62
     7
370
     0
100
AcDbLine
 10
108.4182386213
 20
142.8891577381
 30
0.0
 11
108.4182386213
 21
177.8891588185
 31
0.0
  0
LINE
  5
F4
330
1F
100
AcDbEntity
  8
0
  6
Continuous
 62
     7
370
     0
100
AcDbLine
 10
108.9182387033
 20
178.3891589004
 30
0.0
 11
108.4182386213
 21
177.8891588185
 31
0.0
  0
LINE
  5
F5
330
1F
100
AcDbEntity
  8
0
  6
Continuous
 62
     7
370
     0
100
AcDbLine
 10
108.9182387033
 20
142.3891585875
 30
0.0
 11
109.4182387852
 21
142.8891577381
 31
0.0
  0
LINE
  5
F6
330
1F
100
AcDbEntity
  8
0
  6
Continuous
 62
     7
370
     0
100
AcDbLine
 10
108.4182386213
 20
142.8891577381
 30
0.0
 11
108.9182387033
 21
142.3891585875
 31
0.0
  0
LINE
  5
F7
330
1F
100
AcDbEntity
  8
0
  6
Continuous
 62
     7
370
     0
100
AcDbLine
 10
115.8168872745
 20
151.4472662095
 30
0.0
 11
114.4182386735
 21
151.9742932725
 31
0.0
  0
LINE
  5
F8
330
1F
100
AcDbEntity
  8
0
  6
Continuous
 62
     7
370
     0
100
AcDbLine
 10
114.4182386735
 20
150.9202391464
 30
0.0
 11
115.8168872745
 21
151.4472662095
 31
0.0
  0
LINE
  5
F9
330
1F
100
AcDbEntity
  8
0
  6
Continuous
 62
     7
370
     0
100
AcDbLine
 10
114.4182386735
 20
151.9742932725
 30
0.0
 11
114.4182386735
 21
150.9202391464
 31
0.0
  0
LINE
  5
FA
330
1F
100
AcDbEntity
  8
0
  6
Continuous
 62
     7
370
     0
100
AcDbLine
 10
130.9182385841
 20
142.3891585875
 30
0.0
 11
130.4182385021
 21
141.8891575742
 31
0.0
  0
LINE
  5
FB
330
1F
100
AcDbEntity
  8
0
  6
Continuous
 62
     7
370
     0
100
AcDbLine
 10
130.4182385021
 20
141.8891575742
 30
0.0
 11
109.4182387852
 21
141.8891575742
 31
0.0
  0
LINE
  5
FC
330
1F
100
AcDbEntity
  8
0
  6
Continuous
 62
     7
370
     0
100
AcDbLine
 10
109.4182387852
 20
141.8891575742
 30
0.0
 11
108.9182387033
 21
142.3891585875
 31
0.0
  0
LINE
  5
FD
330
1F
100
AcDbEntity
  8
0
  6
Continuous
 62
     7
370
     0
100
AcDbLine
 10
114.4182386735
 20
185.8891591984
 30
0.0
 11
125.4182386139
 21
185.8891591984
 31
0.0
  0
LINE
  5
FE
330
1F
100
AcDbEntity
  8
0
  6
Continuous
 62
     7
370
     0
100
AcDbLine
 10
125.9182386958
 20
185.3891581852
 30
0.0
 11
113.9182385915
 21
185.3891581852
 31
0.0
  0
LINE
  5
FF
330
1F
100
AcDbEntity
  8
0
  6
Continuous
 62
     7
370
     0
100
AcDbLine
 10
113.9182385915
 20
179.889158215
 30
0.0
 11
125.9182386958
 21
179.889158215
 31
0.0
  0
LINE
  5
100
330
1F
100
AcDbEntity
  8
0
  6
Continuous
 62
     8
370
     0
100
AcDbLine
 10
123.2249739506
 20
191.1382161636
 30
0.0
 11
124.4882385173
 21
191.1382161636
 31
0.0
  0
LINE
  5
101
330
1F
100
AcDbEntity
  8
0
  6
Continuous
 62
     8
370
     0
100
AcDbLine
 10
115.34823877
 20
191.1382161636
 30
0.0
 11
123.2249739506
 21
191.1382161636
 31
0.0
  0
LINE
  5
102
330
1F
100
AcDbEntity
  8
0
  6
Continuous
 62
     8
370
     0
100
AcDbLine
 10
123.7170047053
 20
190.1907984722
 30
0.0
 11
114.6682387144
 21
190.1907984722
 31
0.0
  0
LINE
  5
103
330
1F
100
AcDbEntity
  8
0
  6
Continuous
 62
     8
370
     0
100
AcDbLine
 10
125.1682385729
 20
190.1907984722
 30
0.0
 11
123.7170047053
 21
190.1907984722
 31
0.0
  0
DIMENSION
  5
104
330
1F
100
AcDbEntity
  8
0
  6
Continuous
 62
     7
370
     0
100
AcDbDimension
  2
*D1
 10
141.4182386437
 20
151.3891584683
 30
0.0
 11
141.4182386437
 21
160.3891584683
 31
0.0
 70
   160
 71
     2
 42
-1.0
  3
SLDDIMSTYLE0
100
AcDbAlignedDimension
 13
131.1682386437
 23
169.3891584683
 33
0.0
 14
131.1682386437
 24
151.3891584683
 34
0.0
 50
90.0
100
AcDbRotatedDimension
  0
DIMENSION
  5
10F
330
1F
100
AcDbEntity
  8
0
  6
Continuous
 62
     7
370
     0
100
AcDbDimension
  2
*D2
 10
112.9182386437
 20
131.8891584683
 30
0.0
 11
119.9182386437
 21
131.8891584683
 31
0.0
 70
   160
 71
     2
 42
-1.0
  3
SLDDIMSTYLE0
100
AcDbAlignedDimension
 13
126.9182386437
 23
147.1391584683
 33
0.0
 14
112.9182386437
 24
156.1391584683
 34
0.0
100
AcDbRotatedDimension
  0
DIMENSION
  5
119
330
1F
100
AcDbEntity
  8
0
  6
Continuous
 62
     7
370
     0
100
AcDbDimension
  2
*D3
 10
108.4182386437
 20
123.535426029
 30
0.0
 11
119.9182386437
 21
123.535426029
 31
0.0
 70
   160
 71
     2
 42
-1.0
  3
SLDDIMSTYLE0
100
AcDbAlignedDimension
 13
131.4182386437
 23
142.8891584683
 33
0.0
 14
108.4182386437
 24
142.8891584683
 34
0.0
 50
0.0
100
AcDbRotatedDimension
  0
DIMENSION
  5
123
330
1F
100
AcDbEntity
  8
0
  6
Continuous
 62
     7
370
     0
100
AcDbDimension
  2
*D4
 10
89.6081630566
 20
141.8891584683
 30
0.0
 11
89.6081630566
 21
160.3891584683
 31
0.0
 70
   160
 71
     2
 42
-1.0
  3
SLDDIMSTYLE0
100
AcDbAlignedDimension
 13
109.4182386437
 23
178.8891584683
 33
0.0
 14
109.4182386437
 24
141.8891584683
 34
0.0
 50
90.0
100
AcDbRotatedDimension
  0
DIMENSION
  5
12D
330
1F
100
AcDbEntity
  8
0
  6
Continuous
 62
     7
370
     0
100
AcDbDimension
  2
*D5
 10
98.6536410213
 20
169.3891584683
 30
0.0
 11
98.6536410213
 21
164.8891584683
 31
0.0
 70
   160
 71
     2
 42
-1.0
  3
SLDDIMSTYLE0
100
AcDbAlignedDimension
 13
108.6682386437
 23
160.3891584683
 33
0.0
 14
122.6682386437
 24
169.3891584683
 34
0.0
 50
90.0
100
AcDbRotatedDimension
  0
DIMENSION
  5
137
330
1F
100
AcDbEntity
  8
0
  6
Continuous
 62
     7
370
     0
100
AcDbDimension
  2
*D6
 10
126.0443047196
 20
152.9053179244
 30
0.0
 11
148.3644705482
 21
133.9135012142
 31
0.0
 70
   163
  1
3-<>
 71
     1
 42
-1.0
  3
SLDDIMSTYLE1
100
AcDbDiametricDimension
 15
127.7921725677
 25
149.8729990122
 35
0.0
 40
0.0
  0
MTEXT
  5
142
330
1F
100
AcDbEntity
  8
0
  6
Continuous
 62
     7
370
     0
100
AcDbMText
 10
140.6959931315
 20
196.2874634997
 30
0.0
 40
3.5
 41
0.0
 71
     1
 72
     1
  1
M12 P=1
  7
SLDTEXTSTYLE0
 73
     1
 44
1.0
  0
LEADER
  5
14A
330
1F
100
AcDbEntity
  8
0
  6
Continuous
 62
     7
370
     0
100
AcDbLeader
  3
SLDDIMSTYLE2
 76
     3
 10
125.8710257975
 20
182.7536465864
 30
0.0
 10
140.1950042843
 20
191.7729289192
 30
0.0
 10
154.9511777994
 20
191.7729289192
 30
0.0
  0
INSERT
  5
156
330
1F
100
AcDbEntity
  8
0
  6
Continuous
 62
     7
370
     0
100
AcDbBlockReference
  2
SW_CENTERMARKSYMBOL_0
 10
126.9182386437
 20
151.3891584683
 30
0.0
  0
INSERT
  5
162
330
1F
100
AcDbEntity
  8
0
  6
Continuous
 62
     7
370
     0
100
AcDbBlockReference
  2
SW_CENTERMARKSYMBOL_1
 10
112.9182386437
 20
160.3891584683
 30
0.0
  0
INSERT
  5
16E
330
1F
100
AcDbEntity
  8
0
  6
Continuous
 62
     7
370
     0
100
AcDbBlockReference
  2
SW_CENTERMARKSYMBOL_2
 10
126.9182386437
 20
169.3891584683
 30
0.0
  0
LINE
  5
16F
330
1F
100
AcDbEntity
  8
0
  6
Continuous
 62
     7
370
     0
100
AcDbLine
 10
171.8068842722
 20
190.1907984722
 30
0.0
 11
171.8068842722
 21
188.8891578275
 31
0.0
  0
LINE
  5
170
330
1F
100
AcDbEntity
  8
0
  6
Continuous
 62
     7
370
     0
100
AcDbLine
 10
182.3068841306
 20
188.8891578275
 30
0.0
 11
182.3068841306
 21
190.1907984722
 31
0.0
  0
ARC
  5
171
330
1F
100
AcDbEntity
  8
0
  6
Continuous
 62
     7
370
     0
100
AcDbCircle
 10
181.3068842014
 20
190.1907977058
 30
0.0
 40
1.000000000000007
100
AcDbArc
 50
0.0
 51
71.3370751151
  0
ARC
  5
172
330
1F
100
AcDbEntity
  8
0
  6
Continuous
 62
     7
370
     0
100
AcDbCircle
 10
172.8068842014
 20
190.1907977058
 30
0.0
 40
1.000000000000007
100
AcDbArc
 50
108.6629248849
 51
180.0
  0
ARC
  5
173
330
1F
100
AcDbEntity
  8
0
  6
Continuous
 62
     7
370
     0
100
AcDbCircle
 10
177.0568842014
 20
177.6079084683
 30
0.0
 40
14.28124999999998
100
AcDbArc
 50
71.3370751151
 51
108.6629248849
  0
LINE
  5
174
330
1F
100
AcDbEntity
  8
0
  6
Continuous
 62
     7
370
     0
100
AcDbLine
 10
172.5568843951
 20
188.8891578275
 30
0.0
 11
172.5568843951
 21
185.8891591984
 31
0.0
  0
LINE
  5
175
330
1F
100
AcDbEntity
  8
0
  6
Continuous
 62
     7
370
     0
100
AcDbLine
 10
181.5568840077
 20
185.8891591984
 30
0.0
 11
181.5568840077
 21
188.8891578275
 31
0.0
  0
LINE
  5
176
330
1F
100
AcDbEntity
  8
0
  6
Continuous
 62
     7
370
     0
100
AcDbLine
 10
171.0568841492
 20
185.3891581852
 30
0.0
 11
171.0568841492
 21
179.889158215
 31
0.0
  0
LINE
  5
177
330
1F
100
AcDbEntity
  8
0
  6
Continuous
 62
     7
370
     0
100
AcDbLine
 10
183.0568842535
 20
179.889158215
 30
0.0
 11
183.0568842535
 21
185.3891581852
 31
0.0
  0
LINE
  5
178
330
1F
100
AcDbEntity
  8
0
  6
Continuous
 62
     7
370
     0
100
AcDbLine
 10
183.0568842535
 20
185.3891581852
 30
0.0
 11
182.5568841716
 21
185.8891591984
 31
0.0
  0
LINE
  5
179
330
1F
100
AcDbEntity
  8
0
  6
Continuous
 62
     7
370
     0
100
AcDbLine
 10
171.5568842312
 20
185.8891591984
 30
0.0
 11
171.0568841492
 21
185.3891581852
 31
0.0
  0
LINE
  5
17A
330
1F
100
AcDbEntity
  8
0
  6
Continuous
 62
     7
370
     0
100
AcDbLine
 10
182.5568841716
 20
178.8891580511
 30
0.0
 11
182.5568841716
 21
179.889158215
 31
0.0
  0
LINE
  5
17B
330
1F
100
AcDbEntity
  8
0
  6
Continuous
 62
     7
370
     0
100
AcDbLine
 10
171.5568842312
 20
179.889158215
 30
0.0
 11
171.5568842312
 21
178.8891580511
 31
0.0
  0
LINE
  5
17C
330
1F
100
AcDbEntity
  8
0
  6
Continuous
 62
     7
370
     0
100
AcDbLine
 10
171.8068842722
 20
188.8891578275
 30
0.0
 11
182.3068841306
 21
188.8891578275
 31
0.0
  0
LINE
  5
17D
330
1F
100
AcDbEntity
  8
0
  6
Continuous
 62
     7
370
     0
100
AcDbLine
 10
177.7351171888
 20
174.7391585815
 30
0.0
 11
176.378651214
 21
174.7391585815
 31
0.0
  0
LINE
  5
17E
330
1F
100
AcDbEntity
  8
0
  6
Continuous
 62
     7
370
     0
100
AcDbLine
 10
176.1637647116
 20
174.9391582418
 30
0.0
 11
177.9526428265
 21
174.9391582418
 31
0.0
  0
LINE
  5
17F
330
1F
100
AcDbEntity
  8
0
  6
Continuous
 62
     7
370
     0
100
AcDbLine
 10
176.6636294025
 20
176.9391585696
 30
0.0
 11
176.5669862336
 21
176.9391585696
 31
0.0
  0
LINE
  5
180
330
1F
100
AcDbEntity
  8
0
  6
Continuous
 62
     7
370
     0
100
AcDbLine
 10
177.5467821692
 20
176.9391585696
 30
0.0
 11
176.6636294025
 21
176.9391585696
 31
0.0
  0
SPLINE
  5
181
330
1F
100
AcDbEntity
  8
0
  6
Continuous
 62
     7
370
     0
100
AcDbSpline
210
0.0
220
0.0
230
1.0
 70
    11
 71
     3
 72
    26
 73
    22
 74
     0
 42
0.00000001
 43
0.00000001
 40
0.0
 40
0.0
 40
0.0
 40
0.0
 40
0.0527003073888137
 40
0.1053676286653115
 40
0.1588989412522583
 40
0.2131059480418273
 40
0.2663424257744786
 40
0.3184652570751293
 40
0.3710692490213039
 40
0.4249814766528129
 40
0.4790263166131088
 40
0.5318445769163264
 40
0.5839980291691411
 40
0.6369945388173163
 40
0.6911155133675492
 40
0.7449003762324456
 40
0.7973357332506384
 40
0.8495434434115446
 40
0.9029624612339775
 40
0.9571762505842285
 40
1.0
 40
1.0
 40
1.0
 40
1.0
 10
176.7607864578213
 20
175.1891587484348
 30
0.0
 10
176.6782508171408
 20
175.1972226164778
 30
0.0
 10
176.5132311963876
 20
175.2133453052373
 30
0.0
 10
176.2948202283254
 20
175.3387598122231
 30
0.0
 10
176.1267422081515
 20
175.5251680225344
 30
0.0
 10
176.0285566555826
 20
175.7614554553797
 30
0.0
 10
176.0124772119899
 20
176.0162125103716
 30
0.0
 10
176.0774297059056
 20
176.2592259425987
 30
0.0
 10
176.2155381857318
 20
176.4674496839939
 30
0.0
 10
176.416093690846
 20
176.6200109359417
 30
0.0
 10
176.6584369230617
 20
176.6965850619305
 30
0.0
 10
176.9118223409889
 20
176.6877586045528
 30
0.0
 10
177.1476649906687
 20
176.597771828552
 30
0.0
 10
177.3436527111418
 20
176.4360155141322
 30
0.0
 10
177.477458334247
 20
176.2167796060568
 30
0.0
 10
177.5298038797814
 20
175.96557187015
 30
0.0
 10
177.4953490543388
 20
175.7146579329487
 30
0.0
 10
177.3812096178354
 20
175.4895949325607
 30
0.0
 10
177.1984940889203
 20
175.312968549767
 30
0.0
 10
176.9802745617755
 20
175.2066526894119
 30
0.0
 10
176.8279909265179
 20
175.1945151708905
 30
0.0
 10
176.7607864578213
 20
175.1891587484348
 30
0.0
  0
SPLINE
  5
182
330
1F
100
AcDbEntity
  8
0
  6
Continuous
 62
     7
370
     0
100
AcDbSpline
210
0.0
220
0.0
230
1.0
 70
     8
 71
     3
 72
    17
 73
    13
 74
     0
 42
0.00000001
 43
0.00000001
 40
0.0
 40
0.0
 40
0.0
 40
0.0
 40
0.0490134149454543
 40
0.1489098365932806
 40
0.251785614689838
 40
0.3606147961983706
 40
0.46980614854104
 40
0.571979092613566
 40
0.6711006933499288
 40
0.7754482369853782
 40
0.8854048780474737
 40
1.0
 40
1.0
 40
1.0
 40
1.0
 10
176.8720793454168
 20
176.679055075692
 30
0.0
 10
176.8333256157146
 20
176.6811948838355
 30
0.0
 10
176.7155861853206
 20
176.6876959301582
 30
0.0
 10
176.5278245178194
 20
176.6151130554808
 30
0.0
 10
176.3347405521895
 20
176.4735908069551
 30
0.0
 10
176.1945207322699
 20
176.2653288362237
 30
0.0
 10
176.1288082440044
 20
176.0181194187728
 30
0.0
 10
176.1447779445577
 20
175.7687444493937
 30
0.0
 10
176.2323945797877
 20
175.5435522817779
 30
0.0
 10
176.386337292492
 20
175.3566601590842
 30
0.0
 10
176.6049070648173
 20
175.2178656953311
 30
0.0
 10
176.781634236341
 20
175.1988586048283
 30
0.0
 10
176.8718231152935
 20
175.1891587484348
 30
0.0
  0
LINE
  5
183
330
1F
100
AcDbEntity
  8
0
  6
Continuous
 62
     7
370
     0
100
AcDbLine
 10
169.306884328
 20
142.3891585875
 30
0.0
 11
169.80688441
 21
141.8891575742
 31
0.0
  0
LINE
  5
184
330
1F
100
AcDbEntity
  8
0
  6
Continuous
 62
     7
370
     0
100
AcDbLine
 10
169.306884328
 20
142.3891585875
 30
0.0
 11
169.80688441
 21
142.8891577381
 31
0.0
  0
LINE
  5
185
330
1F
100
AcDbEntity
  8
0
  6
Continuous
 62
     7
370
     0
100
AcDbLine
 10
169.80688441
 20
142.8891577381
 30
0.0
 11
184.3068839928
 21
142.8891577381
 31
0.0
  0
LINE
  5
186
330
1F
100
AcDbEntity
  8
0
  6
Continuous
 62
     7
370
     0
100
AcDbLine
 10
184.3068839928
 20
142.8891577381
 30
0.0
 11
184.8068840747
 21
142.3891585875
 31
0.0
  0
LINE
  5
187
330
1F
100
AcDbEntity
  8
0
  6
Continuous
 62
     7
370
     0
100
AcDbLine
 10
184.3068839928
 20
141.8891575742
 30
0.0
 11
184.8068840747
 21
142.3891585875
 31
0.0
  0
LINE
  5
188
330
1F
100
AcDbEntity
  8
0
  6
Continuous
 62
     7
370
     0
100
AcDbLine
 10
184.3068839928
 20
141.8891575742
 30
0.0
 11
169.80688441
 21
141.8891575742
 31
0.0
  0
LINE
  5
189
330
1F
100
AcDbEntity
  8
0
  6
Continuous
 62
     7
370
     0
100
AcDbLine
 10
184.3068839928
 20
142.8891577381
 30
0.0
 11
184.3068839928
 21
177.8891588185
 31
0.0
  0
LINE
  5
18A
330
1F
100
AcDbEntity
  8
0
  6
Continuous
 62
     7
370
     0
100
AcDbLine
 10
184.8068840747
 20
178.3891589004
 30
0.0
 11
184.3068839928
 21
177.8891588185
 31
0.0
  0
LINE
  5
18B
330
1F
100
AcDbEntity
  8
0
  6
Continuous
 62
     7
370
     0
100
AcDbLine
 10
185.3068841567
 20
177.8891588185
 30
0.0
 11
184.8068840747
 21
178.3891589004
 31
0.0
  0
LINE
  5
18C
330
1F
100
AcDbEntity
  8
0
  6
Continuous
 62
     7
370
     0
100
AcDbLine
 10
185.3068841567
 20
177.8891588185
 30
0.0
 11
185.3068841567
 21
142.8891577381
 31
0.0
  0
LINE
  5
18D
330
1F
100
AcDbEntity
  8
0
  6
Continuous
 62
     7
370
     0
100
AcDbLine
 10
184.8068840747
 20
142.3891585875
 30
0.0
 11
185.3068841567
 21
142.8891577381
 31
0.0
  0
CIRCLE
  5
18E
330
1F
100
AcDbEntity
  8
0
  6
Continuous
 62
     7
370
     0
100
AcDbCircle
 10
177.0568842014
 20
160.3891584683
 30
0.0
 40
4.529796568402048
  0
LINE
  5
18F
330
1F
100
AcDbEntity
  8
0
  6
Continuous
 62
     7
370
     0
100
AcDbLine
 10
169.80688441
 20
177.8891588185
 30
0.0
 11
169.80688441
 21
142.8891577381
 31
0.0
  0
LINE
  5
190
330
1F
100
AcDbEntity
  8
0
  6
Continuous
 62
     7
370
     0
100
AcDbLine
 10
184.3068839928
 20
177.8891588185
 30
0.0
 11
169.80688441
 21
177.8891588185
 31
0.0
  0
CIRCLE
  5
191
330
1F
100
AcDbEntity
  8
0
  6
Continuous
 62
     7
370
     0
100
AcDbCircle
 10
177.0568842014
 20
175.7891584683
 30
0.0
 40
1.25
  0
LINE
  5
192
330
1F
100
AcDbEntity
  8
0
  6
Continuous
 62
     7
370
     0
100
AcDbLine
 10
169.306884328
 20
178.3891589004
 30
0.0
 11
168.8068842461
 21
177.8891588185
 31
0.0
  0
LINE
  5
193
330
1F
100
AcDbEntity
  8
0
  6
Continuous
 62
     7
370
     0
100
AcDbLine
 10
169.80688441
 20
177.8891588185
 30
0.0
 11
169.306884328
 21
178.3891589004
 31
0.0
  0
LINE
  5
194
330
1F
100
AcDbEntity
  8
0
  6
Continuous
 62
     7
370
     0
100
AcDbLine
 10
168.8068842461
 20
142.8891577381
 30
0.0
 11
169.306884328
 21
142.3891585875
 31
0.0
  0
LINE
  5
195
330
1F
100
AcDbEntity
  8
0
  6
Continuous
 62
     7
370
     0
100
AcDbLine
 10
168.8068842461
 20
142.8891577381
 30
0.0
 11
168.8068842461
 21
177.8891588185
 31
0.0
  0
CIRCLE
  5
196
330
1F
100
AcDbEntity
  8
0
  6
Continuous
 62
     7
370
     0
100
AcDbCircle
 10
177.0568842014
 20
160.3891584683
 30
0.0
 40
4.342496842010149
  0
LINE
  5
197
330
1F
100
AcDbEntity
  8
0
  6
Continuous
 62
     7
370
     0
100
AcDbLine
 10
169.80688441
 20
178.8891580511
 30
0.0
 11
169.306884328
 21
178.3891589004
 31
0.0
  0
LINE
  5
198
330
1F
100
AcDbEntity
  8
0
  6
Continuous
 62
     7
370
     0
100
AcDbLine
 10
169.80688441
 20
178.8891580511
 30
0.0
 11
184.3068839928
 21
178.8891580511
 31
0.0
  0
LINE
  5
199
330
1F
100
AcDbEntity
  8
0
  6
Continuous
 62
     7
370
     0
100
AcDbLine
 10
184.8068840747
 20
178.3891589004
 30
0.0
 11
184.3068839928
 21
178.8891580511
 31
0.0
  0
LINE
  5
19A
330
1F
100
AcDbEntity
  8
0
  6
Continuous
 62
     7
370
     0
100
AcDbLine
 10
171.0568841492
 20
179.889158215
 30
0.0
 11
183.0568842535
 21
179.889158215
 31
0.0
  0
LINE
  5
19B
330
1F
100
AcDbEntity
  8
0
  6
Continuous
 62
     7
370
     0
100
AcDbLine
 10
183.0568842535
 20
185.3891581852
 30
0.0
 11
171.0568841492
 21
185.3891581852
 31
0.0
  0
LINE
  5
19C
330
1F
100
AcDbEntity
  8
0
  6
Continuous
 62
     7
370
     0
100
AcDbLine
 10
171.5568842312
 20
185.8891591984
 30
0.0
 11
182.5568841716
 21
185.8891591984
 31
0.0
  0
CIRCLE
  5
19D
330
1F
100
AcDbEntity
  8
0
  6
Continuous
 62
     7
370
     0
100
AcDbCircle
 10
177.0568842014
 20
160.3891584683
 30
0.0
 40
3.949999999999989
  0
CIRCLE
  5
19E
330
1F
100
AcDbEntity
  8
0
  6
Continuous
 62
     7
370
     0
100
AcDbCircle
 10
177.0568842014
 20
160.3891584683
 30
0.0
 40
1.5
  0
LINE
  5
19F
330
1F
100
AcDbEntity
  8
0
  6
Continuous
 62
     8
370
     0
100
AcDbLine
 10
173.4330910669
 20
190.1907984722
 30
0.0
 11
171.8068842722
 21
190.1907984722
 31
0.0
  0
LINE
  5
1A0
330
1F
100
AcDbEntity
  8
0
  6
Continuous
 62
     8
370
     0
100
AcDbLine
 10
182.3068841306
 20
190.1907984722
 30
0.0
 11
173.4330910669
 21
190.1907984722
 31
0.0
  0
LINE
  5
1A1
330
1F
100
AcDbEntity
  8
0
  6
Continuous
 62
     8
370
     0
100
AcDbLine
 10
173.9024585524
 20
191.1382161636
 30
0.0
 11
181.626884075
 21
191.1382161636
 31
0.0
  0
LINE
  5
1A2
330
1F
100
AcDbEntity
  8
0
  6
Continuous
 62
     8
370
     0
100
AcDbLine
 10
172.4868843277
 20
191.1382161636
 30
0.0
 11
173.9024585524
 21
191.1382161636
 31
0.0
  0
DIMENSION
  5
1A3
330
1F
100
AcDbEntity
  8
0
  6
Continuous
 62
     7
370
     0
100
AcDbDimension
  2
*D11
 10
158.8068842014
 20
160.3891584683
 30
0.0
 11
158.8068842014
 21
151.1391584683
 31
0.0
 70
   160
 71
     2
 42
-1.0
  3
SLDDIMSTYLE0
100
AcDbAlignedDimension
 13
169.8068842014
 23
141.8891584683
 33
0.0
 14
170.027087633
 24
160.3891584683
 34
0.0
 50
90.0
100
AcDbRotatedDimension
  0
DIMENSION
  5
1AD
330
1F
100
AcDbEntity
  8
0
  6
Continuous
 62
     7
370
     0
100
AcDbDimension
  2
*D12
 10
179.3216981502
 20
156.4661908763
 30
0.0
 11
154.6051207232
 21
185.2329520079
 31
0.0
 70
   163
  1
PT 1/8
 71
     1
 42
-1.0
  3
SLDDIMSTYLE3
100
AcDbDiametricDimension
 15
174.7920702525
 25
164.3121260603
 35
0.0
 40
0.0
  0
INSERT
  5
1C1
330
1F
100
AcDbEntity
  8
0
  6
Continuous
 62
     7
370
     0
100
AcDbBlockReference
  2
SW_CENTERMARKSYMBOL_3
 10
177.0568842014
 20
160.3891584683
 30
0.0
  0
ARC
  5
1C2
330
1F
100
AcDbEntity
  8
0
  6
Continuous
 62
     7
370
     0
100
AcDbCircle
 10
62.1478213868
 20
190.1907977058
 30
0.0
 40
1.000000000000016
100
AcDbArc
 50
0.0
 51
71.3370751151
  0
ARC
  5
1C3
330
1F
100
AcDbEntity
  8
0
  6
Continuous
 62
     7
370
     0
100
AcDbCircle
 10
53.6478213868
 20
190.1907977058
 30
0.0
 40
1.000000000000016
100
AcDbArc
 50
108.6629248849
 51
180.0
  0
LINE
  5
1C4
330
1F
100
AcDbEntity
  8
0
  6
Continuous
 62
     7
370
     0
100
AcDbLine
 10
52.6478213868
 20
190.1907977058
 30
0.0
 11
52.6478213868
 21
188.8891584683
 31
0.0
  0
LINE
  5
1C5
330
1F
100
AcDbEntity
  8
0
  6
Continuous
 62
     7
370
     0
100
AcDbLine
 10
63.1478213868
 20
188.8891584683
 30
0.0
 11
63.1478213868
 21
190.1907977058
 31
0.0
  0
ARC
  5
1C6
330
1F
100
AcDbEntity
  8
0
  6
Continuous
 62
     7
370
     0
100
AcDbCircle
 10
57.8978213868
 20
177.6079084683
 30
0.0
 40
14.28125000000002
100
AcDbArc
 50
71.3370751151
 51
108.6629248849
  0
LINE
  5
1C7
330
1F
100
AcDbEntity
  8
0
  6
Continuous
 62
     7
370
     0
100
AcDbLine
 10
53.3978213868
 20
188.8891584683
 30
0.0
 11
53.3978213868
 21
185.8891584683
 31
0.0
  0
LINE
  5
1C8
330
1F
100
AcDbEntity
  8
0
  6
Continuous
 62
     7
370
     0
100
AcDbLine
 10
62.3978213868
 20
185.8891584683
 30
0.0
 11
62.3978213868
 21
188.8891584683
 31
0.0
  0
LINE
  5
1C9
330
1F
100
AcDbEntity
  8
0
  6
Continuous
 62
     7
370
     0
100
AcDbLine
 10
63.8978213868
 20
185.3891584683
 30
0.0
 11
63.3978213868
 21
185.8891584683
 31
0.0
  0
LINE
  5
1CA
330
1F
100
AcDbEntity
  8
0
  6
Continuous
 62
     7
370
     0
100
AcDbLine
 10
52.3978213868
 20
185.8891584683
 30
0.0
 11
51.8978213868
 21
185.3891584683
 31
0.0
  0
LINE
  5
1CB
330
1F
100
AcDbEntity
  8
0
  6
Continuous
 62
     7
370
     0
100
AcDbLine
 10
51.8978213868
 20
185.3891584683
 30
0.0
 11
51.8978213868
 21
179.8891584683
 31
0.0
  0
LINE
  5
1CC
330
1F
100
AcDbEntity
  8
0
  6
Continuous
 62
     7
370
     0
100
AcDbLine
 10
63.8978213868
 20
179.8891584683
 30
0.0
 11
63.8978213868
 21
185.3891584683
 31
0.0
  0
LINE
  5
1CD
330
1F
100
AcDbEntity
  8
0
  6
Continuous
 62
     7
370
     0
100
AcDbLine
 10
63.3978213868
 20
178.8891584683
 30
0.0
 11
63.3978213868
 21
179.8891584683
 31
0.0
  0
LINE
  5
1CE
330
1F
100
AcDbEntity
  8
0
  6
Continuous
 62
     7
370
     0
100
AcDbLine
 10
52.3978213868
 20
179.8891584683
 30
0.0
 11
52.3978213868
 21
178.8891584683
 31
0.0
  0
LINE
  5
1CF
330
1F
100
AcDbEntity
  8
0
  6
Continuous
 62
     7
370
     0
100
AcDbLine
 10
54.2740282971
 20
188.8891584683
 30
0.0
 11
63.1478213868
 21
188.8891584683
 31
0.0
  0
LINE
  5
1D0
330
1F
100
AcDbEntity
  8
0
  6
Continuous
 62
     7
370
     0
100
AcDbLine
 10
52.6478213868
 20
188.8891584683
 30
0.0
 11
54.2740282971
 21
188.8891584683
 31
0.0
  0
LINE
  5
1D1
330
1F
100
AcDbEntity
  8
0
  6
Continuous
 62
     7
370
     0
100
AcDbLine
 10
58.3877193353
 20
176.9391584683
 30
0.0
 11
57.4079234382
 21
176.9391584683
 31
0.0
  0
LINE
  5
1D2
330
1F
100
AcDbEntity
  8
0
  6
Continuous
 62
     7
370
     0
100
AcDbLine
 10
57.5045665834
 20
174.9391584683
 30
0.0
 11
58.8143365258
 21
174.9391584683
 31
0.0
  0
LINE
  5
1D3
330
1F
100
AcDbEntity
  8
0
  6
Continuous
 62
     7
370
     0
100
AcDbLine
 10
56.9813062478
 20
174.9391584683
 30
0.0
 11
57.5045665834
 21
174.9391584683
 31
0.0
  0
LINE
  5
1D4
330
1F
100
AcDbEntity
  8
0
  6
Continuous
 62
     7
370
     0
100
AcDbLine
 10
57.486060475
 20
174.7391584683
 30
0.0
 11
57.2195883885
 21
174.7391584683
 31
0.0
  0
LINE
  5
1D5
330
1F
100
AcDbEntity
  8
0
  6
Continuous
 62
     7
370
     0
100
AcDbLine
 10
58.5760543851
 20
174.7391584683
 30
0.0
 11
57.486060475
 21
174.7391584683
 31
0.0
  0
SPLINE
  5
1D6
330
1F
100
AcDbEntity
  8
0
  6
Continuous
 62
     7
370
     0
100
AcDbSpline
210
0.0
220
0.0
230
1.0
 70
    11
 71
     3
 72
    45
 73
    41
 74
     0
 42
0.00000001
 43
0.00000001
 40
0.0
 40
0.0
 40
0.0
 40
0.0
 40
0.0259585794595759
 40
0.0526833959953497
 40
0.0786382753612203
 40
0.1053216807845465
 40
0.1317274332611011
 40
0.1588798771189109
 40
0.1855834845239512
 40
0.213088396639557
 40
0.2393084716328127
 40
0.2663195939375527
 40
0.2920468957972381
 40
0.318509596944089
 40
0.3444613782628965
 40
0.3711317797529893
 40
0.3976912054733124
 40
0.4250137911094208
 40
0.4516514536493246
 40
0.4790974966347177
 40
0.5051168660329284
 40
0.5319130543979853
 40
0.5575918196537839
 40
0.5839913598721507
 40
0.6101256295550931
 40
0.6369859821236689
 40
0.6636677709766367
 40
0.6911326078852672
 40
0.7176124524477281
 40
0.7448973888257306
 40
0.7707583235316867
 40
0.7973766523634616
 40
0.8231484627530685
 40
0.8496376959745062
 40
0.8759634614645987
 40
0.9030289798506251
 40
0.9297423201776273
 40
0.9572522919717743
 40
0.9784222301149682
 40
1.0
 40
1.0
 40
1.0
 40
1.0
 10
56.86318869544461
 20
175.939158468293
 30
0.0
 10
56.86507892866391
 20
175.9800768121219
 30
0.0
 10
56.86891519040429
 20
176.0631213144132
 30
0.0
 10
56.89974666965814
 20
176.1835463840119
 30
0.0
 10
56.94843930180214
 20
176.2980226598828
 30
0.0
 10
57.01492676340514
 20
176.4020697310673
 30
0.0
 10
57.09855085703985
 20
176.4947049786209
 30
0.0
 10
57.19655127213166
 20
176.5718795900471
 30
0.0
 10
57.30792067632949
 20
176.632111536839
 30
0.0
 10
57.42713318190594
 20
176.671972856452
 30
0.0
 10
57.55238085585212
 20
176.6910602856369
 30
0.0
 10
57.67683961590335
 20
176.6888372886752
 30
0.0
 10
57.79984137291306
 20
176.6659270279475
 30
0.0
 10
57.91607603079364
 20
176.6238467589798
 30
0.0
 10
58.02519195591549
 20
176.5627863905075
 30
0.0
 10
58.12302589838199
 20
176.4847769817461
 30
0.0
 10
58.20808795571263
 20
176.3902128422877
 30
0.0
 10
58.27611187518453
 20
176.2827489302133
 30
0.0
 10
58.32551466555974
 20
176.1639962654492
 30
0.0
 10
58.35342417067177
 20
176.0403781265505
 30
0.0
 10
58.35985035974482
 20
175.9135826516321
 30
0.0
 10
58.34510969120579
 20
175.790258641548
 30
0.0
 10
58.3098481130075
 20
175.6707048407116
 30
0.0
 10
58.2558849973592
 20
175.5595694438233
 30
0.0
 10
58.18336101979367
 20
175.457350756752
 30
0.0
 10
58.0946622168473
 20
175.3680697640395
 30
0.0
 10
57.99066176192677
 20
175.2933887157033
 30
0.0
 10
57.87605571303075
 20
175.2373230596206
 30
0.0
 10
57.75285054048949
 20
175.2009537274149
 30
0.0
 10
57.62795714987776
 20
175.1861012256066
 30
0.0
 10
57.50263117737601
 20
175.1923414010088
 30
0.0
 10
57.38289256827382
 20
175.2187167278265
 30
0.0
 10
57.26885830282041
 20
175.264806439009
 30
0.0
 10
57.16473021671635
 20
175.3287655051044
 30
0.0
 10
57.07130170546131
 20
175.4104603345851
 30
0.0
 10
56.99249827481678
 20
175.5071536925592
 30
0.0
 10
56.92971982306793
 20
175.617729248968
 30
0.0
 10
56.88958643682989
 20
175.7292436802328
 30
0.0
 10
56.86707107555673
 20
175.8377930685982
 30
0.0
 10
56.86449102707717
 20
175.9051557785366
 30
0.0
 10
56.86318869544461
 20
175.939158468293
 30
0.0
  0
SPLINE
  5
1D7
330
1F
100
AcDbEntity
  8
0
  6
Continuous
 62
     7
370
     0
100
AcDbSpline
210
0.0
220
0.0
230
1.0
 70
     8
 71
     3
 72
    16
 73
    12
 74
     0
 42
0.00000001
 43
0.00000001
 40
0.0
 40
0.0
 40
0.0
 40
0.0
 40
0.1065268293495798
 40
0.2162998619588966
 40
0.3227860510025539
 40
0.4321127284336314
 40
0.5434189836127301
 40
0.6577370309873755
 40
0.7725702322438175
 40
0.8910226807780945
 40
1.0
 40
1.0
 40
1.0
 40
1.0
 10
56.97948278541375
 20
175.939158468293
 30
0.0
 10
56.98125238920171
 20
175.8992712464745
 30
0.0
 10
56.98484552209974
 20
175.8182813153373
 30
0.0
 10
57.01365132505585
 20
175.7010048354815
 30
0.0
 10
57.0589471018865
 20
175.5896646011247
 30
0.0
 10
57.12116194332448
 20
175.4873338628374
 30
0.0
 10
57.20034106478072
 20
175.394875806266
 30
0.0
 10
57.29531705969808
 20
175.3156757645976
 30
0.0
 10
57.40526094801542
 20
175.2528325224988
 30
0.0
 10
57.52367901195006
 20
175.2090180318524
 30
0.0
 10
57.60731198615713
 20
175.1975961581769
 30
0.0
 10
57.6473863239079
 20
175.1921231491423
 30
0.0
  0
SPLINE
  5
1D8
330
1F
100
AcDbEntity
  8
0
  6
Continuous
 62
     7
370
     0
100
AcDbSpline
210
0.0
220
0.0
230
1.0
 70
     8
 71
     3
 72
    16
 73
    12
 74
     0
 42
0.00000001
 43
0.00000001
 40
0.0
 40
0.0
 40
0.0
 40
0.0
 40
0.0970211522933042
 40
0.2009847886740304
 40
0.3077371953751301
 40
0.4161350280307875
 40
0.5273709110386878
 40
0.6413162001874907
 40
0.7586495808651385
 40
0.8771015470270603
 40
1.0
 40
1.0
 40
1.0
 40
1.0
 10
57.65235775435923
 20
176.6856560693863
 30
0.0
 10
57.6163874542101
 20
176.6815813370164
 30
0.0
 10
57.54187294883545
 20
176.6731402991096
 30
0.0
 10
57.43363392623839
 20
176.6371032606388
 30
0.0
 10
57.32922341938744
 20
176.5844180158316
 30
0.0
 10
57.23329058148935
 20
176.5137901333375
 30
0.0
 10
57.14848002440262
 20
176.4266532699917
 30
0.0
 10
57.07702806221884
 20
176.3233537138292
 30
0.0
 10
57.022818601936
 20
176.2059020747087
 30
0.0
 10
56.98650709590327
 20
176.076190505766
 30
0.0
 10
56.98185280481111
 20
175.9853934101219
 30
0.0
 10
56.97948278541375
 20
175.939158468293
 30
0.0
  0
LINE
  5
1D9
330
1F
100
AcDbEntity
  8
0
  6
Continuous
 62
     7
370
     0
100
AcDbLine
 10
65.6478213868
 20
178.3891584683
 30
0.0
 11
65.1478213868
 21
178.8891584683
 31
0.0
  0
LINE
  5
1DA
330
1F
100
AcDbEntity
  8
0
  6
Continuous
 62
     7
370
     0
100
AcDbLine
 10
65.6478213868
 20
178.3891584683
 30
0.0
 11
65.1478213868
 21
177.8891584683
 31
0.0
  0
LINE
  5
1DB
330
1F
100
AcDbEntity
  8
0
  6
Continuous
 62
     7
370
     0
100
AcDbLine
 10
65.1478213868
 20
177.8891584683
 30
0.0
 11
50.6478213868
 21
177.8891584683
 31
0.0
  0
LINE
  5
1DC
330
1F
100
AcDbEntity
  8
0
  6
Continuous
 62
     7
370
     0
100
AcDbLine
 10
50.6478213868
 20
177.8891584683
 30
0.0
 11
50.1478213868
 21
178.3891584683
 31
0.0
  0
LINE
  5
1DD
330
1F
100
AcDbEntity
  8
0
  6
Continuous
 62
     7
370
     0
100
AcDbLine
 10
50.6478213868
 20
178.8891584683
 30
0.0
 11
50.1478213868
 21
178.3891584683
 31
0.0
  0
LINE
  5
1DE
330
1F
100
AcDbEntity
  8
0
  6
Continuous
 62
     7
370
     0
100
AcDbLine
 10
50.6478213868
 20
178.8891584683
 30
0.0
 11
65.1478213868
 21
178.8891584683
 31
0.0
  0
LINE
  5
1DF
330
1F
100
AcDbEntity
  8
0
  6
Continuous
 62
     7
370
     0
100
AcDbLine
 10
50.1478213868
 20
178.3891584683
 30
0.0
 11
49.6478213868
 21
177.8891584683
 31
0.0
  0
LINE
  5
1E0
330
1F
100
AcDbEntity
  8
0
  6
Continuous
 62
     7
370
     0
100
AcDbLine
 10
50.6478213868
 20
177.8891584683
 30
0.0
 11
50.6478213868
 21
142.8891584683
 31
0.0
  0
LINE
  5
1E1
330
1F
100
AcDbEntity
  8
0
  6
Continuous
 62
     7
370
     0
100
AcDbLine
 10
50.1478213868
 20
142.3891584683
 30
0.0
 11
50.6478213868
 21
142.8891584683
 31
0.0
  0
LINE
  5
1E2
330
1F
100
AcDbEntity
  8
0
  6
Continuous
 62
     7
370
     0
100
AcDbLine
 10
49.6478213868
 20
142.8891584683
 30
0.0
 11
50.1478213868
 21
142.3891584683
 31
0.0
  0
LINE
  5
1E3
330
1F
100
AcDbEntity
  8
0
  6
Continuous
 62
     7
370
     0
100
AcDbLine
 10
49.6478213868
 20
142.8891584683
 30
0.0
 11
49.6478213868
 21
177.8891584683
 31
0.0
  0
CIRCLE
  5
1E4
330
1F
100
AcDbEntity
  8
0
  6
Continuous
 62
     7
370
     0
100
AcDbCircle
 10
57.8978213868
 20
168.6891584683
 30
0.0
 40
4.52979656840202
  0
LINE
  5
1E5
330
1F
100
AcDbEntity
  8
0
  6
Continuous
 62
     7
370
     0
100
AcDbLine
 10
50.6478213868
 20
142.8891584683
 30
0.0
 11
65.1478213868
 21
142.8891584683
 31
0.0
  0
LINE
  5
1E6
330
1F
100
AcDbEntity
  8
0
  6
Continuous
 62
     7
370
     0
100
AcDbLine
 10
65.1478213868
 20
142.8891584683
 30
0.0
 11
65.1478213868
 21
177.8891584683
 31
0.0
  0
CIRCLE
  5
1E7
330
1F
100
AcDbEntity
  8
0
  6
Continuous
 62
     7
370
     0
100
AcDbCircle
 10
57.8978213868
 20
152.0891584683
 30
0.0
 40
4.52979656840202
  0
CIRCLE
  5
1E8
330
1F
100
AcDbEntity
  8
0
  6
Continuous
 62
     7
370
     0
100
AcDbCircle
 10
57.8978213868
 20
175.7891584683
 30
0.0
 40
1.25
  0
CIRCLE
  5
1E9
330
1F
100
AcDbEntity
  8
0
  6
Continuous
 62
     7
370
     0
100
AcDbCircle
 10
57.8978213868
 20
168.6891584683
 30
0.0
 40
4.342496842010149
  0
LINE
  5
1EA
330
1F
100
AcDbEntity
  8
0
  6
Continuous
 62
     7
370
     0
100
AcDbLine
 10
66.1478213868
 20
177.8891584683
 30
0.0
 11
65.6478213868
 21
178.3891584683
 31
0.0
  0
LINE
  5
1EB
330
1F
100
AcDbEntity
  8
0
  6
Continuous
 62
     7
370
     0
100
AcDbLine
 10
66.1478213868
 20
177.8891584683
 30
0.0
 11
66.1478213868
 21
142.8891584683
 31
0.0
  0
LINE
  5
1EC
330
1F
100
AcDbEntity
  8
0
  6
Continuous
 62
     7
370
     0
100
AcDbLine
 10
65.6478213868
 20
142.3891584683
 30
0.0
 11
66.1478213868
 21
142.8891584683
 31
0.0
  0
LINE
  5
1ED
330
1F
100
AcDbEntity
  8
0
  6
Continuous
 62
     7
370
     0
100
AcDbLine
 10
65.1478213868
 20
142.8891584683
 30
0.0
 11
65.6478213868
 21
142.3891584683
 31
0.0
  0
CIRCLE
  5
1EE
330
1F
100
AcDbEntity
  8
0
  6
Continuous
 62
     7
370
     0
100
AcDbCircle
 10
57.8978213868
 20
152.0891584683
 30
0.0
 40
4.342496842010149
  0
LINE
  5
1EF
330
1F
100
AcDbEntity
  8
0
  6
Continuous
 62
     7
370
     0
100
AcDbLine
 10
65.1478213868
 20
141.8891584683
 30
0.0
 11
65.6478213868
 21
142.3891584683
 31
0.0
  0
LINE
  5
1F0
330
1F
100
AcDbEntity
  8
0
  6
Continuous
 62
     7
370
     0
100
AcDbLine
 10
65.1478213868
 20
141.8891584683
 30
0.0
 11
50.6478213868
 21
141.8891584683
 31
0.0
  0
LINE
  5
1F1
330
1F
100
AcDbEntity
  8
0
  6
Continuous
 62
     7
370
     0
100
AcDbLine
 10
50.1478213868
 20
142.3891584683
 30
0.0
 11
50.6478213868
 21
141.8891584683
 31
0.0
  0
LINE
  5
1F2
330
1F
100
AcDbEntity
  8
0
  6
Continuous
 62
     7
370
     0
100
AcDbLine
 10
57.8978213868
 20
185.8891584683
 30
0.0
 11
63.3978213868
 21
185.8891584683
 31
0.0
  0
LINE
  5
1F3
330
1F
100
AcDbEntity
  8
0
  6
Continuous
 62
     7
370
     0
100
AcDbLine
 10
52.3978213868
 20
185.8891584683
 30
0.0
 11
57.8978213868
 21
185.8891584683
 31
0.0
  0
LINE
  5
1F4
330
1F
100
AcDbEntity
  8
0
  6
Continuous
 62
     7
370
     0
100
AcDbLine
 10
57.8978213868
 20
185.3891584683
 30
0.0
 11
51.8978213868
 21
185.3891584683
 31
0.0
  0
LINE
  5
1F5
330
1F
100
AcDbEntity
  8
0
  6
Continuous
 62
     7
370
     0
100
AcDbLine
 10
63.8978213868
 20
185.3891584683
 30
0.0
 11
57.8978213868
 21
185.3891584683
 31
0.0
  0
LINE
  5
1F6
330
1F
100
AcDbEntity
  8
0
  6
Continuous
 62
     7
370
     0
100
AcDbLine
 10
57.8978213868
 20
179.8891584683
 30
0.0
 11
63.8978213868
 21
179.8891584683
 31
0.0
  0
LINE
  5
1F7
330
1F
100
AcDbEntity
  8
0
  6
Continuous
 62
     7
370
     0
100
AcDbLine
 10
51.8978213868
 20
179.8891584683
 30
0.0
 11
57.8978213868
 21
179.8891584683
 31
0.0
  0
CIRCLE
  5
1F8
330
1F
100
AcDbEntity
  8
0
  6
Continuous
 62
     7
370
     0
100
AcDbCircle
 10
57.8978213868
 20
168.6891584683
 30
0.0
 40
3.950000000000017
  0
CIRCLE
  5
1F9
330
1F
100
AcDbEntity
  8
0
  6
Continuous
 62
     7
370
     0
100
AcDbCircle
 10
57.8978213868
 20
152.0891584683
 30
0.0
 40
3.949999999999989
  0
CIRCLE
  5
1FA
330
1F
100
AcDbEntity
  8
0
  6
Continuous
 62
     7
370
     0
100
AcDbCircle
 10
57.8978213868
 20
168.6891584683
 30
0.0
 40
1.5
  0
CIRCLE
  5
1FB
330
1F
100
AcDbEntity
  8
0
  6
Continuous
 62
     7
370
     0
100
AcDbCircle
 10
57.8978213868
 20
152.0891584683
 30
0.0
 40
1.5
  0
LINE
  5
1FC
330
1F
100
AcDbEntity
  8
0
  6
Continuous
 62
     8
370
     0
100
AcDbLine
 10
53.3278213868
 20
191.1382152484
 30
0.0
 11
62.4678213868
 21
191.1382152484
 31
0.0
  0
LINE
  5
1FD
330
1F
100
AcDbEntity
  8
0
  6
Continuous
 62
     8
370
     0
100
AcDbLine
 10
63.1478213868
 20
190.1907977058
 30
0.0
 11
52.6478213868
 21
190.1907977058
 31
0.0
  0
DIMENSION
  5
1FE
330
1F
100
AcDbEntity
  8
0
  6
Continuous
 62
     7
370
     0
100
AcDbDimension
  2
*D14
 10
66.1478213868
 20
204.6928627069
 30
0.0
 11
57.8978213868
 21
204.6928627069
 31
0.0
 70
   160
 71
     2
 42
-1.0
  3
SLDDIMSTYLE0
100
AcDbAlignedDimension
 13
49.6478213868
 23
177.8891584683
 33
0.0
 14
66.1478213868
 24
177.8891584683
 34
0.0
100
AcDbRotatedDimension
  0
DIMENSION
  5
208
330
1F
100
AcDbEntity
  8
0
  6
Continuous
 62
     7
370
     0
100
AcDbDimension
  2
*D15
 10
30.9611100292
 20
191.8891584683
 30
0.0
 11
30.9611100292
 21
166.8891584683
 31
0.0
 70
   160
 71
     2
 42
-1.0
  3
SLDDIMSTYLE0
100
AcDbAlignedDimension
 13
50.6478213868
 23
141.8891584683
 33
0.0
 14
57.8978213868
 24
191.8891584683
 34
0.0
 50
90.0
100
AcDbRotatedDimension
  0
DIMENSION
  5
212
330
1F
100
AcDbEntity
  8
0
  6
Continuous
 62
     7
370
     0
100
AcDbDimension
  2
*D16
 10
41.6015768443
 20
168.6891584683
 30
0.0
 11
41.6015768443
 21
160.3891584683
 31
0.0
 70
   160
 71
     2
 42
-1.0
  3
SLDDIMSTYLE0
100
AcDbAlignedDimension
 13
50.8680248184
 23
152.0891584683
 33
0.0
 14
50.8680248184
 24
168.6891584683
 34
0.0
 50
90.0
100
AcDbRotatedDimension
  0
DIMENSION
  5
21C
330
1F
100
AcDbEntity
  8
0
  6
Continuous
 62
     7
370
     0
100
AcDbDimension
  2
*D17
 10
54.694181532
 20
165.4866986899
 30
0.0
 11
85.4699418316
 21
186.9698719024
 31
0.0
 70
   163
  1
2-PT 1/8
 71
     1
 42
-1.0
  3
SLDDIMSTYLE3
100
AcDbDiametricDimension
 15
61.1014612416
 25
171.8916182467
 35
0.0
 40
0.0
  0
INSERT
  5
22F
330
1F
100
AcDbEntity
  8
0
  6
Continuous
 62
     7
370
     0
100
AcDbBlockReference
  2
SW_CENTERMARKSYMBOL_4
 10
57.8978213868
 20
152.0891584683
 30
0.0
  0
INSERT
  5
23B
330
1F
100
AcDbEntity
  8
0
  6
Continuous
 62
     7
370
     0
100
AcDbBlockReference
  2
SW_CENTERMARKSYMBOL_5
 10
57.8978213868
 20
168.6891584683
 30
0.0
  0
ARC
  5
23C
330
1F
100
AcDbEntity
  8
0
  6
Continuous
 62
     7
370
     0
100
AcDbCircle
 10
118.32077983
 20
85.340663155
 30
0.0
 40
0.999999999999998
100
AcDbArc
 50
240.0
 51
45.0
  0
LINE
  5
23D
330
1F
100
AcDbEntity
  8
0
  6
Continuous
 62
     7
370
     0
100
AcDbLine
 10
117.1265964323
 20
84.8754246785
 30
0.0
 11
117.8207798322
 21
84.4746378084
 31
0.0
  0
ARC
  5
23E
330
1F
100
AcDbEntity
  8
0
  6
Continuous
 62
     7
370
     0
100
AcDbCircle
 10
116.8765963361
 20
84.4424120764
 30
0.0
 40
0.5000000000000048
100
AcDbArc
 50
60.0
 51
152.6318100591
  0
ARC
  5
23F
330
1F
100
AcDbEntity
  8
0
  6
Continuous
 62
     7
370
     0
100
AcDbCircle
 10
119.9182386437
 20
82.867916261
 30
0.0
 40
3.925000000000007
100
AcDbArc
 50
152.6318100591
 51
27.3681899409
  0
ARC
  5
240
330
1F
100
AcDbEntity
  8
0
  6
Continuous
 62
     7
370
     0
100
AcDbCircle
 10
122.9598809512
 20
84.4424120764
 30
0.0
 40
0.5000000000000048
100
AcDbArc
 50
27.3681899409
 51
120.0
  0
LINE
  5
241
330
1F
100
AcDbEntity
  8
0
  6
Continuous
 62
     7
370
     0
100
AcDbLine
 10
122.709880855
 20
84.8754246785
 30
0.0
 11
122.0156974551
 21
84.4746378084
 31
0.0
  0
ARC
  5
242
330
1F
100
AcDbEntity
  8
0
  6
Continuous
 62
     7
370
     0
100
AcDbCircle
 10
121.5156974574
 20
85.340663155
 30
0.0
 40
1.000000000000008
100
AcDbArc
 50
135.0
 51
300.0
  0
LINE
  5
243
330
1F
100
AcDbEntity
  8
0
  6
Continuous
 62
     7
370
     0
100
AcDbLine
 10
121.5704286398
 20
86.8096077415
 30
0.0
 11
120.8085906502
 21
86.047770043
 31
0.0
  0
ARC
  5
244
330
1F
100
AcDbEntity
  8
0
  6
Continuous
 62
     7
370
     0
100
AcDbCircle
 10
121.923981982
 20
86.4560544608
 30
0.0
 40
0.499999999999994
100
AcDbArc
 50
101.7975985222
 51
135.0
  0
ARC
  5
245
330
1F
100
AcDbEntity
  8
0
  6
Continuous
 62
     7
370
     0
100
AcDbCircle
 10
117.9124953054
 20
86.4560544608
 30
0.0
 40
0.500000000000004
100
AcDbArc
 50
45.0
 51
78.2024014778
  0
LINE
  5
246
330
1F
100
AcDbEntity
  8
0
  6
Continuous
 62
     7
370
     0
100
AcDbLine
 10
119.0278866371
 20
86.047770043
 30
0.0
 11
118.2660486476
 21
86.8096077415
 31
0.0
  0
CIRCLE
  5
247
330
1F
100
AcDbEntity
  8
0
  6
Continuous
 62
     7
370
     0
100
AcDbCircle
 10
121.5156974574
 20
85.340663155
 30
0.0
 40
0.5
  0
CIRCLE
  5
248
330
1F
100
AcDbEntity
  8
0
  6
Continuous
 62
     7
370
     0
100
AcDbCircle
 10
118.32077983
 20
85.340663155
 30
0.0
 40
0.5
  0
CIRCLE
  5
249
330
1F
100
AcDbEntity
  8
0
  6
Continuous
 62
     7
370
     0
100
AcDbCircle
 10
119.9182386437
 20
82.867916261
 30
0.0
 40
0.4999999999999998
  0
CIRCLE
  5
24A
330
1F
100
AcDbEntity
  8
0
  6
Continuous
 62
     7
370
     0
100
AcDbCircle
 10
119.9182386437
 20
82.867916261
 30
0.0
 40
1.25000000000001
  0
CIRCLE
  5
24B
330
1F
100
AcDbEntity
  8
0
  6
Continuous
 62
     7
370
     0
100
AcDbCircle
 10
119.9182386437
 20
82.867916261
 30
0.0
 40
1.450000000000008
  0
CIRCLE
  5
24C
330
1F
100
AcDbEntity
  8
0
  6
Continuous
 62
     7
370
     0
100
AcDbCircle
 10
119.9182386437
 20
82.867916261
 30
0.0
 40
0.7500000000000032
  0
CIRCLE
  5
24D
330
1F
100
AcDbEntity
  8
0
  6
Continuous
 62
     7
370
     0
100
AcDbCircle
 10
119.9182386437
 20
82.867916261
 30
0.0
 40
1.750000000000003
  0
ARC
  5
24E
330
1F
100
AcDbEntity
  8
0
  6
Continuous
 62
     7
370
     0
100
AcDbCircle
 10
119.9182386437
 20
82.867916261
 30
0.0
 40
4.149999999999996
100
AcDbArc
 50
87.8775013217
 51
112.0391711496
  0
ARC
  5
24F
330
1F
100
AcDbEntity
  8
0
  6
Continuous
 62
     7
370
     0
100
AcDbCircle
 10
119.9182386437
 20
82.867916261
 30
0.0
 40
4.149999999999996
100
AcDbArc
 50
67.9608288504
 51
87.8775013217
  0
ARC
  5
250
330
1F
100
AcDbEntity
  8
0
  6
Continuous
 62
     7
370
     0
100
AcDbCircle
 10
119.9182386437
 20
82.867916261
 30
0.0
 40
4.450000000000008
100
AcDbArc
 50
65.7163199157
 51
87.8775013217
  0
ARC
  5
251
330
1F
100
AcDbEntity
  8
0
  6
Continuous
 62
     7
370
     0
100
AcDbCircle
 10
119.9182386437
 20
82.867916261
 30
0.0
 40
4.450000000000008
100
AcDbArc
 50
87.8775013217
 51
114.2836800843
  0
LINE
  5
252
330
1F
100
AcDbEntity
  8
0
  6
Continuous
 62
     7
370
     0
100
AcDbLine
 10
108.4182386213
 20
75.6179164696
 30
0.0
 11
108.4182386213
 21
90.1179160523
 31
0.0
  0
LINE
  5
253
330
1F
100
AcDbEntity
  8
0
  6
Continuous
 62
     7
370
     0
100
AcDbLine
 10
108.4182386213
 20
90.1179160523
 30
0.0
 11
108.9182387033
 21
90.6179161343
 31
0.0
  0
LINE
  5
254
330
1F
100
AcDbEntity
  8
0
  6
Continuous
 62
     7
370
     0
100
AcDbLine
 10
109.4182387852
 20
90.1179160523
 30
0.0
 11
108.9182387033
 21
90.6179161343
 31
0.0
  0
LINE
  5
255
330
1F
100
AcDbEntity
  8
0
  6
Continuous
 62
     7
370
     0
100
AcDbLine
 10
109.4182387852
 20
90.1179160523
 30
0.0
 11
109.4182387852
 21
75.6179164696
 31
0.0
  0
LINE
  5
256
330
1F
100
AcDbEntity
  8
0
  6
Continuous
 62
     7
370
     0
100
AcDbLine
 10
108.9182387033
 20
75.1179163876
 30
0.0
 11
109.4182387852
 21
75.6179164696
 31
0.0
  0
LINE
  5
257
330
1F
100
AcDbEntity
  8
0
  6
Continuous
 62
     7
370
     0
100
AcDbLine
 10
108.9182387033
 20
75.1179163876
 30
0.0
 11
108.4182386213
 21
75.6179164696
 31
0.0
  0
LINE
  5
258
330
1F
100
AcDbEntity
  8
0
  6
Continuous
 62
     7
370
     0
100
AcDbLine
 10
109.4182387852
 20
75.6179164696
 30
0.0
 11
130.4182385021
 21
75.6179164696
 31
0.0
  0
LINE
  5
259
330
1F
100
AcDbEntity
  8
0
  6
Continuous
 62
     7
370
     0
100
AcDbLine
 10
130.4182385021
 20
75.6179164696
 30
0.0
 11
130.9182385841
 21
75.1179163876
 31
0.0
  0
LINE
  5
25A
330
1F
100
AcDbEntity
  8
0
  6
Continuous
 62
     7
370
     0
100
AcDbLine
 10
130.9182385841
 20
75.1179163876
 30
0.0
 11
130.4182385021
 21
74.6179163057
 31
0.0
  0
LINE
  5
25B
330
1F
100
AcDbEntity
  8
0
  6
Continuous
 62
     7
370
     0
100
AcDbLine
 10
130.4182385021
 20
74.6179163057
 30
0.0
 11
109.4182387852
 21
74.6179163057
 31
0.0
  0
LINE
  5
25C
330
1F
100
AcDbEntity
  8
0
  6
Continuous
 62
     7
370
     0
100
AcDbLine
 10
109.4182387852
 20
74.6179163057
 30
0.0
 11
108.9182387033
 21
75.1179163876
 31
0.0
  0
LINE
  5
25D
330
1F
100
AcDbEntity
  8
0
  6
Continuous
 62
     7
370
     0
100
AcDbLine
 10
130.4182385021
 20
90.1179160523
 30
0.0
 11
109.4182387852
 21
90.1179160523
 31
0.0
  0
LINE
  5
25E
330
1F
100
AcDbEntity
  8
0
  6
Continuous
 62
     7
370
     0
100
AcDbLine
 10
130.4182385021
 20
75.6179164696
 30
0.0
 11
130.4182385021
 21
90.1179160523
 31
0.0
  0
CIRCLE
  5
25F
330
1F
100
AcDbEntity
  8
0
  6
Continuous
 62
     7
370
     0
100
AcDbCircle
 10
119.9182386437
 20
82.867916261
 30
0.0
 40
5.000000000000014
  0
LINE
  5
260
330
1F
100
AcDbEntity
  8
0
  6
Continuous
 62
     7
370
     0
100
AcDbLine
 10
108.9182387033
 20
90.6179161343
 30
0.0
 11
109.4182387852
 21
91.1179162163
 31
0.0
  0
LINE
  5
261
330
1F
100
AcDbEntity
  8
0
  6
Continuous
 62
     7
370
     0
100
AcDbLine
 10
109.4182387852
 20
91.1179162163
 30
0.0
 11
130.4182385021
 21
91.1179162163
 31
0.0
  0
LINE
  5
262
330
1F
100
AcDbEntity
  8
0
  6
Continuous
 62
     7
370
     0
100
AcDbLine
 10
130.4182385021
 20
91.1179162163
 30
0.0
 11
130.9182385841
 21
90.6179161343
 31
0.0
  0
LINE
  5
263
330
1F
100
AcDbEntity
  8
0
  6
Continuous
 62
     7
370
     0
100
AcDbLine
 10
130.9182385841
 20
90.6179161343
 30
0.0
 11
130.4182385021
 21
90.1179160523
 31
0.0
  0
CIRCLE
  5
264
330
1F
100
AcDbEntity
  8
0
  6
Continuous
 62
     7
370
     0
100
AcDbCircle
 10
119.9182386437
 20
82.867916261
 30
0.0
 40
4.5
  0
LINE
  5
265
330
1F
100
AcDbEntity
  8
0
  6
Continuous
 62
     7
370
     0
100
AcDbLine
 10
130.9182385841
 20
90.6179161343
 30
0.0
 11
131.418238666
 21
90.1179160523
 31
0.0
  0
LINE
  5
266
330
1F
100
AcDbEntity
  8
0
  6
Continuous
 62
     7
370
     0
100
AcDbLine
 10
131.418238666
 20
90.1179160523
 30
0.0
 11
131.418238666
 21
75.6179164696
 31
0.0
  0
LINE
  5
267
330
1F
100
AcDbEntity
  8
0
  6
Continuous
 62
     7
370
     0
100
AcDbLine
 10
131.418238666
 20
75.6179164696
 30
0.0
 11
130.9182385841
 21
75.1179163876
 31
0.0
  0
INSERT
  5
273
330
1F
100
AcDbEntity
  8
0
  6
Continuous
 62
     7
370
     0
100
AcDbBlockReference
  2
SW_CENTERMARKSYMBOL_6
 10
119.9182386437
 20
82.867916261
 30
0.0
  0
CIRCLE
  5
274
330
1F
100
AcDbEntity
  8
0
  6
Continuous
 62
     7
370
     0
100
AcDbCircle
 10
119.9182386437
 20
235.3703310613
 30
0.0
 40
4.570000000000006
  0
CIRCLE
  5
275
330
1F
100
AcDbEntity
  8
0
  6
Continuous
 62
     7
370
     0
100
AcDbCircle
 10
119.9182386437
 20
235.3703310613
 30
0.0
 40
5.250000000000014
  0
CIRCLE
  5
276
330
1F
100
AcDbEntity
  8
0
  6
Continuous
 62
     7
370
     0
100
AcDbCircle
 10
119.9182386437
 20
235.3703310613
 30
0.0
 40
5.500000000000014
  0
CIRCLE
  5
277
330
1F
100
AcDbEntity
  8
0
  6
Continuous
 62
     7
370
     0
100
AcDbCircle
 10
119.9182386437
 20
235.3703310613
 30
0.0
 40
6.0
  0
LINE
  5
278
330
1F
100
AcDbEntity
  8
0
  6
Continuous
 62
     7
370
     0
100
AcDbLine
 10
131.418238666
 20
242.6203308527
 30
0.0
 11
131.418238666
 21
228.12033127
 31
0.0
  0
LINE
  5
279
330
1F
100
AcDbEntity
  8
0
  6
Continuous
 62
     7
370
     0
100
AcDbLine
 10
131.418238666
 20
228.12033127
 30
0.0
 11
130.9182385841
 21
227.620331188
 31
0.0
  0
LINE
  5
27A
330
1F
100
AcDbEntity
  8
0
  6
Continuous
 62
     7
370
     0
100
AcDbLine
 10
130.4182385021
 20
228.12033127
 30
0.0
 11
130.9182385841
 21
227.620331188
 31
0.0
  0
LINE
  5
27B
330
1F
100
AcDbEntity
  8
0
  6
Continuous
 62
     7
370
     0
100
AcDbLine
 10
130.4182385021
 20
228.12033127
 30
0.0
 11
130.4182385021
 21
242.6203308527
 31
0.0
  0
LINE
  5
27C
330
1F
100
AcDbEntity
  8
0
  6
Continuous
 62
     7
370
     0
100
AcDbLine
 10
130.9182385841
 20
243.1203309347
 30
0.0
 11
130.4182385021
 21
242.6203308527
 31
0.0
  0
LINE
  5
27D
330
1F
100
AcDbEntity
  8
0
  6
Continuous
 62
     7
370
     0
100
AcDbLine
 10
130.9182385841
 20
243.1203309347
 30
0.0
 11
131.418238666
 21
242.6203308527
 31
0.0
  0
LINE
  5
27E
330
1F
100
AcDbEntity
  8
0
  6
Continuous
 62
     7
370
     0
100
AcDbLine
 10
130.4182385021
 20
242.6203308527
 30
0.0
 11
109.4182387852
 21
242.6203308527
 31
0.0
  0
LINE
  5
27F
330
1F
100
AcDbEntity
  8
0
  6
Continuous
 62
     7
370
     0
100
AcDbLine
 10
109.4182387852
 20
242.6203308527
 30
0.0
 11
108.9182387033
 21
243.1203309347
 31
0.0
  0
LINE
  5
280
330
1F
100
AcDbEntity
  8
0
  6
Continuous
 62
     7
370
     0
100
AcDbLine
 10
108.9182387033
 20
243.1203309347
 30
0.0
 11
109.4182387852
 21
243.6203310166
 31
0.0
  0
LINE
  5
281
330
1F
100
AcDbEntity
  8
0
  6
Continuous
 62
     7
370
     0
100
AcDbLine
 10
109.4182387852
 20
243.6203310166
 30
0.0
 11
130.4182385021
 21
243.6203310166
 31
0.0
  0
LINE
  5
282
330
1F
100
AcDbEntity
  8
0
  6
Continuous
 62
     7
370
     0
100
AcDbLine
 10
130.4182385021
 20
243.6203310166
 30
0.0
 11
130.9182385841
 21
243.1203309347
 31
0.0
  0
LINE
  5
283
330
1F
100
AcDbEntity
  8
0
  6
Continuous
 62
     7
370
     0
100
AcDbLine
 10
109.4182387852
 20
228.12033127
 30
0.0
 11
130.4182385021
 21
228.12033127
 31
0.0
  0
LINE
  5
284
330
1F
100
AcDbEntity
  8
0
  6
Continuous
 62
     7
370
     0
100
AcDbLine
 10
109.4182387852
 20
242.6203308527
 30
0.0
 11
109.4182387852
 21
228.12033127
 31
0.0
  0
LINE
  5
285
330
1F
100
AcDbEntity
  8
0
  6
Continuous
 62
     7
370
     0
100
AcDbLine
 10
130.9182385841
 20
227.620331188
 30
0.0
 11
130.4182385021
 21
227.120331106
 31
0.0
  0
LINE
  5
286
330
1F
100
AcDbEntity
  8
0
  6
Continuous
 62
     7
370
     0
100
AcDbLine
 10
130.4182385021
 20
227.120331106
 30
0.0
 11
109.4182387852
 21
227.120331106
 31
0.0
  0
LINE
  5
287
330
1F
100
AcDbEntity
  8
0
  6
Continuous
 62
     7
370
     0
100
AcDbLine
 10
109.4182387852
 20
227.120331106
 30
0.0
 11
108.9182387033
 21
227.620331188
 31
0.0
  0
LINE
  5
288
330
1F
100
AcDbEntity
  8
0
  6
Continuous
 62
     7
370
     0
100
AcDbLine
 10
108.9182387033
 20
227.620331188
 30
0.0
 11
109.4182387852
 21
228.12033127
 31
0.0
  0
LINE
  5
289
330
1F
100
AcDbEntity
  8
0
  6
Continuous
 62
     7
370
     0
100
AcDbLine
 10
108.9182387033
 20
227.620331188
 30
0.0
 11
108.4182386213
 21
228.12033127
 31
0.0
  0
LINE
  5
28A
330
1F
100
AcDbEntity
  8
0
  6
Continuous
 62
     7
370
     0
100
AcDbLine
 10
108.4182386213
 20
228.12033127
 30
0.0
 11
108.4182386213
 21
242.6203308527
 31
0.0
  0
LINE
  5
28B
330
1F
100
AcDbEntity
  8
0
  6
Continuous
 62
     7
370
     0
100
AcDbLine
 10
108.4182386213
 20
242.6203308527
 30
0.0
 11
108.9182387033
 21
243.1203309347
 31
0.0
  0
INSERT
  5
297
330
1F
100
AcDbEntity
  8
0
  6
Continuous
 62
     7
370
     0
100
AcDbBlockReference
  2
SW_CENTERMARKSYMBOL_7
 10
119.9182386437
 20
235.3703310613
 30
0.0
  0
ENDSEC
  0
SECTION
  2
OBJECTS
  0
DICTIONARY
  5
C
330
0
100
AcDbDictionary
281
     1
  3
ACAD_GROUP
350
D
  3
ACAD_LAYOUT
350
1A
  3
ACAD_MLINESTYLE
350
17
  3
ACAD_PLOTSETTINGS
350
19
  3
ACAD_PLOTSTYLENAME
350
E
  3
ACAD_SCALELIST
350
4D
  3
AcDbVariableDictionary
350
298
  0
DICTIONARY
  5
D
102
{ACAD_REACTORS
330
C
102
}
330
C
100
AcDbDictionary
281
     1
  0
DICTIONARY
  5
1A
102
{ACAD_REACTORS
330
C
102
}
330
C
100
AcDbDictionary
281
     1
  3
Layout1
350
1E
  3
Layout2
350
26
  3
Model
350
22
  0
DICTIONARY
  5
17
102
{ACAD_REACTORS
330
C
102
}
330
C
100
AcDbDictionary
281
     1
  3
Standard
350
18
  0
DICTIONARY
  5
19
102
{ACAD_REACTORS
330
C
102
}
330
C
100
AcDbDictionary
281
     1
  0
ACDBDICTIONARYWDFLT
  5
E
102
{ACAD_REACTORS
330
C
102
}
330
C
100
AcDbDictionary
281
     1
  3
Normal
350
F
100
AcDbDictionaryWithDefault
340
F
  0
DICTIONARY
  5
4D
102
{ACAD_REACTORS
330
C
102
}
330
C
100
AcDbDictionary
281
     1
  3
A0
350
4E
  3
A1
350
4F
  3
A2
350
50
  3
A3
350
51
  3
A4
350
52
  3
A5
350
53
  3
A6
350
54
  3
A7
350
55
  3
A8
350
56
  3
A9
350
57
  3
B0
350
58
  3
B1
350
59
  3
B2
350
5A
  3
B3
350
5B
  3
B4
350
5C
  3
B5
350
5D
  3
B6
350
5E
  3
B7
350
5F
  3
B8
350
60
  3
B9
350
61
  3
C0
350
62
  3
C1
350
63
  3
C2
350
64
  3
C3
350
65
  3
C4
350
66
  3
C5
350
67
  3
C6
350
68
  3
C7
350
69
  3
C8
350
6A
  3
C9
350
6B
  3
D0
350
6C
  3
D1
350
6D
  3
D2
350
6E
  0
DICTIONARY
  5
298
102
{ACAD_REACTORS
330
C
102
}
330
C
100
AcDbDictionary
281
     1
  3
CANNOSCALE
350
299
  0
LAYOUT
  5
1E
102
{ACAD_REACTORS
330
1A
102
}
330
1A
100
AcDbPlotSettings
  1

  2
none_device
  4

  6

 40
0.0
 41
0.0
 42
0.0
 43
0.0
 44
0.0
 45
0.0
 46
0.0
 47
0.0
 48
0.0
 49
0.0
140
0.0
141
0.0
142
1.0
143
1.0
 70
   688
 72
     0
 73
     0
 74
     5
  7

 75
    16
147
1.0
148
0.0
149
0.0
100
AcDbLayout
  1
Layout1
 70
     1
 71
     1
 10
0.0
 20
0.0
 11
420.0
 21
297.0
 12
0.0
 22
0.0
 32
0.0
 14
1.0000000000E+20
 24
1.0000000000E+20
 34
1.0000000000E+20
 15
-1.0000000000E+20
 25
-1.0000000000E+20
 35
-1.0000000000E+20
146
0.0
 13
0.0
 23
0.0
 33
0.0
 16
1.0
 26
0.0
 36
0.0
 17
0.0
 27
1.0
 37
0.0
 76
     0
330
1B
  0
LAYOUT
  5
26
102
{ACAD_REACTORS
330
1A
102
}
330
1A
100
AcDbPlotSettings
  1

  2
none_device
  4

  6

 40
0.0
 41
0.0
 42
0.0
 43
0.0
 44
0.0
 45
0.0
 46
0.0
 47
0.0
 48
0.0
 49
0.0
140
0.0
141
0.0
142
1.0
143
1.0
 70
   688
 72
     0
 73
     0
 74
     5
  7

 75
    16
147
1.0
148
0.0
149
0.0
100
AcDbLayout
  1
Layout2
 70
     1
 71
     2
 10
0.0
 20
0.0
 11
0.0
 21
0.0
 12
0.0
 22
0.0
 32
0.0
 14
0.0
 24
0.0
 34
0.0
 15
0.0
 25
0.0
 35
0.0
146
0.0
 13
0.0
 23
0.0
 33
0.0
 16
1.0
 26
0.0
 36
0.0
 17
0.0
 27
1.0
 37
0.0
 76
     0
330
23
  0
LAYOUT
  5
22
102
{ACAD_REACTORS
330
1A
102
}
330
1A
100
AcDbPlotSettings
  1

  2
none_device
  4

  6

 40
0.0
 41
0.0
 42
0.0
 43
0.0
 44
0.0
 45
0.0
 46
0.0
 47
0.0
 48
0.0
 49
0.0
140
0.0
141
0.0
142
1.0
143
1.0
 70
  1712
 72
     0
 73
     0
 74
     0
  7

 75
     0
147
1.0
148
0.0
149
0.0
100
AcDbLayout
  1
Model
 70
     1
 71
     0
 10
0.0
 20
0.0
 11
210.0
 21
297.0
 12
0.0
 22
0.0
 32
0.0
 14
0.0
 24
0.0
 34
0.0
 15
210.0
 25
297.0
 35
0.0
146
0.0
 13
0.0
 23
0.0
 33
0.0
 16
1.0
 26
0.0
 36
0.0
 17
0.0
 27
1.0
 37
0.0
 76
     0
330
1F
331
29
  0
MLINESTYLE
  5
18
102
{ACAD_REACTORS
330
17
102
}
330
17
100
AcDbMlineStyle
  2
Standard
 70
     0
  3

 62
   256
 51
90.0
 52
90.0
 71
     2
 49
0.5
 62
   256
  6
BYLAYER
 49
-0.5
 62
   256
  6
BYLAYER
  0
ACDBPLACEHOLDER
  5
F
102
{ACAD_REACTORS
330
E
102
}
330
E
  0
SCALE
  5
4E
102
{ACAD_REACTORS
330
4D
102
}
330
4D
100
AcDbScale
 70
     0
300
1:1
140
1.0
141
1.0
290
     1
  0
SCALE
  5
4F
102
{ACAD_REACTORS
330
4D
102
}
330
4D
100
AcDbScale
 70
     0
300
1:2
140
1.0
141
2.0
290
     0
  0
SCALE
  5
50
102
{ACAD_REACTORS
330
4D
102
}
330
4D
100
AcDbScale
 70
     0
300
1:4
140
1.0
141
4.0
290
     0
  0
SCALE
  5
51
102
{ACAD_REACTORS
330
4D
102
}
330
4D
100
AcDbScale
 70
     0
300
1:5
140
1.0
141
5.0
290
     0
  0
SCALE
  5
52
102
{ACAD_REACTORS
330
4D
102
}
330
4D
100
AcDbScale
 70
     0
300
1:8
140
1.0
141
8.0
290
     0
  0
SCALE
  5
53
102
{ACAD_REACTORS
330
4D
102
}
330
4D
100
AcDbScale
 70
     0
300
1:10
140
1.0
141
10.0
290
     0
  0
SCALE
  5
54
102
{ACAD_REACTORS
330
4D
102
}
330
4D
100
AcDbScale
 70
     0
300
1:16
140
1.0
141
16.0
290
     0
  0
SCALE
  5
55
102
{ACAD_REACTORS
330
4D
102
}
330
4D
100
AcDbScale
 70
     0
300
1:20
140
1.0
141
20.0
290
     0
  0
SCALE
  5
56
102
{ACAD_REACTORS
330
4D
102
}
330
4D
100
AcDbScale
 70
     0
300
1:30
140
1.0
141
30.0
290
     0
  0
SCALE
  5
57
102
{ACAD_REACTORS
330
4D
102
}
330
4D
100
AcDbScale
 70
     0
300
1:40
140
1.0
141
40.0
290
     0
  0
SCALE
  5
58
102
{ACAD_REACTORS
330
4D
102
}
330
4D
100
AcDbScale
 70
     0
300
1:50
140
1.0
141
50.0
290
     0
  0
SCALE
  5
59
102
{ACAD_REACTORS
330
4D
102
}
330
4D
100
AcDbScale
 70
     0
300
1:100
140
1.0
141
100.0
290
     0
  0
SCALE
  5
5A
102
{ACAD_REACTORS
330
4D
102
}
330
4D
100
AcDbScale
 70
     0
300
2:1
140
2.0
141
1.0
290
     0
  0
SCALE
  5
5B
102
{ACAD_REACTORS
330
4D
102
}
330
4D
100
AcDbScale
 70
     0
300
4:1
140
4.0
141
1.0
290
     0
  0
SCALE
  5
5C
102
{ACAD_REACTORS
330
4D
102
}
330
4D
100
AcDbScale
 70
     0
300
8:1
140
8.0
141
1.0
290
     0
  0
SCALE
  5
5D
102
{ACAD_REACTORS
330
4D
102
}
330
4D
100
AcDbScale
 70
     0
300
10:1
140
10.0
141
1.0
290
     0
  0
SCALE
  5
5E
102
{ACAD_REACTORS
330
4D
102
}
330
4D
100
AcDbScale
 70
     0
300
100:1
140
100.0
141
1.0
290
     0
  0
SCALE
  5
5F
102
{ACAD_REACTORS
330
4D
102
}
330
4D
100
AcDbScale
 70
     0
300
1/128" = 1'-0"
140
0.0078125
141
12.0
290
     0
  0
SCALE
  5
60
102
{ACAD_REACTORS
330
4D
102
}
330
4D
100
AcDbScale
 70
     0
300
1/64" = 1'-0"
140
0.015625
141
12.0
290
     0
  0
SCALE
  5
61
102
{ACAD_REACTORS
330
4D
102
}
330
4D
100
AcDbScale
 70
     0
300
1/32" = 1'-0"
140
0.03125
141
12.0
290
     0
  0
SCALE
  5
62
102
{ACAD_REACTORS
330
4D
102
}
330
4D
100
AcDbScale
 70
     0
300
1/16" = 1'-0"
140
0.0625
141
12.0
290
     0
  0
SCALE
  5
63
102
{ACAD_REACTORS
330
4D
102
}
330
4D
100
AcDbScale
 70
     0
300
3/32" = 1'-0"
140
0.09375
141
12.0
290
     0
  0
SCALE
  5
64
102
{ACAD_REACTORS
330
4D
102
}
330
4D
100
AcDbScale
 70
     0
300
1/8" = 1'-0"
140
0.125
141
12.0
290
     0
  0
SCALE
  5
65
102
{ACAD_REACTORS
330
4D
102
}
330
4D
100
AcDbScale
 70
     0
300
3/16" = 1'-0"
140
0.1875
141
12.0
290
     0
  0
SCALE
  5
66
102
{ACAD_REACTORS
330
4D
102
}
330
4D
100
AcDbScale
 70
     0
300
1/4" = 1'-0"
140
0.25
141
12.0
290
     0
  0
SCALE
  5
67
102
{ACAD_REACTORS
330
4D
102
}
330
4D
100
AcDbScale
 70
     0
300
3/8" = 1'-0"
140
0.375
141
12.0
290
     0
  0
SCALE
  5
68
102
{ACAD_REACTORS
330
4D
102
}
330
4D
100
AcDbScale
 70
     0
300
1/2" = 1'-0"
140
0.5
141
12.0
290
     0
  0
SCALE
  5
69
102
{ACAD_REACTORS
330
4D
102
}
330
4D
100
AcDbScale
 70
     0
300
3/4" = 1'-0"
140
0.75
141
12.0
290
     0
  0
SCALE
  5
6A
102
{ACAD_REACTORS
330
4D
102
}
330
4D
100
AcDbScale
 70
     0
300
1" = 1'-0"
140
1.0
141
12.0
290
     0
  0
SCALE
  5
6B
102
{ACAD_REACTORS
330
4D
102
}
330
4D
100
AcDbScale
 70
     0
300
1-1/2" = 1'-0"
140
1.5
141
12.0
290
     0
  0
SCALE
  5
6C
102
{ACAD_REACTORS
330
4D
102
}
330
4D
100
AcDbScale
 70
     0
300
3" = 1'-0"
140
3.0
141
12.0
290
     0
  0
SCALE
  5
6D
102
{ACAD_REACTORS
330
4D
102
}
330
4D
100
AcDbScale
 70
     0
300
6" = 1'-0"
140
6.0
141
12.0
290
     0
  0
SCALE
  5
6E
102
{ACAD_REACTORS
330
4D
102
}
330
4D
100
AcDbScale
 70
     0
300
1'-0" = 1'-0"
140
12.0
141
12.0
290
     0
  0
DICTIONARYVAR
  5
299
102
{ACAD_REACTORS
330
298
102
}
330
298
100
DictionaryVariables
280
     0
  1
1:1
  0
ENDSEC
  0
EOF
