  0
SECTION
  2
HEADER
  9
$ACADVER
  1
AC1014
  9
$ACADMAINTVER
 70
     9
  9
$DWGCODEPAGE
  3
DOS932
  9
$INSBASE
 10
0.0
 20
0.0
 30
0.0
  9
$EXTMIN
 10
0.0
 20
0.0
 30
0.0
  9
$EXTMAX
 10
210.0
 20
297.0
 30
0.0
  9
$LIMMIN
 10
0.0
 20
0.0
  9
$LIMMAX
 10
0.0
 20
0.0
  9
$ORTHOMODE
 70
     0
  9
$REGENMODE
 70
     1
  9
$FILLMODE
 70
     1
  9
$QTEXTMODE
 70
     0
  9
$MIRRTEXT
 70
     1
  9
$DRAGMODE
 70
     2
  9
$LTSCALE
 40
1.0
  9
$OSMODE
 70
    37
  9
$ATTMODE
 70
     1
  9
$TEXTSIZE
 40
3.5
  9
$TRACEWID
 40
1.0
  9
$TEXTSTYLE
  7
STANDARD
  9
$CLAYER
  8
0
  9
$CELTYPE
  6
BYLAYER
  9
$CECOLOR
 62
   256
  9
$CELTSCALE
 40
1.0
  9
$DELOBJ
 70
     1
  9
$DISPSILH
 70
     0
  9
$DIMSCALE
 40
1.0
  9
$DIMASZ
 40
3.0
  9
$DIMEXO
 40
1.0
  9
$DIMDLI
 40
3.75
  9
$DIMRND
 40
0.0
  9
$DIMDLE
 40
0.0
  9
$DIMEXE
 40
1.0
  9
$DIMTP
 40
0.0
  9
$DIMTM
 40
0.0
  9
$DIMTXT
 40
3.5
  9
$DIMCEN
 40
2.5
  9
$DIMTSZ
 40
0.0
  9
$DIMTOL
 70
     0
  9
$DIMLIM
 70
     0
  9
$DIMTIH
 70
     1
  9
$DIMTOH
 70
     1
  9
$DIMSE1
 70
     0
  9
$DIMSE2
 70
     0
  9
$DIMTAD
 70
     1
  9
$DIMZIN
 70
     0
  9
$DIMBLK
  1

  9
$DIMASO
 70
     1
  9
$DIMSHO
 70
     1
  9
$DIMPOST
  1

  9
$DIMAPOST
  1

  9
$DIMALT
 70
     0
  9
$DIMALTD
 70
     3
  9
$DIMALTF
 40
0.0393700787
  9
$DIMLFAC
 40
1.0
  9
$DIMTOFL
 70
     1
  9
$DIMTVP
 40
0.0
  9
$DIMTIX
 70
     0
  9
$DIMSOXD
 70
     0
  9
$DIMSAH
 70
     0
  9
$DIMBLK1
  1

  9
$DIMBLK2
  1

  9
$DIMSTYLE
  2
ISO-25
  9
$DIMCLRD
 70
     0
  9
$DIMCLRE
 70
     0
  9
$DIMCLRT
 70
     0
  9
$DIMTFAC
 40
1.0
  9
$DIMGAP
 40
1.524
  9
$DIMJUST
 70
     0
  9
$DIMSD1
 70
     0
  9
$DIMSD2
 70
     0
  9
$DIMTOLJ
 70
     0
  9
$DIMTZIN
 70
     0
  9
$DIMALTZ
 70
     0
  9
$DIMALTTZ
 70
     0
  9
$DIMFIT
 70
     3
  9
$DIMUPT
 70
     0
  9
$DIMUNIT
 70
     2
  9
$DIMDEC
 70
     2
  9
$DIMTDEC
 70
     2
  9
$DIMALTU
 70
     2
  9
$DIMALTTD
 70
     3
  9
$DIMTXSTY
  7
STANDARD
  9
$DIMAUNIT
 70
     0
  9
$LUNITS
 70
     2
  9
$LUPREC
 70
     1
  9
$SKETCHINC
 40
1.0
  9
$FILLETRAD
 40
10.0
  9
$AUNITS
 70
     0
  9
$AUPREC
 70
     0
  9
$MENU
  1
.
  9
$ELEVATION
 40
0.0
  9
$PELEVATION
 40
0.0
  9
$THICKNESS
 40
0.0
  9
$LIMCHECK
 70
     0
  9
$CHAMFERA
 40
10.0
  9
$CHAMFERB
 40
10.0
  9
$CHAMFERC
 40
20.0
  9
$CHAMFERD
 40
0.0
  9
$SKPOLY
 70
     0
  9
$TDCREATE
 40
2454841.591068426
  9
$TDUPDATE
 40
2454841.591068437
  9
$TDINDWG
 40
0.0000000116
  9
$TDUSRTIMER
 40
0.0000000116
  9
$USRTIMER
 70
     1
  9
$ANGBASE
 50
0.0
  9
$ANGDIR
 70
     0
  9
$PDMODE
 70
     0
  9
$PDSIZE
 40
-1.0
  9
$PLINEWID
 40
0.0
  9
$COORDS
 70
     1
  9
$SPLFRAME
 70
     0
  9
$SPLINETYPE
 70
     6
  9
$SPLINESEGS
 70
     8
  9
$ATTDIA
 70
     0
  9
$ATTREQ
 70
     1
  9
$HANDLING
 70
     1
  9
$HANDSEED
  5
1B3
  9
$SURFTAB1
 70
     6
  9
$SURFTAB2
 70
     6
  9
$SURFTYPE
 70
     6
  9
$SURFU
 70
     6
  9
$SURFV
 70
     6
  9
$UCSNAME
  2

  9
$UCSORG
 10
0.0
 20
0.0
 30
0.0
  9
$UCSXDIR
 10
1.0
 20
0.0
 30
0.0
  9
$UCSYDIR
 10
0.0
 20
1.0
 30
0.0
  9
$PUCSNAME
  2

  9
$PUCSORG
 10
0.0
 20
0.0
 30
0.0
  9
$PUCSXDIR
 10
1.0
 20
0.0
 30
0.0
  9
$PUCSYDIR
 10
0.0
 20
1.0
 30
0.0
  9
$USERI1
 70
     0
  9
$USERI2
 70
     0
  9
$USERI3
 70
     0
  9
$USERI4
 70
     0
  9
$USERI5
 70
     0
  9
$USERR1
 40
0.0
  9
$USERR2
 40
0.0
  9
$USERR3
 40
0.0
  9
$USERR4
 40
0.0
  9
$USERR5
 40
0.0
  9
$WORLDVIEW
 70
     1
  9
$SHADEDGE
 70
     3
  9
$SHADEDIF
 70
    70
  9
$TILEMODE
 70
     1
  9
$MAXACTVP
 70
    64
  9
$PINSBASE
 10
0.0
 20
0.0
 30
0.0
  9
$PLIMCHECK
 70
     0
  9
$PEXTMIN
 10
1.0000000000E+20
 20
1.0000000000E+20
 30
1.0000000000E+20
  9
$PEXTMAX
 10
-1.0000000000E+20
 20
-1.0000000000E+20
 30
-1.0000000000E+20
  9
$PLIMMIN
 10
0.0
 20
0.0
  9
$PLIMMAX
 10
420.0
 20
297.0
  9
$UNITMODE
 70
     0
  9
$VISRETAIN
 70
     1
  9
$PLINEGEN
 70
     0
  9
$PSLTSCALE
 70
     1
  9
$TREEDEPTH
 70
  3020
  9
$PICKSTYLE
 70
     1
  9
$CMLSTYLE
  2
STANDARD
  9
$CMLJUST
 70
     0
  9
$CMLSCALE
 40
20.0
  9
$PROXYGRAPHICS
 70
     1
  9
$MEASUREMENT
 70
     1
  0
ENDSEC
  0
SECTION
  2
CLASSES
  0
CLASS
  1
ACDBDICTIONARYWDFLT
  2
AcDbDictionaryWithDefault
  3
ObjectDBX Classes
 90
        0
280
     0
281
     0
  0
CLASS
  1
XRECORD
  2
AcDbXrecord
  3
AutoCAD 2000
 90
        0
280
     0
281
     0
  0
CLASS
  1
LWPOLYLINE
  2
AcDbPolyline
  3
AutoCAD 2000
 90
        0
280
     0
281
     1
  0
CLASS
  1
HATCH
  2
AcDbHatch
  3
AutoCAD 2000
 90
        0
280
     0
281
     1
  0
CLASS
  1
ACDBPLACEHOLDER
  2
AcDbPlaceHolder
  3
ObjectDBX Classes
 90
        0
280
     0
281
     0
  0
CLASS
  1
LAYOUT
  2
AcDbLayout
  3
ObjectDBX Classes
 90
        0
280
     0
281
     0
  0
ENDSEC
  0
SECTION
  2
TABLES
  0
TABLE
  2
VPORT
  5
8
330
0
100
AcDbSymbolTable
 70
     1
  0
VPORT
  5
29
330
8
100
AcDbSymbolTableRecord
100
AcDbViewportTableRecord
  2
*ACTIVE
 70
     0
 10
0.0
 20
0.0
 11
1.0
 21
1.0
 12
105.0
 22
148.5
 13
0.0
 23
0.0
 14
10.0
 24
10.0
 15
10.0
 25
10.0
 16
0.0
 26
0.0
 36
1.0
 17
0.0
 27
0.0
 37
0.0
 40
297.0
 41
1.9729729729
 42
50.0
 43
0.0
 44
0.0
 50
0.0
 51
0.0
 71
     0
 72
  2000
 73
     1
 74
     3
 75
     0
 76
     0
 77
     0
 78
     0
  0
ENDTAB
  0
TABLE
  2
LTYPE
  5
5
330
0
100
AcDbSymbolTable
 70
     6
  0
LTYPE
  5
14
330
5
100
AcDbSymbolTableRecord
100
AcDbLinetypeTableRecord
  2
BYBLOCK
 70
     0
  3

 72
    65
 73
     0
 40
0.0
  0
LTYPE
  5
15
330
5
100
AcDbSymbolTableRecord
100
AcDbLinetypeTableRecord
  2
BYLAYER
 70
     0
  3

 72
    65
 73
     0
 40
0.0
  0
LTYPE
  5
16
330
5
100
AcDbSymbolTableRecord
100
AcDbLinetypeTableRecord
  2
CONTINUOUS
 70
     0
  3
Solid line
 72
    65
 73
     0
 40
0.0
  0
LTYPE
  5
2A
330
5
100
AcDbSymbolTableRecord
100
AcDbLinetypeTableRecord
  2
HIDDEN
 70
     0
  3
Hidden __ __ __ __ __ __ __ __ __ __ __ __ __ __
 72
    65
 73
     2
 40
1.905
 49
1.27
 74
     0
 49
-0.635
 74
     0
  0
LTYPE
  5
2B
330
5
100
AcDbSymbolTableRecord
100
AcDbLinetypeTableRecord
  2
PHANTOM
 70
     0
  3
Phantom ______  __  __  ______  __  __  ______
 72
    65
 73
     6
 40
12.7
 49
6.35
 74
     0
 49
-1.27
 74
     0
 49
1.27
 74
     0
 49
-1.27
 74
     0
 49
1.27
 74
     0
 49
-1.27
 74
     0
  0
LTYPE
  5
2C
330
5
100
AcDbSymbolTableRecord
100
AcDbLinetypeTableRecord
  2
CENTER
 70
     0
  3
Center ____ _ ____ _ ____ _ ____ _ ____ _ ____
 72
    65
 73
     4
 40
10.16
 49
6.35
 74
     0
 49
-1.27
 74
     0
 49
1.27
 74
     0
 49
-1.27
 74
     0
  0
LTYPE
  5
2D
330
5
100
AcDbSymbolTableRecord
100
AcDbLinetypeTableRecord
  2
CENTERX2
 70
     0
  3
Center (2x) ________  __  ________  __  _____
 72
    65
 73
     4
 40
20.32
 49
12.7
 74
     0
 49
-2.54
 74
     0
 49
2.54
 74
     0
 49
-2.54
 74
     0
  0
LTYPE
  5
2E
330
5
100
AcDbSymbolTableRecord
100
AcDbLinetypeTableRecord
  2
DOT2
 70
     0
  3
Dot (.5x) ........................................
 72
    65
 73
     2
 40
0.635
 49
0.0
 74
     0
 49
-0.635
 74
     0
  0
ENDTAB
  0
TABLE
  2
LAYER
  5
2
330
0
100
AcDbSymbolTable
 70
     2
  0
LAYER
  5
10
330
2
100
AcDbSymbolTableRecord
100
AcDbLayerTableRecord
  2
0
 70
     0
 62
     7
  6
CONTINUOUS
  0
LAYER
  5
73
330
2
100
AcDbSymbolTableRecord
100
AcDbLayerTableRecord
  2
DEFPOINTS
 70
     0
 62
     7
  6
CONTINUOUS
  0
ENDTAB
  0
TABLE
  2
STYLE
  5
3
330
0
100
AcDbSymbolTable
 70
     2
  0
STYLE
  5
11
330
3
100
AcDbSymbolTableRecord
100
AcDbTextStyleTableRecord
  2
STANDARD
 70
     0
 40
0.0
 41
1.0
 50
0.0
 71
     0
 42
2.5
  3
txt
  4
bigfont
  0
STYLE
  5
37
330
3
100
AcDbSymbolTableRecord
100
AcDbTextStyleTableRecord
  2
SLDTEXTSTYLE0
 70
     0
 40
0.0
 41
0.7
 50
0.0
 71
     0
 42
0.2
  3
TXT
  4
bigfont
  0
ENDTAB
  0
TABLE
  2
VIEW
  5
6
330
0
100
AcDbSymbolTable
 70
     0
  0
ENDTAB
  0
TABLE
  2
UCS
  5
7
330
0
100
AcDbSymbolTable
 70
     0
  0
ENDTAB
  0
TABLE
  2
APPID
  5
9
330
0
100
AcDbSymbolTable
 70
     1
  0
APPID
  5
12
330
9
100
AcDbSymbolTableRecord
100
AcDbRegAppTableRecord
  2
ACAD
 70
     0
  0
ENDTAB
  0
TABLE
  2
DIMSTYLE
  5
A
330
0
100
AcDbSymbolTable
 70
     4
  0
DIMSTYLE
105
27
330
A
100
AcDbSymbolTableRecord
100
AcDbDimStyleTableRecord
  2
ISO-25
 70
     0
  3

  4

  5

  6

  7

 40
1.0
 41
2.5
 42
0.625
 43
3.75
 44
1.25
 45
0.0
 46
0.0
 47
0.0
 48
0.0
140
2.5
141
2.5
142
0.0
143
0.0393700787
144
1.0
145
0.0
146
1.0
147
0.625
 71
     0
 72
     0
 73
     0
 74
     0
 75
     0
 76
     0
 77
     1
 78
     8
170
     0
171
     3
172
     1
173
     0
174
     0
175
     0
176
     0
177
     0
178
     0
270
     2
271
     2
272
     2
273
     2
274
     3
340
11
275
     0
280
     0
281
     0
282
     0
283
     0
284
     8
285
     0
286
     0
287
     3
288
     0
  0
DIMSTYLE
105
81
102
{ACAD_REACTORS
330
72
330
8E
330
A1
330
B6
330
C9
330
DC
330
115
330
17B
102
}
330
A
100
AcDbSymbolTableRecord
100
AcDbDimStyleTableRecord
  2
SLDDIMSTYLE0
 70
     0
  3

  4

  5

  6
OPEN30
  7
OPEN30
 40
1.0
 41
3.0
 42
0.0625
 43
0.38
 44
0.0
 45
0.0
 46
0.0
 47
0.0
 48
0.0
140
3.5
141
0.09
142
0.0
143
25.4
144
1.0
145
0.0
146
1.0
147
0.875
 71
     0
 72
     0
 73
     0
 74
     0
 75
     0
 76
     0
 77
     3
 78
    12
170
     0
171
     2
172
     0
173
     1
174
     0
175
     0
176
     0
177
     0
178
     0
270
     2
271
     1
272
     2
273
     2
274
     2
340
37
275
     0
280
     0
281
     0
282
     0
283
     1
284
    12
285
     0
286
     0
287
     3
288
     0
  0
DIMSTYLE
105
F8
330
A
100
AcDbSymbolTableRecord
100
AcDbDimStyleTableRecord
  2
SLDDIMSTYLE1
 70
     0
  3

  4

  5

  6

  7

 40
1.0
 41
3.0
 42
0.0625
 43
0.38
 44
0.0
 45
0.0
 46
0.0
 47
0.0
 48
0.0
140
3.0
141
0.09
142
0.0
143
25.4
144
1.0
145
0.0
146
1.0
147
0.75
 71
     0
 72
     0
 73
     1
 74
     1
 75
     0
 76
     0
 77
     0
 78
     0
170
     0
171
     2
172
     0
173
     1
174
     0
175
     0
176
     0
177
     0
178
     0
270
     2
271
     0
272
     0
273
     2
274
     2
340
11
275
     0
280
     0
281
     0
282
     0
283
     1
284
     0
285
     0
286
     0
287
     3
288
     0
  0
DIMSTYLE
105
136
102
{ACAD_REACTORS
330
129
102
}
330
A
100
AcDbSymbolTableRecord
100
AcDbDimStyleTableRecord
  2
SLDDIMSTYLE2
 70
     0
  3

  4

  5

  6
OPEN30
  7
OPEN30
 40
1.0
 41
3.0
 42
0.0625
 43
0.38
 44
0.0
 45
0.0
 46
0.0
 47
0.0
 48
0.0
140
3.5
141
0.09
142
0.0
143
25.4
144
1.0
145
0.0
146
1.0
147
0.875
 71
     0
 72
     0
 73
     0
 74
     0
 75
     0
 76
     0
 77
     3
 78
    12
170
     0
171
     2
172
     0
173
     1
174
     0
175
     0
176
     0
177
     0
178
     0
270
     2
271
     1
272
     2
273
     2
274
     2
340
37
275
     0
280
     0
281
     0
282
     0
283
     1
284
    12
285
     0
286
     0
287
     3
288
     0
  0
ENDTAB
  0
TABLE
  2
BLOCK_RECORD
  5
1
330
0
100
AcDbSymbolTable
 70
    14
  0
BLOCK_RECORD
  5
1F
330
1
100
AcDbSymbolTableRecord
100
AcDbBlockTableRecord
  2
*MODEL_SPACE
  0
BLOCK_RECORD
  5
1B
330
1
100
AcDbSymbolTableRecord
100
AcDbBlockTableRecord
  2
*PAPER_SPACE
  0
BLOCK_RECORD
  5
74
330
1
100
AcDbSymbolTableRecord
100
AcDbBlockTableRecord
  2
*D1
  0
BLOCK_RECORD
  5
82
330
1
100
AcDbSymbolTableRecord
100
AcDbBlockTableRecord
  2
_OPEN30
  0
BLOCK_RECORD
  5
8F
330
1
100
AcDbSymbolTableRecord
100
AcDbBlockTableRecord
  2
*D3
  0
BLOCK_RECORD
  5
A2
330
1
100
AcDbSymbolTableRecord
100
AcDbBlockTableRecord
  2
*D4
  0
BLOCK_RECORD
  5
B7
330
1
100
AcDbSymbolTableRecord
100
AcDbBlockTableRecord
  2
*D5
  0
BLOCK_RECORD
  5
CA
330
1
100
AcDbSymbolTableRecord
100
AcDbBlockTableRecord
  2
*D6
  0
BLOCK_RECORD
  5
DD
330
1
100
AcDbSymbolTableRecord
100
AcDbBlockTableRecord
  2
*D7
  0
BLOCK_RECORD
  5
F2
330
1
100
AcDbSymbolTableRecord
100
AcDbBlockTableRecord
  2
SW_NOTE_0
  0
BLOCK_RECORD
  5
FA
330
1
100
AcDbSymbolTableRecord
100
AcDbBlockTableRecord
  2
SW_NOTE_1
  0
BLOCK_RECORD
  5
116
330
1
100
AcDbSymbolTableRecord
100
AcDbBlockTableRecord
  2
*D10
  0
BLOCK_RECORD
  5
12A
330
1
100
AcDbSymbolTableRecord
100
AcDbBlockTableRecord
  2
*D11
  0
BLOCK_RECORD
  5
13E
330
1
100
AcDbSymbolTableRecord
100
AcDbBlockTableRecord
  2
SW_CENTERMARKSYMBOL_0
  0
BLOCK_RECORD
  5
17C
330
1
100
AcDbSymbolTableRecord
100
AcDbBlockTableRecord
  2
*D13
  0
ENDTAB
  0
ENDSEC
  0
SECTION
  2
BLOCKS
  0
BLOCK
  5
20
330
1F
100
AcDbEntity
  8
0
100
AcDbBlockBegin
  2
*MODEL_SPACE
 70
     0
 71
     0
 10
0.0
 20
0.0
 30
0.0
  3
*MODEL_SPACE
  1

  0
ENDBLK
  5
21
330
1F
100
AcDbEntity
  8
0
100
AcDbBlockEnd
  0
BLOCK
  5
1C
330
1B
100
AcDbEntity
 67
     1
  8
0
100
AcDbBlockBegin
  2
*PAPER_SPACE
 70
     0
 71
     0
 10
0.0
 20
0.0
 30
0.0
  3
*PAPER_SPACE
  1

  0
ENDBLK
  5
1D
330
1B
100
AcDbEntity
 67
     1
  8
0
100
AcDbBlockEnd
  0
BLOCK
  5
7F
330
74
100
AcDbEntity
  8
0
100
AcDbBlockBegin
  2
*D1
 70
     1
 71
     0
 10
0.0
 20
0.0
 30
0.0
  3
*D1
  1

  0
INSERT
  5
88
330
74
100
AcDbEntity
  8
0
  6
CONTINUOUS
 62
     7
100
AcDbBlockReference
  2
_OPEN30
 10
140.4867159661
 20
184.5782365831
 30
0.0
 41
3.0
 42
3.0
 50
270.0
  0
INSERT
  5
89
330
74
100
AcDbEntity
  8
0
  6
CONTINUOUS
 62
     7
100
AcDbBlockReference
  2
_OPEN30
 10
140.4867159661
 20
205.5782365831
 30
0.0
 41
3.0
 42
3.0
 50
90.0
  0
LINE
  5
8A
330
74
100
AcDbEntity
  8
0
  6
CONTINUOUS
 62
     7
100
AcDbLine
 10
129.7371985981
 20
184.5782365831
 30
0.0
 11
141.4867159661
 21
184.5782365831
 31
0.0
  0
LINE
  5
8B
330
74
100
AcDbEntity
  8
0
  6
CONTINUOUS
 62
     7
100
AcDbLine
 10
94.7026420016
 20
205.5782365831
 30
0.0
 11
141.4867159661
 21
205.5782365831
 31
0.0
  0
LINE
  5
8C
330
74
100
AcDbEntity
  8
0
  6
CONTINUOUS
 62
     7
100
AcDbLine
 10
140.4867159661
 20
184.5782365831
 30
0.0
 11
140.4867159661
 21
205.5782365831
 31
0.0
  0
MTEXT
  5
8D
330
74
100
AcDbEntity
  8
0
  6
CONTINUOUS
 62
     7
100
AcDbMText
 10
136.4139889262
 20
193.0687412265
 30
0.0
 40
3.5
 41
0.0
 71
     1
 72
     1
  1
21
  7
SLDTEXTSTYLE0
 11
-1.037486611378535E-14
 21
1.0
 31
0.0
  0
ENDBLK
  5
80
330
74
100
AcDbEntity
  8
0
100
AcDbBlockEnd
  0
BLOCK
  5
83
330
82
100
AcDbEntity
  8
0
100
AcDbBlockBegin
  2
_OPEN30
 70
     0
 71
     0
 10
0.0
 20
0.0
 30
0.0
  3
_OPEN30
  1

  0
LINE
  5
85
330
82
100
AcDbEntity
  8
0
  6
BYBLOCK
 62
     0
100
AcDbLine
 10
-1.0
 20
0.267949
 30
0.0
 11
0.0
 21
0.0
 31
0.0
  0
LINE
  5
86
330
82
100
AcDbEntity
  8
0
  6
BYBLOCK
 62
     0
100
AcDbLine
 10
0.0
 20
0.0
 30
0.0
 11
-1.0
 21
-0.267949
 31
0.0
  0
LINE
  5
87
330
82
100
AcDbEntity
  8
0
  6
BYBLOCK
 62
     0
100
AcDbLine
 10
0.0
 20
0.0
 30
0.0
 11
-1.0
 21
0.0
 31
0.0
  0
ENDBLK
  5
84
330
82
100
AcDbEntity
  8
0
100
AcDbBlockEnd
  0
BLOCK
  5
99
330
8F
100
AcDbEntity
  8
0
100
AcDbBlockBegin
  2
*D3
 70
     1
 71
     0
 10
0.0
 20
0.0
 30
0.0
  3
*D3
  1

  0
INSERT
  5
9B
330
8F
100
AcDbEntity
  8
0
  6
CONTINUOUS
 62
     7
100
AcDbBlockReference
  2
_OPEN30
 10
39.7371985981
 20
235.2740568812
 30
1.3784818895
 41
3.0
 42
3.0
 50
180.0
  0
INSERT
  5
9C
330
8F
100
AcDbEntity
  8
0
  6
CONTINUOUS
 62
     7
100
AcDbBlockReference
  2
_OPEN30
 10
127.7371985981
 20
235.2740568812
 30
1.3784818895
 41
3.0
 42
3.0
 50
0.0
  0
LINE
  5
9D
330
8F
100
AcDbEntity
  8
0
  6
CONTINUOUS
 62
     7
100
AcDbLine
 10
39.7371985981
 20
207.7272785825
 30
0.0
 11
39.7371985981
 21
236.2740568812
 31
0.0
  0
LINE
  5
9E
330
8F
100
AcDbEntity
  8
0
  6
CONTINUOUS
 62
     7
100
AcDbLine
 10
127.7371985981
 20
197.5782365831
 30
0.0
 11
127.7371985981
 21
236.2740568812
 31
0.0
  0
LINE
  5
9F
330
8F
100
AcDbEntity
  8
0
  6
CONTINUOUS
 62
     7
100
AcDbLine
 10
39.7371985981
 20
235.2740568812
 30
0.0
 11
127.7371985981
 21
235.2740568812
 31
0.0
  0
MTEXT
  5
A0
330
8F
100
AcDbEntity
  8
0
  6
CONTINUOUS
 62
     7
100
AcDbMText
 10
82.3416376764
 20
239.3467839211
 30
0.0
 40
3.5
 41
0.0
 71
     1
 72
     1
  1
88
  7
SLDTEXTSTYLE0
  0
ENDBLK
  5
9A
330
8F
100
AcDbEntity
  8
0
100
AcDbBlockEnd
  0
BLOCK
  5
AD
330
A2
100
AcDbEntity
  8
0
100
AcDbBlockBegin
  2
*D4
 70
     1
 71
     0
 10
0.0
 20
0.0
 30
0.0
  3
*D4
  1

  0
INSERT
  5
AF
330
A2
100
AcDbEntity
  8
0
  6
CONTINUOUS
 62
     7
100
AcDbBlockReference
  2
_OPEN30
 10
31.2940007306
 20
208.7272785825
 30
1.3784818895
 41
3.0
 42
3.0
 50
90.0
  0
INSERT
  5
B0
330
A2
100
AcDbEntity
  8
0
  6
CONTINUOUS
 62
     7
100
AcDbBlockReference
  2
_OPEN30
 10
31.2940007306
 20
160.4339780935
 30
1.3784818895
 41
3.0
 42
3.0
 50
270.0
  0
LINE
  5
B1
330
A2
100
AcDbEntity
  8
0
  6
CONTINUOUS
 62
     7
100
AcDbLine
 10
40.7371985981
 20
208.7272785825
 30
0.0
 11
40.4991985981
 21
208.7272785825
 31
0.0
  0
LINE
  5
B2
330
A2
100
AcDbEntity
  8
0
  6
CONTINUOUS
 62
     7
100
AcDbLine
 10
38.9751985981
 20
208.7272785825
 30
0.0
 11
30.2940007306
 21
208.7272785825
 31
0.0
  0
LINE
  5
B3
330
A2
100
AcDbEntity
  8
0
  6
CONTINUOUS
 62
     7
100
AcDbLine
 10
40.7371985981
 20
160.4339780935
 30
0.0
 11
30.2940007306
 21
160.4339780935
 31
0.0
  0
LINE
  5
B4
330
A2
100
AcDbEntity
  8
0
  6
CONTINUOUS
 62
     7
100
AcDbLine
 10
31.2940007306
 20
208.7272785825
 30
0.0
 11
31.2940007306
 21
160.4339780935
 31
0.0
  0
MTEXT
  5
B5
330
A2
100
AcDbEntity
  8
0
  6
CONTINUOUS
 62
     7
100
AcDbMText
 10
27.2212736907
 20
183.0932928307
 30
0.0
 40
3.5
 41
0.0
 71
     1
 72
     1
  1
50
  7
SLDTEXTSTYLE0
 11
-1.770233807631139E-14
 21
1.0
 31
0.0
  0
ENDBLK
  5
AE
330
A2
100
AcDbEntity
  8
0
100
AcDbBlockEnd
  0
BLOCK
  5
C1
330
B7
100
AcDbEntity
  8
0
100
AcDbBlockBegin
  2
*D5
 70
     1
 71
     0
 10
0.0
 20
0.0
 30
0.0
  3
*D5
  1

  0
INSERT
  5
C3
330
B7
100
AcDbEntity
  8
0
  6
CONTINUOUS
 62
     7
100
AcDbBlockReference
  2
_OPEN30
 10
39.7371985981
 20
225.1918176513
 30
1.3784818895
 41
3.0
 42
3.0
 50
180.0
  0
INSERT
  5
C4
330
B7
100
AcDbEntity
  8
0
  6
CONTINUOUS
 62
     7
100
AcDbBlockReference
  2
_OPEN30
 10
77.7371985981
 20
225.1918176513
 30
1.3784818895
 41
3.0
 42
3.0
 50
0.0
  0
LINE
  5
C5
330
B7
100
AcDbEntity
  8
0
  6
CONTINUOUS
 62
     7
100
AcDbLine
 10
39.7371985981
 20
207.7272785825
 30
0.0
 11
39.7371985981
 21
226.1918176513
 31
0.0
  0
LINE
  5
C6
330
B7
100
AcDbEntity
  8
0
  6
CONTINUOUS
 62
     7
100
AcDbLine
 10
77.7371985981
 20
222.1892769794
 30
0.0
 11
77.7371985981
 21
226.1918176513
 31
0.0
  0
LINE
  5
C7
330
B7
100
AcDbEntity
  8
0
  6
CONTINUOUS
 62
     7
100
AcDbLine
 10
39.7371985981
 20
225.1918176513
 30
0.0
 11
77.7371985981
 21
225.1918176513
 31
0.0
  0
MTEXT
  5
C8
330
B7
100
AcDbEntity
  8
0
  6
CONTINUOUS
 62
     7
100
AcDbMText
 10
58.0325065069
 20
229.2645446912
 30
0.0
 40
3.5
 41
0.0
 71
     1
 72
     1
  1
38
  7
SLDTEXTSTYLE0
  0
ENDBLK
  5
C2
330
B7
100
AcDbEntity
  8
0
100
AcDbBlockEnd
  0
BLOCK
  5
D4
330
CA
100
AcDbEntity
  8
0
100
AcDbBlockBegin
  2
*D6
 70
     1
 71
     0
 10
0.0
 20
0.0
 30
0.0
  3
*D6
  1

  0
INSERT
  5
D6
330
CA
100
AcDbEntity
  8
0
  6
CONTINUOUS
 62
     7
100
AcDbBlockReference
  2
_OPEN30
 10
77.7371985981
 20
225.1918176513
 30
1.3784818895
 41
3.0
 42
3.0
 50
180.0
  0
INSERT
  5
D7
330
CA
100
AcDbEntity
  8
0
  6
CONTINUOUS
 62
     7
100
AcDbBlockReference
  2
_OPEN30
 10
112.2371985981
 20
225.1918176513
 30
1.3784818895
 41
3.0
 42
3.0
 50
0.0
  0
LINE
  5
D8
330
CA
100
AcDbEntity
  8
0
  6
CONTINUOUS
 62
     7
100
AcDbLine
 10
77.7371985981
 20
222.1892769794
 30
0.0
 11
77.7371985981
 21
226.1918176513
 31
0.0
  0
LINE
  5
D9
330
CA
100
AcDbEntity
  8
0
  6
CONTINUOUS
 62
     7
100
AcDbLine
 10
112.2371985981
 20
187.7890781107
 30
0.0
 11
112.2371985981
 21
226.1918176513
 31
0.0
  0
LINE
  5
DA
330
CA
100
AcDbEntity
  8
0
  6
CONTINUOUS
 62
     7
100
AcDbLine
 10
77.7371985981
 20
225.1918176513
 30
0.0
 11
112.2371985981
 21
225.1918176513
 31
0.0
  0
MTEXT
  5
DB
330
CA
100
AcDbEntity
  8
0
  6
CONTINUOUS
 62
     7
100
AcDbMText
 10
90.9138811374
 20
229.2645446912
 30
0.0
 40
3.5
 41
0.0
 71
     1
 72
     1
  1
34.5
  7
SLDTEXTSTYLE0
  0
ENDBLK
  5
D5
330
CA
100
AcDbEntity
  8
0
100
AcDbBlockEnd
  0
BLOCK
  5
E9
330
DD
100
AcDbEntity
  8
0
100
AcDbBlockBegin
  2
*D7
 70
     1
 71
     0
 10
0.0
 20
0.0
 30
0.0
  3
*D7
  1

  0
INSERT
  5
EB
330
DD
100
AcDbEntity
  8
0
  6
CONTINUOUS
 62
     7
100
AcDbBlockReference
  2
_OPEN30
 10
112.2371985981
 20
225.1918176513
 30
1.3784818895
 41
3.0
 42
3.0
 50
180.0
  0
INSERT
  5
EC
330
DD
100
AcDbEntity
  8
0
  6
CONTINUOUS
 62
     7
100
AcDbBlockReference
  2
_OPEN30
 10
127.7371985981
 20
225.1918176513
 30
1.3784818895
 41
3.0
 42
3.0
 50
0.0
  0
LINE
  5
ED
330
DD
100
AcDbEntity
  8
0
  6
CONTINUOUS
 62
     7
100
AcDbLine
 10
112.2371985981
 20
187.7890781107
 30
0.0
 11
112.2371985981
 21
226.1918176513
 31
0.0
  0
LINE
  5
EE
330
DD
100
AcDbEntity
  8
0
  6
CONTINUOUS
 62
     7
100
AcDbLine
 10
127.7371985981
 20
197.5782365831
 30
0.0
 11
127.7371985981
 21
226.1918176513
 31
0.0
  0
LINE
  5
EF
330
DD
100
AcDbEntity
  8
0
  6
CONTINUOUS
 62
     7
100
AcDbLine
 10
112.2371985981
 20
225.1918176513
 30
0.0
 11
127.7371985981
 21
225.1918176513
 31
0.0
  0
LINE
  5
F0
330
DD
100
AcDbEntity
  8
0
  6
CONTINUOUS
 62
     7
100
AcDbLine
 10
127.7371985981
 20
225.1918176513
 30
0.0
 11
145.6232808967
 21
225.1918176513
 31
0.0
  0
MTEXT
  5
F1
330
DD
100
AcDbEntity
  8
0
  6
CONTINUOUS
 62
     7
100
AcDbMText
 10
135.8891459752
 20
229.2645446912
 30
0.0
 40
3.5
 41
0.0
 71
     1
 72
     1
  1
15.5
  7
SLDTEXTSTYLE0
  0
ENDBLK
  5
EA
330
DD
100
AcDbEntity
  8
0
100
AcDbBlockEnd
  0
BLOCK
  5
F3
330
F2
100
AcDbEntity
  8
0
100
AcDbBlockBegin
  2
SW_NOTE_0
 70
     0
 71
     0
 10
0.0
 20
0.0
 30
0.0
  3
SW_NOTE_0
  1

  0
MTEXT
  5
F5
330
F2
100
AcDbEntity
  8
0
  6
CONTINUOUS
 62
     7
100
AcDbMText
 10
-7.9428311849
 20
4.0748092288
 30
0.0
 40
3.5
 41
0.0
 71
     1
 72
     1
  1
%%c
  7
SLDTEXTSTYLE0
  0
MTEXT
  5
F6
330
F2
100
AcDbEntity
  8
0
  6
CONTINUOUS
 62
     7
100
AcDbMText
 10
-4.0729006698
 20
4.0748092288
 30
0.0
 40
3.5
 41
0.0
 71
     1
 72
     1
  1
20
  7
SLDTEXTSTYLE0
  0
ENDBLK
  5
F4
330
F2
100
AcDbEntity
  8
0
100
AcDbBlockEnd
  0
BLOCK
  5
FB
330
FA
100
AcDbEntity
  8
0
100
AcDbBlockBegin
  2
SW_NOTE_1
 70
     0
 71
     0
 10
0.0
 20
0.0
 30
0.0
  3
SW_NOTE_1
  1

  0
MTEXT
  5
FD
330
FA
100
AcDbEntity
  8
0
  6
CONTINUOUS
 62
     7
100
AcDbMText
 10
-7.9432107073
 20
4.0734334129
 30
0.0
 40
3.5
 41
0.0
 71
     1
 72
     1
  1
%%c
  7
SLDTEXTSTYLE0
  0
MTEXT
  5
FE
330
FA
100
AcDbEntity
  8
0
  6
CONTINUOUS
 62
     7
100
AcDbMText
 10
-4.0732801923
 20
4.0734334129
 30
0.0
 40
3.5
 41
0.0
 71
     1
 72
     1
  1
20
  7
SLDTEXTSTYLE0
  0
ENDBLK
  5
FC
330
FA
100
AcDbEntity
  8
0
100
AcDbBlockEnd
  0
BLOCK
  5
121
330
116
100
AcDbEntity
  8
0
100
AcDbBlockBegin
  2
*D10
 70
     1
 71
     0
 10
0.0
 20
0.0
 30
0.0
  3
*D10
  1

  0
INSERT
  5
123
330
116
100
AcDbEntity
  8
0
  6
CONTINUOUS
 62
     7
100
AcDbBlockReference
  2
_OPEN30
 10
154.4419875561
 20
235.523064692
 30
5.9622077443
 41
3.0
 42
3.0
 50
180.3225482193
  0
INSERT
  5
124
330
116
100
AcDbEntity
  8
0
  6
CONTINUOUS
 62
     7
100
AcDbBlockReference
  2
_OPEN30
 10
179.4415914123
 20
235.6638021592
 30
5.9622077443
 41
3.0
 42
3.0
 50
0.3225482193
  0
LINE
  5
125
330
116
100
AcDbEntity
  8
0
  6
CONTINUOUS
 62
     7
100
AcDbLine
 10
154.5321496365
 20
219.5073132481
 30
0.0
 11
154.4363580574
 21
236.5230488462
 31
0.0
  0
LINE
  5
126
330
116
100
AcDbEntity
  8
0
  6
CONTINUOUS
 62
     7
100
AcDbLine
 10
179.5317534927
 20
219.6480507153
 30
0.0
 11
179.4359619136
 21
236.6637863135
 31
0.0
  0
LINE
  5
127
330
116
100
AcDbEntity
  8
0
  6
CONTINUOUS
 62
     7
100
AcDbLine
 10
154.4419875561
 20
235.523064692
 30
0.0
 11
179.4415914123
 21
235.6638021592
 31
0.0
  0
MTEXT
  5
128
330
116
100
AcDbEntity
  8
0
  6
CONTINUOUS
 62
     7
100
AcDbMText
 10
167.4763955082
 20
239.6692346136
 30
0.0
 40
3.5
 41
0.0
 71
     1
 72
     1
  1
25
  7
SLDTEXTSTYLE0
 11
0.9999841542467105
 21
0.005629498689145697
 31
0.0
  0
ENDBLK
  5
122
330
116
100
AcDbEntity
  8
0
100
AcDbBlockEnd
  0
BLOCK
  5
134
330
12A
100
AcDbEntity
  8
0
100
AcDbBlockBegin
  2
*D11
 70
     1
 71
     0
 10
0.0
 20
0.0
 30
0.0
  3
*D11
  1

  0
INSERT
  5
137
330
12A
100
AcDbEntity
  8
0
  6
CONTINUOUS
 62
     7
100
AcDbBlockReference
  2
_OPEN30
 10
152.2289840187
 20
150.4920925137
 30
5.9622077443
 41
3.0
 42
3.0
 50
180.0
  0
INSERT
  5
138
330
12A
100
AcDbEntity
  8
0
  6
CONTINUOUS
 62
     7
100
AcDbBlockReference
  2
_OPEN30
 10
182.2289840187
 20
150.4920925137
 30
5.9622077443
 41
3.0
 42
3.0
 50
0.0
  0
LINE
  5
139
330
12A
100
AcDbEntity
  8
0
  6
CONTINUOUS
 62
     7
100
AcDbLine
 10
152.2289840187
 20
183.5782365831
 30
0.0
 11
152.2289840187
 21
149.4920925137
 31
0.0
  0
LINE
  5
13A
330
12A
100
AcDbEntity
  8
0
  6
CONTINUOUS
 62
     7
100
AcDbLine
 10
182.2289840187
 20
183.5782365831
 30
0.0
 11
182.2289840187
 21
149.4920925137
 31
0.0
  0
LINE
  5
13B
330
12A
100
AcDbEntity
  8
0
  6
CONTINUOUS
 62
     7
100
AcDbLine
 10
152.2289840187
 20
150.4920925137
 30
0.0
 11
182.2289840187
 21
150.4920925137
 31
0.0
  0
MTEXT
  5
13C
330
12A
100
AcDbEntity
  8
0
  6
CONTINUOUS
 62
     7
100
AcDbMText
 10
163.8169774245
 20
154.5648195536
 30
0.0
 40
3.5
 41
0.0
 71
     1
 72
     1
  1
%%c
  7
SLDTEXTSTYLE0
  0
MTEXT
  5
13D
330
12A
100
AcDbEntity
  8
0
  6
CONTINUOUS
 62
     7
100
AcDbMText
 10
167.6841994316
 20
154.5648195536
 30
0.0
 40
3.5
 41
0.0
 71
     1
 72
     1
  1
30
  7
SLDTEXTSTYLE0
  0
ENDBLK
  5
135
330
12A
100
AcDbEntity
  8
0
100
AcDbBlockEnd
  0
BLOCK
  5
13F
330
13E
100
AcDbEntity
  8
0
100
AcDbBlockBegin
  2
SW_CENTERMARKSYMBOL_0
 70
     0
 71
     0
 10
0.0
 20
0.0
 30
0.0
  3
SW_CENTERMARKSYMBOL_0
  1

  0
LINE
  5
141
330
13E
100
AcDbEntity
  8
0
  6
CONTINUOUS
 62
     7
100
AcDbLine
 10
0.0
 20
0.0
 30
0.0
 11
0.0
 21
2.5
 31
0.0
  0
LINE
  5
142
330
13E
100
AcDbEntity
  8
0
  6
CONTINUOUS
 62
     7
100
AcDbLine
 10
0.0
 20
0.0
 30
0.0
 11
-2.5
 21
0.0
 31
0.0
  0
LINE
  5
143
330
13E
100
AcDbEntity
  8
0
  6
CONTINUOUS
 62
     7
100
AcDbLine
 10
0.0
 20
0.0
 30
0.0
 11
0.0
 21
-2.5
 31
0.0
  0
LINE
  5
144
330
13E
100
AcDbEntity
  8
0
  6
CONTINUOUS
 62
     7
100
AcDbLine
 10
0.0
 20
0.0
 30
0.0
 11
2.5
 21
0.0
 31
0.0
  0
LINE
  5
145
330
13E
100
AcDbEntity
  8
0
  6
CONTINUOUS
 62
     7
100
AcDbLine
 10
0.0
 20
5.0
 30
0.0
 11
0.0
 21
17.5
 31
0.0
  0
LINE
  5
146
330
13E
100
AcDbEntity
  8
0
  6
CONTINUOUS
 62
     7
100
AcDbLine
 10
-5.0
 20
0.0
 30
0.0
 11
-17.5
 21
0.0
 31
0.0
  0
LINE
  5
147
330
13E
100
AcDbEntity
  8
0
  6
CONTINUOUS
 62
     7
100
AcDbLine
 10
0.0
 20
-5.0
 30
0.0
 11
0.0
 21
-17.5
 31
0.0
  0
LINE
  5
148
330
13E
100
AcDbEntity
  8
0
  6
CONTINUOUS
 62
     7
100
AcDbLine
 10
5.0
 20
0.0
 30
0.0
 11
17.5
 21
0.0
 31
0.0
  0
ENDBLK
  5
140
330
13E
100
AcDbEntity
  8
0
100
AcDbBlockEnd
  0
BLOCK
  5
187
330
17C
100
AcDbEntity
  8
0
100
AcDbBlockBegin
  2
*D13
 70
     1
 71
     0
 10
0.0
 20
0.0
 30
0.0
  3
*D13
  1

  0
INSERT
  5
189
330
17C
100
AcDbEntity
  8
0
  6
CONTINUOUS
 62
     7
100
AcDbBlockReference
  2
_OPEN30
 10
33.0368414172
 20
123.7889374458
 30
15.8142802908
 41
3.0
 42
3.0
 50
90.0
  0
INSERT
  5
18A
330
17C
100
AcDbEntity
  8
0
  6
CONTINUOUS
 62
     7
100
AcDbBlockReference
  2
_OPEN30
 10
33.0368414172
 20
101.4089512569
 30
15.8142802908
 41
3.0
 42
3.0
 50
270.0
  0
LINE
  5
18B
330
17C
100
AcDbEntity
  8
0
  6
CONTINUOUS
 62
     7
100
AcDbLine
 10
40.7371985981
 20
123.7889374458
 30
0.0
 11
32.0368414172
 21
123.7889374458
 31
0.0
  0
LINE
  5
18C
330
17C
100
AcDbEntity
  8
0
  6
CONTINUOUS
 62
     7
100
AcDbLine
 10
40.7371985981
 20
101.4089512569
 30
0.0
 11
32.0368414172
 21
101.4089512569
 31
0.0
  0
LINE
  5
18D
330
17C
100
AcDbEntity
  8
0
  6
CONTINUOUS
 62
     7
100
AcDbLine
 10
33.0368414172
 20
123.7889374458
 30
0.0
 11
33.0368414172
 21
101.4089512569
 31
0.0
  0
MTEXT
  5
18E
330
17C
100
AcDbEntity
  8
0
  6
CONTINUOUS
 62
     7
100
AcDbMText
 10
28.9641143773
 20
110.6310811939
 30
0.0
 40
3.5
 41
0.0
 71
     1
 72
     1
  1
23
  7
SLDTEXTSTYLE0
 11
-7.044197039909883E-15
 21
1.0
 31
0.0
  0
ENDBLK
  5
188
330
17C
100
AcDbEntity
  8
0
100
AcDbBlockEnd
  0
ENDSEC
  0
SECTION
  2
ENTITIES
  0
LINE
  5
2F
330
1F
100
AcDbEntity
  8
0
  6
CONTINUOUS
 62
     7
100
AcDbLine
 10
20.2604743903
 20
285.0
 30
0.0
 11
196.7604743903
 21
285.0
 31
0.0
  0
LINE
  5
30
330
1F
100
AcDbEntity
  8
0
  6
CONTINUOUS
 62
     7
100
AcDbLine
 10
20.2604743903
 20
285.0
 30
0.0
 11
20.2604743903
 21
10.0
 31
0.0
  0
LINE
  5
31
330
1F
100
AcDbEntity
  8
0
  6
CONTINUOUS
 62
     7
100
AcDbLine
 10
20.2604743903
 20
10.0
 30
0.0
 11
196.7604743903
 21
10.0
 31
0.0
  0
LINE
  5
32
330
1F
100
AcDbEntity
  8
0
  6
CONTINUOUS
 62
     7
100
AcDbLine
 10
196.7604743903
 20
285.0
 30
0.0
 11
196.7604743903
 21
10.0
 31
0.0
  0
LINE
  5
33
330
1F
100
AcDbEntity
  8
0
  6
CONTINUOUS
 62
     7
100
AcDbLine
 10
127.0104743903
 20
50.75
 30
0.0
 11
196.7604743903
 21
50.75
 31
0.0
  0
LINE
  5
34
330
1F
100
AcDbEntity
  8
0
  6
CONTINUOUS
 62
     7
100
AcDbLine
 10
127.0104743903
 20
50.75
 30
0.0
 11
127.0104743903
 21
10.0
 31
0.0
  0
LINE
  5
35
330
1F
100
AcDbEntity
  8
0
  6
CONTINUOUS
 62
     7
100
AcDbLine
 10
127.0104743903
 20
22.75
 30
0.0
 11
196.7604743903
 21
22.75
 31
0.0
  0
LINE
  5
36
330
1F
100
AcDbEntity
  8
0
  6
CONTINUOUS
 62
     7
100
AcDbLine
 10
127.0104743903
 20
36.75
 30
0.0
 11
196.7604743903
 21
36.75
 31
0.0
  0
MTEXT
  5
38
330
1F
100
AcDbEntity
  8
0
  6
CONTINUOUS
 62
     7
100
AcDbMText
 10
144.4023926277
 20
29.8861654089
 30
0.0
 40
4.2333333333
 41
0.0
 71
     1
 72
     1
  1
TMA-CL (20*20)
  7
SLDTEXTSTYLE0
  0
MTEXT
  5
39
330
1F
100
AcDbEntity
  8
0
  6
CONTINUOUS
 62
     7
100
AcDbMText
 10
134.430150187
 20
43.4099790257
 30
0.0
 40
4.2333333333
 41
0.0
 71
     1
 72
     1
  1
クリップ・TAM・Φ20*Φ20
  7
SLDTEXTSTYLE0
  0
MTEXT
  5
3A
330
1F
100
AcDbEntity
  8
0
  6
CONTINUOUS
 62
     7
100
AcDbMText
 10
155.4583035626
 20
16.2918260795
 30
0.0
 40
4.2333333333
 41
0.0
 71
     1
 72
     1
  1
196559
  7
SLDTEXTSTYLE0
  0
LINE
  5
3B
330
1F
100
AcDbEntity
  8
0
  6
CENTERX2
 62
     7
100
AcDbLine
 10
62.959261461
 20
205.5782365831
 30
0.0
 11
93.7026420016
 21
205.5782365831
 31
0.0
  0
LINE
  5
3C
330
1F
100
AcDbEntity
  8
0
  6
CONTINUOUS
 62
     7
100
AcDbLine
 10
65.2371985981
 20
193.0782365831
 30
0.0
 11
63.7371985981
 21
193.0782365831
 31
0.0
  0
LINE
  5
3D
330
1F
100
AcDbEntity
  8
0
  6
CONTINUOUS
 62
     7
100
AcDbLine
 10
63.7371985981
 20
176.0782365831
 30
0.0
 11
65.2371985981
 21
176.0782365831
 31
0.0
  0
ARC
  5
3E
330
1F
100
AcDbEntity
  8
0
  6
CONTINUOUS
 62
     7
100
AcDbCircle
 10
126.7371985981
 20
172.5782365831
 30
0.0
 40
1.0
100
AcDbArc
 50
270.0
 51
0.0
  0
ARC
  5
3F
330
1F
100
AcDbEntity
  8
0
  6
CONTINUOUS
 62
     7
100
AcDbCircle
 10
126.7371985981
 20
196.5782365831
 30
0.0
 40
1.0
100
AcDbArc
 50
0.0
 51
90.0
  0
LINE
  5
40
330
1F
100
AcDbEntity
  8
0
  6
CONTINUOUS
 62
     7
100
AcDbLine
 10
79.2371985981
 20
188.5782365831
 30
0.0
 11
76.2371985981
 21
188.5782365831
 31
0.0
  0
LINE
  5
41
330
1F
100
AcDbEntity
  8
0
  6
CONTINUOUS
 62
     7
100
AcDbLine
 10
76.2371985981
 20
180.5782365831
 30
0.0
 11
79.2371985981
 21
180.5782365831
 31
0.0
  0
LINE
  5
42
330
1F
100
AcDbEntity
  8
0
  6
CONTINUOUS
 62
     7
100
AcDbLine
 10
126.7371985981
 20
199.5781466751
 30
0.0
 11
93.7371985981
 21
199.5781466751
 31
0.0
  0
LINE
  5
43
330
1F
100
AcDbEntity
  8
0
  6
CONTINUOUS
 62
     7
100
AcDbLine
 10
93.7371985981
 20
169.5782365831
 30
0.0
 11
126.7371985981
 21
169.5782365831
 31
0.0
  0
LINE
  5
44
330
1F
100
AcDbEntity
  8
0
  6
CONTINUOUS
 62
     7
100
AcDbLine
 10
91.7371985981
 20
174.0782365831
 30
0.0
 11
93.7371985981
 21
174.0782365831
 31
0.0
  0
LINE
  5
45
330
1F
100
AcDbEntity
  8
0
  6
CONTINUOUS
 62
     7
100
AcDbLine
 10
93.7371985981
 20
195.0782365831
 30
0.0
 11
91.7371985981
 21
195.0781736475
 31
0.0
  0
LINE
  5
46
330
1F
100
AcDbEntity
  8
0
  6
CONTINUOUS
 62
     7
100
AcDbLine
 10
91.7371985981
 20
195.0781736475
 30
0.0
 11
90.2371985981
 21
194.2626115831
 31
0.0
  0
LINE
  5
47
330
1F
100
AcDbEntity
  8
0
  6
CONTINUOUS
 62
     7
100
AcDbLine
 10
90.2371985981
 20
174.8938615831
 30
0.0
 11
91.7371985981
 21
174.0782365831
 31
0.0
  0
LINE
  5
48
330
1F
100
AcDbEntity
  8
0
  6
CONTINUOUS
 62
     7
100
AcDbLine
 10
53.7371985981
 20
177.0782365831
 30
0.0
 11
63.7371985981
 21
177.0782365831
 31
0.0
  0
LINE
  5
49
330
1F
100
AcDbEntity
  8
0
  6
CONTINUOUS
 62
     7
100
AcDbLine
 10
63.7371985981
 20
192.0782365831
 30
0.0
 11
53.7371985981
 21
192.0782365831
 31
0.0
  0
ARC
  5
4A
330
1F
100
AcDbEntity
  8
0
  6
CONTINUOUS
 62
     7
100
AcDbCircle
 10
41.7371985981
 20
206.7272785825
 30
0.0
 40
2.0
100
AcDbArc
 50
90.0
 51
180.0
  0
LINE
  5
4B
330
1F
100
AcDbEntity
  8
0
  6
CONTINUOUS
 62
     7
100
AcDbLine
 10
53.7371985981
 20
208.7272785825
 30
0.0
 11
41.7371985981
 21
208.7272785825
 31
0.0
  0
ARC
  5
4C
330
1F
100
AcDbEntity
  8
0
  6
CONTINUOUS
 62
     7
100
AcDbCircle
 10
41.7371985981
 20
162.4339780935
 30
0.0
 40
2.000000000000028
100
AcDbArc
 50
180.0
 51
270.0
  0
LINE
  5
4D
330
1F
100
AcDbEntity
  8
0
  6
CONTINUOUS
 62
     7
100
AcDbLine
 10
41.7371985981
 20
160.4339780935
 30
0.0
 11
53.7371985981
 21
160.4339780935
 31
0.0
  0
LINE
  5
4E
330
1F
100
AcDbEntity
  8
0
  6
CONTINUOUS
 62
     7
100
AcDbLine
 10
65.2371985981
 20
173.0787941429
 30
0.0
 11
76.2371985981
 21
173.0787941429
 31
0.0
  0
LINE
  5
4F
330
1F
100
AcDbEntity
  8
0
  6
CONTINUOUS
 62
     7
100
AcDbLine
 10
79.2371985981
 20
173.0787941429
 30
0.0
 11
90.2371985981
 21
173.0787941429
 31
0.0
  0
LINE
  5
50
330
1F
100
AcDbEntity
  8
0
  6
CONTINUOUS
 62
     7
100
AcDbLine
 10
63.7371985981
 20
176.0782365831
 30
0.0
 11
63.7371985981
 21
193.0782365831
 31
0.0
  0
ARC
  5
51
330
1F
100
AcDbEntity
  8
0
  6
CONTINUOUS
 62
     7
100
AcDbCircle
 10
112.1951581474
 20
184.4179856544
 30
0.0
 40
10.02430173440064
100
AcDbArc
 50
5.5952466442
 51
89.7597092026
  0
ARC
  5
52
330
1F
100
AcDbEntity
  8
0
  6
CONTINUOUS
 62
     7
100
AcDbCircle
 10
112.2764886387
 20
184.4259706392
 30
0.0
 40
10.01630565345002
100
AcDbArc
 50
90.2247494585
 51
176.0550402924
  0
ARC
  5
53
330
1F
100
AcDbEntity
  8
0
  6
CONTINUOUS
 62
     7
100
AcDbCircle
 10
112.2274385044
 20
184.7271619833
 30
0.0
 40
9.987034484307298
100
AcDbArc
 50
182.4809544741
 51
358.5691359285
  0
LINE
  5
54
330
1F
100
AcDbEntity
  8
0
  6
CONTINUOUS
 62
     7
100
AcDbLine
 10
127.7371985981
 20
196.5782365831
 30
0.0
 11
127.7371985981
 21
172.5782365831
 31
0.0
  0
LINE
  5
55
330
1F
100
AcDbEntity
  8
0
  6
CONTINUOUS
 62
     7
100
AcDbLine
 10
93.7371985981
 20
169.5782365831
 30
0.0
 11
93.7371985981
 21
199.5781466751
 31
0.0
  0
LINE
  5
56
330
1F
100
AcDbEntity
  8
0
  6
CONTINUOUS
 62
     7
100
AcDbLine
 10
126.7371985981
 20
169.5782365831
 30
0.0
 11
126.7371985981
 21
199.5781466751
 31
0.0
  0
CIRCLE
  5
57
330
1F
100
AcDbEntity
  8
0
  6
CONTINUOUS
 62
     7
100
AcDbCircle
 10
112.2366062811
 20
184.5194246604
 30
0.0
 40
10.00059468163327
  0
ARC
  5
58
330
1F
100
AcDbEntity
  8
0
  6
CONTINUOUS
 62
     7
100
AcDbCircle
 10
112.2911402494
 20
184.4725119727
 30
0.0
 40
9.923122297336349
100
AcDbArc
 50
269.688541158
 51
0.3526387404
  0
ARC
  5
59
330
1F
100
AcDbEntity
  8
0
  6
CONTINUOUS
 62
     7
100
AcDbCircle
 10
112.1986342132
 20
184.4912488961
 30
0.0
 40
9.941787403661849
100
AcDbArc
 50
179.7612031874
 51
270.2222519903
  0
LINE
  5
5A
330
1F
100
AcDbEntity
  8
0
  6
CONTINUOUS
 62
     7
100
AcDbLine
 10
91.7371985981
 20
174.0782365831
 30
0.0
 11
91.7371985981
 21
195.0781736475
 31
0.0
  0
LINE
  5
5B
330
1F
100
AcDbEntity
  8
0
  6
CONTINUOUS
 62
     7
100
AcDbLine
 10
53.7371985981
 20
208.1299486972
 30
0.0
 11
53.7371985981
 21
161.0050330173
 31
0.0
  0
LINE
  5
5C
330
1F
100
AcDbEntity
  8
0
  6
CONTINUOUS
 62
     7
100
AcDbLine
 10
39.7371985981
 20
162.4339780935
 30
0.0
 11
39.7371985981
 21
206.7272785825
 31
0.0
  0
LINE
  5
5D
330
1F
100
AcDbEntity
  8
0
  6
CONTINUOUS
 62
     7
100
AcDbLine
 10
53.7371985981
 20
208.7272785825
 30
0.0
 11
53.7371985981
 21
208.1299486972
 31
0.0
  0
LINE
  5
5E
330
1F
100
AcDbEntity
  8
0
  6
CONTINUOUS
 62
     7
100
AcDbLine
 10
53.7371985981
 20
161.0050330173
 30
0.0
 11
53.7371985981
 21
160.4339780935
 31
0.0
  0
LINE
  5
5F
330
1F
100
AcDbEntity
  8
0
  6
CONTINUOUS
 62
     7
100
AcDbLine
 10
76.2371985981
 20
195.6208317867
 30
0.0
 11
76.2371985981
 21
180.6017321075
 31
0.0
  0
LINE
  5
60
330
1F
100
AcDbEntity
  8
0
  6
CONTINUOUS
 62
     7
100
AcDbLine
 10
76.2371985981
 20
180.6017321075
 30
0.0
 11
65.2371985981
 21
180.6017321075
 31
0.0
  0
LINE
  5
61
330
1F
100
AcDbEntity
  8
0
  6
CONTINUOUS
 62
     7
100
AcDbLine
 10
65.2371985981
 20
210.7220569026
 30
0.0
 11
65.2371985981
 21
180.6017321075
 31
0.0
  0
ARC
  5
62
330
1F
100
AcDbEntity
  8
0
  6
CONTINUOUS
 62
     7
100
AcDbCircle
 10
77.4939045797
 20
204.96658035
 30
0.0
 40
13.5407662953627
100
AcDbArc
 50
19.7618979468
 51
154.8462940048
  0
LINE
  5
63
330
1F
100
AcDbEntity
  8
0
  6
CONTINUOUS
 62
     7
100
AcDbLine
 10
90.2371985981
 20
180.6017321075
 30
0.0
 11
90.2371985981
 21
209.5448780058
 31
0.0
  0
LINE
  5
64
330
1F
100
AcDbEntity
  8
0
  6
CONTINUOUS
 62
     7
100
AcDbLine
 10
90.2371985981
 20
180.6017321075
 30
0.0
 11
79.2371985981
 21
180.6017321075
 31
0.0
  0
LINE
  5
65
330
1F
100
AcDbEntity
  8
0
  6
CONTINUOUS
 62
     7
100
AcDbLine
 10
79.2371985981
 20
180.6017321075
 30
0.0
 11
79.2371985981
 21
195.6208317867
 31
0.0
  0
ARC
  5
66
330
1F
100
AcDbEntity
  8
0
  6
CONTINUOUS
 62
     7
100
AcDbCircle
 10
77.7371985981
 20
205.5076338285
 30
0.0
 40
9.999942730497825
100
AcDbArc
 50
278.6269763417
 51
261.3730236583
  0
LINE
  5
67
330
1F
100
AcDbEntity
  8
0
  6
CONTINUOUS
 62
     7
100
AcDbLine
 10
90.2371985981
 20
209.6856154731
 30
0.0
 11
90.2371985981
 21
209.5448780058
 31
0.0
  0
LINE
  5
68
330
1F
100
AcDbEntity
  8
0
  6
CONTINUOUS
 62
     7
100
AcDbLine
 10
65.2371985981
 20
210.8627943698
 30
0.0
 11
65.2371985981
 21
210.7220569026
 31
0.0
  0
ARC
  5
69
330
1F
100
AcDbEntity
  8
0
  6
CONTINUOUS
 62
     7
100
AcDbCircle
 10
77.4939045797
 20
205.1073178172
 30
0.0
 40
13.5407662953627
100
AcDbArc
 50
19.7618979468
 51
154.8462940048
  0
LINE
  5
6A
330
1F
100
AcDbEntity
  8
0
  6
CONTINUOUS
 62
     7
100
AcDbLine
 10
76.2371985981
 20
195.6208317867
 30
0.0
 11
76.2371985981
 21
195.761569254
 31
0.0
  0
LINE
  5
6B
330
1F
100
AcDbEntity
  8
0
  6
CONTINUOUS
 62
     7
100
AcDbLine
 10
79.2371985981
 20
195.761569254
 30
0.0
 11
79.2371985981
 21
195.6208317867
 31
0.0
  0
ARC
  5
6C
330
1F
100
AcDbEntity
  8
0
  6
CONTINUOUS
 62
     7
100
AcDbCircle
 10
77.7370882193
 20
205.6483347623
 30
0.0
 40
9.999890054010839
100
AcDbArc
 50
180.4035473362
 51
261.3736175351
  0
ARC
  5
6D
330
1F
100
AcDbEntity
  8
0
  6
CONTINUOUS
 62
     7
100
AcDbCircle
 10
77.737308977
 20
205.6483347623
 30
0.0
 40
9.999890054010775
100
AcDbArc
 50
278.6263824649
 51
359.5964526656
  0
LINE
  5
6E
330
1F
100
AcDbEntity
  8
0
  6
CONTINUOUS
 62
     7
100
AcDbLine
 10
76.2371985981
 20
173.0787941429
 30
0.0
 11
76.2371985981
 21
180.6017321075
 31
0.0
  0
LINE
  5
6F
330
1F
100
AcDbEntity
  8
0
  6
CONTINUOUS
 62
     7
100
AcDbLine
 10
65.2371985981
 20
173.0787941429
 30
0.0
 11
65.2371985981
 21
180.6017321075
 31
0.0
  0
LINE
  5
70
330
1F
100
AcDbEntity
  8
0
  6
CONTINUOUS
 62
     7
100
AcDbLine
 10
79.2371985981
 20
180.6017321075
 30
0.0
 11
79.2371985981
 21
173.0787941429
 31
0.0
  0
LINE
  5
71
330
1F
100
AcDbEntity
  8
0
  6
CONTINUOUS
 62
     7
100
AcDbLine
 10
90.2371985981
 20
180.6017321075
 30
0.0
 11
90.2371985981
 21
173.0787941429
 31
0.0
  0
DIMENSION
  5
72
330
1F
100
AcDbEntity
  8
0
  6
CONTINUOUS
 62
     7
100
AcDbDimension
  2
*D1
 10
140.4867159661
 20
205.5782365831
 30
0.0
 11
140.4867159661
 21
195.1045621705
 31
0.0
 70
   160
  3
SLDDIMSTYLE0
100
AcDbAlignedDimension
 13
128.7371985981
 23
184.5782365831
 33
0.0
 14
93.7026420016
 24
205.5782365831
 34
0.0
 50
90.0
100
AcDbRotatedDimension
1001
ACAD
1000
DSTYLE
1002
{
1070
    77
1070
     3
1070
   143
1040
0.0393700787
1070
    41
1040
3.0
1070
    44
1040
1.0
1070
    42
1040
1.0
1070
   147
1040
1.524
1070
    73
1070
     0
1070
    74
1070
     0
1070
   140
1040
3.5
1070
   284
1070
    12
1070
    78
1070
    12
1002
}
  0
DIMENSION
  5
8E
330
1F
100
AcDbEntity
  8
0
  6
CONTINUOUS
 62
     7
100
AcDbDimension
  2
*D3
 10
127.7371985981
 20
235.2740568812
 30
0.0
 11
84.3774586203
 21
235.2740568812
 31
0.0
 70
   160
  3
SLDDIMSTYLE0
100
AcDbAlignedDimension
 13
39.7371985981
 23
206.7272785825
 33
0.0
 14
127.7371985981
 24
196.5782365831
 34
0.0
 50
0.0
100
AcDbRotatedDimension
1001
ACAD
1000
DSTYLE
1002
{
1070
    77
1070
     3
1070
   143
1040
0.0393700787
1070
    41
1040
3.0
1070
    44
1040
1.0
1070
    42
1040
1.0
1070
   147
1040
1.524
1070
    73
1070
     0
1070
    74
1070
     0
1070
   140
1040
3.5
1070
   284
1070
    12
1070
    78
1070
    12
1002
}
  0
DIMENSION
  5
A1
330
1F
100
AcDbEntity
  8
0
  6
CONTINUOUS
 62
     7
100
AcDbDimension
  2
*D4
 10
31.2940007306
 20
160.4339780935
 30
0.0
 11
31.2940007306
 21
185.1291137747
 31
0.0
 70
   160
  3
SLDDIMSTYLE0
100
AcDbAlignedDimension
 13
41.7371985981
 23
208.7272785825
 33
0.0
 14
41.7371985981
 24
160.4339780935
 34
0.0
 50
90.0
100
AcDbRotatedDimension
1001
ACAD
1000
DSTYLE
1002
{
1070
    77
1070
     3
1070
   143
1040
0.0393700787
1070
    41
1040
3.0
1070
    44
1040
1.0
1070
    42
1040
1.0
1070
   147
1040
1.524
1070
    73
1070
     0
1070
    74
1070
     0
1070
   140
1040
3.5
1070
   284
1070
    12
1070
    78
1070
    12
1002
}
  0
DIMENSION
  5
B6
330
1F
100
AcDbEntity
  8
0
  6
CONTINUOUS
 62
     7
100
AcDbDimension
  2
*D5
 10
77.7371985981
 20
225.1918176513
 30
0.0
 11
60.0683274508
 21
225.1918176513
 31
0.0
 70
   160
  3
SLDDIMSTYLE0
100
AcDbAlignedDimension
 13
39.7371985981
 23
206.7272785825
 33
0.0
 14
77.7371985981
 24
221.1892769794
 34
0.0
 50
0.0
100
AcDbRotatedDimension
1001
ACAD
1000
DSTYLE
1002
{
1070
    77
1070
     3
1070
   143
1040
0.0393700787
1070
    41
1040
3.0
1070
    44
1040
1.0
1070
    42
1040
1.0
1070
   147
1040
1.524
1070
    73
1070
     0
1070
    74
1070
     0
1070
   140
1040
3.5
1070
   284
1070
    12
1070
    78
1070
    12
1002
}
  0
DIMENSION
  5
C9
330
1F
100
AcDbEntity
  8
0
  6
CONTINUOUS
 62
     7
100
AcDbDimension
  2
*D6
 10
112.2371985981
 20
225.1918176513
 30
0.0
 11
94.9871985981
 21
225.1918176513
 31
0.0
 70
   160
  3
SLDDIMSTYLE0
100
AcDbAlignedDimension
 13
77.7371985981
 23
221.1892769794
 33
0.0
 14
112.2371985981
 24
186.7890781107
 34
0.0
 50
0.0
100
AcDbRotatedDimension
1001
ACAD
1000
DSTYLE
1002
{
1070
    77
1070
     3
1070
   143
1040
0.0393700787
1070
    41
1040
3.0
1070
    44
1040
1.0
1070
    42
1040
1.0
1070
   147
1040
1.524
1070
    73
1070
     0
1070
    74
1070
     0
1070
   140
1040
3.5
1070
   284
1070
    12
1070
    78
1070
    12
1002
}
  0
DIMENSION
  5
DC
330
1F
100
AcDbEntity
  8
0
  6
CONTINUOUS
 62
     7
100
AcDbDimension
  2
*D7
 10
127.7371985981
 20
225.1918176513
 30
0.0
 11
139.962463436
 21
225.1918176513
 31
0.0
 70
   160
  3
SLDDIMSTYLE0
100
AcDbAlignedDimension
 13
112.2371985981
 23
186.7890781107
 33
0.0
 14
127.7371985981
 24
196.5782365831
 34
0.0
 50
0.0
100
AcDbRotatedDimension
1001
ACAD
1000
DSTYLE
1002
{
1070
    77
1070
     3
1070
   143
1040
0.0393700787
1070
    41
1040
3.0
1070
    44
1040
1.0
1070
    42
1040
1.0
1070
   147
1040
1.524
1070
    73
1070
     0
1070
    74
1070
     0
1070
   140
1040
3.5
1070
   284
1070
    12
1070
    78
1070
    12
1002
}
  0
INSERT
  5
F7
102
{ACAD_REACTORS
330
F9
102
}
330
1F
100
AcDbEntity
  8
0
  6
CONTINUOUS
 62
     7
100
AcDbBlockReference
  2
SW_NOTE_0
 10
137.75040033
 20
159.5056693998
 30
0.0
  0
LEADER
  5
F9
330
1F
100
AcDbEntity
  8
0
  6
CONTINUOUS
 62
     7
100
AcDbLeader
  3
SLDDIMSTYLE1
 73
     2
 76
     3
 10
119.9901282459
 20
178.2151501116
 30
0.0
 10
129.3048341436
 20
159.5056693998
 30
0.0
 10
137.75040033
 20
159.5056693998
 30
0.0
340
F7
1001
ACAD
1000
DSTYLE
1002
{
1070
     6
1000

1002
}
  0
INSERT
  5
FF
102
{ACAD_REACTORS
330
100
102
}
330
1F
100
AcDbEntity
  8
0
  6
CONTINUOUS
 62
     7
100
AcDbBlockReference
  2
SW_NOTE_1
 10
110.361487449
 20
217.6446941853
 30
0.0
  0
LEADER
  5
100
330
1F
100
AcDbEntity
  8
0
  6
CONTINUOUS
 62
     7
100
AcDbLeader
  3
SLDDIMSTYLE1
 73
     2
 76
     3
 10
87.0408804736
 20
209.173742609
 30
0.0
 10
101.9159212627
 20
217.6446941853
 30
0.0
 10
110.361487449
 20
217.6446941853
 30
0.0
340
FF
1001
ACAD
1000
DSTYLE
1002
{
1070
     6
1000

1002
}
  0
LINE
  5
101
330
1F
100
AcDbEntity
  8
0
  6
CENTERX2
 62
     7
100
AcDbLine
 10
96.7371985981
 20
184.5782365831
 30
0.0
 11
128.7371985981
 21
184.5782365831
 31
0.0
  0
LINE
  5
102
330
1F
100
AcDbEntity
  8
0
  6
CENTERX2
 62
     7
100
AcDbLine
 10
40.7371985981
 20
184.5782365831
 30
0.0
 11
96.7371985981
 21
184.5782365831
 31
0.0
  0
LINE
  5
103
330
1F
100
AcDbEntity
  8
0
  6
CENTERX2
 62
     7
100
AcDbLine
 10
112.2371985981
 20
186.7890781107
 30
0.0
 11
112.2371985981
 21
182.4435145132
 31
0.0
  0
LINE
  5
104
330
1F
100
AcDbEntity
  8
0
  6
CENTERX2
 62
     7
100
AcDbLine
 10
92.2371985981
 20
187.3402681612
 30
0.0
 11
63.2371985981
 21
187.3402681612
 31
0.0
  0
LINE
  5
105
330
1F
100
AcDbEntity
  8
0
  6
CENTERX2
 62
     7
100
AcDbLine
 10
77.7371985981
 20
172.6545882557
 30
0.0
 11
77.7371985981
 21
221.1892769794
 31
0.0
  0
LINE
  5
106
330
1F
100
AcDbEntity
  8
0
  6
CONTINUOUS
 62
     7
100
AcDbLine
 10
179.5373829914
 20
218.6480665611
 30
0.0
 11
154.5377791352
 21
218.5073290939
 31
0.0
  0
CIRCLE
  5
107
330
1F
100
AcDbEntity
  8
0
  6
CONTINUOUS
 62
     7
100
AcDbCircle
 10
167.2289840187
 20
184.5782365831
 30
0.0
 40
12.99999999999999
  0
CIRCLE
  5
108
330
1F
100
AcDbEntity
  8
0
  6
CONTINUOUS
 62
     7
100
AcDbCircle
 10
167.2289840187
 20
184.5782365831
 30
0.0
 40
11.99999999999997
  0
CIRCLE
  5
109
330
1F
100
AcDbEntity
  8
0
  6
CONTINUOUS
 62
     7
100
AcDbCircle
 10
167.2289840187
 20
184.5782365831
 30
0.0
 40
13.00000000000001
  0
CIRCLE
  5
10A
330
1F
100
AcDbEntity
  8
0
  6
CONTINUOUS
 62
     7
100
AcDbCircle
 10
167.2289840187
 20
184.5782365831
 30
0.0
 40
15.0
  0
ARC
  5
10B
330
1F
100
AcDbEntity
  8
0
  6
CONTINUOUS
 62
     7
100
AcDbCircle
 10
145.1341244765
 20
184.3751264091
 30
0.0
 40
33.28483039120796
100
AcDbArc
 50
315.4657857847
 51
339.2987089208
  0
ARC
  5
10C
330
1F
100
AcDbEntity
  8
0
  6
CONTINUOUS
 62
     7
100
AcDbCircle
 10
167.4349456094
 20
162.4339780935
 30
0.0
 40
1.999999999999996
100
AcDbArc
 50
225.5999884093
 51
315.4657857847
  0
ARC
  5
10D
330
1F
100
AcDbEntity
  8
0
  6
CONTINUOUS
 62
     7
100
AcDbCircle
 10
189.32379907
 20
184.786130267
 30
0.0
 40
33.28483039120798
100
AcDbArc
 50
201.7670652732
 51
225.5999884093
  0
ARC
  5
10E
330
1F
100
AcDbEntity
  8
0
  6
CONTINUOUS
 62
     7
100
AcDbCircle
 10
145.1341244765
 20
184.3751264091
 30
0.0
 40
30.28483039120795
100
AcDbArc
 50
317.3857048223
 51
332.4097869133
  0
ARC
  5
10F
330
1F
100
AcDbEntity
  8
0
  6
CONTINUOUS
 62
     7
100
AcDbCircle
 10
189.32379907
 20
184.786130267
 30
0.0
 40
30.284830391208
100
AcDbArc
 50
208.6559872807
 51
223.6800693717
  0
LINE
  5
110
330
1F
100
AcDbEntity
  8
0
  6
CONTINUOUS
 62
     7
100
AcDbLine
 10
179.6821086096
 20
192.9400359065
 30
0.0
 11
179.5878378975
 21
209.6856154731
 31
0.0
  0
LINE
  5
111
330
1F
100
AcDbEntity
  8
0
  6
CONTINUOUS
 62
     7
100
AcDbLine
 10
154.6825047534
 20
192.7992984393
 30
0.0
 11
154.5882340414
 21
209.5448780058
 31
0.0
  0
LINE
  5
112
330
1F
100
AcDbEntity
  8
0
  6
CONTINUOUS
 62
     7
100
AcDbLine
 10
179.5878378975
 20
209.6856154731
 30
0.0
 11
154.5882340414
 21
209.5448780058
 31
0.0
  0
LINE
  5
113
330
1F
100
AcDbEntity
  8
0
  6
CONTINUOUS
 62
     7
100
AcDbLine
 10
154.5377791352
 20
218.5073290939
 30
0.0
 11
154.5882340414
 21
209.5448780058
 31
0.0
  0
LINE
  5
114
330
1F
100
AcDbEntity
  8
0
  6
CONTINUOUS
 62
     7
100
AcDbLine
 10
179.5373829914
 20
218.6480665611
 30
0.0
 11
179.5878378975
 21
209.6856154731
 31
0.0
  0
DIMENSION
  5
115
330
1F
100
AcDbEntity
  8
0
  6
CONTINUOUS
 62
     7
100
AcDbDimension
  2
*D10
 10
179.4415914123
 20
235.6638021592
 30
0.0
 11
169.5351116046
 21
235.6080327604
 31
0.0
 70
   160
  3
SLDDIMSTYLE0
100
AcDbAlignedDimension
 13
154.5377791352
 23
218.5073290939
 33
0.0
 14
179.5373829914
 24
218.6480665611
 34
0.0
 50
0.3225482193
100
AcDbRotatedDimension
1001
ACAD
1000
DSTYLE
1002
{
1070
    77
1070
     3
1070
   143
1040
0.0393700787
1070
    41
1040
3.0
1070
    44
1040
1.0
1070
    42
1040
1.0
1070
   147
1040
1.524
1070
    73
1070
     0
1070
    74
1070
     0
1070
   140
1040
3.5
1070
   284
1070
    12
1070
    78
1070
    12
1002
}
  0
DIMENSION
  5
129
330
1F
100
AcDbEntity
  8
0
  6
CONTINUOUS
 62
     7
100
AcDbDimension
  2
*D11
 10
182.2289840187
 20
150.4920925137
 30
0.0
 11
167.786409372
 21
150.4920925137
 31
0.0
 70
   160
  1
%%c<>
  3
SLDDIMSTYLE2
100
AcDbAlignedDimension
 13
152.2289840187
 23
184.5782365831
 33
0.0
 14
182.2289840187
 24
184.5782365831
 34
0.0
100
AcDbRotatedDimension
1001
ACAD
1000
DSTYLE
1002
{
1070
    77
1070
     3
1070
   143
1040
0.0393700787
1070
    41
1040
3.0
1070
    44
1040
1.0
1070
    42
1040
1.0
1070
   147
1040
1.524
1070
    73
1070
     0
1070
    74
1070
     0
1070
   140
1040
3.5
1070
   284
1070
    12
1070
    78
1070
    12
1002
}
  0
INSERT
  5
149
330
1F
100
AcDbEntity
  8
0
  6
CONTINUOUS
 62
     7
100
AcDbBlockReference
  2
SW_CENTERMARKSYMBOL_0
 10
167.2289840187
 20
184.5782365831
 30
0.0
  0
LINE
  5
14A
330
1F
100
AcDbEntity
  8
0
  6
CONTINUOUS
 62
     7
100
AcDbLine
 10
65.2371985981
 20
121.0989221059
 30
0.0
 11
63.7371985981
 21
121.0989221059
 31
0.0
  0
LINE
  5
14B
330
1F
100
AcDbEntity
  8
0
  6
CONTINUOUS
 62
     7
100
AcDbLine
 10
63.7371985981
 20
104.0989221059
 30
0.0
 11
65.2371985981
 21
104.0989221059
 31
0.0
  0
ARC
  5
14C
330
1F
100
AcDbEntity
  8
0
  6
CONTINUOUS
 62
     7
100
AcDbCircle
 10
126.7371985981
 20
100.5989221059
 30
0.0
 40
1.000000000000014
100
AcDbArc
 50
270.0
 51
0.0
  0
ARC
  5
14D
330
1F
100
AcDbEntity
  8
0
  6
CONTINUOUS
 62
     7
100
AcDbCircle
 10
126.7371985981
 20
124.5989221059
 30
0.0
 40
1.000000000000014
100
AcDbArc
 50
0.0
 51
90.0
  0
LINE
  5
14E
330
1F
100
AcDbEntity
  8
0
  6
CONTINUOUS
 62
     7
100
AcDbLine
 10
79.2371985981
 20
116.5989221059
 30
0.0
 11
76.2371985981
 21
116.5989221059
 31
0.0
  0
LINE
  5
14F
330
1F
100
AcDbEntity
  8
0
  6
CONTINUOUS
 62
     7
100
AcDbLine
 10
76.2371985981
 20
108.5989221059
 30
0.0
 11
79.2371985981
 21
108.5989221059
 31
0.0
  0
LINE
  5
150
330
1F
100
AcDbEntity
  8
0
  6
CONTINUOUS
 62
     7
100
AcDbLine
 10
102.2519120662
 20
127.5989221059
 30
0.0
 11
93.7371985981
 21
127.5989221059
 31
0.0
  0
LINE
  5
151
330
1F
100
AcDbEntity
  8
0
  6
CONTINUOUS
 62
     7
100
AcDbLine
 10
126.7371985981
 20
127.5989221059
 30
0.0
 11
122.2330976918
 21
127.5989221059
 31
0.0
  0
LINE
  5
152
330
1F
100
AcDbEntity
  8
0
  6
CONTINUOUS
 62
     7
100
AcDbLine
 10
122.2190446059
 20
97.5989221059
 30
0.0
 11
126.7371985981
 21
97.5989221059
 31
0.0
  0
LINE
  5
153
330
1F
100
AcDbEntity
  8
0
  6
CONTINUOUS
 62
     7
100
AcDbLine
 10
93.7371985981
 20
97.5989221059
 30
0.0
 11
102.2550792699
 21
97.5989221059
 31
0.0
  0
LINE
  5
154
330
1F
100
AcDbEntity
  8
0
  6
CONTINUOUS
 62
     7
100
AcDbLine
 10
91.7371985981
 20
123.0989221059
 30
0.0
 11
90.2371985981
 21
122.2832971059
 31
0.0
  0
LINE
  5
155
330
1F
100
AcDbEntity
  8
0
  6
CONTINUOUS
 62
     7
100
AcDbLine
 10
90.2371985981
 20
102.9145471059
 30
0.0
 11
91.7371985981
 21
102.0989221059
 31
0.0
  0
LINE
  5
156
330
1F
100
AcDbEntity
  8
0
  6
CONTINUOUS
 62
     7
100
AcDbLine
 10
91.7371985981
 20
102.0989221059
 30
0.0
 11
93.7371985981
 21
102.0989221059
 31
0.0
  0
LINE
  5
157
330
1F
100
AcDbEntity
  8
0
  6
CONTINUOUS
 62
     7
100
AcDbLine
 10
93.7371985981
 20
123.0989221059
 30
0.0
 11
91.7371985981
 21
123.0989221059
 31
0.0
  0
ARC
  5
158
330
1F
100
AcDbEntity
  8
0
  6
CONTINUOUS
 62
     7
100
AcDbCircle
 10
41.7371985981
 20
121.7889374458
 30
0.0
 40
2.000000000000014
100
AcDbArc
 50
90.0
 51
180.0
  0
LINE
  5
159
330
1F
100
AcDbEntity
  8
0
  6
CONTINUOUS
 62
     7
100
AcDbLine
 10
53.7371985981
 20
123.7889374458
 30
0.0
 11
41.7371985981
 21
123.7889374458
 31
0.0
  0
ARC
  5
15A
330
1F
100
AcDbEntity
  8
0
  6
CONTINUOUS
 62
     7
100
AcDbCircle
 10
41.7371985981
 20
103.4089512569
 30
0.0
 40
2.000000000000014
100
AcDbArc
 50
180.0
 51
270.0
  0
LINE
  5
15B
330
1F
100
AcDbEntity
  8
0
  6
CONTINUOUS
 62
     7
100
AcDbLine
 10
41.7371985981
 20
101.4089512569
 30
0.0
 11
53.7371985981
 21
101.4089512569
 31
0.0
  0
LINE
  5
15C
330
1F
100
AcDbEntity
  8
0
  6
CONTINUOUS
 62
     7
100
AcDbLine
 10
53.7371985981
 20
105.0989221059
 30
0.0
 11
63.7371985981
 21
105.0989221059
 31
0.0
  0
LINE
  5
15D
330
1F
100
AcDbEntity
  8
0
  6
CONTINUOUS
 62
     7
100
AcDbLine
 10
63.7371985981
 20
120.0989221059
 30
0.0
 11
53.7371985981
 21
120.0989221059
 31
0.0
  0
LINE
  5
15E
330
1F
100
AcDbEntity
  8
0
  6
CONTINUOUS
 62
     7
100
AcDbLine
 10
63.7371985981
 20
104.0989221059
 30
0.0
 11
63.7371985981
 21
121.0989221059
 31
0.0
  0
LINE
  5
15F
330
1F
100
AcDbEntity
  8
0
  6
CONTINUOUS
 62
     7
100
AcDbLine
 10
127.7371985981
 20
112.4042985669
 30
0.0
 11
127.7371985981
 21
100.5989221059
 31
0.0
  0
LINE
  5
160
330
1F
100
AcDbEntity
  8
0
  6
CONTINUOUS
 62
     7
100
AcDbLine
 10
127.7371985981
 20
124.5989221059
 30
0.0
 11
127.7371985981
 21
112.4042985669
 31
0.0
  0
LINE
  5
161
330
1F
100
AcDbEntity
  8
0
  6
CONTINUOUS
 62
     7
100
AcDbLine
 10
93.7371985981
 20
97.5989221059
 30
0.0
 11
93.7371985981
 21
127.5989221059
 31
0.0
  0
LINE
  5
162
330
1F
100
AcDbEntity
  8
0
  6
CONTINUOUS
 62
     7
100
AcDbLine
 10
126.7371985981
 20
97.5989221059
 30
0.0
 11
126.7371985981
 21
127.5989221059
 31
0.0
  0
LWPOLYLINE
  5
163
330
1F
100
AcDbEntity
  8
0
  6
CONTINUOUS
 62
     7
100
AcDbPolyline
 90
       11
 70
   128
 43
0.0
 10
112.2371985981
 20
101.3840259799
 10
113.6683062212
 20
101.2931626164
 10
115.0994138443
 20
101.0249207344
 10
116.3933800992
 20
100.6396423746
 10
117.6121910652
 20
100.1645371565
 10
118.8530862988
 20
99.5818874618
 10
119.9570585755
 20
98.9903758168
 10
120.9661585215
 20
98.3978010074
 10
121.7296265779
 20
97.9216206039
 10
122.1176284298
 20
97.6731206443
 10
122.2190446059
 20
97.6108996269
  0
LWPOLYLINE
  5
164
330
1F
100
AcDbEntity
  8
0
  6
CONTINUOUS
 62
     7
100
AcDbPolyline
 90
       12
 70
   128
 43
0.0
 10
102.2550792699
 20
97.6107285766
 10
102.3239099776
 20
97.6521298345
 10
102.5992265895
 20
97.8286641568
 10
103.0646770385
 20
98.1237122411
 10
103.7207561991
 20
98.526330394
 10
104.5535714113
 20
99.0107787672
 10
105.6719422502
 20
99.6074450483
 10
106.9900375218
 20
100.2191092222
 10
108.3155946029
 20
100.7189798197
 10
109.7979449869
 20
101.1220764271
 10
110.9861865344
 20
101.3145257899
 10
112.2371985981
 20
101.3840259799
  0
LWPOLYLINE
  5
165
330
1F
100
AcDbEntity
  8
0
  6
CONTINUOUS
 62
     7
100
AcDbPolyline
 90
       23
 70
   128
 43
0.0
 10
122.2371985981
 20
127.5988321979
 10
122.127695777
 20
127.5209440975
 10
121.791660267
 20
127.2953386062
 10
121.2676938281
 20
126.9558060709
 10
120.5501876444
 20
126.5117793948
 10
119.613394372
 20
125.969800646
 10
118.490732777
 20
125.3822406878
 10
117.042771968
 20
124.737854578
 10
115.3648025506
 20
124.1755272396
 10
114.1145368513
 20
123.9017066936
 10
112.7765753132
 20
123.7576251512
 10
111.4553639441
 20
123.7719808291
 10
110.116791494
 20
123.9446544242
 10
108.9239292173
 20
124.2271345801
 10
107.7801859481
 20
124.6038419753
 10
106.538230524
 20
125.119429713
 10
105.4026497942
 20
125.6774254232
 10
104.2421687798
 20
126.3228783044
 10
103.2863995856
 20
126.9052969728
 10
102.7362503574
 20
127.2600478228
 10
102.3744424569
 20
127.5019712367
 10
102.2386262931
 20
127.5972954054
 10
102.2519120662
 20
127.5892253722
  0
LINE
  5
166
330
1F
100
AcDbEntity
  8
0
  6
CONTINUOUS
 62
     7
100
AcDbLine
 10
91.7371985981
 20
102.0989221059
 30
0.0
 11
91.7371985981
 21
123.0989221059
 31
0.0
  0
LINE
  5
167
330
1F
100
AcDbEntity
  8
0
  6
CONTINUOUS
 62
     7
100
AcDbLine
 10
53.7371985981
 20
113.7922874853
 30
0.0
 11
53.7371985981
 21
110.9672969682
 31
0.0
  0
LINE
  5
168
330
1F
100
AcDbEntity
  8
0
  6
CONTINUOUS
 62
     7
100
AcDbLine
 10
39.7371985981
 20
112.3929605152
 30
0.0
 11
39.7371985981
 21
121.7889374458
 31
0.0
  0
LINE
  5
169
330
1F
100
AcDbEntity
  8
0
  6
CONTINUOUS
 62
     7
100
AcDbLine
 10
53.7371985981
 20
123.7889374458
 30
0.0
 11
53.7371985981
 21
113.7922874853
 31
0.0
  0
LINE
  5
16A
330
1F
100
AcDbEntity
  8
0
  6
CONTINUOUS
 62
     7
100
AcDbLine
 10
39.7371985981
 20
103.4089512569
 30
0.0
 11
39.7371985981
 21
112.3929605152
 31
0.0
  0
LINE
  5
16B
330
1F
100
AcDbEntity
  8
0
  6
CONTINUOUS
 62
     7
100
AcDbLine
 10
53.7371985981
 20
110.9672969682
 30
0.0
 11
53.7371985981
 21
101.4089512569
 31
0.0
  0
LINE
  5
16C
330
1F
100
AcDbEntity
  8
0
  6
CONTINUOUS
 62
     7
100
AcDbLine
 10
65.2371985981
 20
100.0749395693
 30
0.0
 11
65.2371985981
 21
125.0767340995
 31
0.0
  0
LINE
  5
16D
330
1F
100
AcDbEntity
  8
0
  6
CONTINUOUS
 62
     7
100
AcDbLine
 10
76.2371985981
 20
125.0767340995
 30
0.0
 11
65.2371985981
 21
125.0767340995
 31
0.0
  0
LINE
  5
16E
330
1F
100
AcDbEntity
  8
0
  6
CONTINUOUS
 62
     7
100
AcDbLine
 10
76.2371985981
 20
100.0749395693
 30
0.0
 11
76.2371985981
 21
125.0767340995
 31
0.0
  0
LINE
  5
16F
330
1F
100
AcDbEntity
  8
0
  6
CONTINUOUS
 62
     7
100
AcDbLine
 10
65.2371985981
 20
100.0749395693
 30
0.0
 11
76.2371985981
 21
100.0749395693
 31
0.0
  0
LINE
  5
170
330
1F
100
AcDbEntity
  8
0
  6
CONTINUOUS
 62
     7
100
AcDbLine
 10
90.2371985981
 20
125.0767340995
 30
0.0
 11
90.2371985981
 21
100.0749395693
 31
0.0
  0
LINE
  5
171
330
1F
100
AcDbEntity
  8
0
  6
CONTINUOUS
 62
     7
100
AcDbLine
 10
79.2371985981
 20
100.0749395693
 30
0.0
 11
90.2371985981
 21
100.0749395693
 31
0.0
  0
LINE
  5
172
330
1F
100
AcDbEntity
  8
0
  6
CONTINUOUS
 62
     7
100
AcDbLine
 10
79.2371985981
 20
125.0767340995
 30
0.0
 11
79.2371985981
 21
100.0749395693
 31
0.0
  0
LINE
  5
173
330
1F
100
AcDbEntity
  8
0
  6
CONTINUOUS
 62
     7
100
AcDbLine
 10
90.2371985981
 20
125.0767340995
 30
0.0
 11
79.2371985981
 21
125.0767340995
 31
0.0
  0
LWPOLYLINE
  5
174
330
1F
100
AcDbEntity
  8
0
  6
CONTINUOUS
 62
     7
100
AcDbPolyline
 90
       27
 70
   128
 43
0.0
 10
65.2371985981
 20
125.2462991153
 10
65.8087357597
 20
125.2524143014
 10
66.4762937194
 20
125.2582130005
 10
67.2343869405
 20
125.2636475627
 10
68.0767859295
 20
125.2686733305
 10
68.9965684251
 20
125.2732490056
 10
69.9861762815
 20
125.2773369882
 10
71.0374775752
 20
125.280903686
 10
72.1418334283
 20
125.2839197905
 10
73.2901689968
 20
125.2863605171
 10
74.473048041
 20
125.2882058098
 10
75.6807504668
 20
125.2894405052
 10
76.9033521981
 20
125.2900544574
 10
78.1308067269
 20
125.2900426214
 10
79.3530276678
 20
125.2894050943
 10
80.5599716417
 20
125.288147115
 10
81.7417208051
 20
125.2862790207
 10
82.8885643483
 20
125.2838161622
 10
83.9910782924
 20
125.2807787774
 10
85.0402029286
 20
125.2771918256
 10
86.0273172653
 20
125.273084782
 10
86.9443098694
 20
125.2684913952
 10
87.7836455201
 20
125.2634494109
 10
88.5384271289
 20
125.2580002604
 10
89.2024524146
 20
125.2521887212
 10
89.7702648697
 20
125.2460625486
 10
90.2371985981
 20
125.2396720832
  0
LWPOLYLINE
  5
175
330
1F
100
AcDbEntity
  8
0
  6
CONTINUOUS
 62
     7
100
AcDbPolyline
 90
       58
 70
   128
 43
0.0
 10
76.2371985981
 20
125.1612854412
 10
75.2097468998
 20
125.1624762555
 10
74.2101073411
 20
125.1642664287
 10
73.2492799797
 20
125.1666362618
 10
72.3378377831
 20
125.1695596769
 10
71.4858102834
 20
125.1730045049
 10
70.7025732118
 20
125.1769328388
 10
69.9967453277
 20
125.1813014509
 10
69.3760935785
 20
125.1860622692
 10
68.8474476308
 20
125.1911629053
 10
68.4166247175
 20
125.1965472317
 10
68.0883656242
 20
125.2021559993
 10
67.8662825221
 20
125.2079274889
 10
67.7528192189
 20
125.213798191
 10
67.7492242676
 20
125.2197035043
 10
67.855537227
 20
125.2255784465
 10
68.0705882269
 20
125.2313583695
 10
68.3920108407
 20
125.2369796711
 10
68.8162681263
 20
125.2423804942
 10
69.3386915464
 20
125.2475014081
 10
69.9535323409
 20
125.2522860622
 10
70.6540247869
 20
125.2566818058
 10
71.4324606485
 20
125.2606402683
 10
72.2802739989
 20
125.2641178906
 10
73.1881354794
 20
125.2670764047
 10
74.1460549603
 20
125.2694832553
 10
75.1434914725
 20
125.2713119572
 10
76.1694692006
 20
125.2725423874
 10
77.2126982608
 20
125.2731610061
 10
78.2616989355
 20
125.2731610061
 10
79.3049279957
 20
125.2725423874
 10
80.3309057238
 20
125.2713119572
 10
81.328342236
 20
125.2694832553
 10
82.2862617169
 20
125.2670764047
 10
83.1941231974
 20
125.2641178906
 10
84.0419365478
 20
125.2606402683
 10
84.8203724094
 20
125.2566818058
 10
85.5208648554
 20
125.2522860622
 10
86.1357056499
 20
125.2475014081
 10
86.6581290699
 20
125.2423804942
 10
87.0823863556
 20
125.2369796711
 10
87.4038089694
 20
125.2313583695
 10
87.6188599693
 20
125.2255784465
 10
87.7251729287
 20
125.2197035043
 10
87.7215779774
 20
125.213798191
 10
87.6081146742
 20
125.2079274889
 10
87.3860315721
 20
125.2021559993
 10
87.0577724788
 20
125.1965472317
 10
86.6269495655
 20
125.1911629053
 10
86.0983036178
 20
125.1860622692
 10
85.4776518686
 20
125.1813014509
 10
84.7718239845
 20
125.1769328388
 10
83.9885869128
 20
125.1730045049
 10
83.1365594132
 20
125.1695596769
 10
82.2251172166
 20
125.1666362618
 10
81.2642898552
 20
125.1642664287
 10
80.2646502965
 20
125.1624762555
 10
79.2371985981
 20
125.1612854412
  0
LINE
  5
176
330
1F
100
AcDbEntity
  8
0
  6
CONTINUOUS
 62
     7
100
AcDbLine
 10
90.2371985981
 20
125.0767340995
 30
0.0
 11
90.2371985981
 21
125.2396720832
 31
0.0
  0
LINE
  5
177
330
1F
100
AcDbEntity
  8
0
  6
CONTINUOUS
 62
     7
100
AcDbLine
 10
79.2371985981
 20
125.0767340995
 30
0.0
 11
79.2371985981
 21
125.1612854412
 31
0.0
  0
LINE
  5
178
330
1F
100
AcDbEntity
  8
0
  6
CONTINUOUS
 62
     7
100
AcDbLine
 10
76.2371985981
 20
125.1612854412
 30
0.0
 11
76.2371985981
 21
125.0767340995
 31
0.0
  0
LINE
  5
179
330
1F
100
AcDbEntity
  8
0
  6
CONTINUOUS
 62
     7
100
AcDbLine
 10
65.2371985981
 20
125.2462991153
 30
0.0
 11
65.2371985981
 21
125.0767340995
 31
0.0
  0
LWPOLYLINE
  5
17A
330
1F
100
AcDbEntity
  8
0
  6
CONTINUOUS
 62
     7
100
AcDbPolyline
 90
        4
 70
   128
 43
0.0
 10
76.2371985981
 20
100.2729977155
 10
77.2126982608
 20
100.2735571499
 10
78.2616989355
 20
100.2735571499
 10
79.2371985981
 20
100.2729977155
  0
DIMENSION
  5
17B
330
1F
100
AcDbEntity
  8
0
  6
CONTINUOUS
 62
     7
100
AcDbDimension
  2
*D13
 10
33.0368414172
 20
101.4089512569
 30
0.0
 11
33.0368414172
 21
112.6669021379
 31
0.0
 70
   160
  3
SLDDIMSTYLE0
100
AcDbAlignedDimension
 13
41.7371985981
 23
123.7889374458
 33
0.0
 14
41.7371985981
 24
101.4089512569
 34
0.0
 50
90.0
100
AcDbRotatedDimension
1001
ACAD
1000
DSTYLE
1002
{
1070
    77
1070
     3
1070
   143
1040
0.0393700787
1070
    41
1040
3.0
1070
    44
1040
1.0
1070
    42
1040
1.0
1070
   147
1040
1.524
1070
    73
1070
     0
1070
    74
1070
     0
1070
   140
1040
3.5
1070
   284
1070
    12
1070
    78
1070
    12
1002
}
  0
LINE
  5
18F
330
1F
100
AcDbEntity
  8
0
  6
CENTERX2
 62
     7
100
AcDbLine
 10
96.7371985981
 20
112.5989221059
 30
0.0
 11
128.7371985981
 21
112.5989221059
 31
0.0
  0
LINE
  5
190
330
1F
100
AcDbEntity
  8
0
  6
CENTERX2
 62
     7
100
AcDbLine
 10
40.7371985981
 20
112.5989221059
 30
0.0
 11
96.7371985981
 21
112.5989221059
 31
0.0
  0
LINE
  5
191
330
1F
100
AcDbEntity
  8
0
  6
CENTERX2
 62
     7
100
AcDbLine
 10
112.2371985981
 20
97.6006714325
 30
0.0
 11
112.2371985981
 21
129.5988169653
 31
0.0
  0
LINE
  5
192
330
1F
100
AcDbEntity
  8
0
  6
CENTERX2
 62
     7
100
AcDbLine
 10
77.7371985981
 20
127.2169435064
 30
0.0
 11
77.7371985981
 21
98.2173396503
 31
0.0
  0
ENDSEC
  0
SECTION
  2
OBJECTS
  0
DICTIONARY
  5
C
330
0
100
AcDbDictionary
  3
ACAD_GROUP
350
D
  3
ACAD_LAYOUT
350
1A
  3
ACAD_MLINESTYLE
350
17
  3
ACAD_PLOTSETTINGS
350
19
  3
ACDBHEADERROUNDTRIPXREC
350
193
  0
DICTIONARY
  5
D
102
{ACAD_REACTORS
330
C
102
}
330
C
100
AcDbDictionary
  0
DICTIONARY
  5
1A
102
{ACAD_REACTORS
330
C
102
}
330
C
100
AcDbDictionary
  0
DICTIONARY
  5
17
102
{ACAD_REACTORS
330
C
102
}
330
C
100
AcDbDictionary
  3
STANDARD
350
18
  0
DICTIONARY
  5
19
102
{ACAD_REACTORS
330
C
102
}
330
C
100
AcDbDictionary
  0
DICTIONARY
  5
193
102
{ACAD_REACTORS
330
C
102
}
330
C
100
AcDbDictionary
  3
CEPSNTYPE
350
19C
  3
DIMSTYLEDATA
350
1B2
  3
FINGERPRINTGUID
350
19D
  3
HYPERLINKBASE
350
196
  3
INSUNITS
350
19B
  3
LAYOUTDICT
350
198
  3
LWETCUNION
350
19A
  3
PLOTSETDICT
350
199
  3
PSVPSCALE
350
19F
  3
PUCSBASE
350
1A2
  3
PUCSORGBACK
350
1A8
  3
PUCSORGBOTTOM
350
1A4
  3
PUCSORGFRONT
350
1A7
  3
PUCSORGLEFT
350
1A5
  3
PUCSORGRIGHT
350
1A6
  3
PUCSORGTOP
350
1A3
  3
PUCSORTHOREF
350
1A0
  3
PUCSORTHOVIEW
350
1A1
  3
STYLESHEET
350
197
  3
TSTACKALIGN
350
194
  3
TSTACKSIZE
350
195
  3
UCSBASE
350
1AB
  3
UCSORGBACK
350
1B1
  3
UCSORGBOTTOM
350
1AD
  3
UCSORGFRONT
350
1B0
  3
UCSORGLEFT
350
1AE
  3
UCSORGRIGHT
350
1AF
  3
UCSORGTOP
350
1AC
  3
UCSORTHOREF
350
1A9
  3
UCSORTHOVIEW
350
1AA
  3
VERSIONGUID
350
19E
  0
MLINESTYLE
  5
18
102
{ACAD_REACTORS
330
17
102
}
330
17
100
AcDbMlineStyle
  2
Standard
 70
     0
  3

 62
   256
 51
90.0
 52
90.0
 71
     2
 49
0.5
 62
   256
  6
BYLAYER
 49
-0.5
 62
   256
  6
BYLAYER
  0
XRECORD
  5
19C
102
{ACAD_REACTORS
330
193
102
}
330
193
100
AcDbXrecord
 90
        0
  0
XRECORD
  5
1B2
102
{ACAD_REACTORS
330
193
102
}
330
193
100
AcDbXrecord
1000
DSTYLE
1002
{
1070
   143
 40
0.0393700787
1070
    41
 40
3.0
1070
    44
 40
1.0
1070
    42
 40
1.0
1070
   147
 40
1.524
1070
    73
 70
     1
1070
    74
 70
     1
1070
   340
340
11
1070
   140
 40
3.5
1070
   284
 70
     0
1070
    78
 70
     0
1002
}
  0
XRECORD
  5
19D
102
{ACAD_REACTORS
330
193
102
}
330
193
100
AcDbXrecord
  1
{DDB5F465-B54B-4A84-AFA0-367E390933F4}
  0
XRECORD
  5
196
102
{ACAD_REACTORS
330
193
102
}
330
193
100
AcDbXrecord
  1

  0
XRECORD
  5
19B
102
{ACAD_REACTORS
330
193
102
}
330
193
100
AcDbXrecord
 90
        4
  0
XRECORD
  5
198
102
{ACAD_REACTORS
330
193
102
}
330
193
100
AcDbXrecord
340
1A
  0
XRECORD
  5
19A
102
{ACAD_REACTORS
330
193
102
}
330
193
100
AcDbXrecord
 90
    10269
  0
XRECORD
  5
199
102
{ACAD_REACTORS
330
193
102
}
330
193
100
AcDbXrecord
340
19
  0
XRECORD
  5
19F
102
{ACAD_REACTORS
330
193
102
}
330
193
100
AcDbXrecord
 40
0.0
  0
XRECORD
  5
1A2
102
{ACAD_REACTORS
330
193
102
}
330
193
100
AcDbXrecord
340
0
  0
XRECORD
  5
1A8
102
{ACAD_REACTORS
330
193
102
}
330
193
100
AcDbXrecord
 10
0.0
 20
0.0
 30
0.0
  0
XRECORD
  5
1A4
102
{ACAD_REACTORS
330
193
102
}
330
193
100
AcDbXrecord
 10
0.0
 20
0.0
 30
0.0
  0
XRECORD
  5
1A7
102
{ACAD_REACTORS
330
193
102
}
330
193
100
AcDbXrecord
 10
0.0
 20
0.0
 30
0.0
  0
XRECORD
  5
1A5
102
{ACAD_REACTORS
330
193
102
}
330
193
100
AcDbXrecord
 10
0.0
 20
0.0
 30
0.0
  0
XRECORD
  5
1A6
102
{ACAD_REACTORS
330
193
102
}
330
193
100
AcDbXrecord
 10
0.0
 20
0.0
 30
0.0
  0
XRECORD
  5
1A3
102
{ACAD_REACTORS
330
193
102
}
330
193
100
AcDbXrecord
 10
0.0
 20
0.0
 30
0.0
  0
XRECORD
  5
1A0
102
{ACAD_REACTORS
330
193
102
}
330
193
100
AcDbXrecord
340
0
  0
XRECORD
  5
1A1
102
{ACAD_REACTORS
330
193
102
}
330
193
100
AcDbXrecord
 70
     0
  0
XRECORD
  5
197
102
{ACAD_REACTORS
330
193
102
}
330
193
100
AcDbXrecord
  1

  0
XRECORD
  5
194
102
{ACAD_REACTORS
330
193
102
}
330
193
100
AcDbXrecord
 90
        1
  0
XRECORD
  5
195
102
{ACAD_REACTORS
330
193
102
}
330
193
100
AcDbXrecord
 90
       70
  0
XRECORD
  5
1AB
102
{ACAD_REACTORS
330
193
102
}
330
193
100
AcDbXrecord
340
0
  0
XRECORD
  5
1B1
102
{ACAD_REACTORS
330
193
102
}
330
193
100
AcDbXrecord
 10
0.0
 20
0.0
 30
0.0
  0
XRECORD
  5
1AD
102
{ACAD_REACTORS
330
193
102
}
330
193
100
AcDbXrecord
 10
0.0
 20
0.0
 30
0.0
  0
XRECORD
  5
1B0
102
{ACAD_REACTORS
330
193
102
}
330
193
100
AcDbXrecord
 10
0.0
 20
0.0
 30
0.0
  0
XRECORD
  5
1AE
102
{ACAD_REACTORS
330
193
102
}
330
193
100
AcDbXrecord
 10
0.0
 20
0.0
 30
0.0
  0
XRECORD
  5
1AF
102
{ACAD_REACTORS
330
193
102
}
330
193
100
AcDbXrecord
 10
0.0
 20
0.0
 30
0.0
  0
XRECORD
  5
1AC
102
{ACAD_REACTORS
330
193
102
}
330
193
100
AcDbXrecord
 10
0.0
 20
0.0
 30
0.0
  0
XRECORD
  5
1A9
102
{ACAD_REACTORS
330
193
102
}
330
193
100
AcDbXrecord
340
0
  0
XRECORD
  5
1AA
102
{ACAD_REACTORS
330
193
102
}
330
193
100
AcDbXrecord
 70
     0
  0
XRECORD
  5
19E
102
{ACAD_REACTORS
330
193
102
}
330
193
100
AcDbXrecord
  1
{FAEB1C32-E019-11D5-929B-00C0DF256EC4}
  0
ENDSEC
  0
EOF
