  0
SECTION
  2
HEADER
  9
$ACADVER
  1
AC1014
  9
$ACADMAINTVER
 70
     9
  9
$DWGCODEPAGE
  3
DOS932
  9
$INSBASE
 10
0.0
 20
0.0
 30
0.0
  9
$EXTMIN
 10
0.0
 20
0.0
 30
0.0
  9
$EXTMAX
 10
210.0
 20
297.0
 30
0.0
  9
$LIMMIN
 10
0.0
 20
0.0
  9
$LIMMAX
 10
0.0
 20
0.0
  9
$ORTHOMODE
 70
     0
  9
$REGENMODE
 70
     1
  9
$FILLMODE
 70
     1
  9
$QTEXTMODE
 70
     0
  9
$MIRRTEXT
 70
     1
  9
$DRAGMODE
 70
     2
  9
$LTSCALE
 40
1.0
  9
$OSMODE
 70
    37
  9
$ATTMODE
 70
     1
  9
$TEXTSIZE
 40
3.5
  9
$TRACEWID
 40
1.0
  9
$TEXTSTYLE
  7
STANDARD
  9
$CLAYER
  8
0
  9
$CELTYPE
  6
BYLAYER
  9
$CECOLOR
 62
   256
  9
$CELTSCALE
 40
1.0
  9
$DELOBJ
 70
     1
  9
$DISPSILH
 70
     0
  9
$DIMSCALE
 40
1.0
  9
$DIMASZ
 40
3.0
  9
$DIMEXO
 40
1.0
  9
$DIMDLI
 40
3.75
  9
$DIMRND
 40
0.0
  9
$DIMDLE
 40
0.0
  9
$DIMEXE
 40
1.0
  9
$DIMTP
 40
0.0
  9
$DIMTM
 40
0.0
  9
$DIMTXT
 40
3.5
  9
$DIMCEN
 40
2.5
  9
$DIMTSZ
 40
0.0
  9
$DIMTOL
 70
     0
  9
$DIMLIM
 70
     0
  9
$DIMTIH
 70
     1
  9
$DIMTOH
 70
     1
  9
$DIMSE1
 70
     0
  9
$DIMSE2
 70
     0
  9
$DIMTAD
 70
     1
  9
$DIMZIN
 70
     0
  9
$DIMBLK
  1

  9
$DIMASO
 70
     1
  9
$DIMSHO
 70
     1
  9
$DIMPOST
  1

  9
$DIMAPOST
  1

  9
$DIMALT
 70
     0
  9
$DIMALTD
 70
     3
  9
$DIMALTF
 40
0.0393700787
  9
$DIMLFAC
 40
1.0
  9
$DIMTOFL
 70
     1
  9
$DIMTVP
 40
0.0
  9
$DIMTIX
 70
     0
  9
$DIMSOXD
 70
     0
  9
$DIMSAH
 70
     0
  9
$DIMBLK1
  1

  9
$DIMBLK2
  1

  9
$DIMSTYLE
  2
ISO-25
  9
$DIMCLRD
 70
     0
  9
$DIMCLRE
 70
     0
  9
$DIMCLRT
 70
     0
  9
$DIMTFAC
 40
1.0
  9
$DIMGAP
 40
1.524
  9
$DIMJUST
 70
     0
  9
$DIMSD1
 70
     0
  9
$DIMSD2
 70
     0
  9
$DIMTOLJ
 70
     0
  9
$DIMTZIN
 70
     0
  9
$DIMALTZ
 70
     0
  9
$DIMALTTZ
 70
     0
  9
$DIMFIT
 70
     3
  9
$DIMUPT
 70
     0
  9
$DIMUNIT
 70
     2
  9
$DIMDEC
 70
     2
  9
$DIMTDEC
 70
     2
  9
$DIMALTU
 70
     2
  9
$DIMALTTD
 70
     3
  9
$DIMTXSTY
  7
STANDARD
  9
$DIMAUNIT
 70
     0
  9
$LUNITS
 70
     2
  9
$LUPREC
 70
     1
  9
$SKETCHINC
 40
1.0
  9
$FILLETRAD
 40
10.0
  9
$AUNITS
 70
     0
  9
$AUPREC
 70
     0
  9
$MENU
  1
.
  9
$ELEVATION
 40
0.0
  9
$PELEVATION
 40
0.0
  9
$THICKNESS
 40
0.0
  9
$LIMCHECK
 70
     0
  9
$CHAMFERA
 40
10.0
  9
$CHAMFERB
 40
10.0
  9
$CHAMFERC
 40
20.0
  9
$CHAMFERD
 40
0.0
  9
$SKPOLY
 70
     0
  9
$TDCREATE
 40
2454841.570666771
  9
$TDUPDATE
 40
2454841.570666783
  9
$TDINDWG
 40
0.0000000116
  9
$TDUSRTIMER
 40
0.0000000116
  9
$USRTIMER
 70
     1
  9
$ANGBASE
 50
0.0
  9
$ANGDIR
 70
     0
  9
$PDMODE
 70
     0
  9
$PDSIZE
 40
-1.0
  9
$PLINEWID
 40
0.0
  9
$COORDS
 70
     1
  9
$SPLFRAME
 70
     0
  9
$SPLINETYPE
 70
     6
  9
$SPLINESEGS
 70
     8
  9
$ATTDIA
 70
     0
  9
$ATTREQ
 70
     1
  9
$HANDLING
 70
     1
  9
$HANDSEED
  5
1D9
  9
$SURFTAB1
 70
     6
  9
$SURFTAB2
 70
     6
  9
$SURFTYPE
 70
     6
  9
$SURFU
 70
     6
  9
$SURFV
 70
     6
  9
$UCSNAME
  2

  9
$UCSORG
 10
0.0
 20
0.0
 30
0.0
  9
$UCSXDIR
 10
1.0
 20
0.0
 30
0.0
  9
$UCSYDIR
 10
0.0
 20
1.0
 30
0.0
  9
$PUCSNAME
  2

  9
$PUCSORG
 10
0.0
 20
0.0
 30
0.0
  9
$PUCSXDIR
 10
1.0
 20
0.0
 30
0.0
  9
$PUCSYDIR
 10
0.0
 20
1.0
 30
0.0
  9
$USERI1
 70
     0
  9
$USERI2
 70
     0
  9
$USERI3
 70
     0
  9
$USERI4
 70
     0
  9
$USERI5
 70
     0
  9
$USERR1
 40
0.0
  9
$USERR2
 40
0.0
  9
$USERR3
 40
0.0
  9
$USERR4
 40
0.0
  9
$USERR5
 40
0.0
  9
$WORLDVIEW
 70
     1
  9
$SHADEDGE
 70
     3
  9
$SHADEDIF
 70
    70
  9
$TILEMODE
 70
     1
  9
$MAXACTVP
 70
    64
  9
$PINSBASE
 10
0.0
 20
0.0
 30
0.0
  9
$PLIMCHECK
 70
     0
  9
$PEXTMIN
 10
1.0000000000E+20
 20
1.0000000000E+20
 30
1.0000000000E+20
  9
$PEXTMAX
 10
-1.0000000000E+20
 20
-1.0000000000E+20
 30
-1.0000000000E+20
  9
$PLIMMIN
 10
0.0
 20
0.0
  9
$PLIMMAX
 10
420.0
 20
297.0
  9
$UNITMODE
 70
     0
  9
$VISRETAIN
 70
     1
  9
$PLINEGEN
 70
     0
  9
$PSLTSCALE
 70
     1
  9
$TREEDEPTH
 70
  3020
  9
$PICKSTYLE
 70
     1
  9
$CMLSTYLE
  2
STANDARD
  9
$CMLJUST
 70
     0
  9
$CMLSCALE
 40
20.0
  9
$PROXYGRAPHICS
 70
     1
  9
$MEASUREMENT
 70
     1
  0
ENDSEC
  0
SECTION
  2
CLASSES
  0
CLASS
  1
ACDBDICTIONARYWDFLT
  2
AcDbDictionaryWithDefault
  3
ObjectDBX Classes
 90
        0
280
     0
281
     0
  0
CLASS
  1
XRECORD
  2
AcDbXrecord
  3
AutoCAD 2000
 90
        0
280
     0
281
     0
  0
CLASS
  1
LWPOLYLINE
  2
AcDbPolyline
  3
AutoCAD 2000
 90
        0
280
     0
281
     1
  0
CLASS
  1
HATCH
  2
AcDbHatch
  3
AutoCAD 2000
 90
        0
280
     0
281
     1
  0
CLASS
  1
ACDBPLACEHOLDER
  2
AcDbPlaceHolder
  3
ObjectDBX Classes
 90
        0
280
     0
281
     0
  0
CLASS
  1
LAYOUT
  2
AcDbLayout
  3
ObjectDBX Classes
 90
        0
280
     0
281
     0
  0
ENDSEC
  0
SECTION
  2
TABLES
  0
TABLE
  2
VPORT
  5
8
330
0
100
AcDbSymbolTable
 70
     1
  0
VPORT
  5
29
330
8
100
AcDbSymbolTableRecord
100
AcDbViewportTableRecord
  2
*ACTIVE
 70
     0
 10
0.0
 20
0.0
 11
1.0
 21
1.0
 12
105.0
 22
148.5
 13
0.0
 23
0.0
 14
10.0
 24
10.0
 15
10.0
 25
10.0
 16
0.0
 26
0.0
 36
1.0
 17
0.0
 27
0.0
 37
0.0
 40
297.0
 41
1.9729729729
 42
50.0
 43
0.0
 44
0.0
 50
0.0
 51
0.0
 71
     0
 72
  2000
 73
     1
 74
     3
 75
     0
 76
     0
 77
     0
 78
     0
  0
ENDTAB
  0
TABLE
  2
LTYPE
  5
5
330
0
100
AcDbSymbolTable
 70
     6
  0
LTYPE
  5
14
330
5
100
AcDbSymbolTableRecord
100
AcDbLinetypeTableRecord
  2
BYBLOCK
 70
     0
  3

 72
    65
 73
     0
 40
0.0
  0
LTYPE
  5
15
330
5
100
AcDbSymbolTableRecord
100
AcDbLinetypeTableRecord
  2
BYLAYER
 70
     0
  3

 72
    65
 73
     0
 40
0.0
  0
LTYPE
  5
16
330
5
100
AcDbSymbolTableRecord
100
AcDbLinetypeTableRecord
  2
CONTINUOUS
 70
     0
  3
Solid line
 72
    65
 73
     0
 40
0.0
  0
LTYPE
  5
2A
330
5
100
AcDbSymbolTableRecord
100
AcDbLinetypeTableRecord
  2
HIDDEN
 70
     0
  3
Hidden __ __ __ __ __ __ __ __ __ __ __ __ __ __
 72
    65
 73
     2
 40
1.905
 49
1.27
 74
     0
 49
-0.635
 74
     0
  0
LTYPE
  5
2B
330
5
100
AcDbSymbolTableRecord
100
AcDbLinetypeTableRecord
  2
PHANTOM
 70
     0
  3
Phantom ______  __  __  ______  __  __  ______
 72
    65
 73
     6
 40
12.7
 49
6.35
 74
     0
 49
-1.27
 74
     0
 49
1.27
 74
     0
 49
-1.27
 74
     0
 49
1.27
 74
     0
 49
-1.27
 74
     0
  0
LTYPE
  5
2C
330
5
100
AcDbSymbolTableRecord
100
AcDbLinetypeTableRecord
  2
CENTER
 70
     0
  3
Center ____ _ ____ _ ____ _ ____ _ ____ _ ____
 72
    65
 73
     4
 40
10.16
 49
6.35
 74
     0
 49
-1.27
 74
     0
 49
1.27
 74
     0
 49
-1.27
 74
     0
  0
LTYPE
  5
2D
330
5
100
AcDbSymbolTableRecord
100
AcDbLinetypeTableRecord
  2
CENTERX2
 70
     0
  3
Center (2x) ________  __  ________  __  _____
 72
    65
 73
     4
 40
20.32
 49
12.7
 74
     0
 49
-2.54
 74
     0
 49
2.54
 74
     0
 49
-2.54
 74
     0
  0
LTYPE
  5
2E
330
5
100
AcDbSymbolTableRecord
100
AcDbLinetypeTableRecord
  2
DOT2
 70
     0
  3
Dot (.5x) ........................................
 72
    65
 73
     2
 40
0.635
 49
0.0
 74
     0
 49
-0.635
 74
     0
  0
ENDTAB
  0
TABLE
  2
LAYER
  5
2
330
0
100
AcDbSymbolTable
 70
     2
  0
LAYER
  5
10
330
2
100
AcDbSymbolTableRecord
100
AcDbLayerTableRecord
  2
0
 70
     0
 62
     7
  6
CONTINUOUS
  0
LAYER
  5
72
330
2
100
AcDbSymbolTableRecord
100
AcDbLayerTableRecord
  2
DEFPOINTS
 70
     0
 62
     7
  6
CONTINUOUS
  0
ENDTAB
  0
TABLE
  2
STYLE
  5
3
330
0
100
AcDbSymbolTable
 70
     2
  0
STYLE
  5
11
330
3
100
AcDbSymbolTableRecord
100
AcDbTextStyleTableRecord
  2
STANDARD
 70
     0
 40
0.0
 41
1.0
 50
0.0
 71
     0
 42
2.5
  3
txt
  4
bigfont
  0
STYLE
  5
37
330
3
100
AcDbSymbolTableRecord
100
AcDbTextStyleTableRecord
  2
SLDTEXTSTYLE0
 70
     0
 40
0.0
 41
0.7
 50
0.0
 71
     0
 42
0.2
  3
TXT
  4
bigfont
  0
ENDTAB
  0
TABLE
  2
VIEW
  5
6
330
0
100
AcDbSymbolTable
 70
     0
  0
ENDTAB
  0
TABLE
  2
UCS
  5
7
330
0
100
AcDbSymbolTable
 70
     0
  0
ENDTAB
  0
TABLE
  2
APPID
  5
9
330
0
100
AcDbSymbolTable
 70
     1
  0
APPID
  5
12
330
9
100
AcDbSymbolTableRecord
100
AcDbRegAppTableRecord
  2
ACAD
 70
     0
  0
ENDTAB
  0
TABLE
  2
DIMSTYLE
  5
A
330
0
100
AcDbSymbolTable
 70
     3
  0
DIMSTYLE
105
27
330
A
100
AcDbSymbolTableRecord
100
AcDbDimStyleTableRecord
  2
ISO-25
 70
     0
  3

  4

  5

  6

  7

 40
1.0
 41
2.5
 42
0.625
 43
3.75
 44
1.25
 45
0.0
 46
0.0
 47
0.0
 48
0.0
140
2.5
141
2.5
142
0.0
143
0.0393700787
144
1.0
145
0.0
146
1.0
147
0.625
 71
     0
 72
     0
 73
     0
 74
     0
 75
     0
 76
     0
 77
     1
 78
     8
170
     0
171
     3
172
     1
173
     0
174
     0
175
     0
176
     0
177
     0
178
     0
270
     2
271
     2
272
     2
273
     2
274
     3
340
11
275
     0
280
     0
281
     0
282
     0
283
     0
284
     8
285
     0
286
     0
287
     3
288
     0
  0
DIMSTYLE
105
80
102
{ACAD_REACTORS
330
71
330
8F
330
A2
330
B9
330
D1
330
E5
330
FA
330
132
330
148
330
19F
102
}
330
A
100
AcDbSymbolTableRecord
100
AcDbDimStyleTableRecord
  2
SLDDIMSTYLE0
 70
     0
  3

  4

  5

  6
OPEN30
  7
OPEN30
 40
1.0
 41
3.0
 42
0.0625
 43
0.38
 44
0.0
 45
0.0
 46
0.0
 47
0.0
 48
0.0
140
3.5
141
0.09
142
0.0
143
25.4
144
1.0
145
0.0
146
1.0
147
0.875
 71
     0
 72
     0
 73
     0
 74
     0
 75
     0
 76
     0
 77
     3
 78
    12
170
     0
171
     2
172
     0
173
     1
174
     0
175
     0
176
     0
177
     0
178
     0
270
     2
271
     1
272
     2
273
     2
274
     2
340
37
275
     0
280
     0
281
     0
282
     0
283
     1
284
    12
285
     0
286
     0
287
     3
288
     0
  0
DIMSTYLE
105
113
330
A
100
AcDbSymbolTableRecord
100
AcDbDimStyleTableRecord
  2
SLDDIMSTYLE1
 70
     0
  3

  4

  5

  6

  7

 40
1.0
 41
3.0
 42
0.0625
 43
0.38
 44
0.0
 45
0.0
 46
0.0
 47
0.0
 48
0.0
140
3.0
141
0.09
142
0.0
143
25.4
144
1.0
145
0.0
146
1.0
147
0.75
 71
     0
 72
     0
 73
     1
 74
     1
 75
     0
 76
     0
 77
     0
 78
     0
170
     0
171
     2
172
     0
173
     1
174
     0
175
     0
176
     0
177
     0
178
     0
270
     2
271
     0
272
     0
273
     2
274
     2
340
11
275
     0
280
     0
281
     0
282
     0
283
     1
284
     0
285
     0
286
     0
287
     3
288
     0
  0
ENDTAB
  0
TABLE
  2
BLOCK_RECORD
  5
1
330
0
100
AcDbSymbolTable
 70
    15
  0
BLOCK_RECORD
  5
1F
330
1
100
AcDbSymbolTableRecord
100
AcDbBlockTableRecord
  2
*MODEL_SPACE
  0
BLOCK_RECORD
  5
1B
330
1
100
AcDbSymbolTableRecord
100
AcDbBlockTableRecord
  2
*PAPER_SPACE
  0
BLOCK_RECORD
  5
73
330
1
100
AcDbSymbolTableRecord
100
AcDbBlockTableRecord
  2
*D1
  0
BLOCK_RECORD
  5
81
330
1
100
AcDbSymbolTableRecord
100
AcDbBlockTableRecord
  2
_OPEN30
  0
BLOCK_RECORD
  5
90
330
1
100
AcDbSymbolTableRecord
100
AcDbBlockTableRecord
  2
*D3
  0
BLOCK_RECORD
  5
A3
330
1
100
AcDbSymbolTableRecord
100
AcDbBlockTableRecord
  2
*D4
  0
BLOCK_RECORD
  5
BA
330
1
100
AcDbSymbolTableRecord
100
AcDbBlockTableRecord
  2
*D5
  0
BLOCK_RECORD
  5
D2
330
1
100
AcDbSymbolTableRecord
100
AcDbBlockTableRecord
  2
*D6
  0
BLOCK_RECORD
  5
E6
330
1
100
AcDbSymbolTableRecord
100
AcDbBlockTableRecord
  2
*D7
  0
BLOCK_RECORD
  5
FB
330
1
100
AcDbSymbolTableRecord
100
AcDbBlockTableRecord
  2
*D8
  0
BLOCK_RECORD
  5
10D
330
1
100
AcDbSymbolTableRecord
100
AcDbBlockTableRecord
  2
SW_NOTE_0
  0
BLOCK_RECORD
  5
115
330
1
100
AcDbSymbolTableRecord
100
AcDbBlockTableRecord
  2
SW_NOTE_1
  0
BLOCK_RECORD
  5
133
330
1
100
AcDbSymbolTableRecord
100
AcDbBlockTableRecord
  2
*D11
  0
BLOCK_RECORD
  5
149
330
1
100
AcDbSymbolTableRecord
100
AcDbBlockTableRecord
  2
*D12
  0
BLOCK_RECORD
  5
15D
330
1
100
AcDbSymbolTableRecord
100
AcDbBlockTableRecord
  2
SW_CENTERMARKSYMBOL_0
  0
BLOCK_RECORD
  5
1A0
330
1
100
AcDbSymbolTableRecord
100
AcDbBlockTableRecord
  2
*D14
  0
ENDTAB
  0
ENDSEC
  0
SECTION
  2
BLOCKS
  0
BLOCK
  5
20
330
1F
100
AcDbEntity
  8
0
100
AcDbBlockBegin
  2
*MODEL_SPACE
 70
     0
 71
     0
 10
0.0
 20
0.0
 30
0.0
  3
*MODEL_SPACE
  1

  0
ENDBLK
  5
21
330
1F
100
AcDbEntity
  8
0
100
AcDbBlockEnd
  0
BLOCK
  5
1C
330
1B
100
AcDbEntity
 67
     1
  8
0
100
AcDbBlockBegin
  2
*PAPER_SPACE
 70
     0
 71
     0
 10
0.0
 20
0.0
 30
0.0
  3
*PAPER_SPACE
  1

  0
ENDBLK
  5
1D
330
1B
100
AcDbEntity
 67
     1
  8
0
100
AcDbBlockEnd
  0
BLOCK
  5
7E
330
73
100
AcDbEntity
  8
0
100
AcDbBlockBegin
  2
*D1
 70
     1
 71
     0
 10
0.0
 20
0.0
 30
0.0
  3
*D1
  1

  0
INSERT
  5
87
330
73
100
AcDbEntity
  8
0
  6
CONTINUOUS
 62
     7
100
AcDbBlockReference
  2
_OPEN30
 10
118.6207222461
 20
203.2445438286
 30
0.0
 41
3.0
 42
3.0
 50
270.0
  0
INSERT
  5
88
330
73
100
AcDbEntity
  8
0
  6
CONTINUOUS
 62
     7
100
AcDbBlockReference
  2
_OPEN30
 10
118.6207222461
 20
189.2445438286
 30
0.0
 41
3.0
 42
3.0
 50
90.0
  0
LINE
  5
89
330
73
100
AcDbEntity
  8
0
  6
CONTINUOUS
 62
     7
100
AcDbLine
 10
92.0653601501
 20
203.2445438286
 30
0.0
 11
119.6207222461
 21
203.2445438286
 31
0.0
  0
LINE
  5
8A
330
73
100
AcDbEntity
  8
0
  6
CONTINUOUS
 62
     7
100
AcDbLine
 10
112.9565011329
 20
189.2445438286
 30
0.0
 11
119.6207222461
 21
189.2445438286
 31
0.0
  0
LINE
  5
8B
330
73
100
AcDbEntity
  8
0
  6
CONTINUOUS
 62
     7
100
AcDbLine
 10
118.6207222461
 20
203.2445438286
 30
0.0
 11
118.6207222461
 21
209.2445438286
 31
0.0
  0
LINE
  5
8C
330
73
100
AcDbEntity
  8
0
  6
CONTINUOUS
 62
     7
100
AcDbLine
 10
118.6207222461
 20
203.2445438286
 30
0.0
 11
118.6207222461
 21
189.2445438286
 31
0.0
  0
LINE
  5
8D
330
73
100
AcDbEntity
  8
0
  6
CONTINUOUS
 62
     7
100
AcDbLine
 10
118.6207222461
 20
189.2445438286
 30
0.0
 11
118.6207222461
 21
183.2445438286
 31
0.0
  0
MTEXT
  5
8E
330
73
100
AcDbEntity
  8
0
  6
CONTINUOUS
 62
     7
100
AcDbMText
 10
114.5479952062
 20
194.5713946204
 30
0.0
 40
3.5
 41
0.0
 71
     1
 72
     1
  1
14
  7
SLDTEXTSTYLE0
 11
-1.770233807631139E-14
 21
1.0
 31
0.0
  0
ENDBLK
  5
7F
330
73
100
AcDbEntity
  8
0
100
AcDbBlockEnd
  0
BLOCK
  5
82
330
81
100
AcDbEntity
  8
0
100
AcDbBlockBegin
  2
_OPEN30
 70
     0
 71
     0
 10
0.0
 20
0.0
 30
0.0
  3
_OPEN30
  1

  0
LINE
  5
84
330
81
100
AcDbEntity
  8
0
  6
BYBLOCK
 62
     0
100
AcDbLine
 10
-1.0
 20
0.267949
 30
0.0
 11
0.0
 21
0.0
 31
0.0
  0
LINE
  5
85
330
81
100
AcDbEntity
  8
0
  6
BYBLOCK
 62
     0
100
AcDbLine
 10
0.0
 20
0.0
 30
0.0
 11
-1.0
 21
-0.267949
 31
0.0
  0
LINE
  5
86
330
81
100
AcDbEntity
  8
0
  6
BYBLOCK
 62
     0
100
AcDbLine
 10
0.0
 20
0.0
 30
0.0
 11
-1.0
 21
0.0
 31
0.0
  0
ENDBLK
  5
83
330
81
100
AcDbEntity
  8
0
100
AcDbBlockEnd
  0
BLOCK
  5
9A
330
90
100
AcDbEntity
  8
0
100
AcDbBlockBegin
  2
*D3
 70
     1
 71
     0
 10
0.0
 20
0.0
 30
0.0
  3
*D3
  1

  0
INSERT
  5
9C
330
90
100
AcDbEntity
  8
0
  6
CONTINUOUS
 62
     7
100
AcDbBlockReference
  2
_OPEN30
 10
78.4355535526
 20
225.4305648792
 30
-8.0000375503
 41
3.0
 42
3.0
 50
180.0
  0
INSERT
  5
9D
330
90
100
AcDbEntity
  8
0
  6
CONTINUOUS
 62
     7
100
AcDbBlockReference
  2
_OPEN30
 10
99.4355535526
 20
225.4305648792
 30
-8.0000375503
 41
3.0
 42
3.0
 50
0.0
  0
LINE
  5
9E
330
90
100
AcDbEntity
  8
0
  6
CONTINUOUS
 62
     7
100
AcDbLine
 10
78.4355535526
 20
206.0399225392
 30
0.0
 11
78.4355535526
 21
226.4305648792
 31
0.0
  0
LINE
  5
9F
330
90
100
AcDbEntity
  8
0
  6
CONTINUOUS
 62
     7
100
AcDbLine
 10
99.4355535526
 20
199.5248924038
 30
0.0
 11
99.4355535526
 21
226.4305648792
 31
0.0
  0
LINE
  5
A0
330
90
100
AcDbEntity
  8
0
  6
CONTINUOUS
 62
     7
100
AcDbLine
 10
78.4355535526
 20
225.4305648792
 30
0.0
 11
99.4355535526
 21
225.4305648792
 31
0.0
  0
MTEXT
  5
A1
330
90
100
AcDbEntity
  8
0
  6
CONTINUOUS
 62
     7
100
AcDbMText
 10
89.4035527413
 20
229.5032919191
 30
0.0
 40
3.5
 41
0.0
 71
     1
 72
     1
  1
21
  7
SLDTEXTSTYLE0
  0
ENDBLK
  5
9B
330
90
100
AcDbEntity
  8
0
100
AcDbBlockEnd
  0
BLOCK
  5
AE
330
A3
100
AcDbEntity
  8
0
100
AcDbBlockBegin
  2
*D4
 70
     1
 71
     0
 10
0.0
 20
0.0
 30
0.0
  3
*D4
  1

  0
INSERT
  5
B1
330
A3
100
AcDbEntity
  8
0
  6
CONTINUOUS
 62
     7
100
AcDbBlockReference
  2
_OPEN30
 10
99.4355535526
 20
225.4305648792
 30
-8.0000375503
 41
3.0
 42
3.0
 50
0.0
  0
INSERT
  5
B2
330
A3
100
AcDbEntity
  8
0
  6
CONTINUOUS
 62
     7
100
AcDbBlockReference
  2
_OPEN30
 10
106.4355535526
 20
225.4305648792
 30
-8.0000375503
 41
3.0
 42
3.0
 50
180.0
  0
LINE
  5
B3
330
A3
100
AcDbEntity
  8
0
  6
CONTINUOUS
 62
     7
100
AcDbLine
 10
99.4355535526
 20
199.5248924038
 30
0.0
 11
99.4355535526
 21
226.4305648792
 31
0.0
  0
LINE
  5
B4
330
A3
100
AcDbEntity
  8
0
  6
CONTINUOUS
 62
     7
100
AcDbLine
 10
106.4355535526
 20
198.2445438286
 30
0.0
 11
106.4355535526
 21
226.4305648792
 31
0.0
  0
LINE
  5
B5
330
A3
100
AcDbEntity
  8
0
  6
CONTINUOUS
 62
     7
100
AcDbLine
 10
99.4355535526
 20
225.4305648792
 30
0.0
 11
93.4355535526
 21
225.4305648792
 31
0.0
  0
LINE
  5
B6
330
A3
100
AcDbEntity
  8
0
  6
CONTINUOUS
 62
     7
100
AcDbLine
 10
99.4355535526
 20
225.4305648792
 30
0.0
 11
106.4355535526
 21
225.4305648792
 31
0.0
  0
LINE
  5
B7
330
A3
100
AcDbEntity
  8
0
  6
CONTINUOUS
 62
     7
100
AcDbLine
 10
106.4355535526
 20
225.4305648792
 30
0.0
 11
112.4355535526
 21
225.4305648792
 31
0.0
  0
MTEXT
  5
B8
330
A3
100
AcDbEntity
  8
0
  6
CONTINUOUS
 62
     7
100
AcDbMText
 10
102.073595331
 20
229.5032919191
 30
0.0
 40
3.5
 41
0.0
 71
     1
 72
     1
  1
7
  7
SLDTEXTSTYLE0
  0
ENDBLK
  5
AF
330
A3
100
AcDbEntity
  8
0
100
AcDbBlockEnd
  0
BLOCK
  5
C7
330
BA
100
AcDbEntity
  8
0
100
AcDbBlockBegin
  2
*D5
 70
     1
 71
     0
 10
0.0
 20
0.0
 30
0.0
  3
*D5
  1

  0
INSERT
  5
C9
330
BA
100
AcDbEntity
  8
0
  6
CONTINUOUS
 62
     7
100
AcDbBlockReference
  2
_OPEN30
 10
77.4355535526
 20
172.0765916991
 30
-8.0000375503
 41
3.0
 42
3.0
 50
0.0
  0
INSERT
  5
CA
330
BA
100
AcDbEntity
  8
0
  6
CONTINUOUS
 62
     7
100
AcDbBlockReference
  2
_OPEN30
 10
79.4355535526
 20
172.0765916991
 30
-8.0000375503
 41
3.0
 42
3.0
 50
180.0
  0
LINE
  5
CB
330
BA
100
AcDbEntity
  8
0
  6
CONTINUOUS
 62
     7
100
AcDbLine
 10
77.4355535526
 20
179.9944966957
 30
0.0
 11
77.4355535526
 21
171.0765916991
 31
0.0
  0
LINE
  5
CC
330
BA
100
AcDbEntity
  8
0
  6
CONTINUOUS
 62
     7
100
AcDbLine
 10
79.4355535526
 20
179.9944966957
 30
0.0
 11
79.4355535526
 21
171.0765916991
 31
0.0
  0
LINE
  5
CD
330
BA
100
AcDbEntity
  8
0
  6
CONTINUOUS
 62
     7
100
AcDbLine
 10
77.4355535526
 20
172.0765916991
 30
0.0
 11
71.4355535526
 21
172.0765916991
 31
0.0
  0
LINE
  5
CE
330
BA
100
AcDbEntity
  8
0
  6
CONTINUOUS
 62
     7
100
AcDbLine
 10
77.4355535526
 20
172.0765916991
 30
0.0
 11
79.4355535526
 21
172.0765916991
 31
0.0
  0
LINE
  5
CF
330
BA
100
AcDbEntity
  8
0
  6
CONTINUOUS
 62
     7
100
AcDbLine
 10
79.4355535526
 20
172.0765916991
 30
0.0
 11
95.1907739667
 21
172.0765916991
 31
0.0
  0
MTEXT
  5
D0
330
BA
100
AcDbEntity
  8
0
  6
CONTINUOUS
 62
     7
100
AcDbMText
 10
91.5685218801
 20
176.149318739
 30
0.0
 40
3.5
 41
0.0
 71
     1
 72
     1
  1
2
  7
SLDTEXTSTYLE0
  0
ENDBLK
  5
C8
330
BA
100
AcDbEntity
  8
0
100
AcDbBlockEnd
  0
BLOCK
  5
DD
330
D2
100
AcDbEntity
  8
0
100
AcDbBlockBegin
  2
*D6
 70
     1
 71
     0
 10
0.0
 20
0.0
 30
0.0
  3
*D6
  1

  0
INSERT
  5
DF
330
D2
100
AcDbEntity
  8
0
  6
CONTINUOUS
 62
     7
100
AcDbBlockReference
  2
_OPEN30
 10
35.6587427097
 20
212.8516232318
 30
-8.0000375503
 41
3.0
 42
3.0
 50
90.0
  0
INSERT
  5
E0
330
D2
100
AcDbEntity
  8
0
  6
CONTINUOUS
 62
     7
100
AcDbBlockReference
  2
_OPEN30
 10
35.6587427097
 20
165.1527316831
 30
-8.0000375503
 41
3.0
 42
3.0
 50
270.0
  0
LINE
  5
E1
330
D2
100
AcDbEntity
  8
0
  6
CONTINUOUS
 62
     7
100
AcDbLine
 10
46.4355535526
 20
212.8516232318
 30
0.0
 11
34.6587427097
 21
212.8516232318
 31
0.0
  0
LINE
  5
E2
330
D2
100
AcDbEntity
  8
0
  6
CONTINUOUS
 62
     7
100
AcDbLine
 10
46.4355535526
 20
165.1527316831
 30
0.0
 11
34.6587427097
 21
165.1527316831
 31
0.0
  0
LINE
  5
E3
330
D2
100
AcDbEntity
  8
0
  6
CONTINUOUS
 62
     7
100
AcDbLine
 10
35.6587427097
 20
212.8516232318
 30
0.0
 11
35.6587427097
 21
165.1527316831
 31
0.0
  0
MTEXT
  5
E4
330
D2
100
AcDbEntity
  8
0
  6
CONTINUOUS
 62
     7
100
AcDbMText
 10
31.5860156698
 20
186.5162555581
 30
0.0
 40
3.5
 41
0.0
 71
     1
 72
     1
  1
48
  7
SLDTEXTSTYLE0
 11
-1.770233807631139E-14
 21
1.0
 31
0.0
  0
ENDBLK
  5
DE
330
D2
100
AcDbEntity
  8
0
100
AcDbBlockEnd
  0
BLOCK
  5
F0
330
E6
100
AcDbEntity
  8
0
100
AcDbBlockBegin
  2
*D7
 70
     1
 71
     0
 10
0.0
 20
0.0
 30
0.0
  3
*D7
  1

  0
ARC
  5
F2
330
E6
100
AcDbEntity
  8
0
  6
CONTINUOUS
 62
     7
100
AcDbCircle
 10
66.6537431137
 20
227.3904213476
 30
0.0
 40
4.553365534214136
100
AcDbArc
 50
153.4349488229
 51
206.5650511771
  0
ARC
  5
F3
330
E6
100
AcDbEntity
  8
0
  6
CONTINUOUS
 62
     7
100
AcDbCircle
 10
65.7560891694
 20
227.3904213476
 30
0.0
 40
4.553365534214148
100
AcDbArc
 50
333.4349488229
 51
26.5650511771
  0
INSERT
  5
F4
330
E6
100
AcDbEntity
  8
0
  6
CONTINUOUS
 62
     7
100
AcDbBlockReference
  2
_OPEN30
 10
45.4355535526
 20
225.3540943754
 30
-8.0000375503
 41
3.0
 42
3.0
 50
180.0
  0
INSERT
  5
F5
330
E6
100
AcDbEntity
  8
0
  6
CONTINUOUS
 62
     7
100
AcDbBlockReference
  2
_OPEN30
 10
78.4355535526
 20
225.3540943754
 30
-8.0000375503
 41
3.0
 42
3.0
 50
0.0
  0
LINE
  5
F6
330
E6
100
AcDbEntity
  8
0
  6
CONTINUOUS
 62
     7
100
AcDbLine
 10
45.4355535526
 20
212.3411281548
 30
0.0
 11
45.4355535526
 21
226.3540943754
 31
0.0
  0
LINE
  5
F7
330
E6
100
AcDbEntity
  8
0
  6
CONTINUOUS
 62
     7
100
AcDbLine
 10
78.4355535526
 20
206.0399225392
 30
0.0
 11
78.4355535526
 21
226.3540943754
 31
0.0
  0
LINE
  5
F8
330
E6
100
AcDbEntity
  8
0
  6
CONTINUOUS
 62
     7
100
AcDbLine
 10
45.4355535526
 20
225.3540943754
 30
0.0
 11
78.4355535526
 21
225.3540943754
 31
0.0
  0
MTEXT
  5
F9
330
E6
100
AcDbEntity
  8
0
  6
CONTINUOUS
 62
     7
100
AcDbMText
 10
64.1685891694
 20
229.4268214153
 30
0.0
 40
3.5
 41
0.0
 71
     1
 72
     1
  1
33
  7
SLDTEXTSTYLE0
  0
ENDBLK
  5
F1
330
E6
100
AcDbEntity
  8
0
100
AcDbBlockEnd
  0
BLOCK
  5
105
330
FB
100
AcDbEntity
  8
0
100
AcDbBlockBegin
  2
*D8
 70
     1
 71
     0
 10
0.0
 20
0.0
 30
0.0
  3
*D8
  1

  0
INSERT
  5
107
330
FB
100
AcDbEntity
  8
0
  6
CONTINUOUS
 62
     7
100
AcDbBlockReference
  2
_OPEN30
 10
45.4355535526
 20
236.6378020141
 30
-8.0000375503
 41
3.0
 42
3.0
 50
180.0
  0
INSERT
  5
108
330
FB
100
AcDbEntity
  8
0
  6
CONTINUOUS
 62
     7
100
AcDbBlockReference
  2
_OPEN30
 10
106.4355535526
 20
236.6378020141
 30
-8.0000375503
 41
3.0
 42
3.0
 50
0.0
  0
LINE
  5
109
330
FB
100
AcDbEntity
  8
0
  6
CONTINUOUS
 62
     7
100
AcDbLine
 10
45.4355535526
 20
212.3411281548
 30
0.0
 11
45.4355535526
 21
237.6378020141
 31
0.0
  0
LINE
  5
10A
330
FB
100
AcDbEntity
  8
0
  6
CONTINUOUS
 62
     7
100
AcDbLine
 10
106.4355535526
 20
198.2445438286
 30
0.0
 11
106.4355535526
 21
237.6378020141
 31
0.0
  0
LINE
  5
10B
330
FB
100
AcDbEntity
  8
0
  6
CONTINUOUS
 62
     7
100
AcDbLine
 10
45.4355535526
 20
236.6378020141
 30
0.0
 11
106.4355535526
 21
236.6378020141
 31
0.0
  0
MTEXT
  5
10C
330
FB
100
AcDbEntity
  8
0
  6
CONTINUOUS
 62
     7
100
AcDbMText
 10
79.667220425
 20
240.710529054
 30
0.0
 40
3.5
 41
0.0
 71
     1
 72
     1
  1
61
  7
SLDTEXTSTYLE0
  0
ENDBLK
  5
106
330
FB
100
AcDbEntity
  8
0
100
AcDbBlockEnd
  0
BLOCK
  5
10E
330
10D
100
AcDbEntity
  8
0
100
AcDbBlockBegin
  2
SW_NOTE_0
 70
     0
 71
     0
 10
0.0
 20
0.0
 30
0.0
  3
SW_NOTE_0
  1

  0
MTEXT
  5
110
330
10D
100
AcDbEntity
  8
0
  6
CONTINUOUS
 62
     7
100
AcDbMText
 10
-7.9423659137
 20
4.0757193492
 30
7.7142897573
 40
3.5
 41
0.0
 71
     1
 72
     1
  1
%%c
  7
SLDTEXTSTYLE0
  0
MTEXT
  5
111
330
10D
100
AcDbEntity
  8
0
  6
CONTINUOUS
 62
     7
100
AcDbMText
 10
-4.0724353987
 20
4.0757193492
 30
7.7142897573
 40
3.5
 41
0.0
 71
     1
 72
     1
  1
10
  7
SLDTEXTSTYLE0
  0
ENDBLK
  5
10F
330
10D
100
AcDbEntity
  8
0
100
AcDbBlockEnd
  0
BLOCK
  5
116
330
115
100
AcDbEntity
  8
0
100
AcDbBlockBegin
  2
SW_NOTE_1
 70
     0
 71
     0
 10
0.0
 20
0.0
 30
0.0
  3
SW_NOTE_1
  1

  0
MTEXT
  5
118
330
115
100
AcDbEntity
  8
0
  6
CONTINUOUS
 62
     7
100
AcDbMText
 10
-7.941931969
 20
4.0731093638
 30
-0.0336527293
 40
3.5
 41
0.0
 71
     1
 72
     1
  1
%%c
  7
SLDTEXTSTYLE0
  0
MTEXT
  5
119
330
115
100
AcDbEntity
  8
0
  6
CONTINUOUS
 62
     7
100
AcDbMText
 10
-4.072001454
 20
4.0731093638
 30
-0.0336527293
 40
3.5
 41
0.0
 71
     1
 72
     1
  1
12
  7
SLDTEXTSTYLE0
  0
ENDBLK
  5
117
330
115
100
AcDbEntity
  8
0
100
AcDbBlockEnd
  0
BLOCK
  5
13E
330
133
100
AcDbEntity
  8
0
100
AcDbBlockBegin
  2
*D11
 70
     1
 71
     0
 10
0.0
 20
0.0
 30
0.0
  3
*D11
  1

  0
INSERT
  5
140
330
133
100
AcDbEntity
  8
0
  6
CONTINUOUS
 62
     7
100
AcDbBlockReference
  2
_OPEN30
 10
159.3165595719
 20
223.5932446067
 30
0.2877980874
 41
3.0
 42
3.0
 50
359.6733972351
  0
INSERT
  5
141
330
133
100
AcDbEntity
  8
0
  6
CONTINUOUS
 62
     7
100
AcDbBlockReference
  2
_OPEN30
 10
175.3162996259
 20
223.5020404031
 30
0.2877980874
 41
3.0
 42
3.0
 50
179.6733972351
  0
LINE
  5
142
330
133
100
AcDbEntity
  8
0
  6
CONTINUOUS
 62
     7
100
AcDbLine
 10
159.2507006973
 20
212.0397763196
 30
0.0
 11
159.3222598346
 21
224.59322836
 31
0.0
  0
LINE
  5
143
330
133
100
AcDbEntity
  8
0
  6
CONTINUOUS
 62
     7
100
AcDbLine
 10
175.2504407513
 20
211.948572116
 30
0.0
 11
175.3219998886
 21
224.5020241565
 31
0.0
  0
LINE
  5
144
330
133
100
AcDbEntity
  8
0
  6
CONTINUOUS
 62
     7
100
AcDbLine
 10
159.3165595719
 20
223.5932446067
 30
0.0
 11
153.3166570517
 21
223.627446183
 31
0.0
  0
LINE
  5
145
330
133
100
AcDbEntity
  8
0
  6
CONTINUOUS
 62
     7
100
AcDbLine
 10
159.3165595719
 20
223.5932446067
 30
0.0
 11
175.3162996259
 21
223.5020404031
 31
0.0
  0
LINE
  5
146
330
133
100
AcDbEntity
  8
0
  6
CONTINUOUS
 62
     7
100
AcDbLine
 10
175.3162996259
 20
223.5020404031
 30
0.0
 11
181.3162021461
 21
223.4678388267
 31
0.0
  0
MTEXT
  5
147
330
133
100
AcDbEntity
  8
0
  6
CONTINUOUS
 62
     7
100
AcDbMText
 10
165.8329149929
 20
227.6288922743
 30
0.0
 40
3.5
 41
0.0
 71
     1
 72
     1
  1
16
  7
SLDTEXTSTYLE0
 11
0.9999837533704675
 21
-0.005700262723061123
 31
0.0
  0
ENDBLK
  5
13F
330
133
100
AcDbEntity
  8
0
100
AcDbBlockEnd
  0
BLOCK
  5
153
330
149
100
AcDbEntity
  8
0
100
AcDbBlockBegin
  2
*D12
 70
     1
 71
     0
 10
0.0
 20
0.0
 30
0.0
  3
*D12
  1

  0
INSERT
  5
155
330
149
100
AcDbEntity
  8
0
  6
CONTINUOUS
 62
     7
100
AcDbBlockReference
  2
_OPEN30
 10
155.8787333684
 20
152.866810621
 30
0.2877980874
 41
3.0
 42
3.0
 50
0.0
  0
INSERT
  5
156
330
149
100
AcDbEntity
  8
0
  6
CONTINUOUS
 62
     7
100
AcDbBlockReference
  2
_OPEN30
 10
178.3633781476
 20
152.866810621
 30
0.2877980874
 41
3.0
 42
3.0
 50
180.0
  0
LINE
  5
157
330
149
100
AcDbEntity
  8
0
  6
CONTINUOUS
 62
     7
100
AcDbLine
 10
155.8787333684
 20
186.7133370099
 30
0.0
 11
155.8787333684
 21
151.866810621
 31
0.0
  0
LINE
  5
158
330
149
100
AcDbEntity
  8
0
  6
CONTINUOUS
 62
     7
100
AcDbLine
 10
178.3633781476
 20
189.780522828
 30
0.0
 11
178.3633781476
 21
151.866810621
 31
0.0
  0
LINE
  5
159
330
149
100
AcDbEntity
  8
0
  6
CONTINUOUS
 62
     7
100
AcDbLine
 10
155.8787333684
 20
152.866810621
 30
0.0
 11
149.8787333684
 21
152.866810621
 31
0.0
  0
LINE
  5
15A
330
149
100
AcDbEntity
  8
0
  6
CONTINUOUS
 62
     7
100
AcDbLine
 10
155.8787333684
 20
152.866810621
 30
0.0
 11
178.3633781476
 21
152.866810621
 31
0.0
  0
LINE
  5
15B
330
149
100
AcDbEntity
  8
0
  6
CONTINUOUS
 62
     7
100
AcDbLine
 10
178.3633781476
 20
152.866810621
 30
0.0
 11
184.3633781476
 21
152.866810621
 31
0.0
  0
MTEXT
  5
15C
330
149
100
AcDbEntity
  8
0
  6
CONTINUOUS
 62
     7
100
AcDbMText
 10
162.5054632383
 20
156.9395376609
 30
0.0
 40
3.5
 41
0.0
 71
     1
 72
     1
  1
22.5
  7
SLDTEXTSTYLE0
  0
ENDBLK
  5
154
330
149
100
AcDbEntity
  8
0
100
AcDbBlockEnd
  0
BLOCK
  5
15E
330
15D
100
AcDbEntity
  8
0
100
AcDbBlockBegin
  2
SW_CENTERMARKSYMBOL_0
 70
     0
 71
     0
 10
0.0
 20
0.0
 30
0.0
  3
SW_CENTERMARKSYMBOL_0
  1

  0
LINE
  5
160
330
15D
100
AcDbEntity
  8
0
  6
CONTINUOUS
 62
     7
100
AcDbLine
 10
0.0
 20
0.0
 30
0.0
 11
0.0
 21
2.5
 31
0.0
  0
LINE
  5
161
330
15D
100
AcDbEntity
  8
0
  6
CONTINUOUS
 62
     7
100
AcDbLine
 10
0.0
 20
0.0
 30
0.0
 11
-2.5
 21
0.0
 31
0.0
  0
LINE
  5
162
330
15D
100
AcDbEntity
  8
0
  6
CONTINUOUS
 62
     7
100
AcDbLine
 10
0.0
 20
0.0
 30
0.0
 11
0.0
 21
-2.5
 31
0.0
  0
LINE
  5
163
330
15D
100
AcDbEntity
  8
0
  6
CONTINUOUS
 62
     7
100
AcDbLine
 10
0.0
 20
0.0
 30
0.0
 11
2.5
 21
0.0
 31
0.0
  0
LINE
  5
164
330
15D
100
AcDbEntity
  8
0
  6
CONTINUOUS
 62
     7
100
AcDbLine
 10
0.0
 20
5.0
 30
0.0
 11
0.0
 21
10.5
 31
0.0
  0
LINE
  5
165
330
15D
100
AcDbEntity
  8
0
  6
CONTINUOUS
 62
     7
100
AcDbLine
 10
-5.0
 20
0.0
 30
0.0
 11
-10.5
 21
0.0
 31
0.0
  0
LINE
  5
166
330
15D
100
AcDbEntity
  8
0
  6
CONTINUOUS
 62
     7
100
AcDbLine
 10
0.0
 20
-5.0
 30
0.0
 11
0.0
 21
-15.5008304954
 31
0.0
  0
LINE
  5
167
330
15D
100
AcDbEntity
  8
0
  6
CONTINUOUS
 62
     7
100
AcDbLine
 10
5.0
 20
0.0
 30
0.0
 11
10.5
 21
0.0
 31
0.0
  0
ENDBLK
  5
15F
330
15D
100
AcDbEntity
  8
0
100
AcDbBlockEnd
  0
BLOCK
  5
1AB
330
1A0
100
AcDbEntity
  8
0
100
AcDbBlockBegin
  2
*D14
 70
     1
 71
     0
 10
0.0
 20
0.0
 30
0.0
  3
*D14
  1

  0
INSERT
  5
1AD
330
1A0
100
AcDbEntity
  8
0
  6
CONTINUOUS
 62
     7
100
AcDbBlockReference
  2
_OPEN30
 10
115.0699974546
 20
119.3492691191
 30
7.6564975943
 41
3.0
 42
3.0
 50
90.0
  0
INSERT
  5
1AE
330
1A0
100
AcDbEntity
  8
0
  6
CONTINUOUS
 62
     7
100
AcDbBlockReference
  2
_OPEN30
 10
115.0699974546
 20
103.3495290652
 30
7.6564975943
 41
3.0
 42
3.0
 50
270.0
  0
LINE
  5
1AF
330
1A0
100
AcDbEntity
  8
0
  6
CONTINUOUS
 62
     7
100
AcDbLine
 10
87.4355535526
 20
119.3492691191
 30
0.0
 11
116.0699974546
 21
119.3492691191
 31
0.0
  0
LINE
  5
1B0
330
1A0
100
AcDbEntity
  8
0
  6
CONTINUOUS
 62
     7
100
AcDbLine
 10
87.4355535526
 20
103.3495290652
 30
0.0
 11
116.0699974546
 21
103.3495290652
 31
0.0
  0
LINE
  5
1B1
330
1A0
100
AcDbEntity
  8
0
  6
CONTINUOUS
 62
     7
100
AcDbLine
 10
115.0699974546
 20
119.3492691191
 30
0.0
 11
115.0699974546
 21
131.9118014999
 31
0.0
  0
LINE
  5
1B2
330
1A0
100
AcDbEntity
  8
0
  6
CONTINUOUS
 62
     7
100
AcDbLine
 10
115.0699974546
 20
119.3492691191
 30
0.0
 11
115.0699974546
 21
103.3495290652
 31
0.0
  0
MTEXT
  5
1B3
330
1A0
100
AcDbEntity
  8
0
  6
CONTINUOUS
 62
     7
100
AcDbMText
 10
110.9972704147
 20
126.2516475555
 30
0.0
 40
3.5
 41
0.0
 71
     1
 72
     1
  1
16
  7
SLDTEXTSTYLE0
 11
-7.044197039909883E-15
 21
1.0
 31
0.0
  0
ENDBLK
  5
1AC
330
1A0
100
AcDbEntity
  8
0
100
AcDbBlockEnd
  0
ENDSEC
  0
SECTION
  2
ENTITIES
  0
LINE
  5
2F
330
1F
100
AcDbEntity
  8
0
  6
CONTINUOUS
 62
     7
100
AcDbLine
 10
20.2604743903
 20
285.0
 30
0.0
 11
196.7604743903
 21
285.0
 31
0.0
  0
LINE
  5
30
330
1F
100
AcDbEntity
  8
0
  6
CONTINUOUS
 62
     7
100
AcDbLine
 10
20.2604743903
 20
285.0
 30
0.0
 11
20.2604743903
 21
10.0
 31
0.0
  0
LINE
  5
31
330
1F
100
AcDbEntity
  8
0
  6
CONTINUOUS
 62
     7
100
AcDbLine
 10
20.2604743903
 20
10.0
 30
0.0
 11
196.7604743903
 21
10.0
 31
0.0
  0
LINE
  5
32
330
1F
100
AcDbEntity
  8
0
  6
CONTINUOUS
 62
     7
100
AcDbLine
 10
196.7604743903
 20
285.0
 30
0.0
 11
196.7604743903
 21
10.0
 31
0.0
  0
LINE
  5
33
330
1F
100
AcDbEntity
  8
0
  6
CONTINUOUS
 62
     7
100
AcDbLine
 10
127.0104743903
 20
50.75
 30
0.0
 11
196.7604743903
 21
50.75
 31
0.0
  0
LINE
  5
34
330
1F
100
AcDbEntity
  8
0
  6
CONTINUOUS
 62
     7
100
AcDbLine
 10
127.0104743903
 20
50.75
 30
0.0
 11
127.0104743903
 21
10.0
 31
0.0
  0
LINE
  5
35
330
1F
100
AcDbEntity
  8
0
  6
CONTINUOUS
 62
     7
100
AcDbLine
 10
127.0104743903
 20
22.75
 30
0.0
 11
196.7604743903
 21
22.75
 31
0.0
  0
LINE
  5
36
330
1F
100
AcDbEntity
  8
0
  6
CONTINUOUS
 62
     7
100
AcDbLine
 10
127.0104743903
 20
36.75
 30
0.0
 11
196.7604743903
 21
36.75
 31
0.0
  0
MTEXT
  5
38
330
1F
100
AcDbEntity
  8
0
  6
CONTINUOUS
 62
     7
100
AcDbMText
 10
144.5488933939
 20
29.8861654089
 30
0.0
 40
4.2333333333
 41
0.0
 71
     1
 72
     1
  1
TMA-CL (12*10)
  7
SLDTEXTSTYLE0
  0
MTEXT
  5
39
330
1F
100
AcDbEntity
  8
0
  6
CONTINUOUS
 62
     7
100
AcDbMText
 10
134.5761629402
 20
43.4099790257
 30
0.0
 40
4.2333333333
 41
0.0
 71
     1
 72
     1
  1
クリップ・TAM・Φ12*Φ10
  7
SLDTEXTSTYLE0
  0
MTEXT
  5
3A
330
1F
100
AcDbEntity
  8
0
  6
CONTINUOUS
 62
     7
100
AcDbMText
 10
155.4450750568
 20
16.2918260795
 30
0.0
 40
4.2333333333
 41
0.0
 71
     1
 72
     1
  1
196564
  7
SLDTEXTSTYLE0
  0
LINE
  5
3B
330
1F
100
AcDbEntity
  8
0
  6
CENTERX2
 62
     7
100
AcDbLine
 10
68.3321864209
 20
203.2445438286
 30
0.0
 11
91.0653601501
 21
203.2445438286
 31
0.0
  0
LINE
  5
3C
330
1F
100
AcDbEntity
  8
0
  6
CONTINUOUS
 62
     7
100
AcDbLine
 10
59.4355535526
 20
181.7445438286
 30
0.0
 11
69.4355535526
 21
181.7445438286
 31
0.0
  0
LINE
  5
3D
330
1F
100
AcDbEntity
  8
0
  6
CONTINUOUS
 62
     7
100
AcDbLine
 10
69.4355535526
 20
196.7445438286
 30
0.0
 11
59.4355535526
 21
196.7445438286
 31
0.0
  0
LINE
  5
3E
330
1F
100
AcDbEntity
  8
0
  6
CONTINUOUS
 62
     7
100
AcDbLine
 10
47.4355535526
 20
165.1527316831
 30
0.0
 11
59.4355535526
 21
165.1527316831
 31
0.0
  0
ARC
  5
3F
330
1F
100
AcDbEntity
  8
0
  6
CONTINUOUS
 62
     7
100
AcDbCircle
 10
47.4355535526
 20
167.1527316831
 30
0.0
 40
2.000000000000028
100
AcDbArc
 50
180.0
 51
270.0
  0
ARC
  5
40
330
1F
100
AcDbEntity
  8
0
  6
CONTINUOUS
 62
     7
100
AcDbCircle
 10
47.4355535526
 20
211.3411281548
 30
0.0
 40
2.0
100
AcDbArc
 50
90.0
 51
180.0
  0
LINE
  5
41
330
1F
100
AcDbEntity
  8
0
  6
CONTINUOUS
 62
     7
100
AcDbLine
 10
59.4355535526
 20
213.3411281548
 30
0.0
 11
47.4355535526
 21
213.3411281548
 31
0.0
  0
LWPOLYLINE
  5
42
330
1F
100
AcDbEntity
  8
0
  6
CONTINUOUS
 62
     7
100
AcDbPolyline
 90
       15
 70
   128
 43
0.0
 10
78.7384913312
 20
192.2445438286
 10
78.737989459
 20
192.2470548313
 10
78.6378890642
 20
192.6141582134
 10
78.4832358011
 20
192.9545124657
 10
78.361768993
 20
193.0942493017
 10
78.2286278444
 20
193.1710470927
 10
78.1139945462
 20
193.1939360177
 10
78.0352179628
 20
193.1905638115
 10
77.9804203133
 20
193.1789850565
 10
77.9275087709
 20
193.1594527627
 10
77.8315779884
 20
193.0955146416
 10
77.7100235069
 20
192.9460847097
 10
77.5977672275
 20
192.7145702032
 10
77.4619706316
 20
192.2617315047
 10
77.4355535526
 20
192.1349869613
  0
ARC
  5
43
330
1F
100
AcDbEntity
  8
0
  6
CONTINUOUS
 62
     7
100
AcDbCircle
 10
137.3242261172
 20
180.3813770256
 30
0.0
 40
60.29607359150011
100
AcDbArc
 50
168.3624771037
 51
173.3357848504
  0
LWPOLYLINE
  5
44
330
1F
100
AcDbEntity
  8
0
  6
CONTINUOUS
 62
     7
100
AcDbPolyline
 90
        6
 70
   128
 43
0.0
 10
78.9636097926
 20
186.2445438286
 10
79.0386421327
 20
185.9427676042
 10
79.1500911239
 20
185.6389625745
 10
79.2504422684
 20
185.4696415648
 10
79.3599717568
 20
185.3662324738
 10
79.4355535526
 20
185.3383829103
  0
LINE
  5
45
330
1F
100
AcDbEntity
  8
0
  6
CONTINUOUS
 62
     7
100
AcDbLine
 10
69.4355535526
 20
181.2445438286
 30
0.0
 11
70.4355535526
 21
181.2445438286
 31
0.0
  0
LINE
  5
46
330
1F
100
AcDbEntity
  8
0
  6
CONTINUOUS
 62
     7
100
AcDbLine
 10
70.4355535526
 20
197.2445438286
 30
0.0
 11
69.4355535526
 21
197.2445438286
 31
0.0
  0
LINE
  5
47
330
1F
100
AcDbEntity
  8
0
  6
CONTINUOUS
 62
     7
100
AcDbLine
 10
79.4355535526
 20
192.2445438286
 30
0.0
 11
78.1807853913
 21
192.2445438286
 31
0.0
  0
LINE
  5
48
330
1F
100
AcDbEntity
  8
0
  6
CONTINUOUS
 62
     7
100
AcDbLine
 10
77.4583882431
 20
192.2445438286
 30
0.0
 11
77.4355535526
 21
192.2445438286
 31
0.0
  0
LINE
  5
49
330
1F
100
AcDbEntity
  8
0
  6
CONTINUOUS
 62
     7
100
AcDbLine
 10
77.4355535526
 20
186.2445438286
 30
0.0
 11
79.4355535526
 21
186.2445438286
 31
0.0
  0
LINE
  5
4A
330
1F
100
AcDbEntity
  8
0
  6
CONTINUOUS
 62
     7
100
AcDbLine
 10
106.4355535526
 20
197.2445438286
 30
0.0
 11
89.4355535526
 21
197.2445438286
 31
0.0
  0
LINE
  5
4B
330
1F
100
AcDbEntity
  8
0
  6
CONTINUOUS
 62
     7
100
AcDbLine
 10
89.4355535526
 20
181.2445438286
 30
0.0
 11
106.4355535526
 21
181.2445438286
 31
0.0
  0
LINE
  5
4C
330
1F
100
AcDbEntity
  8
0
  6
CONTINUOUS
 62
     7
100
AcDbLine
 10
89.4355535526
 20
196.2445438286
 30
0.0
 11
88.4355535526
 21
196.2445438286
 31
0.0
  0
LINE
  5
4D
330
1F
100
AcDbEntity
  8
0
  6
CONTINUOUS
 62
     7
100
AcDbLine
 10
88.4355535526
 20
182.2445438286
 30
0.0
 11
89.4355535526
 21
182.2445438286
 31
0.0
  0
LINE
  5
4E
330
1F
100
AcDbEntity
  8
0
  6
CONTINUOUS
 62
     7
100
AcDbLine
 10
88.4355535526
 20
196.2445438286
 30
0.0
 11
86.4355535526
 21
195.4445438286
 31
0.0
  0
LINE
  5
4F
330
1F
100
AcDbEntity
  8
0
  6
CONTINUOUS
 62
     7
100
AcDbLine
 10
86.4355535526
 20
183.0445438286
 30
0.0
 11
88.4355535526
 21
182.2445438286
 31
0.0
  0
LINE
  5
50
330
1F
100
AcDbEntity
  8
0
  6
CONTINUOUS
 62
     7
100
AcDbLine
 10
70.4355535526
 20
180.9944966957
 30
0.0
 11
77.4355535526
 21
180.9944966957
 31
0.0
  0
LINE
  5
51
330
1F
100
AcDbEntity
  8
0
  6
CONTINUOUS
 62
     7
100
AcDbLine
 10
79.4355535526
 20
180.9944966957
 30
0.0
 11
86.4355535526
 21
180.9944966957
 31
0.0
  0
LINE
  5
52
330
1F
100
AcDbEntity
  8
0
  6
CONTINUOUS
 62
     7
100
AcDbLine
 10
59.4355535526
 20
212.8516232318
 30
0.0
 11
59.4355535526
 21
165.8383179516
 31
0.0
  0
LINE
  5
53
330
1F
100
AcDbEntity
  8
0
  6
CONTINUOUS
 62
     7
100
AcDbLine
 10
45.4355535526
 20
167.1527316831
 30
0.0
 11
45.4355535526
 21
211.3411281548
 31
0.0
  0
LINE
  5
54
330
1F
100
AcDbEntity
  8
0
  6
CONTINUOUS
 62
     7
100
AcDbLine
 10
59.4355535526
 20
165.8383179516
 30
0.0
 11
59.4355535526
 21
165.1527316831
 31
0.0
  0
LINE
  5
55
330
1F
100
AcDbEntity
  8
0
  6
CONTINUOUS
 62
     7
100
AcDbLine
 10
59.4355535526
 20
213.3411281548
 30
0.0
 11
59.4355535526
 21
212.8516232318
 31
0.0
  0
LINE
  5
56
330
1F
100
AcDbEntity
  8
0
  6
CONTINUOUS
 62
     7
100
AcDbLine
 10
69.4355535526
 20
182.1137094334
 30
0.0
 11
69.4355535526
 21
181.2445438286
 31
0.0
  0
LINE
  5
57
330
1F
100
AcDbEntity
  8
0
  6
CONTINUOUS
 62
     7
100
AcDbLine
 10
69.4355535526
 20
197.2445438286
 30
0.0
 11
69.4355535526
 21
182.1137094334
 31
0.0
  0
ARC
  5
58
330
1F
100
AcDbEntity
  8
0
  6
CONTINUOUS
 62
     7
100
AcDbCircle
 10
99.415359922
 20
189.2866754808
 30
0.0
 40
4.920614673176625
100
AcDbArc
 50
89.7648641206
 51
156.1227327091
  0
ARC
  5
59
330
1F
100
AcDbEntity
  8
0
  6
CONTINUOUS
 62
     7
100
AcDbCircle
 10
99.4400805872
 20
189.2260602236
 30
0.0
 40
4.981190551181434
100
AcDbArc
 50
5.7726792466
 51
90.05207189
  0
LINE
  5
5A
330
1F
100
AcDbEntity
  8
0
  6
CONTINUOUS
 62
     7
100
AcDbLine
 10
89.4355535526
 20
181.2454645042
 30
0.0
 11
89.4355535526
 21
181.2445438286
 31
0.0
  0
LINE
  5
5B
330
1F
100
AcDbEntity
  8
0
  6
CONTINUOUS
 62
     7
100
AcDbLine
 10
89.4355535526
 20
197.2445438286
 30
0.0
 11
89.4355535526
 21
181.2454645042
 31
0.0
  0
LINE
  5
5C
330
1F
100
AcDbEntity
  8
0
  6
CONTINUOUS
 62
     7
100
AcDbLine
 10
106.4355535526
 20
181.2454645042
 30
0.0
 11
106.4355535526
 21
181.2445438286
 31
0.0
  0
LINE
  5
5D
330
1F
100
AcDbEntity
  8
0
  6
CONTINUOUS
 62
     7
100
AcDbLine
 10
106.4355535526
 20
197.2445438286
 30
0.0
 11
106.4355535526
 21
181.2454645042
 31
0.0
  0
ARC
  5
5E
330
1F
100
AcDbEntity
  8
0
  6
CONTINUOUS
 62
     7
100
AcDbCircle
 10
99.4332900601
 20
189.1533787695
 30
0.0
 40
4.99019950786268
100
AcDbArc
 50
3.2590306104
 51
172.1032517785
  0
CIRCLE
  5
5F
330
1F
100
AcDbEntity
  8
0
  6
CONTINUOUS
 62
     7
100
AcDbCircle
 10
99.4361857546
 20
189.3655957243
 30
0.0
 40
5.000632211927391
  0
ARC
  5
60
330
1F
100
AcDbEntity
  8
0
  6
CONTINUOUS
 62
     7
100
AcDbCircle
 10
99.4304900044
 20
189.3394805594
 30
0.0
 40
4.994949142045035
100
AcDbArc
 50
0.1316238915
 51
179.870845725
  0
LINE
  5
61
330
1F
100
AcDbEntity
  8
0
  6
CONTINUOUS
 62
     7
100
AcDbLine
 10
88.4355535526
 20
182.2453494198
 30
0.0
 11
88.4355535526
 21
182.2445438286
 31
0.0
  0
LINE
  5
62
330
1F
100
AcDbEntity
  8
0
  6
CONTINUOUS
 62
     7
100
AcDbLine
 10
88.4355535526
 20
196.2445438286
 30
0.0
 11
88.4355535526
 21
182.2453494198
 31
0.0
  0
ARC
  5
63
330
1F
100
AcDbEntity
  8
0
  6
CONTINUOUS
 62
     7
100
AcDbCircle
 10
99.4385030875
 20
189.1740050335
 30
0.0
 40
4.988263086735564
100
AcDbArc
 50
6.3657472844
 51
155.0468837698
  0
LINE
  5
64
330
1F
100
AcDbEntity
  8
0
  6
CONTINUOUS
 62
     7
100
AcDbLine
 10
70.4355535526
 20
184.4229947399
 30
0.0
 11
77.4355535526
 21
184.4229947399
 31
0.0
  0
LINE
  5
65
330
1F
100
AcDbEntity
  8
0
  6
CONTINUOUS
 62
     7
100
AcDbLine
 10
70.4355535526
 20
180.9944966957
 30
0.0
 11
70.4355535526
 21
184.4229947399
 31
0.0
  0
LINE
  5
66
330
1F
100
AcDbEntity
  8
0
  6
CONTINUOUS
 62
     7
100
AcDbLine
 10
77.4355535526
 20
184.4229947399
 30
0.0
 11
77.4355535526
 21
180.9944966957
 31
0.0
  0
LINE
  5
67
330
1F
100
AcDbEntity
  8
0
  6
CONTINUOUS
 62
     7
100
AcDbLine
 10
79.4355535526
 20
184.4229947399
 30
0.0
 11
86.4355535526
 21
184.4229947399
 31
0.0
  0
LINE
  5
68
330
1F
100
AcDbEntity
  8
0
  6
CONTINUOUS
 62
     7
100
AcDbLine
 10
86.4355535526
 20
180.9944966957
 30
0.0
 11
86.4355535526
 21
184.4229947399
 31
0.0
  0
LINE
  5
69
330
1F
100
AcDbEntity
  8
0
  6
CONTINUOUS
 62
     7
100
AcDbLine
 10
79.4355535526
 20
180.9944966957
 30
0.0
 11
79.4355535526
 21
184.4229947399
 31
0.0
  0
ARC
  5
6A
330
1F
100
AcDbEntity
  8
0
  6
CONTINUOUS
 62
     7
100
AcDbCircle
 10
78.4355535526
 20
200.8294902471
 30
0.0
 40
10.21030699817441
100
AcDbArc
 50
38.4158142202
 51
141.5841857798
  0
ARC
  5
6B
330
1F
100
AcDbEntity
  8
0
  6
CONTINUOUS
 62
     7
100
AcDbCircle
 10
78.4355535526
 20
203.0399845877
 30
0.0
 40
5.999966408552417
100
AcDbArc
 50
279.594122448
 51
260.405877552
  0
LINE
  5
6C
330
1F
100
AcDbEntity
  8
0
  6
CONTINUOUS
 62
     7
100
AcDbLine
 10
70.4355535526
 20
207.1738080983
 30
0.0
 11
70.4355535526
 21
184.4229947399
 31
0.0
  0
LINE
  5
6D
330
1F
100
AcDbEntity
  8
0
  6
CONTINUOUS
 62
     7
100
AcDbLine
 10
86.4355535526
 20
207.1738080983
 30
0.0
 11
86.4355535526
 21
184.4229947399
 31
0.0
  0
LINE
  5
6E
330
1F
100
AcDbEntity
  8
0
  6
CONTINUOUS
 62
     7
100
AcDbLine
 10
79.4355535526
 20
197.1239388725
 30
0.0
 11
79.4355535526
 21
184.4229947399
 31
0.0
  0
LINE
  5
6F
330
1F
100
AcDbEntity
  8
0
  6
CONTINUOUS
 62
     7
100
AcDbLine
 10
77.4355535526
 20
197.1239388725
 30
0.0
 11
77.4355535526
 21
184.4229947399
 31
0.0
  0
ARC
  5
70
330
1F
100
AcDbEntity
  8
0
  6
CONTINUOUS
 62
     7
100
AcDbCircle
 10
78.4355535526
 20
202.9486413756
 30
0.0
 40
6.000000579785836
100
AcDbArc
 50
0.4362070813
 51
179.5637929191
  0
DIMENSION
  5
71
330
1F
100
AcDbEntity
  8
0
  6
CONTINUOUS
 62
     7
100
AcDbDimension
  2
*D1
 10
118.6207222461
 20
189.2445438286
 30
0.0
 11
118.6207222461
 21
196.6077215926
 31
0.0
 70
   160
  3
SLDDIMSTYLE0
100
AcDbAlignedDimension
 13
91.0653601501
 23
203.2445438286
 33
0.0
 14
111.9565011329
 24
189.2445438286
 34
0.0
 50
90.0
100
AcDbRotatedDimension
1001
ACAD
1000
DSTYLE
1002
{
1070
    77
1070
     3
1070
   143
1040
0.0393700787
1070
    41
1040
3.0
1070
    44
1040
1.0
1070
    42
1040
1.0
1070
   147
1040
1.524
1070
    73
1070
     0
1070
    74
1070
     0
1070
   140
1040
3.5
1070
   284
1070
    12
1070
    78
1070
    12
1002
}
  0
DIMENSION
  5
8F
330
1F
100
AcDbEntity
  8
0
  6
CONTINUOUS
 62
     7
100
AcDbDimension
  2
*D3
 10
99.4355535526
 20
225.4305648792
 30
0.0
 11
91.4398797135
 21
225.4305648792
 31
0.0
 70
   160
  3
SLDDIMSTYLE0
100
AcDbAlignedDimension
 13
78.4355535526
 23
205.0399225392
 33
0.0
 14
99.4355535526
 24
198.5248924038
 34
0.0
 50
0.0
100
AcDbRotatedDimension
1001
ACAD
1000
DSTYLE
1002
{
1070
    77
1070
     3
1070
   143
1040
0.0393700787
1070
    41
1040
3.0
1070
    44
1040
1.0
1070
    42
1040
1.0
1070
   147
1040
1.524
1070
    73
1070
     0
1070
    74
1070
     0
1070
   140
1040
3.5
1070
   284
1070
    12
1070
    78
1070
    12
1002
}
  0
DIMENSION
  5
A2
330
1F
100
AcDbEntity
  8
0
  6
CONTINUOUS
 62
     7
100
AcDbDimension
  2
*D4
 10
106.4355535526
 20
225.4305648792
 30
0.0
 11
103.0909713743
 21
225.4305648792
 31
0.0
 70
   160
  3
SLDDIMSTYLE0
100
AcDbAlignedDimension
 13
99.4355535526
 23
198.5248924038
 33
0.0
 14
106.4355535526
 24
197.2445438286
 34
0.0
 50
0.0
100
AcDbRotatedDimension
1001
ACAD
1000
DSTYLE
1002
{
1070
    77
1070
     3
1070
   143
1040
0.0393700787
1070
    41
1040
3.0
1070
    44
1040
1.0
1070
    42
1040
1.0
1070
   147
1040
1.524
1070
    73
1070
     0
1070
    74
1070
     0
1070
   140
1040
3.5
1070
   284
1070
    12
1070
    78
1070
    12
1002
}
  0
DIMENSION
  5
B9
330
1F
100
AcDbEntity
  8
0
  6
CONTINUOUS
 62
     7
100
AcDbDimension
  2
*D5
 10
79.4355535526
 20
172.0765916991
 30
0.0
 11
92.5858979234
 21
172.0765916991
 31
0.0
 70
   160
  3
SLDDIMSTYLE0
100
AcDbAlignedDimension
 13
77.4355535526
 23
180.9944966957
 33
0.0
 14
79.4355535526
 24
180.9944966957
 34
0.0
 50
0.0
100
AcDbRotatedDimension
1001
ACAD
1000
DSTYLE
1002
{
1070
    77
1070
     3
1070
   143
1040
0.0393700787
1070
    41
1040
3.0
1070
    44
1040
1.0
1070
    42
1040
1.0
1070
   147
1040
1.524
1070
    73
1070
     0
1070
    74
1070
     0
1070
   140
1040
3.5
1070
   284
1070
    12
1070
    78
1070
    12
1002
}
  0
DIMENSION
  5
D1
330
1F
100
AcDbEntity
  8
0
  6
CONTINUOUS
 62
     7
100
AcDbDimension
  2
*D6
 10
35.6587427097
 20
165.1527316831
 30
0.0
 11
35.6587427097
 21
188.5525825303
 31
0.0
 70
   160
  3
SLDDIMSTYLE0
100
AcDbAlignedDimension
 13
47.4355535526
 23
212.8516232318
 33
0.0
 14
47.4355535526
 24
165.1527316831
 34
0.0
 50
90.0
100
AcDbRotatedDimension
1001
ACAD
1000
DSTYLE
1002
{
1070
    77
1070
     3
1070
   143
1040
0.0393700787
1070
    41
1040
3.0
1070
    44
1040
1.0
1070
    42
1040
1.0
1070
   147
1040
1.524
1070
    73
1070
     0
1070
    74
1070
     0
1070
   140
1040
3.5
1070
   284
1070
    12
1070
    78
1070
    12
1002
}
  0
DIMENSION
  5
E5
330
1F
100
AcDbEntity
  8
0
  6
CONTINUOUS
 62
     7
100
AcDbDimension
  2
*D7
 10
78.4355535526
 20
225.3540943754
 30
0.0
 11
66.2049161416
 21
225.3540943754
 31
0.0
 70
   160
  1
(<>)
  3
SLDDIMSTYLE0
100
AcDbAlignedDimension
 13
45.4355535526
 23
211.3411281548
 33
0.0
 14
78.4355535526
 24
205.0399225392
 34
0.0
 50
0.0
100
AcDbRotatedDimension
1001
ACAD
1000
DSTYLE
1002
{
1070
    77
1070
     3
1070
   143
1040
0.0393700787
1070
    41
1040
3.0
1070
    44
1040
1.0
1070
    42
1040
1.0
1070
   147
1040
1.524
1070
    73
1070
     0
1070
    74
1070
     0
1070
   140
1040
3.5
1070
   284
1070
    12
1070
    78
1070
    12
1002
}
  0
DIMENSION
  5
FA
330
1F
100
AcDbEntity
  8
0
  6
CONTINUOUS
 62
     7
100
AcDbDimension
  2
*D8
 10
106.4355535526
 20
236.6378020141
 30
0.0
 11
81.7035473971
 21
236.6378020141
 31
0.0
 70
   160
  3
SLDDIMSTYLE0
100
AcDbAlignedDimension
 13
45.4355535526
 23
211.3411281548
 33
0.0
 14
106.4355535526
 24
197.2445438286
 34
0.0
 50
0.0
100
AcDbRotatedDimension
1001
ACAD
1000
DSTYLE
1002
{
1070
    77
1070
     3
1070
   143
1040
0.0393700787
1070
    41
1040
3.0
1070
    44
1040
1.0
1070
    42
1040
1.0
1070
   147
1040
1.524
1070
    73
1070
     0
1070
    74
1070
     0
1070
   140
1040
3.5
1070
   284
1070
    12
1070
    78
1070
    12
1002
}
  0
INSERT
  5
112
102
{ACAD_REACTORS
330
114
102
}
330
1F
100
AcDbEntity
  8
0
  6
CONTINUOUS
 62
     7
100
AcDbBlockReference
  2
SW_NOTE_0
 10
122.8588208146
 20
175.9010224162
 30
0.0
  0
LEADER
  5
114
330
1F
100
AcDbEntity
  8
0
  6
CONTINUOUS
 62
     7
100
AcDbLeader
  3
SLDDIMSTYLE1
 73
     2
 76
     3
 10
103.9079475938
 20
187.1257814089
 30
0.0
 10
114.4150982719
 20
175.9010224162
 30
0.0
 10
122.8588208146
 20
175.9010224162
 30
0.0
340
112
1001
ACAD
1000
DSTYLE
1002
{
1070
     6
1000

1002
}
  0
INSERT
  5
11A
102
{ACAD_REACTORS
330
11B
102
}
330
1F
100
AcDbEntity
  8
0
  6
CONTINUOUS
 62
     7
100
AcDbBlockReference
  2
SW_NOTE_1
 10
118.6727751131
 20
213.9250583144
 30
0.0
  0
LEADER
  5
11B
330
1F
100
AcDbEntity
  8
0
  6
CONTINUOUS
 62
     7
100
AcDbLeader
  3
SLDDIMSTYLE1
 73
     2
 76
     3
 10
84.0531461078
 20
205.1476486906
 30
0.0
 10
110.2290525704
 20
213.9250583144
 30
0.0
 10
118.6727751131
 20
213.9250583144
 30
0.0
340
11A
1001
ACAD
1000
DSTYLE
1002
{
1070
     6
1000

1002
}
  0
LINE
  5
11C
330
1F
100
AcDbEntity
  8
0
  6
CENTERX2
 62
     7
100
AcDbLine
 10
90.4355535526
 20
189.2445438286
 30
0.0
 11
111.9565011329
 21
189.2445438286
 31
0.0
  0
LINE
  5
11D
330
1F
100
AcDbEntity
  8
0
  6
CENTERX2
 62
     7
100
AcDbLine
 10
99.4355535526
 20
198.5248924038
 30
0.0
 11
99.4355535526
 21
181.1730724247
 31
0.0
  0
LINE
  5
11E
330
1F
100
AcDbEntity
  8
0
  6
CENTERX2
 62
     7
100
AcDbLine
 10
68.4355535526
 20
192.1455854506
 30
0.0
 11
88.4355535526
 21
192.1455854506
 31
0.0
  0
LINE
  5
11F
330
1F
100
AcDbEntity
  8
0
  6
CENTERX2
 62
     7
100
AcDbLine
 10
78.4355535526
 20
205.0399225392
 30
0.0
 11
78.4355535526
 21
198.7385426408
 31
0.0
  0
LINE
  5
120
330
1F
100
AcDbEntity
  8
0
  6
CENTERX2
 62
     7
100
AcDbLine
 10
39.9729813859
 20
189.2445438286
 30
0.0
 11
90.4355535526
 21
189.2445438286
 31
0.0
  0
LINE
  5
121
330
1F
100
AcDbEntity
  8
0
  6
CONTINUOUS
 62
     7
100
AcDbLine
 10
175.2447404885
 20
210.9485883626
 30
0.0
 11
159.2450004346
 21
211.0397925662
 31
0.0
  0
ARC
  5
122
330
1F
100
AcDbEntity
  8
0
  6
CONTINUOUS
 62
     7
100
AcDbCircle
 10
168.6582449809
 20
211.3411281548
 30
0.0
 40
2.000000000000025
100
AcDbArc
 50
41.0871987863
 51
130.9529961616
  0
ARC
  5
123
330
1F
100
AcDbEntity
  8
0
  6
CONTINUOUS
 62
     7
100
AcDbCircle
 10
145.0785477564
 20
190.780522828
 30
0.0
 40
33.28483039120796
100
AcDbArc
 50
310.9529961616
 51
25.140024734
  0
ARC
  5
124
330
1F
100
AcDbEntity
  8
0
  6
CONTINUOUS
 62
     7
100
AcDbCircle
 10
145.0785477564
 20
190.780522828
 30
0.0
 40
33.28483039120795
100
AcDbArc
 50
37.3410299583
 51
41.0871987863
  0
ARC
  5
125
330
1F
100
AcDbEntity
  8
0
  6
CONTINUOUS
 62
     7
100
AcDbCircle
 10
165.5838665351
 20
167.1527316831
 30
0.0
 40
2.000000000000004
100
AcDbArc
 50
221.0871987863
 51
310.9529961616
  0
ARC
  5
126
330
1F
100
AcDbEntity
  8
0
  6
CONTINUOUS
 62
     7
100
AcDbCircle
 10
189.1635637596
 20
187.7133370099
 30
0.0
 40
33.28483039120802
100
AcDbArc
 50
130.9529961616
 51
135.5921067583
  0
ARC
  5
127
330
1F
100
AcDbEntity
  8
0
  6
CONTINUOUS
 62
     7
100
AcDbCircle
 10
189.1635637596
 20
187.7133370099
 30
0.0
 40
33.28483039120798
100
AcDbArc
 50
154.2079900351
 51
221.0871987863
  0
ARC
  5
128
330
1F
100
AcDbEntity
  8
0
  6
CONTINUOUS
 62
     7
100
AcDbCircle
 10
145.0785477564
 20
190.780522828
 30
0.0
 40
30.28483039120795
100
AcDbArc
 50
312.8729151992
 51
346.7058214511
  0
ARC
  5
129
330
1F
100
AcDbEntity
  8
0
  6
CONTINUOUS
 62
     7
100
AcDbCircle
 10
145.0785477564
 20
190.780522828
 30
0.0
 40
30.28483039120795
100
AcDbArc
 50
352.5449065526
 51
6.8018879177
  0
ARC
  5
12A
330
1F
100
AcDbEntity
  8
0
  6
CONTINUOUS
 62
     7
100
AcDbCircle
 10
189.1635637596
 20
187.7133370099
 30
0.0
 40
30.28483039120797
100
AcDbArc
 50
172.5495551105
 51
219.1672797486
  0
CIRCLE
  5
12B
330
1F
100
AcDbEntity
  8
0
  6
CONTINUOUS
 62
     7
100
AcDbCircle
 10
167.1208897474
 20
189.2445438286
 30
0.0
 40
8.000000000000005
  0
LINE
  5
12C
330
1F
100
AcDbEntity
  8
0
  6
CONTINUOUS
 62
     7
100
AcDbLine
 10
159.2229629494
 20
207.1738080983
 30
0.0
 11
159.0932752291
 21
184.4229947399
 31
0.0
  0
LINE
  5
12D
330
1F
100
AcDbEntity
  8
0
  6
CONTINUOUS
 62
     7
100
AcDbLine
 10
159.2229629494
 20
207.1738080983
 30
0.0
 11
175.2227030034
 21
207.0826038947
 31
0.0
  0
LINE
  5
12E
330
1F
100
AcDbEntity
  8
0
  6
CONTINUOUS
 62
     7
100
AcDbLine
 10
175.0930152831
 20
184.3317905363
 30
0.0
 11
175.2227030034
 21
207.0826038947
 31
0.0
  0
ARC
  5
12F
330
1F
100
AcDbEntity
  8
0
  6
CONTINUOUS
 62
     7
100
AcDbCircle
 10
167.1374267154
 20
192.1455854506
 30
0.0
 40
11.15108875486258
100
AcDbArc
 50
223.8316215738
 51
315.5151728965
  0
LINE
  5
130
330
1F
100
AcDbEntity
  8
0
  6
CONTINUOUS
 62
     7
100
AcDbLine
 10
159.2229629494
 20
207.1738080983
 30
0.0
 11
159.2450004346
 21
211.0397925662
 31
0.0
  0
LINE
  5
131
330
1F
100
AcDbEntity
  8
0
  6
CONTINUOUS
 62
     7
100
AcDbLine
 10
175.2447404885
 20
210.9485883626
 30
0.0
 11
175.2227030034
 21
207.0826038947
 31
0.0
  0
DIMENSION
  5
132
330
1F
100
AcDbEntity
  8
0
  6
CONTINUOUS
 62
     7
100
AcDbDimension
  2
*D11
 10
175.3162996259
 20
223.5020404031
 30
0.0
 11
167.8459932675
 21
223.5446238038
 31
0.0
 70
   160
  3
SLDDIMSTYLE0
100
AcDbAlignedDimension
 13
159.2450004346
 23
211.0397925662
 33
0.0
 14
175.2447404885
 24
210.9485883626
 34
0.0
 50
-0.3266027649
100
AcDbRotatedDimension
1001
ACAD
1000
DSTYLE
1002
{
1070
    77
1070
     3
1070
   143
1040
0.0393700787
1070
    41
1040
3.0
1070
    44
1040
1.0
1070
    42
1040
1.0
1070
   147
1040
1.524
1070
    73
1070
     0
1070
    74
1070
     0
1070
   140
1040
3.5
1070
   284
1070
    12
1070
    78
1070
    12
1002
}
  0
DIMENSION
  5
148
330
1F
100
AcDbEntity
  8
0
  6
CONTINUOUS
 62
     7
100
AcDbDimension
  2
*D12
 10
178.3633781476
 20
152.866810621
 30
0.0
 11
166.5781171826
 21
152.866810621
 31
0.0
 70
   160
  3
SLDDIMSTYLE0
100
AcDbAlignedDimension
 13
155.8787333684
 23
187.7133370099
 33
0.0
 14
178.3633781476
 24
190.780522828
 34
0.0
100
AcDbRotatedDimension
1001
ACAD
1000
DSTYLE
1002
{
1070
    77
1070
     3
1070
   143
1040
0.0393700787
1070
    41
1040
3.0
1070
    44
1040
1.0
1070
    42
1040
1.0
1070
   147
1040
1.524
1070
    73
1070
     0
1070
    74
1070
     0
1070
   140
1040
3.5
1070
   284
1070
    12
1070
    78
1070
    12
1002
}
  0
INSERT
  5
168
330
1F
100
AcDbEntity
  8
0
  6
CONTINUOUS
 62
     7
100
AcDbBlockReference
  2
SW_CENTERMARKSYMBOL_0
 10
167.1208897474
 20
189.2445438286
 30
0.0
  0
ARC
  5
169
330
1F
100
AcDbEntity
  8
0
  6
CONTINUOUS
 62
     7
100
AcDbCircle
 10
47.4355535526
 20
102.0791662007
 30
0.0
 40
2.0
100
AcDbArc
 50
180.0
 51
270.0
  0
LINE
  5
16A
330
1F
100
AcDbEntity
  8
0
  6
CONTINUOUS
 62
     7
100
AcDbLine
 10
47.4355535526
 20
100.0791662007
 30
0.0
 11
59.4355535526
 21
100.0791662007
 31
0.0
  0
ARC
  5
16B
330
1F
100
AcDbEntity
  8
0
  6
CONTINUOUS
 62
     7
100
AcDbCircle
 10
47.4355535526
 20
120.5638109799
 30
0.0
 40
2.000000000000028
100
AcDbArc
 50
90.0
 51
180.0
  0
LINE
  5
16C
330
1F
100
AcDbEntity
  8
0
  6
CONTINUOUS
 62
     7
100
AcDbLine
 10
59.4355535526
 20
122.5638109799
 30
0.0
 11
47.4355535526
 21
122.5638109799
 31
0.0
  0
LINE
  5
16D
330
1F
100
AcDbEntity
  8
0
  6
CONTINUOUS
 62
     7
100
AcDbLine
 10
59.4355535526
 20
103.8216546009
 30
0.0
 11
69.4355535526
 21
103.8216546009
 31
0.0
  0
LINE
  5
16E
330
1F
100
AcDbEntity
  8
0
  6
CONTINUOUS
 62
     7
100
AcDbLine
 10
69.4355535526
 20
118.8216546009
 30
0.0
 11
59.4355535526
 21
118.8216546009
 31
0.0
  0
ARC
  5
16F
330
1F
100
AcDbEntity
  8
0
  6
CONTINUOUS
 62
     7
100
AcDbCircle
 10
19.6440462108
 20
119.865528035
 30
0.0
 40
60.21469880465417
100
AcDbArc
 50
348.660894499
 51
353.2031215762
  0
LWPOLYLINE
  5
170
330
1F
100
AcDbEntity
  8
0
  6
CONTINUOUS
 62
     7
100
AcDbPolyline
 90
        6
 70
   128
 43
0.0
 10
77.9792313187
 20
114.3216546009
 10
77.8898253865
 20
114.6759289732
 10
77.7441873587
 20
115.0255460813
 10
77.6144971049
 20
115.1761303489
 10
77.4729125065
 20
115.2526476418
 10
77.4355535526
 20
115.2588470564
  0
ARC
  5
171
330
1F
100
AcDbEntity
  8
0
  6
CONTINUOUS
 62
     7
100
AcDbCircle
 10
76.9463018973
 20
114.5550360922
 30
0.0
 40
0.5202348220760604
100
AcDbArc
 50
340.1262345892
 51
2.9660952592
  0
LWPOLYLINE
  5
172
330
1F
100
AcDbEntity
  8
0
  6
CONTINUOUS
 62
     7
100
AcDbPolyline
 90
       12
 70
   128
 43
0.0
 10
78.2087111041
 20
108.3216546009
 10
78.2436571306
 20
108.1557487415
 10
78.3219431085
 20
107.8860758813
 10
78.3963484911
 20
107.7055517641
 10
78.5064874197
 20
107.5360971905
 10
78.6319314752
 20
107.4310413436
 10
78.8303198226
 20
107.3720561583
 10
78.9529498275
 20
107.3851404054
 10
79.0942276324
 20
107.4511805306
 10
79.2774074276
 20
107.6719626518
 10
79.3904980671
 20
107.9732546402
 10
79.4355535526
 20
108.1547959127
  0
LINE
  5
173
330
1F
100
AcDbEntity
  8
0
  6
CONTINUOUS
 62
     7
100
AcDbLine
 10
69.4355535526
 20
103.3216546009
 30
0.0
 11
70.4355535526
 21
103.3216546009
 31
0.0
  0
LINE
  5
174
330
1F
100
AcDbEntity
  8
0
  6
CONTINUOUS
 62
     7
100
AcDbLine
 10
70.4355535526
 20
119.3216546009
 30
0.0
 11
69.4355535526
 21
119.3216546009
 31
0.0
  0
LINE
  5
175
330
1F
100
AcDbEntity
  8
0
  6
CONTINUOUS
 62
     7
100
AcDbLine
 10
79.4355535526
 20
114.3216546009
 30
0.0
 11
77.4355535526
 21
114.3216546009
 31
0.0
  0
LINE
  5
176
330
1F
100
AcDbEntity
  8
0
  6
CONTINUOUS
 62
     7
100
AcDbLine
 10
77.4355535526
 20
108.3216546009
 30
0.0
 11
78.7593982643
 21
108.3216546009
 31
0.0
  0
LINE
  5
177
330
1F
100
AcDbEntity
  8
0
  6
CONTINUOUS
 62
     7
100
AcDbLine
 10
94.4438045777
 20
119.3216546009
 30
0.0
 11
89.4355535526
 21
119.3216546009
 31
0.0
  0
LINE
  5
178
330
1F
100
AcDbEntity
  8
0
  6
CONTINUOUS
 62
     7
100
AcDbLine
 10
106.4355535526
 20
119.3216546009
 30
0.0
 11
104.4204242336
 21
119.3216546009
 31
0.0
  0
LINE
  5
179
330
1F
100
AcDbEntity
  8
0
  6
CONTINUOUS
 62
     7
100
AcDbLine
 10
104.4204242336
 20
103.3216546009
 30
0.0
 11
106.4355535526
 21
103.3216546009
 31
0.0
  0
LINE
  5
17A
330
1F
100
AcDbEntity
  8
0
  6
CONTINUOUS
 62
     7
100
AcDbLine
 10
89.4355535526
 20
103.3216546009
 30
0.0
 11
94.4438045777
 21
103.3216546009
 31
0.0
  0
LINE
  5
17B
330
1F
100
AcDbEntity
  8
0
  6
CONTINUOUS
 62
     7
100
AcDbLine
 10
88.4355535526
 20
118.3216546009
 30
0.0
 11
86.4355535526
 21
117.5216546009
 31
0.0
  0
LINE
  5
17C
330
1F
100
AcDbEntity
  8
0
  6
CONTINUOUS
 62
     7
100
AcDbLine
 10
86.4355535526
 20
105.1216546009
 30
0.0
 11
88.4355535526
 21
104.3216546009
 31
0.0
  0
LINE
  5
17D
330
1F
100
AcDbEntity
  8
0
  6
CONTINUOUS
 62
     7
100
AcDbLine
 10
89.4355535526
 20
118.3216546009
 30
0.0
 11
88.4355535526
 21
118.3216546009
 31
0.0
  0
LINE
  5
17E
330
1F
100
AcDbEntity
  8
0
  6
CONTINUOUS
 62
     7
100
AcDbLine
 10
88.4355535526
 20
104.3216546009
 30
0.0
 11
89.4355535526
 21
104.3216546009
 31
0.0
  0
LINE
  5
17F
330
1F
100
AcDbEntity
  8
0
  6
CONTINUOUS
 62
     7
100
AcDbLine
 10
45.4355535526
 20
102.0791662007
 30
0.0
 11
45.4355535526
 21
112.8586778132
 31
0.0
  0
LINE
  5
180
330
1F
100
AcDbEntity
  8
0
  6
CONTINUOUS
 62
     7
100
AcDbLine
 10
59.4355535526
 20
111.5477984814
 30
0.0
 11
59.4355535526
 21
100.0791662007
 31
0.0
  0
LINE
  5
181
330
1F
100
AcDbEntity
  8
0
  6
CONTINUOUS
 62
     7
100
AcDbLine
 10
59.4355535526
 20
114.3660983061
 30
0.0
 11
59.4355535526
 21
111.5477984814
 31
0.0
  0
LINE
  5
182
330
1F
100
AcDbEntity
  8
0
  6
CONTINUOUS
 62
     7
100
AcDbLine
 10
45.4355535526
 20
112.8586778132
 30
0.0
 11
45.4355535526
 21
120.5638109799
 31
0.0
  0
LINE
  5
183
330
1F
100
AcDbEntity
  8
0
  6
CONTINUOUS
 62
     7
100
AcDbLine
 10
59.4355535526
 20
122.5638109799
 30
0.0
 11
59.4355535526
 21
114.3660983061
 31
0.0
  0
LINE
  5
184
330
1F
100
AcDbEntity
  8
0
  6
CONTINUOUS
 62
     7
100
AcDbLine
 10
69.4355535526
 20
114.9481130425
 30
0.0
 11
69.4355535526
 21
103.3216546009
 31
0.0
  0
LINE
  5
185
330
1F
100
AcDbEntity
  8
0
  6
CONTINUOUS
 62
     7
100
AcDbLine
 10
69.4355535526
 20
119.3216546009
 30
0.0
 11
69.4355535526
 21
114.9481130425
 31
0.0
  0
LINE
  5
186
330
1F
100
AcDbEntity
  8
0
  6
CONTINUOUS
 62
     7
100
AcDbLine
 10
89.4355535526
 20
111.4430216552
 30
0.0
 11
89.4355535526
 21
103.3216546009
 31
0.0
  0
LINE
  5
187
330
1F
100
AcDbEntity
  8
0
  6
CONTINUOUS
 62
     7
100
AcDbLine
 10
89.4355535526
 20
119.3216546009
 30
0.0
 11
89.4355535526
 21
111.4430216552
 31
0.0
  0
LINE
  5
188
330
1F
100
AcDbEntity
  8
0
  6
CONTINUOUS
 62
     7
100
AcDbLine
 10
106.4355535526
 20
111.4430216552
 30
0.0
 11
106.4355535526
 21
103.3216546009
 31
0.0
  0
LINE
  5
189
330
1F
100
AcDbEntity
  8
0
  6
CONTINUOUS
 62
     7
100
AcDbLine
 10
106.4355535526
 20
119.3216546009
 30
0.0
 11
106.4355535526
 21
111.4430216552
 31
0.0
  0
LWPOLYLINE
  5
18A
330
1F
100
AcDbEntity
  8
0
  6
CONTINUOUS
 62
     7
100
AcDbPolyline
 90
       22
 70
   128
 43
0.0
 10
94.4355535526
 20
103.3225752765
 10
94.4917372362
 20
103.3689047627
 10
94.6642561313
 20
103.4861490378
 10
94.9338551873
 20
103.6571563157
 10
95.3039716496
 20
103.8772497103
 10
95.7855651807
 20
104.1409062518
 10
96.3639094358
 20
104.4227827927
 10
97.0939584371
 20
104.7198812626
 10
97.9365715142
 20
104.972380445
 10
98.5865829814
 20
105.0946927976
 10
99.2790506824
 20
105.1512320583
 10
99.9582864092
 20
105.130977251
 10
100.6423613011
 20
105.0354650078
 10
101.2633184812
 20
104.8860329426
 10
101.8558566738
 20
104.6911990123
 10
102.4847461561
 20
104.4329252525
 10
103.053366083
 20
104.1576033815
 10
103.5986528151
 20
103.8591055336
 10
104.0337894262
 20
103.5970969345
 10
104.3001195107
 20
103.4240411882
 10
104.4283448301
 20
103.331150001
 10
104.4204242336
 20
103.3301795282
  0
LWPOLYLINE
  5
18B
330
1F
100
AcDbEntity
  8
0
  6
CONTINUOUS
 62
     7
100
AcDbPolyline
 90
       20
 70
   128
 43
0.0
 10
104.4133135452
 20
103.3293082896
 10
104.2846831082
 20
103.3974881642
 10
104.0665065602
 20
103.5192630823
 10
103.753997655
 20
103.6916046643
 10
103.327818568
 20
103.9162376303
 10
102.8069063461
 20
104.1695519292
 10
102.1337272299
 20
104.4556248266
 10
101.3509543467
 20
104.7202055863
 10
100.6957064851
 20
104.8781119487
 10
99.9860635743
 20
104.9777674895
 10
99.2763366276
 20
104.9995303003
 10
98.5477179019
 20
104.9399385776
 10
97.9199457136
 20
104.8238291479
 10
97.3140038638
 20
104.6581994372
 10
96.68667926
 20
104.4358592429
 10
96.1101354373
 20
104.1906266243
 10
95.5249092665
 20
103.9068486397
 10
95.0364958668
 20
103.6476493876
 10
94.690464482
 20
103.4554408618
 10
94.481694727
 20
103.3410474553
  0
LINE
  5
18C
330
1F
100
AcDbEntity
  8
0
  6
CONTINUOUS
 62
     7
100
AcDbLine
 10
94.4438045777
 20
103.3258784957
 30
0.0
 11
94.4355535526
 21
103.3225752765
 31
0.0
  0
LWPOLYLINE
  5
18D
330
1F
100
AcDbEntity
  8
0
  6
CONTINUOUS
 62
     7
100
AcDbPolyline
 90
       22
 70
   128
 43
0.0
 10
104.4204242336
 20
119.3131296737
 10
104.4133135452
 20
119.3140009123
 10
104.2846831082
 20
119.2458210377
 10
104.0665065602
 20
119.1240461195
 10
103.753997655
 20
118.9517045376
 10
103.327818568
 20
118.7270715715
 10
102.8069063461
 20
118.4737572727
 10
102.1337272299
 20
118.1876843752
 10
101.3509543467
 20
117.9231036155
 10
100.6957064851
 20
117.7651972532
 10
99.9860635743
 20
117.6655417123
 10
99.2763366276
 20
117.6437789015
 10
98.5477179019
 20
117.7033706243
 10
97.9199457136
 20
117.819480054
 10
97.3140038638
 20
117.9851097647
 10
96.68667926
 20
118.207449959
 10
96.1101354373
 20
118.4526825776
 10
95.5249092665
 20
118.7364605622
 10
95.0364958668
 20
118.9956598142
 10
94.690464482
 20
119.1878683401
 10
94.481694727
 20
119.3022617466
 10
94.4438045777
 20
119.3174307062
  0
LINE
  5
18E
330
1F
100
AcDbEntity
  8
0
  6
CONTINUOUS
 62
     7
100
AcDbLine
 10
88.4355535526
 20
111.4278507734
 30
0.0
 11
88.4355535526
 21
104.3216546009
 31
0.0
  0
LINE
  5
18F
330
1F
100
AcDbEntity
  8
0
  6
CONTINUOUS
 62
     7
100
AcDbLine
 10
88.4355535526
 20
118.3216546009
 30
0.0
 11
88.4355535526
 21
111.4278507734
 31
0.0
  0
LINE
  5
190
330
1F
100
AcDbEntity
  8
0
  6
CONTINUOUS
 62
     7
100
AcDbLine
 10
70.4355535526
 20
103.3495290652
 30
0.0
 11
77.4355535526
 21
103.3495290652
 31
0.0
  0
LINE
  5
191
330
1F
100
AcDbEntity
  8
0
  6
CONTINUOUS
 62
     7
100
AcDbLine
 10
70.4355535526
 20
103.3495290652
 30
0.0
 11
70.4355535526
 21
119.3492691191
 31
0.0
  0
LINE
  5
192
330
1F
100
AcDbEntity
  8
0
  6
CONTINUOUS
 62
     7
100
AcDbLine
 10
70.4355535526
 20
119.3492691191
 30
0.0
 11
77.4355535526
 21
119.3492691191
 31
0.0
  0
LINE
  5
193
330
1F
100
AcDbEntity
  8
0
  6
CONTINUOUS
 62
     7
100
AcDbLine
 10
77.4355535526
 20
119.3492691191
 30
0.0
 11
77.4355535526
 21
103.3495290652
 31
0.0
  0
LINE
  5
194
330
1F
100
AcDbEntity
  8
0
  6
CONTINUOUS
 62
     7
100
AcDbLine
 10
79.4355535526
 20
119.3492691191
 30
0.0
 11
86.4355535526
 21
119.3492691191
 31
0.0
  0
LINE
  5
195
330
1F
100
AcDbEntity
  8
0
  6
CONTINUOUS
 62
     7
100
AcDbLine
 10
86.4355535526
 20
103.3495290652
 30
0.0
 11
86.4355535526
 21
119.3492691191
 31
0.0
  0
LINE
  5
196
330
1F
100
AcDbEntity
  8
0
  6
CONTINUOUS
 62
     7
100
AcDbLine
 10
79.4355535526
 20
103.3495290652
 30
0.0
 11
86.4355535526
 21
103.3495290652
 31
0.0
  0
LINE
  5
197
330
1F
100
AcDbEntity
  8
0
  6
CONTINUOUS
 62
     7
100
AcDbLine
 10
79.4355535526
 20
103.3495290652
 30
0.0
 11
79.4355535526
 21
119.3492691191
 31
0.0
  0
LWPOLYLINE
  5
198
330
1F
100
AcDbEntity
  8
0
  6
CONTINUOUS
 62
     7
100
AcDbPolyline
 90
       20
 70
   128
 43
0.0
 10
70.4355535526
 20
103.2198413449
 10
71.0717968954
 20
103.2156883295
 10
71.7741288151
 20
103.2118971477
 10
72.5362459915
 20
103.2085018247
 10
73.3513085408
 20
103.2055328332
 10
74.2120014026
 20
103.2030168193
 10
75.1105999917
 20
103.2009763639
 10
76.0390395248
 20
103.1994297797
 10
76.9889874006
 20
103.1983909471
 10
77.9519179838
 20
103.1978691894
 10
78.9191891215
 20
103.1978691894
 10
79.8821197047
 20
103.1983909471
 10
80.8320675805
 20
103.1994297797
 10
81.7605071135
 20
103.2009763639
 10
82.6591057027
 20
103.2030168193
 10
83.5197985645
 20
103.2055328332
 10
84.3348611138
 20
103.2085018247
 10
85.0969782902
 20
103.2118971477
 10
85.7993102099
 20
103.2156883295
 10
86.4355535526
 20
103.2198413449
  0
LWPOLYLINE
  5
199
330
1F
100
AcDbEntity
  8
0
  6
CONTINUOUS
 62
     7
100
AcDbPolyline
 90
       51
 70
   128
 43
0.0
 10
79.4355535526
 20
103.2771291706
 10
80.1306375476
 20
103.2762142743
 10
80.8017595412
 20
103.2748355939
 10
81.4394324365
 20
103.2730126189
 10
82.0346419789
 20
103.270771119
 10
82.5789741831
 20
103.2681427805
 10
83.0647342746
 20
103.265164758
 10
83.4850554645
 20
103.2618791494
 10
83.8339960196
 20
103.2583324006
 10
84.1066232557
 20
103.2545746491
 10
84.2990832668
 20
103.2506590151
 10
84.4086554049
 20
103.2466408506
 10
84.4337907392
 20
103.2425769572
 10
84.3741339523
 20
103.2385247828
 10
84.2305283628
 20
103.2345416095
 10
84.0050040044
 20
103.2306837443
 10
83.7007489283
 20
103.2270057225
 10
83.3220641372
 20
103.2235595374
 10
82.874302785
 20
103.2203939047
 10
82.3637945038
 20
103.2175535745
 10
81.7977559271
 20
103.2150786981
 10
81.1841886745
 20
103.2130042608
 10
80.5317662391
 20
103.2113595872
 10
79.8497113776
 20
103.2101679267
 10
79.1476657358
 20
103.2094461249
 10
78.4355535526
 20
103.2092043852
 10
77.7234413695
 20
103.2094461249
 10
77.0213957277
 20
103.2101679267
 10
76.3393408662
 20
103.2113595872
 10
75.6869184308
 20
103.2130042608
 10
75.0733511782
 20
103.2150786981
 10
74.5073126015
 20
103.2175535745
 10
73.9968043203
 20
103.2203939047
 10
73.549042968
 20
103.2235595374
 10
73.170358177
 20
103.2270057225
 10
72.8661031009
 20
103.2306837443
 10
72.6405787425
 20
103.2345416095
 10
72.496973153
 20
103.2385247828
 10
72.4373163661
 20
103.2425769572
 10
72.4624517004
 20
103.2466408506
 10
72.5720238385
 20
103.2506590151
 10
72.7644838496
 20
103.2545746491
 10
73.0371110857
 20
103.2583324006
 10
73.3860516408
 20
103.2618791494
 10
73.8063728307
 20
103.265164758
 10
74.2921329222
 20
103.2681427805
 10
74.8364651264
 20
103.270771119
 10
75.4316746688
 20
103.2730126189
 10
76.0693475641
 20
103.2748355939
 10
76.7404695577
 20
103.2762142743
 10
77.4355535526
 20
103.2771291706
  0
LINE
  5
19A
330
1F
100
AcDbEntity
  8
0
  6
CONTINUOUS
 62
     7
100
AcDbLine
 10
86.4355535526
 20
103.3495290652
 30
0.0
 11
86.4355535526
 21
103.2198413449
 31
0.0
  0
LINE
  5
19B
330
1F
100
AcDbEntity
  8
0
  6
CONTINUOUS
 62
     7
100
AcDbLine
 10
79.4355535526
 20
103.2771291706
 30
0.0
 11
79.4355535526
 21
103.3495290652
 31
0.0
  0
LINE
  5
19C
330
1F
100
AcDbEntity
  8
0
  6
CONTINUOUS
 62
     7
100
AcDbLine
 10
77.4355535526
 20
103.2771291706
 30
0.0
 11
77.4355535526
 21
103.3495290652
 31
0.0
  0
LINE
  5
19D
330
1F
100
AcDbEntity
  8
0
  6
CONTINUOUS
 62
     7
100
AcDbLine
 10
70.4355535526
 20
103.3495290652
 30
0.0
 11
70.4355535526
 21
103.2198413449
 31
0.0
  0
LWPOLYLINE
  5
19E
330
1F
100
AcDbEntity
  8
0
  6
CONTINUOUS
 62
     7
100
AcDbPolyline
 90
        5
 70
   128
 43
0.0
 10
79.4355535526
 20
119.2094228064
 10
79.1476657358
 20
119.2091861788
 10
78.4355535526
 20
119.2089444391
 10
77.7234413695
 20
119.2091861788
 10
77.4355535526
 20
119.2094228064
  0
DIMENSION
  5
19F
330
1F
100
AcDbEntity
  8
0
  6
CONTINUOUS
 62
     7
100
AcDbDimension
  2
*D14
 10
115.0699974546
 20
103.3495290652
 30
0.0
 11
115.0699974546
 21
128.2879745277
 31
0.0
 70
   160
  3
SLDDIMSTYLE0
100
AcDbAlignedDimension
 13
86.4355535526
 23
119.3492691191
 33
0.0
 14
86.4355535526
 24
103.3495290652
 34
0.0
 50
90.0
100
AcDbRotatedDimension
1001
ACAD
1000
DSTYLE
1002
{
1070
    77
1070
     3
1070
   143
1040
0.0393700787
1070
    41
1040
3.0
1070
    44
1040
1.0
1070
    42
1040
1.0
1070
   147
1040
1.524
1070
    73
1070
     0
1070
    74
1070
     0
1070
   140
1040
3.5
1070
   284
1070
    12
1070
    78
1070
    12
1002
}
  0
LINE
  5
1B4
330
1F
100
AcDbEntity
  8
0
  6
CENTERX2
 62
     7
100
AcDbLine
 10
90.4355535526
 20
111.3216546009
 30
0.0
 11
108.4355535526
 21
111.3216546009
 31
0.0
  0
LINE
  5
1B5
330
1F
100
AcDbEntity
  8
0
  6
CENTERX2
 62
     7
100
AcDbLine
 10
68.4355535526
 20
111.3051176328
 30
0.0
 11
88.4355535526
 21
111.3051176328
 31
0.0
  0
LINE
  5
1B6
330
1F
100
AcDbEntity
  8
0
  6
CENTERX2
 62
     7
100
AcDbLine
 10
78.4355535526
 20
101.2434059615
 30
0.0
 11
78.4355535526
 21
121.2557448023
 31
0.0
  0
LINE
  5
1B7
330
1F
100
AcDbEntity
  8
0
  6
CENTERX2
 62
     7
100
AcDbLine
 10
41.7245505734
 20
111.3216546009
 30
0.0
 11
90.4355535526
 21
111.3216546009
 31
0.0
  0
LINE
  5
1B8
330
1F
100
AcDbEntity
  8
0
  6
CENTERX2
 62
     7
100
AcDbLine
 10
99.4355535526
 20
101.3225965329
 30
0.0
 11
99.4355535526
 21
121.320712669
 31
0.0
  0
ENDSEC
  0
SECTION
  2
OBJECTS
  0
DICTIONARY
  5
C
330
0
100
AcDbDictionary
  3
ACAD_GROUP
350
D
  3
ACAD_LAYOUT
350
1A
  3
ACAD_MLINESTYLE
350
17
  3
ACAD_PLOTSETTINGS
350
19
  3
ACDBHEADERROUNDTRIPXREC
350
1B9
  0
DICTIONARY
  5
D
102
{ACAD_REACTORS
330
C
102
}
330
C
100
AcDbDictionary
  0
DICTIONARY
  5
1A
102
{ACAD_REACTORS
330
C
102
}
330
C
100
AcDbDictionary
  0
DICTIONARY
  5
17
102
{ACAD_REACTORS
330
C
102
}
330
C
100
AcDbDictionary
  3
STANDARD
350
18
  0
DICTIONARY
  5
19
102
{ACAD_REACTORS
330
C
102
}
330
C
100
AcDbDictionary
  0
DICTIONARY
  5
1B9
102
{ACAD_REACTORS
330
C
102
}
330
C
100
AcDbDictionary
  3
CEPSNTYPE
350
1C2
  3
DIMSTYLEDATA
350
1D8
  3
FINGERPRINTGUID
350
1C3
  3
HYPERLINKBASE
350
1BC
  3
INSUNITS
350
1C1
  3
LAYOUTDICT
350
1BE
  3
LWETCUNION
350
1C0
  3
PLOTSETDICT
350
1BF
  3
PSVPSCALE
350
1C5
  3
PUCSBASE
350
1C8
  3
PUCSORGBACK
350
1CE
  3
PUCSORGBOTTOM
350
1CA
  3
PUCSORGFRONT
350
1CD
  3
PUCSORGLEFT
350
1CB
  3
PUCSORGRIGHT
350
1CC
  3
PUCSORGTOP
350
1C9
  3
PUCSORTHOREF
350
1C6
  3
PUCSORTHOVIEW
350
1C7
  3
STYLESHEET
350
1BD
  3
TSTACKALIGN
350
1BA
  3
TSTACKSIZE
350
1BB
  3
UCSBASE
350
1D1
  3
UCSORGBACK
350
1D7
  3
UCSORGBOTTOM
350
1D3
  3
UCSORGFRONT
350
1D6
  3
UCSORGLEFT
350
1D4
  3
UCSORGRIGHT
350
1D5
  3
UCSORGTOP
350
1D2
  3
UCSORTHOREF
350
1CF
  3
UCSORTHOVIEW
350
1D0
  3
VERSIONGUID
350
1C4
  0
MLINESTYLE
  5
18
102
{ACAD_REACTORS
330
17
102
}
330
17
100
AcDbMlineStyle
  2
Standard
 70
     0
  3

 62
   256
 51
90.0
 52
90.0
 71
     2
 49
0.5
 62
   256
  6
BYLAYER
 49
-0.5
 62
   256
  6
BYLAYER
  0
XRECORD
  5
1C2
102
{ACAD_REACTORS
330
1B9
102
}
330
1B9
100
AcDbXrecord
 90
        0
  0
XRECORD
  5
1D8
102
{ACAD_REACTORS
330
1B9
102
}
330
1B9
100
AcDbXrecord
1000
DSTYLE
1002
{
1070
   143
 40
0.0393700787
1070
    41
 40
3.0
1070
    44
 40
1.0
1070
    42
 40
1.0
1070
   147
 40
1.524
1070
    73
 70
     1
1070
    74
 70
     1
1070
   340
340
11
1070
   140
 40
3.5
1070
   284
 70
     0
1070
    78
 70
     0
1002
}
  0
XRECORD
  5
1C3
102
{ACAD_REACTORS
330
1B9
102
}
330
1B9
100
AcDbXrecord
  1
{31DB5D7A-26C9-4FD5-BE55-688BC545259A}
  0
XRECORD
  5
1BC
102
{ACAD_REACTORS
330
1B9
102
}
330
1B9
100
AcDbXrecord
  1

  0
XRECORD
  5
1C1
102
{ACAD_REACTORS
330
1B9
102
}
330
1B9
100
AcDbXrecord
 90
        4
  0
XRECORD
  5
1BE
102
{ACAD_REACTORS
330
1B9
102
}
330
1B9
100
AcDbXrecord
340
1A
  0
XRECORD
  5
1C0
102
{ACAD_REACTORS
330
1B9
102
}
330
1B9
100
AcDbXrecord
 90
    10269
  0
XRECORD
  5
1BF
102
{ACAD_REACTORS
330
1B9
102
}
330
1B9
100
AcDbXrecord
340
19
  0
XRECORD
  5
1C5
102
{ACAD_REACTORS
330
1B9
102
}
330
1B9
100
AcDbXrecord
 40
0.0
  0
XRECORD
  5
1C8
102
{ACAD_REACTORS
330
1B9
102
}
330
1B9
100
AcDbXrecord
340
0
  0
XRECORD
  5
1CE
102
{ACAD_REACTORS
330
1B9
102
}
330
1B9
100
AcDbXrecord
 10
0.0
 20
0.0
 30
0.0
  0
XRECORD
  5
1CA
102
{ACAD_REACTORS
330
1B9
102
}
330
1B9
100
AcDbXrecord
 10
0.0
 20
0.0
 30
0.0
  0
XRECORD
  5
1CD
102
{ACAD_REACTORS
330
1B9
102
}
330
1B9
100
AcDbXrecord
 10
0.0
 20
0.0
 30
0.0
  0
XRECORD
  5
1CB
102
{ACAD_REACTORS
330
1B9
102
}
330
1B9
100
AcDbXrecord
 10
0.0
 20
0.0
 30
0.0
  0
XRECORD
  5
1CC
102
{ACAD_REACTORS
330
1B9
102
}
330
1B9
100
AcDbXrecord
 10
0.0
 20
0.0
 30
0.0
  0
XRECORD
  5
1C9
102
{ACAD_REACTORS
330
1B9
102
}
330
1B9
100
AcDbXrecord
 10
0.0
 20
0.0
 30
0.0
  0
XRECORD
  5
1C6
102
{ACAD_REACTORS
330
1B9
102
}
330
1B9
100
AcDbXrecord
340
0
  0
XRECORD
  5
1C7
102
{ACAD_REACTORS
330
1B9
102
}
330
1B9
100
AcDbXrecord
 70
     0
  0
XRECORD
  5
1BD
102
{ACAD_REACTORS
330
1B9
102
}
330
1B9
100
AcDbXrecord
  1

  0
XRECORD
  5
1BA
102
{ACAD_REACTORS
330
1B9
102
}
330
1B9
100
AcDbXrecord
 90
        1
  0
XRECORD
  5
1BB
102
{ACAD_REACTORS
330
1B9
102
}
330
1B9
100
AcDbXrecord
 90
       70
  0
XRECORD
  5
1D1
102
{ACAD_REACTORS
330
1B9
102
}
330
1B9
100
AcDbXrecord
340
0
  0
XRECORD
  5
1D7
102
{ACAD_REACTORS
330
1B9
102
}
330
1B9
100
AcDbXrecord
 10
0.0
 20
0.0
 30
0.0
  0
XRECORD
  5
1D3
102
{ACAD_REACTORS
330
1B9
102
}
330
1B9
100
AcDbXrecord
 10
0.0
 20
0.0
 30
0.0
  0
XRECORD
  5
1D6
102
{ACAD_REACTORS
330
1B9
102
}
330
1B9
100
AcDbXrecord
 10
0.0
 20
0.0
 30
0.0
  0
XRECORD
  5
1D4
102
{ACAD_REACTORS
330
1B9
102
}
330
1B9
100
AcDbXrecord
 10
0.0
 20
0.0
 30
0.0
  0
XRECORD
  5
1D5
102
{ACAD_REACTORS
330
1B9
102
}
330
1B9
100
AcDbXrecord
 10
0.0
 20
0.0
 30
0.0
  0
XRECORD
  5
1D2
102
{ACAD_REACTORS
330
1B9
102
}
330
1B9
100
AcDbXrecord
 10
0.0
 20
0.0
 30
0.0
  0
XRECORD
  5
1CF
102
{ACAD_REACTORS
330
1B9
102
}
330
1B9
100
AcDbXrecord
340
0
  0
XRECORD
  5
1D0
102
{ACAD_REACTORS
330
1B9
102
}
330
1B9
100
AcDbXrecord
 70
     0
  0
XRECORD
  5
1C4
102
{ACAD_REACTORS
330
1B9
102
}
330
1B9
100
AcDbXrecord
  1
{FAEB1C32-E019-11D5-929B-00C0DF256EC4}
  0
ENDSEC
  0
EOF
