  0
SECTION
  2
HEADER
  9
$ACADVER
  1
AC1015
  9
$ACADMAINTVER
 70
     6
  9
$DWGCODEPAGE
  3
DOS932
  9
$INSBASE
 10
0.0
 20
0.0
 30
0.0
  9
$EXTMIN
 10
0.0
 20
0.0
 30
0.0
  9
$EXTMAX
 10
210.0
 20
297.0
 30
0.0
  9
$LIMMIN
 10
0.0
 20
0.0
  9
$LIMMAX
 10
0.0
 20
0.0
  9
$ORTHOMODE
 70
     0
  9
$REGENMODE
 70
     1
  9
$FILLMODE
 70
     1
  9
$QTEXTMODE
 70
     0
  9
$MIRRTEXT
 70
     1
  9
$LTSCALE
 40
1.0
  9
$ATTMODE
 70
     1
  9
$TEXTSIZE
 40
3.5
  9
$TRACEWID
 40
1.0
  9
$TEXTSTYLE
  7
Standard
  9
$CLAYER
  8
0
  9
$CELTYPE
  6
ByLayer
  9
$CECOLOR
 62
   256
  9
$CELTSCALE
 40
1.0
  9
$DISPSILH
 70
     0
  9
$DIMSCALE
 40
1.0
  9
$DIMASZ
 40
3.0
  9
$DIMEXO
 40
1.0
  9
$DIMDLI
 40
3.75
  9
$DIMRND
 40
0.0
  9
$DIMDLE
 40
0.0
  9
$DIMEXE
 40
1.0
  9
$DIMTP
 40
0.0
  9
$DIMTM
 40
0.0
  9
$DIMTXT
 40
3.5
  9
$DIMCEN
 40
2.5
  9
$DIMTSZ
 40
0.0
  9
$DIMTOL
 70
     0
  9
$DIMLIM
 70
     0
  9
$DIMTIH
 70
     1
  9
$DIMTOH
 70
     1
  9
$DIMSE1
 70
     0
  9
$DIMSE2
 70
     0
  9
$DIMTAD
 70
     1
  9
$DIMZIN
 70
     0
  9
$DIMBLK
  1

  9
$DIMASO
 70
     1
  9
$DIMSHO
 70
     1
  9
$DIMPOST
  1

  9
$DIMAPOST
  1

  9
$DIMALT
 70
     0
  9
$DIMALTD
 70
     3
  9
$DIMALTF
 40
0.0393700787
  9
$DIMLFAC
 40
1.0
  9
$DIMTOFL
 70
     1
  9
$DIMTVP
 40
0.0
  9
$DIMTIX
 70
     0
  9
$DIMSOXD
 70
     0
  9
$DIMSAH
 70
     0
  9
$DIMBLK1
  1

  9
$DIMBLK2
  1

  9
$DIMSTYLE
  2
ISO-25
  9
$DIMCLRD
 70
     0
  9
$DIMCLRE
 70
     0
  9
$DIMCLRT
 70
     0
  9
$DIMTFAC
 40
1.0
  9
$DIMGAP
 40
1.524
  9
$DIMJUST
 70
     0
  9
$DIMSD1
 70
     0
  9
$DIMSD2
 70
     0
  9
$DIMTOLJ
 70
     0
  9
$DIMTZIN
 70
     0
  9
$DIMALTZ
 70
     0
  9
$DIMALTTZ
 70
     0
  9
$DIMUPT
 70
     0
  9
$DIMDEC
 70
     2
  9
$DIMTDEC
 70
     2
  9
$DIMALTU
 70
     2
  9
$DIMALTTD
 70
     3
  9
$DIMTXSTY
  7
Standard
  9
$DIMAUNIT
 70
     0
  9
$DIMADEC
 70
     0
  9
$DIMALTRND
 40
0.0
  9
$DIMAZIN
 70
     0
  9
$DIMDSEP
 70
    44
  9
$DIMATFIT
 70
     3
  9
$DIMFRAC
 70
     0
  9
$DIMLDRBLK
  1

  9
$DIMLUNIT
 70
     2
  9
$DIMLWD
 70
    -2
  9
$DIMLWE
 70
    -2
  9
$DIMTMOVE
 70
     0
  9
$LUNITS
 70
     2
  9
$LUPREC
 70
     1
  9
$SKETCHINC
 40
1.0
  9
$FILLETRAD
 40
10.0
  9
$AUNITS
 70
     0
  9
$AUPREC
 70
     0
  9
$MENU
  1
.
  9
$ELEVATION
 40
0.0
  9
$PELEVATION
 40
0.0
  9
$THICKNESS
 40
0.0
  9
$LIMCHECK
 70
     0
  9
$CHAMFERA
 40
10.0
  9
$CHAMFERB
 40
10.0
  9
$CHAMFERC
 40
20.0
  9
$CHAMFERD
 40
0.0
  9
$SKPOLY
 70
     0
  9
$TDCREATE
 40
2454979.701946609
  9
$TDUCREATE
 40
2454979.326946609
  9
$TDUPDATE
 40
2454979.70194662
  9
$TDUUPDATE
 40
2454979.32694662
  9
$TDINDWG
 40
0.0000000116
  9
$TDUSRTIMER
 40
0.0000000116
  9
$USRTIMER
 70
     1
  9
$ANGBASE
 50
0.0
  9
$ANGDIR
 70
     0
  9
$PDMODE
 70
     0
  9
$PDSIZE
 40
-1.0
  9
$PLINEWID
 40
0.0
  9
$SPLFRAME
 70
     0
  9
$SPLINETYPE
 70
     6
  9
$SPLINESEGS
 70
     8
  9
$HANDSEED
  5
1DA
  9
$SURFTAB1
 70
     6
  9
$SURFTAB2
 70
     6
  9
$SURFTYPE
 70
     6
  9
$SURFU
 70
     6
  9
$SURFV
 70
     6
  9
$UCSBASE
  2

  9
$UCSNAME
  2

  9
$UCSORG
 10
0.0
 20
0.0
 30
0.0
  9
$UCSXDIR
 10
1.0
 20
0.0
 30
0.0
  9
$UCSYDIR
 10
0.0
 20
1.0
 30
0.0
  9
$UCSORTHOREF
  2

  9
$UCSORTHOVIEW
 70
     0
  9
$UCSORGTOP
 10
0.0
 20
0.0
 30
0.0
  9
$UCSORGBOTTOM
 10
0.0
 20
0.0
 30
0.0
  9
$UCSORGLEFT
 10
0.0
 20
0.0
 30
0.0
  9
$UCSORGRIGHT
 10
0.0
 20
0.0
 30
0.0
  9
$UCSORGFRONT
 10
0.0
 20
0.0
 30
0.0
  9
$UCSORGBACK
 10
0.0
 20
0.0
 30
0.0
  9
$PUCSBASE
  2

  9
$PUCSNAME
  2

  9
$PUCSORG
 10
0.0
 20
0.0
 30
0.0
  9
$PUCSXDIR
 10
1.0
 20
0.0
 30
0.0
  9
$PUCSYDIR
 10
0.0
 20
1.0
 30
0.0
  9
$PUCSORTHOREF
  2

  9
$PUCSORTHOVIEW
 70
     0
  9
$PUCSORGTOP
 10
0.0
 20
0.0
 30
0.0
  9
$PUCSORGBOTTOM
 10
0.0
 20
0.0
 30
0.0
  9
$PUCSORGLEFT
 10
0.0
 20
0.0
 30
0.0
  9
$PUCSORGRIGHT
 10
0.0
 20
0.0
 30
0.0
  9
$PUCSORGFRONT
 10
0.0
 20
0.0
 30
0.0
  9
$PUCSORGBACK
 10
0.0
 20
0.0
 30
0.0
  9
$USERI1
 70
     0
  9
$USERI2
 70
     0
  9
$USERI3
 70
     0
  9
$USERI4
 70
     0
  9
$USERI5
 70
     0
  9
$USERR1
 40
0.0
  9
$USERR2
 40
0.0
  9
$USERR3
 40
0.0
  9
$USERR4
 40
0.0
  9
$USERR5
 40
0.0
  9
$WORLDVIEW
 70
     1
  9
$SHADEDGE
 70
     3
  9
$SHADEDIF
 70
    70
  9
$TILEMODE
 70
     1
  9
$MAXACTVP
 70
    64
  9
$PINSBASE
 10
0.0
 20
0.0
 30
0.0
  9
$PLIMCHECK
 70
     0
  9
$PEXTMIN
 10
1.0000000000E+20
 20
1.0000000000E+20
 30
1.0000000000E+20
  9
$PEXTMAX
 10
-1.0000000000E+20
 20
-1.0000000000E+20
 30
-1.0000000000E+20
  9
$PLIMMIN
 10
0.0
 20
0.0
  9
$PLIMMAX
 10
420.0
 20
297.0
  9
$UNITMODE
 70
     0
  9
$VISRETAIN
 70
     1
  9
$PLINEGEN
 70
     0
  9
$PSLTSCALE
 70
     1
  9
$TREEDEPTH
 70
  3020
  9
$CMLSTYLE
  2
Standard
  9
$CMLJUST
 70
     0
  9
$CMLSCALE
 40
20.0
  9
$PROXYGRAPHICS
 70
     1
  9
$MEASUREMENT
 70
     1
  9
$CELWEIGHT
370
    -1
  9
$ENDCAPS
280
     0
  9
$JOINSTYLE
280
     0
  9
$LWDISPLAY
290
     1
  9
$INSUNITS
 70
     4
  9
$HYPERLINKBASE
  1

  9
$STYLESHEET
  1

  9
$XEDIT
290
     1
  9
$CEPSNTYPE
380
     0
  9
$PSTYLEMODE
290
     1
  9
$FINGERPRINTGUID
  2
{23AE4C4F-B938-403D-A6BC-841654150C80}
  9
$VERSIONGUID
  2
{FAEB1C32-E019-11D5-929B-00C0DF256EC4}
  9
$EXTNAMES
290
     1
  9
$PSVPSCALE
 40
0.0
  9
$OLESTARTUP
290
     0
  0
ENDSEC
  0
SECTION
  2
CLASSES
  0
CLASS
  1
ACDBDICTIONARYWDFLT
  2
AcDbDictionaryWithDefault
  3
ObjectDBX Classes
 90
        0
280
     0
281
     0
  0
CLASS
  1
ACDBPLACEHOLDER
  2
AcDbPlaceHolder
  3
ObjectDBX Classes
 90
        0
280
     0
281
     0
  0
CLASS
  1
LAYOUT
  2
AcDbLayout
  3
ObjectDBX Classes
 90
        0
280
     0
281
     0
  0
ENDSEC
  0
SECTION
  2
TABLES
  0
TABLE
  2
VPORT
  5
8
330
0
100
AcDbSymbolTable
 70
     1
  0
VPORT
  5
29
330
8
100
AcDbSymbolTableRecord
100
AcDbViewportTableRecord
  2
*Active
 70
     0
 10
0.0
 20
0.0
 11
1.0
 21
1.0
 12
105.0
 22
148.5
 13
0.0
 23
0.0
 14
10.0
 24
10.0
 15
10.0
 25
10.0
 16
0.0
 26
0.0
 36
1.0
 17
0.0
 27
0.0
 37
0.0
 40
297.0
 41
1.9729729729
 42
50.0
 43
0.0
 44
0.0
 50
0.0
 51
0.0
 71
     0
 72
  2000
 73
     1
 74
     3
 75
     0
 76
     0
 77
     0
 78
     0
281
     0
 65
     1
110
0.0
120
0.0
130
0.0
111
1.0
121
0.0
131
0.0
112
0.0
122
1.0
132
0.0
 79
     0
146
0.0
  0
ENDTAB
  0
TABLE
  2
LTYPE
  5
5
330
0
100
AcDbSymbolTable
 70
     6
  0
LTYPE
  5
14
330
5
100
AcDbSymbolTableRecord
100
AcDbLinetypeTableRecord
  2
ByBlock
 70
     0
  3

 72
    65
 73
     0
 40
0.0
  0
LTYPE
  5
15
330
5
100
AcDbSymbolTableRecord
100
AcDbLinetypeTableRecord
  2
ByLayer
 70
     0
  3

 72
    65
 73
     0
 40
0.0
  0
LTYPE
  5
16
330
5
100
AcDbSymbolTableRecord
100
AcDbLinetypeTableRecord
  2
Continuous
 70
     0
  3
Solid line
 72
    65
 73
     0
 40
0.0
  0
LTYPE
  5
2A
330
5
100
AcDbSymbolTableRecord
100
AcDbLinetypeTableRecord
  2
HIDDEN
 70
     0
  3
Hidden __ __ __ __ __ __ __ __ __ __ __ __ __ __
 72
    65
 73
     2
 40
1.905
 49
1.27
 74
     0
 49
-0.635
 74
     0
  0
LTYPE
  5
2B
330
5
100
AcDbSymbolTableRecord
100
AcDbLinetypeTableRecord
  2
PHANTOM
 70
     0
  3
Phantom ______  __  __  ______  __  __  ______
 72
    65
 73
     6
 40
12.7
 49
6.35
 74
     0
 49
-1.27
 74
     0
 49
1.27
 74
     0
 49
-1.27
 74
     0
 49
1.27
 74
     0
 49
-1.27
 74
     0
  0
LTYPE
  5
2C
330
5
100
AcDbSymbolTableRecord
100
AcDbLinetypeTableRecord
  2
CENTER
 70
     0
  3
Center ____ _ ____ _ ____ _ ____ _ ____ _ ____
 72
    65
 73
     4
 40
10.16
 49
6.35
 74
     0
 49
-1.27
 74
     0
 49
1.27
 74
     0
 49
-1.27
 74
     0
  0
LTYPE
  5
2D
330
5
100
AcDbSymbolTableRecord
100
AcDbLinetypeTableRecord
  2
CENTERX2
 70
     0
  3
Center (2x) ________  __  ________  __  _____
 72
    65
 73
     4
 40
20.32
 49
12.7
 74
     0
 49
-2.54
 74
     0
 49
2.54
 74
     0
 49
-2.54
 74
     0
  0
LTYPE
  5
2E
330
5
100
AcDbSymbolTableRecord
100
AcDbLinetypeTableRecord
  2
DOT2
 70
     0
  3
Dot (.5x) ........................................
 72
    65
 73
     2
 40
0.635
 49
0.0
 74
     0
 49
-0.635
 74
     0
  0
ENDTAB
  0
TABLE
  2
LAYER
  5
2
330
0
100
AcDbSymbolTable
 70
     2
  0
LAYER
  5
10
330
2
100
AcDbSymbolTableRecord
100
AcDbLayerTableRecord
  2
0
 70
     0
 62
     7
  6
Continuous
370
    -3
390
F
  0
LAYER
  5
FC
330
2
100
AcDbSymbolTableRecord
100
AcDbLayerTableRecord
  2
Defpoints
 70
     0
 62
     7
  6
Continuous
290
     0
370
    -3
390
F
  0
ENDTAB
  0
TABLE
  2
STYLE
  5
3
330
0
100
AcDbSymbolTable
 70
     2
  0
STYLE
  5
11
330
3
100
AcDbSymbolTableRecord
100
AcDbTextStyleTableRecord
  2
Standard
 70
     0
 40
0.0
 41
1.0
 50
0.0
 71
     0
 42
2.5
  3
txt
  4
bigfont
  0
STYLE
  5
37
330
3
100
AcDbSymbolTableRecord
100
AcDbTextStyleTableRecord
  2
SLDTEXTSTYLE0
 70
     0
 40
0.0
 41
0.7
 50
0.0
 71
     0
 42
0.2
  3
TXT
  4
bigfont
  0
ENDTAB
  0
TABLE
  2
VIEW
  5
6
330
0
100
AcDbSymbolTable
 70
     0
  0
ENDTAB
  0
TABLE
  2
UCS
  5
7
330
0
100
AcDbSymbolTable
 70
     0
  0
ENDTAB
  0
TABLE
  2
APPID
  5
9
330
0
100
AcDbSymbolTable
 70
     1
  0
APPID
  5
12
330
9
100
AcDbSymbolTableRecord
100
AcDbRegAppTableRecord
  2
ACAD
 70
     0
  0
ENDTAB
  0
TABLE
  2
DIMSTYLE
  5
A
330
0
100
AcDbSymbolTable
 70
     3
100
AcDbDimStyleTable
  0
DIMSTYLE
105
27
330
A
100
AcDbSymbolTableRecord
100
AcDbDimStyleTableRecord
  2
ISO-25
 70
     0
 41
2.5
 42
0.625
 43
3.75
 44
1.25
 73
     0
 74
     0
 77
     1
 78
     8
140
2.5
141
2.5
143
0.0393700787
147
0.625
171
     3
172
     1
271
     2
272
     2
274
     3
278
    44
283
     0
284
     8
340
11
  0
DIMSTYLE
105
10A
102
{ACAD_REACTORS
330
FB
330
114
330
129
330
13D
330
151
330
167
330
17E
330
19C
330
1AF
102
}
330
A
100
AcDbSymbolTableRecord
100
AcDbDimStyleTableRecord
  2
SLDDIMSTYLE0
 70
     0
 41
3.0
 44
0.0
 73
     0
 74
     0
 77
     3
 78
    12
140
3.5
147
0.875
173
     1
271
     1
272
     3
284
    12
340
37
  0
DIMSTYLE
105
1C6
330
A
100
AcDbSymbolTableRecord
100
AcDbDimStyleTableRecord
  2
SLDDIMSTYLE1
 70
     0
 41
3.0
 44
0.0
140
3.0
147
0.75
173
     1
271
     0
272
     0
340
11
341
1C7
343
1C7
344
1C7
  0
ENDTAB
  0
TABLE
  2
BLOCK_RECORD
  5
1
330
0
100
AcDbSymbolTable
 70
    12
  0
BLOCK_RECORD
  5
1F
330
1
100
AcDbSymbolTableRecord
100
AcDbBlockTableRecord
  2
*Model_Space
340
22
  0
BLOCK_RECORD
  5
1B
330
1
100
AcDbSymbolTableRecord
100
AcDbBlockTableRecord
  2
*Paper_Space
340
1E
  0
BLOCK_RECORD
  5
23
330
1
100
AcDbSymbolTableRecord
100
AcDbBlockTableRecord
  2
*Paper_Space0
340
26
  0
BLOCK_RECORD
  5
FD
330
1
100
AcDbSymbolTableRecord
100
AcDbBlockTableRecord
  2
*D1
340
0
  0
BLOCK_RECORD
  5
115
330
1
100
AcDbSymbolTableRecord
100
AcDbBlockTableRecord
  2
*D2
340
0
  0
BLOCK_RECORD
  5
12A
330
1
100
AcDbSymbolTableRecord
100
AcDbBlockTableRecord
  2
*D3
340
0
  0
BLOCK_RECORD
  5
13E
330
1
100
AcDbSymbolTableRecord
100
AcDbBlockTableRecord
  2
*D4
340
0
  0
BLOCK_RECORD
  5
152
330
1
100
AcDbSymbolTableRecord
100
AcDbBlockTableRecord
  2
*D5
340
0
  0
BLOCK_RECORD
  5
168
330
1
100
AcDbSymbolTableRecord
100
AcDbBlockTableRecord
  2
*D6
340
0
  0
BLOCK_RECORD
  5
17F
330
1
100
AcDbSymbolTableRecord
100
AcDbBlockTableRecord
  2
*D7
340
0
  0
BLOCK_RECORD
  5
19D
330
1
100
AcDbSymbolTableRecord
100
AcDbBlockTableRecord
  2
*D8
340
0
  0
BLOCK_RECORD
  5
1B0
330
1
100
AcDbSymbolTableRecord
100
AcDbBlockTableRecord
  2
*D9
340
0
  0
BLOCK_RECORD
  5
1C7
330
1
100
AcDbSymbolTableRecord
100
AcDbBlockTableRecord
  2
_Open30
340
0
  0
BLOCK_RECORD
  5
1CE
330
1
100
AcDbSymbolTableRecord
100
AcDbBlockTableRecord
  2
SW_CENTERMARKSYMBOL_0
340
0
102
{BLKREFS
331
1D9
102
}
  0
ENDTAB
  0
ENDSEC
  0
SECTION
  2
BLOCKS
  0
BLOCK
  5
20
330
1F
100
AcDbEntity
  8
0
100
AcDbBlockBegin
  2
*Model_Space
 70
     0
 71
     0
 10
0.0
 20
0.0
 30
0.0
  3
*Model_Space
  1

  0
ENDBLK
  5
21
330
1F
100
AcDbEntity
  8
0
100
AcDbBlockEnd
  0
BLOCK
  5
1C
330
1B
100
AcDbEntity
 67
     1
  8
0
100
AcDbBlockBegin
  2
*Paper_Space
 70
     0
 71
     0
 10
0.0
 20
0.0
 30
0.0
  3
*Paper_Space
  1

  0
ENDBLK
  5
1D
330
1B
100
AcDbEntity
 67
     1
  8
0
100
AcDbBlockEnd
  0
BLOCK
  5
24
330
23
100
AcDbEntity
  8
0
100
AcDbBlockBegin
  2
*Paper_Space0
 70
     0
 71
     0
 10
0.0
 20
0.0
 30
0.0
  3
*Paper_Space0
  1

  0
ENDBLK
  5
25
330
23
100
AcDbEntity
  8
0
100
AcDbBlockEnd
  0
BLOCK
  5
108
330
FD
100
AcDbEntity
  8
0
100
AcDbBlockBegin
  2
*D1
 70
     1
 71
     0
 10
0.0
 20
0.0
 30
0.0
  3
*D1
  1

  0
SOLID
  5
10C
330
FD
100
AcDbEntity
  8
0
  6
Continuous
 62
     7
370
     0
100
AcDbTrace
 10
139.6040595875
 20
175.52232432
 30
0.0
 11
140.3540595875
 21
178.52232432
 31
0.0
 12
138.8540595875
 22
178.52232432
 32
0.0
 13
138.8540595875
 23
178.52232432
 33
0.0
  0
SOLID
  5
10D
330
FD
100
AcDbEntity
  8
0
  6
Continuous
 62
     7
370
     0
100
AcDbTrace
 10
139.6040595875
 20
171.52232432
 30
0.0
 11
138.8540595875
 21
168.52232432
 31
0.0
 12
140.3540595875
 22
168.52232432
 32
0.0
 13
140.3540595875
 23
168.52232432
 33
0.0
  0
LINE
  5
10E
330
FD
100
AcDbEntity
  8
0
  6
Continuous
 62
     7
370
     0
100
AcDbLine
 10
115.542389508
 20
175.52232432
 30
0.0
 11
140.6040595875
 21
175.52232432
 31
0.0
  0
LINE
  5
10F
330
FD
100
AcDbEntity
  8
0
  6
Continuous
 62
     7
370
     0
100
AcDbLine
 10
115.4328557039
 20
171.52232432
 30
0.0
 11
140.6040595875
 21
171.52232432
 31
0.0
  0
LINE
  5
110
330
FD
100
AcDbEntity
  8
0
  6
Continuous
 62
     7
370
     0
100
AcDbLine
 10
139.6040595875
 20
175.52232432
 30
0.0
 11
139.6040595875
 21
180.52232432
 31
0.0
  0
LINE
  5
111
330
FD
100
AcDbEntity
  8
0
  6
Continuous
 62
     7
370
     0
100
AcDbLine
 10
139.6040595875
 20
175.52232432
 30
0.0
 11
139.6040595875
 21
171.52232432
 31
0.0
  0
LINE
  5
112
330
FD
100
AcDbEntity
  8
0
  6
Continuous
 62
     7
370
     0
100
AcDbLine
 10
139.6040595875
 20
171.52232432
 30
0.0
 11
139.6040595875
 21
166.52232432
 31
0.0
  0
MTEXT
  5
113
330
FD
100
AcDbEntity
  8
0
  6
Continuous
 62
     7
370
     0
100
AcDbMText
 10
135.5313325476
 20
172.5048084935
 30
0.0
 40
3.5
 41
0.0
 71
     1
 72
     1
  1
4
  7
SLDTEXTSTYLE0
 11
-7.044197039909883E-15
 21
1.0
 31
0.0
 73
     1
 44
1.0
  0
ENDBLK
  5
109
330
FD
100
AcDbEntity
  8
0
100
AcDbBlockEnd
  0
BLOCK
  5
120
330
115
100
AcDbEntity
  8
0
100
AcDbBlockBegin
  2
*D2
 70
     1
 71
     0
 10
0.0
 20
0.0
 30
0.0
  3
*D2
  1

  0
SOLID
  5
122
330
115
100
AcDbEntity
  8
0
  6
Continuous
 62
     7
370
     0
100
AcDbTrace
 10
127.372555909
 20
146.52232432
 30
0.0
 11
128.122555909
 21
149.52232432
 31
0.0
 12
126.622555909
 22
149.52232432
 32
0.0
 13
126.622555909
 23
149.52232432
 33
0.0
  0
SOLID
  5
123
330
115
100
AcDbEntity
  8
0
  6
Continuous
 62
     7
370
     0
100
AcDbTrace
 10
127.372555909
 20
166.52232432
 30
0.0
 11
126.622555909
 21
163.52232432
 31
0.0
 12
128.122555909
 22
163.52232432
 32
0.0
 13
128.122555909
 23
163.52232432
 33
0.0
  0
LINE
  5
124
330
115
100
AcDbEntity
  8
0
  6
Continuous
 62
     7
370
     0
100
AcDbLine
 10
111.542389508
 20
146.52232432
 30
0.0
 11
128.372555909
 21
146.52232432
 31
0.0
  0
LINE
  5
125
330
115
100
AcDbEntity
  8
0
  6
Continuous
 62
     7
370
     0
100
AcDbLine
 10
112.042389508
 20
166.52232432
 30
0.0
 11
128.372555909
 21
166.52232432
 31
0.0
  0
LINE
  5
126
330
115
100
AcDbEntity
  8
0
  6
Continuous
 62
     7
370
     0
100
AcDbLine
 10
127.372555909
 20
146.52232432
 30
0.0
 11
127.372555909
 21
166.52232432
 31
0.0
  0
MTEXT
  5
127
330
115
100
AcDbEntity
  8
0
  6
Continuous
 62
     7
370
     0
100
AcDbMText
 10
123.2998288691
 20
152.4502381196
 30
0.0
 40
3.5
 41
0.0
 71
     1
 72
     1
  1
20
  7
SLDTEXTSTYLE0
 11
6.123031769111886E-17
 21
1.0
 31
0.0
 73
     1
 44
1.0
  0
MTEXT
  5
128
330
115
100
AcDbEntity
  8
0
  6
Continuous
 62
     7
370
     0
100
AcDbMText
 10
123.2998288691
 20
156.52232432
 30
0.0
 40
3.5
 41
0.0
 71
     1
 72
     1
  1
ST
  7
SLDTEXTSTYLE0
 11
6.123031769111886E-17
 21
1.0
 31
0.0
 73
     1
 44
1.0
  0
ENDBLK
  5
121
330
115
100
AcDbEntity
  8
0
100
AcDbBlockEnd
  0
BLOCK
  5
135
330
12A
100
AcDbEntity
  8
0
100
AcDbBlockBegin
  2
*D3
 70
     1
 71
     0
 10
0.0
 20
0.0
 30
0.0
  3
*D3
  1

  0
SOLID
  5
137
330
12A
100
AcDbEntity
  8
0
  6
Continuous
 62
     7
370
     0
100
AcDbTrace
 10
139.6040595875
 20
139.52232432
 30
0.0
 11
140.3540595875
 21
142.52232432
 31
0.0
 12
138.8540595875
 22
142.52232432
 32
0.0
 13
138.8540595875
 23
142.52232432
 33
0.0
  0
SOLID
  5
138
330
12A
100
AcDbEntity
  8
0
  6
Continuous
 62
     7
370
     0
100
AcDbTrace
 10
139.6040595875
 20
171.52232432
 30
0.0
 11
138.8540595875
 21
168.52232432
 31
0.0
 12
140.3540595875
 22
168.52232432
 32
0.0
 13
140.3540595875
 23
168.52232432
 33
0.0
  0
LINE
  5
139
330
12A
100
AcDbEntity
  8
0
  6
Continuous
 62
     7
370
     0
100
AcDbLine
 10
114.042389508
 20
139.52232432
 30
0.0
 11
140.6040595875
 21
139.52232432
 31
0.0
  0
LINE
  5
13A
330
12A
100
AcDbEntity
  8
0
  6
Continuous
 62
     7
370
     0
100
AcDbLine
 10
115.4328557039
 20
171.52232432
 30
0.0
 11
140.6040595875
 21
171.52232432
 31
0.0
  0
LINE
  5
13B
330
12A
100
AcDbEntity
  8
0
  6
Continuous
 62
     7
370
     0
100
AcDbLine
 10
139.6040595875
 20
139.52232432
 30
0.0
 11
139.6040595875
 21
171.52232432
 31
0.0
  0
MTEXT
  5
13C
330
12A
100
AcDbEntity
  8
0
  6
Continuous
 62
     7
370
     0
100
AcDbMText
 10
135.5313325476
 20
153.4862812198
 30
0.0
 40
3.5
 41
0.0
 71
     1
 72
     1
  1
32
  7
SLDTEXTSTYLE0
 11
6.123031769111886E-17
 21
1.0
 31
0.0
 73
     1
 44
1.0
  0
ENDBLK
  5
136
330
12A
100
AcDbEntity
  8
0
100
AcDbBlockEnd
  0
BLOCK
  5
149
330
13E
100
AcDbEntity
  8
0
100
AcDbBlockBegin
  2
*D4
 70
     1
 71
     0
 10
0.0
 20
0.0
 30
0.0
  3
*D4
  1

  0
SOLID
  5
14B
330
13E
100
AcDbEntity
  8
0
  6
Continuous
 62
     7
370
     0
100
AcDbTrace
 10
139.6040595875
 20
134.52232432
 30
0.0
 11
138.8540595875
 21
131.52232432
 31
0.0
 12
140.3540595875
 22
131.52232432
 32
0.0
 13
140.3540595875
 23
131.52232432
 33
0.0
  0
SOLID
  5
14C
330
13E
100
AcDbEntity
  8
0
  6
Continuous
 62
     7
370
     0
100
AcDbTrace
 10
139.6040595875
 20
114.52232432
 30
0.0
 11
140.3540595875
 21
117.52232432
 31
0.0
 12
138.8540595875
 22
117.52232432
 32
0.0
 13
138.8540595875
 23
117.52232432
 33
0.0
  0
LINE
  5
14D
330
13E
100
AcDbEntity
  8
0
  6
Continuous
 62
     7
370
     0
100
AcDbLine
 10
114.042389508
 20
134.52232432
 30
0.0
 11
140.6040595875
 21
134.52232432
 31
0.0
  0
LINE
  5
14E
330
13E
100
AcDbEntity
  8
0
  6
Continuous
 62
     7
370
     0
100
AcDbLine
 10
113.042389508
 20
114.52232432
 30
0.0
 11
140.6040595875
 21
114.52232432
 31
0.0
  0
LINE
  5
14F
330
13E
100
AcDbEntity
  8
0
  6
Continuous
 62
     7
370
     0
100
AcDbLine
 10
139.6040595875
 20
134.52232432
 30
0.0
 11
139.6040595875
 21
114.52232432
 31
0.0
  0
MTEXT
  5
150
330
13E
100
AcDbEntity
  8
0
  6
Continuous
 62
     7
370
     0
100
AcDbMText
 10
135.5313325476
 20
122.4862812198
 30
0.0
 40
3.5
 41
0.0
 71
     1
 72
     1
  1
20
  7
SLDTEXTSTYLE0
 11
-7.044197039909883E-15
 21
1.0
 31
0.0
 73
     1
 44
1.0
  0
ENDBLK
  5
14A
330
13E
100
AcDbEntity
  8
0
100
AcDbBlockEnd
  0
BLOCK
  5
15C
330
152
100
AcDbEntity
  8
0
100
AcDbBlockBegin
  2
*D5
 70
     1
 71
     0
 10
0.0
 20
0.0
 30
0.0
  3
*D5
  1

  0
SOLID
  5
15E
330
152
100
AcDbEntity
  8
0
  6
Continuous
 62
     7
370
     0
100
AcDbTrace
 10
92.542389508
 20
91.6910141549
 30
0.0
 11
89.542389508
 21
92.4410141549
 31
0.0
 12
89.542389508
 22
90.9410141549
 32
0.0
 13
89.542389508
 23
90.9410141549
 33
0.0
  0
SOLID
  5
15F
330
152
100
AcDbEntity
  8
0
  6
Continuous
 62
     7
370
     0
100
AcDbTrace
 10
112.542389508
 20
91.6910141549
 30
0.0
 11
115.542389508
 21
90.9410141549
 31
0.0
 12
115.542389508
 22
92.4410141549
 32
0.0
 13
115.542389508
 23
92.4410141549
 33
0.0
  0
LINE
  5
160
330
152
100
AcDbEntity
  8
0
  6
Continuous
 62
     7
370
     0
100
AcDbLine
 10
92.542389508
 20
114.02232432
 30
0.0
 11
92.542389508
 21
90.6910141549
 31
0.0
  0
LINE
  5
161
330
152
100
AcDbEntity
  8
0
  6
Continuous
 62
     7
370
     0
100
AcDbLine
 10
112.542389508
 20
114.02232432
 30
0.0
 11
112.542389508
 21
90.6910141549
 31
0.0
  0
LINE
  5
162
330
152
100
AcDbEntity
  8
0
  6
Continuous
 62
     7
370
     0
100
AcDbLine
 10
92.542389508
 20
91.6910141549
 30
0.0
 11
87.542389508
 21
91.6910141549
 31
0.0
  0
LINE
  5
163
330
152
100
AcDbEntity
  8
0
  6
Continuous
 62
     7
370
     0
100
AcDbLine
 10
92.542389508
 20
91.6910141549
 30
0.0
 11
112.542389508
 21
91.6910141549
 31
0.0
  0
LINE
  5
164
330
152
100
AcDbEntity
  8
0
  6
Continuous
 62
     7
370
     0
100
AcDbLine
 10
112.542389508
 20
91.6910141549
 30
0.0
 11
117.542389508
 21
91.6910141549
 31
0.0
  0
MTEXT
  5
165
330
152
100
AcDbEntity
  8
0
  6
Continuous
 62
     7
370
     0
100
AcDbMText
 10
98.571448022
 20
95.7637411948
 30
0.0
 40
3.5
 41
0.0
 71
     1
 72
     1
  1
%%c
  7
SLDTEXTSTYLE0
 73
     1
 44
1.0
  0
MTEXT
  5
166
330
152
100
AcDbEntity
  8
0
  6
Continuous
 62
     7
370
     0
100
AcDbMText
 10
102.4412447937
 20
95.7637411948
 30
0.0
 40
3.5
 41
0.0
 71
     1
 72
     1
  1
20
  7
SLDTEXTSTYLE0
 73
     1
 44
1.0
  0
ENDBLK
  5
15D
330
152
100
AcDbEntity
  8
0
100
AcDbBlockEnd
  0
BLOCK
  5
173
330
168
100
AcDbEntity
  8
0
100
AcDbBlockBegin
  2
*D6
 70
     1
 71
     0
 10
0.0
 20
0.0
 30
0.0
  3
*D6
  1

  0
SOLID
  5
176
330
168
100
AcDbEntity
  8
0
  6
Continuous
 62
     7
370
     0
100
AcDbTrace
 10
139.6040595875
 20
139.52232432
 30
0.0
 11
140.3540595875
 21
142.52232432
 31
0.0
 12
138.8540595875
 22
142.52232432
 32
0.0
 13
138.8540595875
 23
142.52232432
 33
0.0
  0
SOLID
  5
177
330
168
100
AcDbEntity
  8
0
  6
Continuous
 62
     7
370
     0
100
AcDbTrace
 10
139.6040595875
 20
134.52232432
 30
0.0
 11
138.8540595875
 21
131.52232432
 31
0.0
 12
140.3540595875
 22
131.52232432
 32
0.0
 13
140.3540595875
 23
131.52232432
 33
0.0
  0
LINE
  5
178
330
168
100
AcDbEntity
  8
0
  6
Continuous
 62
     7
370
     0
100
AcDbLine
 10
114.042389508
 20
139.52232432
 30
0.0
 11
140.6040595875
 21
139.52232432
 31
0.0
  0
LINE
  5
179
330
168
100
AcDbEntity
  8
0
  6
Continuous
 62
     7
370
     0
100
AcDbLine
 10
114.042389508
 20
134.52232432
 30
0.0
 11
140.6040595875
 21
134.52232432
 31
0.0
  0
LINE
  5
17A
330
168
100
AcDbEntity
  8
0
  6
Continuous
 62
     7
370
     0
100
AcDbLine
 10
139.6040595875
 20
139.52232432
 30
0.0
 11
139.6040595875
 21
144.52232432
 31
0.0
  0
LINE
  5
17B
330
168
100
AcDbEntity
  8
0
  6
Continuous
 62
     7
370
     0
100
AcDbLine
 10
139.6040595875
 20
139.52232432
 30
0.0
 11
139.6040595875
 21
134.52232432
 31
0.0
  0
LINE
  5
17C
330
168
100
AcDbEntity
  8
0
  6
Continuous
 62
     7
370
     0
100
AcDbLine
 10
139.6040595875
 20
134.52232432
 30
0.0
 11
139.6040595875
 21
129.52232432
 31
0.0
  0
MTEXT
  5
17D
330
168
100
AcDbEntity
  8
0
  6
Continuous
 62
     7
370
     0
100
AcDbMText
 10
135.5313325476
 20
136.0048084935
 30
0.0
 40
3.5
 41
0.0
 71
     1
 72
     1
  1
5
  7
SLDTEXTSTYLE0
 11
-7.044197039909883E-15
 21
1.0
 31
0.0
 73
     1
 44
1.0
  0
ENDBLK
  5
174
330
168
100
AcDbEntity
  8
0
100
AcDbBlockEnd
  0
BLOCK
  5
18A
330
17F
100
AcDbEntity
  8
0
100
AcDbBlockBegin
  2
*D7
 70
     1
 71
     0
 10
0.0
 20
0.0
 30
0.0
  3
*D7
  1

  0
SOLID
  5
18C
330
17F
100
AcDbEntity
  8
0
  6
Continuous
 62
     7
370
     0
100
AcDbTrace
 10
150.4801842925
 20
175.52232432
 30
0.0
 11
149.7301842925
 21
172.52232432
 31
0.0
 12
151.2301842925
 22
172.52232432
 32
0.0
 13
151.2301842925
 23
172.52232432
 33
0.0
  0
SOLID
  5
18D
330
17F
100
AcDbEntity
  8
0
  6
Continuous
 62
     7
370
     0
100
AcDbTrace
 10
150.4801842925
 20
111.52232432
 30
0.0
 11
151.2301842925
 21
114.52232432
 31
0.0
 12
149.7301842925
 22
114.52232432
 32
0.0
 13
149.7301842925
 23
114.52232432
 33
0.0
  0
LINE
  5
18E
330
17F
100
AcDbEntity
  8
0
  6
Continuous
 62
     7
370
     0
100
AcDbLine
 10
115.542389508
 20
175.52232432
 30
0.0
 11
151.4801842925
 21
175.52232432
 31
0.0
  0
LINE
  5
18F
330
17F
100
AcDbEntity
  8
0
  6
Continuous
 62
     7
370
     0
100
AcDbLine
 10
109.042389508
 20
111.52232432
 30
0.0
 11
151.4801842925
 21
111.52232432
 31
0.0
  0
LINE
  5
190
330
17F
100
AcDbEntity
  8
0
  6
Continuous
 62
     7
370
     0
100
AcDbLine
 10
150.4801842925
 20
175.52232432
 30
0.0
 11
150.4801842925
 21
111.52232432
 31
0.0
  0
MTEXT
  5
191
330
17F
100
AcDbEntity
  8
0
  6
Continuous
 62
     7
370
     0
100
AcDbMText
 10
146.4074572526
 20
141.4862812198
 30
0.0
 40
3.5
 41
0.0
 71
     1
 72
     1
  1
64
  7
SLDTEXTSTYLE0
 11
-7.044197039909883E-15
 21
1.0
 31
0.0
 73
     1
 44
1.0
  0
ENDBLK
  5
18B
330
17F
100
AcDbEntity
  8
0
100
AcDbBlockEnd
  0
BLOCK
  5
1A7
330
19D
100
AcDbEntity
  8
0
100
AcDbBlockBegin
  2
*D8
 70
     1
 71
     0
 10
0.0
 20
0.0
 30
0.0
  3
*D8
  1

  0
SOLID
  5
1A9
330
19D
100
AcDbEntity
  8
0
  6
Continuous
 62
     7
370
     0
100
AcDbTrace
 10
90.542389508
 20
249.5559128955
 30
0.0
 11
93.542389508
 21
248.8059128955
 31
0.0
 12
93.542389508
 22
250.3059128955
 32
0.0
 13
93.542389508
 23
250.3059128955
 33
0.0
  0
SOLID
  5
1AA
330
19D
100
AcDbEntity
  8
0
  6
Continuous
 62
     7
370
     0
100
AcDbTrace
 10
114.542389508
 20
249.5559128955
 30
0.0
 11
111.542389508
 21
250.3059128955
 31
0.0
 12
111.542389508
 22
248.8059128955
 32
0.0
 13
111.542389508
 23
248.8059128955
 33
0.0
  0
LINE
  5
1AB
330
19D
100
AcDbEntity
  8
0
  6
Continuous
 62
     7
370
     0
100
AcDbLine
 10
90.542389508
 20
229.3852225217
 30
0.0
 11
90.542389508
 21
250.5559128955
 31
0.0
  0
LINE
  5
1AC
330
19D
100
AcDbEntity
  8
0
  6
Continuous
 62
     7
370
     0
100
AcDbLine
 10
114.542389508
 20
229.3852225217
 30
0.0
 11
114.542389508
 21
250.5559128955
 31
0.0
  0
LINE
  5
1AD
330
19D
100
AcDbEntity
  8
0
  6
Continuous
 62
     7
370
     0
100
AcDbLine
 10
90.542389508
 20
249.5559128955
 30
0.0
 11
114.542389508
 21
249.5559128955
 31
0.0
  0
MTEXT
  5
1AE
330
19D
100
AcDbEntity
  8
0
  6
Continuous
 62
     7
370
     0
100
AcDbMText
 10
100.5063464078
 20
253.6286399354
 30
0.0
 40
3.5
 41
0.0
 71
     1
 72
     1
  1
24
  7
SLDTEXTSTYLE0
 73
     1
 44
1.0
  0
ENDBLK
  5
1A8
330
19D
100
AcDbEntity
  8
0
100
AcDbBlockEnd
  0
BLOCK
  5
1BB
330
1B0
100
AcDbEntity
  8
0
100
AcDbBlockBegin
  2
*D9
 70
     1
 71
     0
 10
0.0
 20
0.0
 30
0.0
  3
*D9
  1

  0
ARC
  5
1BD
330
1B0
100
AcDbEntity
  8
0
  6
Continuous
 62
     7
370
     0
100
AcDbCircle
 10
76.4818536383
 20
219.8685078443
 30
0.0
 40
4.55273077718116
100
AcDbArc
 50
243.4349488229
 51
296.5650511771
  0
ARC
  5
1BE
330
1B0
100
AcDbEntity
  8
0
  6
Continuous
 62
     7
370
     0
100
AcDbCircle
 10
76.4818536383
 20
223.0455307386
 30
0.0
 40
4.552730777181134
100
AcDbArc
 50
63.4349488229
 51
116.5650511771
  0
SOLID
  5
1BF
330
1B0
100
AcDbEntity
  8
0
  6
Continuous
 62
     7
370
     0
100
AcDbTrace
 10
78.5178967385
 20
235.313425752
 30
0.0
 11
77.7678967385
 21
232.313425752
 31
0.0
 12
79.2678967385
 22
232.313425752
 32
0.0
 13
79.2678967385
 23
232.313425752
 33
0.0
  0
SOLID
  5
1C0
330
1B0
100
AcDbEntity
  8
0
  6
Continuous
 62
     7
370
     0
100
AcDbTrace
 10
78.5178967385
 20
207.6006128309
 30
0.0
 11
79.2678967385
 21
210.6006128309
 31
0.0
 12
77.7678967385
 22
210.6006128309
 32
0.0
 13
77.7678967385
 23
210.6006128309
 33
0.0
  0
LINE
  5
1C1
330
1B0
100
AcDbEntity
  8
0
  6
Continuous
 62
     7
370
     0
100
AcDbLine
 10
101.542389508
 20
235.313425752
 30
0.0
 11
77.5178967385
 21
235.313425752
 31
0.0
  0
LINE
  5
1C2
330
1B0
100
AcDbEntity
  8
0
  6
Continuous
 62
     7
370
     0
100
AcDbLine
 10
101.542389508
 20
207.6006128309
 30
0.0
 11
77.5178967385
 21
207.6006128309
 31
0.0
  0
LINE
  5
1C3
330
1B0
100
AcDbEntity
  8
0
  6
Continuous
 62
     7
370
     0
100
AcDbLine
 10
78.5178967385
 20
235.313425752
 30
0.0
 11
78.5178967385
 21
207.6006128309
 31
0.0
  0
MTEXT
  5
1C4
330
1B0
100
AcDbEntity
  8
0
  6
Continuous
 62
     7
370
     0
100
AcDbMText
 10
74.4451696986
 20
217.3839216439
 30
0.0
 40
3.5
 41
0.0
 71
     1
 72
     1
  1
27.7
  7
SLDTEXTSTYLE0
 11
-7.044197039909883E-15
 21
1.0
 31
0.0
 73
     1
 44
1.0
  0
ENDBLK
  5
1BC
330
1B0
100
AcDbEntity
  8
0
100
AcDbBlockEnd
  0
BLOCK
  5
1C8
330
1C7
100
AcDbEntity
  8
0
100
AcDbBlockBegin
  2
_Open30
 70
     0
 71
     0
 10
0.0
 20
0.0
 30
0.0
  3
_Open30
  1

  0
LINE
  5
1CA
330
1C7
100
AcDbEntity
  8
0
  6
ByBlock
 62
     0
370
    -2
100
AcDbLine
 10
-1.0
 20
0.267949
 30
0.0
 11
0.0
 21
0.0
 31
0.0
  0
LINE
  5
1CB
330
1C7
100
AcDbEntity
  8
0
  6
ByBlock
 62
     0
370
    -2
100
AcDbLine
 10
0.0
 20
0.0
 30
0.0
 11
-1.0
 21
-0.267949
 31
0.0
  0
LINE
  5
1CC
330
1C7
100
AcDbEntity
  8
0
  6
ByBlock
 62
     0
370
    -2
100
AcDbLine
 10
0.0
 20
0.0
 30
0.0
 11
-1.0
 21
0.0
 31
0.0
  0
ENDBLK
  5
1C9
330
1C7
100
AcDbEntity
  8
0
100
AcDbBlockEnd
  0
BLOCK
  5
1CF
330
1CE
100
AcDbEntity
  8
0
100
AcDbBlockBegin
  2
SW_CENTERMARKSYMBOL_0
 70
     0
 71
     0
 10
0.0
 20
0.0
 30
0.0
  3
SW_CENTERMARKSYMBOL_0
  1

  0
LINE
  5
1D1
330
1CE
100
AcDbEntity
  8
0
  6
Continuous
 62
     7
370
     0
100
AcDbLine
 10
0.0
 20
0.0
 30
0.0
 11
0.0
 21
2.5
 31
0.0
  0
LINE
  5
1D2
330
1CE
100
AcDbEntity
  8
0
  6
Continuous
 62
     7
370
     0
100
AcDbLine
 10
0.0
 20
0.0
 30
0.0
 11
-2.5
 21
0.0
 31
0.0
  0
LINE
  5
1D3
330
1CE
100
AcDbEntity
  8
0
  6
Continuous
 62
     7
370
     0
100
AcDbLine
 10
0.0
 20
0.0
 30
0.0
 11
0.0
 21
-2.5
 31
0.0
  0
LINE
  5
1D4
330
1CE
100
AcDbEntity
  8
0
  6
Continuous
 62
     7
370
     0
100
AcDbLine
 10
0.0
 20
0.0
 30
0.0
 11
2.5
 21
0.0
 31
0.0
  0
LINE
  5
1D5
330
1CE
100
AcDbEntity
  8
0
  6
Continuous
 62
     7
370
     0
100
AcDbLine
 10
0.0
 20
5.0
 30
0.0
 11
0.0
 21
17.8826016226
 31
0.0
  0
LINE
  5
1D6
330
1CE
100
AcDbEntity
  8
0
  6
Continuous
 62
     7
370
     0
100
AcDbLine
 10
-5.0
 20
0.0
 30
0.0
 11
-14.3904661958
 21
0.0
 31
0.0
  0
LINE
  5
1D7
330
1CE
100
AcDbEntity
  8
0
  6
Continuous
 62
     7
370
     0
100
AcDbLine
 10
0.0
 20
-5.0
 30
0.0
 11
0.0
 21
-16.5757391287
 31
0.0
  0
LINE
  5
1D8
330
1CE
100
AcDbEntity
  8
0
  6
Continuous
 62
     7
370
     0
100
AcDbLine
 10
5.0
 20
0.0
 30
0.0
 11
14.3904661958
 21
0.0
 31
0.0
  0
ENDBLK
  5
1D0
330
1CE
100
AcDbEntity
  8
0
100
AcDbBlockEnd
  0
ENDSEC
  0
SECTION
  2
ENTITIES
  0
LINE
  5
2F
330
1F
100
AcDbEntity
  8
0
  6
Continuous
 62
     7
370
     0
100
AcDbLine
 10
20.2604743903
 20
285.0
 30
0.0
 11
196.7604743903
 21
285.0
 31
0.0
  0
LINE
  5
30
330
1F
100
AcDbEntity
  8
0
  6
Continuous
 62
     7
370
     0
100
AcDbLine
 10
20.2604743903
 20
285.0
 30
0.0
 11
20.2604743903
 21
10.0
 31
0.0
  0
LINE
  5
31
330
1F
100
AcDbEntity
  8
0
  6
Continuous
 62
     7
370
     0
100
AcDbLine
 10
20.2604743903
 20
10.0
 30
0.0
 11
196.7604743903
 21
10.0
 31
0.0
  0
LINE
  5
32
330
1F
100
AcDbEntity
  8
0
  6
Continuous
 62
     7
370
     0
100
AcDbLine
 10
196.7604743903
 20
285.0
 30
0.0
 11
196.7604743903
 21
10.0
 31
0.0
  0
LINE
  5
33
330
1F
100
AcDbEntity
  8
0
  6
Continuous
 62
     7
370
     0
100
AcDbLine
 10
127.0104743903
 20
50.75
 30
0.0
 11
196.7604743903
 21
50.75
 31
0.0
  0
LINE
  5
34
330
1F
100
AcDbEntity
  8
0
  6
Continuous
 62
     7
370
     0
100
AcDbLine
 10
127.0104743903
 20
50.75
 30
0.0
 11
127.0104743903
 21
10.0
 31
0.0
  0
LINE
  5
35
330
1F
100
AcDbEntity
  8
0
  6
Continuous
 62
     7
370
     0
100
AcDbLine
 10
127.0104743903
 20
22.75
 30
0.0
 11
196.7604743903
 21
22.75
 31
0.0
  0
LINE
  5
36
330
1F
100
AcDbEntity
  8
0
  6
Continuous
 62
     7
370
     0
100
AcDbLine
 10
127.0104743903
 20
36.75
 30
0.0
 11
196.7604743903
 21
36.75
 31
0.0
  0
MTEXT
  5
38
330
1F
100
AcDbEntity
  8
0
  6
Continuous
 62
     7
370
     0
100
AcDbMText
 10
147.0467564184
 20
29.8861652342
 30
0.0
 40
4.2333333333
 41
0.0
 71
     1
 72
     1
  1
VFI-L-20-P20
  7
SLDTEXTSTYLE0
 73
     1
 44
1.0
  0
MTEXT
  5
39
330
1F
100
AcDbEntity
  8
0
  6
Continuous
 62
     7
370
     0
100
AcDbMText
 10
145.0404326081
 20
43.4099788511
 30
0.0
 40
4.2333333333
 41
0.0
 71
     1
 72
     1
  1
吸着金具ラージ
  7
SLDTEXTSTYLE0
 73
     1
 44
1.0
  0
MTEXT
  5
3A
330
1F
100
AcDbEntity
  8
0
  6
Continuous
 62
     7
370
     0
100
AcDbMText
 10
155.436255432
 20
16.2918259049
 30
0.0
 40
4.2333333333
 41
0.0
 71
     1
 72
     1
  1
210886
  7
SLDTEXTSTYLE0
 73
     1
 44
1.0
  0
LINE
  5
3B
330
1F
100
AcDbEntity
  8
0
  6
Continuous
 62
     7
370
    30
100
AcDbLine
 10
94.792389508
 20
114.52232432
 30
0.0
 11
94.792389508
 21
113.52232432
 31
0.0
  0
LINE
  5
3C
330
1F
100
AcDbEntity
  8
0
  6
Continuous
 62
     7
370
    30
100
AcDbLine
 10
110.292389508
 20
113.52232432
 30
0.0
 11
110.292389508
 21
114.52232432
 31
0.0
  0
LWPOLYLINE
  5
3D
330
1F
100
AcDbEntity
  8
0
  6
Continuous
 62
     7
370
    30
100
AcDbPolyline
 90
        5
 70
   128
 43
0.0
 10
111.7365209194
 20
167.3277067979
 10
112.015875371
 20
167.3702464728
 10
112.2132736651
 20
167.4156142506
 10
112.3210273764
 20
167.4632996362
 10
112.3298862748
 20
167.4980002323
  0
LWPOLYLINE
  5
3E
330
1F
100
AcDbEntity
  8
0
  6
Continuous
 62
     7
370
    30
100
AcDbPolyline
 90
       39
 70
   128
 43
0.0
 10
109.4804361511
 20
171.5239568935
 10
109.1590345207
 20
171.4996967197
 10
108.2758253557
 20
171.4403021296
 10
107.475374177
 20
171.3910292631
 10
106.7552045284
 20
171.3497050562
 10
105.9985023317
 20
171.3089345151
 10
105.2039485351
 20
171.2687359163
 10
104.3804363282
 20
171.2296568329
 10
103.5436579183
 20
171.1912367239
 10
102.8265252275
 20
171.1573437751
 10
102.2747020635
 20
171.1306296256
 10
101.7786961359
 20
171.1061483419
 10
101.1175909243
 20
171.0728213343
 10
100.2907731387
 20
171.0299923413
 10
99.3995847319
 20
170.9823284773
 10
98.280635034
 20
170.9200694503
 10
97.2594770173
 20
170.8605473987
 10
96.3454011996
 20
170.8045832811
 10
95.5113046014
 20
170.7506126553
 10
94.7612922422
 20
170.6981101763
 10
94.0841151318
 20
170.6402382216
 10
93.523323574
 20
170.5780254693
 10
93.109534184
 20
170.515155917
 10
92.8107521285
 20
170.4481224635
 10
92.5236208461
 20
170.3273945686
 10
92.3667227053
 20
170.2083371934
 10
92.2322484332
 20
170.0342680084
 10
92.1507171793
 20
169.795155678
 10
92.1510604393
 20
169.5744630875
 10
92.188448675
 20
169.4327606638
 10
92.2485723817
 20
169.3096245791
 10
92.4078477919
 20
169.124455523
 10
92.5516911739
 20
169.0272023462
 10
92.690542514
 20
168.9662346399
 10
92.87602011
 20
168.9116154466
 10
93.1327999848
 20
168.8607882773
 10
93.4921102596
 20
168.8110642526
 10
93.9699406476
 20
168.7586296734
 10
94.042389508
 20
168.751856923
  0
LWPOLYLINE
  5
3F
330
1F
100
AcDbEntity
  8
0
  6
Continuous
 62
     7
370
    30
100
AcDbPolyline
 90
       16
 70
   128
 43
0.0
 10
112.2123558922
 20
167.4473832272
 10
112.5116237099
 20
167.5196682549
 10
112.7209100934
 20
167.6641550308
 10
112.8429668683
 20
167.8208137728
 10
112.9047108092
 20
167.9582742414
 10
112.9405229826
 20
168.1496453396
 10
112.9352176867
 20
168.2813046507
 10
112.8689763318
 20
168.5018458922
 10
112.7553391289
 20
168.6718656279
 10
112.6366071479
 20
168.780322194
 10
112.454972493
 20
168.8825569884
 10
112.2450295219
 20
168.9545523966
 10
111.9881258257
 20
169.0123216224
 10
111.6042969106
 20
169.0719890697
 10
111.1014395595
 20
169.1299199507
 10
111.042389508
 20
169.1351490169
  0
LWPOLYLINE
  5
40
330
1F
100
AcDbEntity
  8
0
  6
Continuous
 62
     7
370
    30
100
AcDbPolyline
 90
       30
 70
   128
 43
0.0
 10
93.2888991234
 20
169.1492854437
 10
93.306064872
 20
169.1439371487
 10
93.4106073348
 20
169.1566650724
 10
93.6276360988
 20
169.1857473019
 10
93.9872073913
 20
169.2271321585
 10
94.5143490517
 20
169.2767411674
 10
95.1723844464
 20
169.3268287649
 10
95.8990559224
 20
169.3752558398
 10
96.6912244238
 20
169.4253565944
 10
97.5258089457
 20
169.4757808382
 10
98.3798272468
 20
169.5253144596
 10
99.2319845288
 20
169.5729416866
 10
100.0638152061
 20
169.6178785065
 10
100.8170396856
 20
169.6573444576
 10
101.3995139065
 20
169.6871069431
 10
101.8038323085
 20
169.7073897027
 10
101.9791457803
 20
169.7160897739
 10
102.2470183054
 20
169.7292735431
 10
102.6853201492
 20
169.7505619735
 10
103.2889622856
 20
169.7793079094
 10
104.0469739923
 20
169.8144597899
 10
104.9541881448
 20
169.8565925316
 10
105.740466343
 20
169.8955215261
 10
106.6062159184
 20
169.941276885
 10
107.5321956454
 20
169.9939784145
 10
108.4894063771
 20
170.0532984012
 10
109.4385184666
 20
170.1183042877
 10
110.3312673638
 20
170.1873548267
 10
111.1144607047
 20
170.2581105265
 10
111.7365209194
 20
170.3277067979
  0
LWPOLYLINE
  5
41
330
1F
100
AcDbEntity
  8
0
  6
Continuous
 62
     7
370
    30
100
AcDbPolyline
 90
       16
 70
   128
 43
0.0
 10
111.7828909796
 20
142.3356625127
 10
112.3158475905
 20
142.4917215768
 10
112.6540564655
 20
142.6882262495
 10
112.7656298126
 20
142.8028772828
 10
112.8453793898
 20
142.9274527963
 10
112.8970428003
 20
143.059527307
 10
112.9238085776
 20
143.1952253914
 10
112.928728031
 20
143.3295236291
 10
112.9127846418
 20
143.4634652069
 10
112.8581014199
 20
143.6252099254
 10
112.7503163024
 20
143.7961479415
 10
112.4874826459
 20
144.018156129
 10
112.2286503689
 20
144.1395979844
 10
111.8656024991
 20
144.2504292165
 10
111.4564551843
 20
144.3416896563
 10
111.042389508
 20
144.4149186853
  0
LWPOLYLINE
  5
42
330
1F
100
AcDbEntity
  8
0
  6
Continuous
 62
     7
370
    30
100
AcDbPolyline
 90
       49
 70
   128
 43
0.0
 10
93.3449726229
 20
145.3389268232
 10
93.3520974354
 20
145.3380849221
 10
93.4816749605
 20
145.3787849115
 10
93.7160181961
 20
145.4366981299
 10
94.0388317055
 20
145.5001701643
 10
94.6861552736
 20
145.5998716544
 10
95.5204059367
 20
145.700356043
 10
96.5607336602
 20
145.8129163505
 10
97.7073188773
 20
145.9288072172
 10
98.89564426
 20
146.0421769424
 10
100.0760361927
 20
146.1492593966
 10
101.207842106
 20
146.2474055621
 10
102.2166965246
 20
146.3314289558
 10
102.8916697062
 20
146.3858812861
 10
103.4493391596
 20
146.4298090821
 10
104.0655967654
 20
146.4772237514
 10
104.855267421
 20
146.5380552252
 10
105.8266637835
 20
146.6180315241
 10
106.7600398446
 20
146.7008589372
 10
107.778448147
 20
146.7988830647
 10
108.7519605772
 20
146.9016218134
 10
109.55893353
 20
146.9954048174
 10
110.2096537758
 20
147.0787174529
 10
110.7218027162
 20
147.151016736
 10
111.0275034446
 20
147.1980822458
 10
111.2759730406
 20
147.2392543885
 10
111.4805014798
 20
147.2757319234
 10
111.7269437526
 20
147.3244138309
 10
112.0291286749
 20
147.3977925348
 10
112.3620753564
 20
147.5157553677
 10
112.6142244617
 20
147.6602011172
 10
112.7653743202
 20
147.8029997953
 10
112.8509561601
 20
147.9311696345
 10
112.9022577303
 20
148.0501948732
 10
112.9413311222
 20
148.3348459138
 10
112.917233288
 20
148.4895615369
 10
112.8594220492
 20
148.6424444845
 10
112.756365466
 20
148.7983050228
 10
112.5873390803
 20
148.9520927514
 10
112.2767722604
 20
149.1177519674
 10
111.9171794673
 20
149.2369141354
 10
111.6034278622
 20
149.3121471599
 10
111.3582481351
 20
149.3607891305
 10
111.0835551033
 20
149.408582991
 10
110.742666225
 20
149.4607699035
 10
110.327533211
 20
149.5164445671
 10
109.7375696684
 20
149.5854837136
 10
108.9978358772
 20
149.6661733736
 10
108.542389508
 20
149.7132249548
  0
LINE
  5
43
330
1F
100
AcDbEntity
  8
0
  6
Continuous
 62
     7
370
    30
100
AcDbLine
 10
96.542389508
 20
150.7839594802
 30
0.0
 11
96.4186448093
 21
150.797632586
 31
0.0
  0
LWPOLYLINE
  5
44
330
1F
100
AcDbEntity
  8
0
  6
Continuous
 62
     7
370
    30
100
AcDbPolyline
 90
       48
 70
   128
 43
0.0
 10
93.3527872155
 20
150.3428537955
 10
93.3534319655
 20
150.338224768
 10
93.4809208637
 20
150.3777472871
 10
93.6879337039
 20
150.4294076773
 10
93.9512102172
 20
150.4833542415
 10
94.4266203456
 20
150.5626880964
 10
95.0480011069
 20
150.6458329752
 10
95.5765684272
 20
150.7066310466
 10
96.2255198713
 20
150.7775271965
 10
97.0082945416
 20
150.8590184308
 10
97.9330103804
 20
150.9508161946
 10
99.0001847447
 20
151.0518701312
 10
100.0920053821
 20
151.1506739326
 10
101.0522073972
 20
151.2341578766
 10
101.8574997303
 20
151.3018777656
 10
102.4984229701
 20
151.3543278295
 10
102.9737618702
 20
151.3924082115
 10
103.3118017021
 20
151.4190648992
 10
103.7490412462
 20
151.4530172078
 10
104.3351393514
 20
151.4976426097
 10
105.0743422528
 20
151.5555675709
 10
105.9644379215
 20
151.6298670689
 10
107.2897095259
 20
151.7507494685
 10
108.4360547853
 20
151.8671689381
 10
109.3909840657
 20
151.975110998
 10
110.1599751074
 20
152.0720531135
 10
110.8265999931
 20
152.1667635589
 10
111.4802273312
 20
152.276207954
 10
111.877960003
 20
152.3584467981
 10
112.2321547046
 20
152.4589812525
 10
112.5945788659
 20
152.6428494793
 10
112.7335843501
 20
152.7670047115
 10
112.8555636758
 20
152.9408361915
 10
112.9220538068
 20
153.1195865455
 10
112.9417581963
 20
153.2645234759
 10
112.9139084853
 20
153.5014046159
 10
112.8378110818
 20
153.6822428177
 10
112.720326694
 20
153.8397153799
 10
112.6247963499
 20
153.9275141526
 10
112.5411533231
 20
153.987785907
 10
112.3680751209
 20
154.0818504778
 10
112.0986699568
 20
154.1836522313
 10
111.6778811388
 20
154.2946183405
 10
111.0685579077
 20
154.4101640181
 10
110.5403038634
 20
154.4883070687
 10
109.9058607685
 20
154.5661748226
 10
109.1347115035
 20
154.6514825485
 10
108.542389508
 20
154.7131801888
  0
LINE
  5
45
330
1F
100
AcDbEntity
  8
0
  6
Continuous
 62
     7
370
    30
100
AcDbLine
 10
96.542389508
 20
155.7833759215
 30
0.0
 11
96.4169894923
 21
155.7973910748
 31
0.0
  0
LWPOLYLINE
  5
46
330
1F
100
AcDbEntity
  8
0
  6
Continuous
 62
     7
370
    30
100
AcDbPolyline
 90
       49
 70
   128
 43
0.0
 10
93.3522894987
 20
155.3444578825
 10
93.3758563151
 20
155.3468833236
 10
93.4453476689
 20
155.3671821445
 10
93.5463696486
 20
155.3948966012
 10
93.7226710964
 20
155.4369703647
 10
93.9809298805
 20
155.4889506785
 10
94.3413098861
 20
155.549808154
 10
94.8205034115
 20
155.6175193289
 10
95.4341530687
 20
155.6906367132
 10
96.2252665205
 20
155.7775290333
 10
97.1718131129
 20
155.8755889974
 10
98.1194303915
 20
155.9688237368
 10
99.019388814
 20
156.0536461541
 10
99.8402165497
 20
156.1282675112
 10
100.5606028191
 20
156.1917969966
 10
101.1727591224
 20
156.2444260428
 10
102.0668163114
 20
156.3191467911
 10
102.9860044638
 20
156.3933795918
 10
103.9454104509
 20
156.4680707346
 10
105.0342871434
 20
156.5523462669
 10
105.8467260679
 20
156.6197499424
 10
106.7164977404
 20
156.69685876
 10
107.6252912499
 20
156.783584621
 10
108.547564327
 20
156.8792196687
 10
109.4009921448
 20
156.9763401686
 10
110.1203961948
 20
157.0668634079
 10
110.9659466491
 20
157.188609001
 10
111.5719119219
 20
157.2937786808
 10
111.9935991853
 20
157.3864277431
 10
112.3090384939
 20
157.4875320099
 10
112.5860492094
 20
157.6349717276
 10
112.7202888141
 20
157.7508469774
 10
112.8704894564
 20
157.9705867321
 10
112.9421017701
 20
158.2746867204
 10
112.911502789
 20
158.5102434404
 10
112.8532422063
 20
158.6544647383
 10
112.7805003432
 20
158.7685124035
 10
112.6509560709
 20
158.9036978658
 10
112.4514296205
 20
159.0374932807
 10
112.1983219073
 20
159.1494013397
 10
111.9327457386
 20
159.2330031109
 10
111.6611566823
 20
159.2995187038
 10
111.3848508324
 20
159.3556587067
 10
111.0646464597
 20
159.4114845147
 10
110.6145475331
 20
159.4786036125
 10
110.0765690086
 20
159.5466956203
 10
109.433935063
 20
159.61909914
 10
108.6594364033
 20
159.7017147352
 10
108.542389508
 20
159.713578982
  0
LINE
  5
47
330
1F
100
AcDbEntity
  8
0
  6
Continuous
 62
     7
370
    30
100
AcDbLine
 10
96.542389508
 20
160.7831113195
 30
0.0
 11
96.4187418846
 21
160.7971640431
 31
0.0
  0
LWPOLYLINE
  5
48
330
1F
100
AcDbEntity
  8
0
  6
Continuous
 62
     7
370
    30
100
AcDbPolyline
 90
       48
 70
   128
 43
0.0
 10
93.3384074102
 20
160.3349359449
 10
93.370680219
 20
160.3440321915
 10
93.5873062008
 20
160.406438997
 10
93.916910677
 20
160.4773314693
 10
94.3258309595
 20
160.5474204616
 10
95.0378438339
 20
160.6445428501
 10
95.8538546412
 20
160.737322219
 10
96.8477549249
 20
160.8426119146
 10
98.0200689504
 20
160.9592471687
 10
98.8927066749
 20
161.0419082489
 10
99.8277981577
 20
161.1271588928
 10
100.7222705227
 20
161.20581486
 10
101.4624442103
 20
161.2689115394
 10
102.0385764079
 20
161.3168248223
 10
102.4483731222
 20
161.3502774595
 10
102.806274357
 20
161.3790697614
 10
103.314224308
 20
161.4192544121
 10
103.9681478444
 20
161.469806822
 10
104.761281575
 20
161.5306346536
 10
105.7048822018
 20
161.6076720953
 10
106.7794897826
 20
161.7026483344
 10
107.8183937161
 20
161.8029037164
 10
108.7257176837
 20
161.898710778
 10
109.4983043257
 20
161.9880285257
 10
110.4173239984
 20
162.1072041304
 10
111.0850406509
 20
162.2074059021
 10
111.5640889724
 20
162.2916469995
 10
111.9873647851
 20
162.3851703812
 10
112.2548773535
 20
162.4688269683
 10
112.5016543724
 20
162.5827188163
 10
112.6981996362
 20
162.7293785733
 10
112.7778364685
 20
162.8183613015
 10
112.8448590434
 20
162.9200973588
 10
112.9021925218
 20
163.0499830228
 10
112.9359781436
 20
163.1960156659
 10
112.9370508476
 20
163.3846872157
 10
112.8827865356
 20
163.5912431
 10
112.7986210698
 20
163.7438609952
 10
112.6556974086
 20
163.901634211
 10
112.5455151292
 20
163.9846923391
 10
112.4244187645
 20
164.054666758
 10
112.2887251538
 20
164.1162993653
 10
111.9498024714
 20
164.2280724219
 10
111.4696493186
 20
164.3387626261
 10
110.8097481312
 20
164.4506261331
 10
109.9476327029
 20
164.5615366114
 10
109.2335460412
 20
164.6408938052
 10
108.542389508
 20
164.7134874416
  0
LWPOLYLINE
  5
49
330
1F
100
AcDbEntity
  8
0
  6
Continuous
 62
     7
370
    30
100
AcDbPolyline
 90
        3
 70
   128
 43
0.0
 10
96.542389508
 20
165.7819794851
 10
96.5096749
 20
165.7854274886
 10
96.4125808672
 20
165.7967274018
  0
LWPOLYLINE
  5
4A
330
1F
100
AcDbEntity
  8
0
  6
Continuous
 62
     7
370
    30
100
AcDbPolyline
 90
       30
 70
   128
 43
0.0
 10
93.3976153145
 20
165.3819195402
 10
93.399481212
 20
165.3762813586
 10
93.4675785725
 20
165.3893471883
 10
93.6034131
 20
165.4196853529
 10
94.0282478052
 20
165.5007088056
 10
94.6128757755
 20
165.5901465065
 10
95.30254881
 20
165.6755827605
 10
96.090500379
 20
165.7630521225
 10
97.0099842316
 20
165.859189196
 10
98.0566560356
 20
165.962774502
 10
99.2141526272
 20
166.0715783747
 10
100.4577956908
 20
166.1828380202
 10
101.1018374251
 20
166.2383905268
 10
101.702684828
 20
166.2890168465
 10
102.2203847293
 20
166.3317303437
 10
102.653600909
 20
166.3668359154
 10
103.0026158062
 20
166.3946972733
 10
103.2685604834
 20
166.4156747135
 10
103.5012096436
 20
166.4338458331
 10
103.9011479923
 20
166.4646890085
 10
104.4835233276
 20
166.5090171602
 10
105.2542882901
 20
166.5702172775
 10
106.2077714468
 20
166.6511947489
 10
107.3182238596
 20
166.753681154
 10
108.1210714224
 20
166.8341585116
 10
108.9469651231
 20
166.9237691349
 10
109.7647292078
 20
167.0212191057
 10
110.5370640676
 20
167.1243963871
 10
111.2231655484
 20
167.2303883346
 10
111.7828909796
 20
167.3356625127
  0
LWPOLYLINE
  5
4B
330
1F
100
AcDbEntity
  8
0
  6
Continuous
 62
     7
370
    30
100
AcDbPolyline
 90
       45
 70
   128
 43
0.0
 10
111.5234152056
 20
168.7081407774
 10
110.9393528593
 20
168.5976197666
 10
110.1954742113
 20
168.4847427302
 10
109.3490293705
 20
168.3749353622
 10
108.4573008319
 20
168.2724116036
 10
107.5706618658
 20
168.1799674866
 10
106.7288918872
 20
168.099077727
 10
105.9604533278
 20
168.0301714499
 10
105.2837461653
 20
167.9729641391
 10
104.4050034944
 20
167.9031279016
 10
103.6700105356
 20
167.8469808687
 10
103.0394261547
 20
167.7976250908
 10
102.5117779271
 20
167.7554069561
 10
101.8686776817
 20
167.7028259275
 10
101.1803440652
 20
167.6451687106
 10
100.3581061478
 20
167.5743853184
 10
99.4146279409
 20
167.4904781451
 10
98.3740949564
 20
167.3943109276
 10
97.2762750118
 20
167.2880996196
 10
96.2735941838
 20
167.1858237832
 10
95.4398778392
 20
167.0956621746
 10
94.7577096744
 20
167.016061483
 10
94.1894131586
 20
166.9374872551
 10
93.5277049775
 20
166.8206235467
 10
93.0645094853
 20
166.7075326301
 10
92.7649526643
 20
166.6030832638
 10
92.5743958612
 20
166.5070896101
 10
92.4839489097
 20
166.44609476
 10
92.3969712385
 20
166.3724401695
 10
92.2823006367
 20
166.238254075
 10
92.1971592341
 20
166.079263402
 10
92.1453734023
 20
165.8616815593
 10
92.1448435485
 20
165.7339246212
 10
92.1734145736
 20
165.5791640577
 10
92.2555910442
 20
165.3941068376
 10
92.3854622708
 20
165.2314944518
 10
92.6661630749
 20
165.036999379
 10
92.9302997123
 20
164.9330369592
 10
93.2001665021
 20
164.8600064373
 10
93.4957272288
 20
164.797063426
 10
94.1447101788
 20
164.6842775402
 10
94.8152948728
 20
164.5868101999
 10
95.5600618641
 20
164.4912292149
 10
96.4907112791
 20
164.3842545881
 10
96.542389508
 20
164.3789218422
  0
LINE
  5
4C
330
1F
100
AcDbEntity
  8
0
  6
Continuous
 62
     7
370
    30
100
AcDbLine
 10
108.542389508
 20
163.3105855532
 30
0.0
 11
108.666700512
 21
163.2977299612
 31
0.0
  0
LWPOLYLINE
  5
4D
330
1F
100
AcDbEntity
  8
0
  6
Continuous
 62
     7
370
    30
100
AcDbPolyline
 90
       53
 70
   128
 43
0.0
 10
111.7715113581
 20
163.7713428285
 10
111.7728021093
 20
163.7725074818
 10
111.7283705449
 20
163.7587461193
 10
111.5956815155
 20
163.7225294903
 10
111.3807206102
 20
163.676658231
 10
110.8853090787
 20
163.5884485916
 10
110.148518079
 20
163.4783742228
 10
109.1474467742
 20
163.3508862415
 10
107.962459724
 20
163.2198618139
 10
106.737021578
 20
163.0998418827
 10
105.534292763
 20
162.9937835563
 10
104.4004372155
 20
162.9027772078
 10
103.3513996671
 20
162.8221938231
 10
102.4321825293
 20
162.7489662109
 10
101.6774667113
 20
162.6869534436
 10
101.1773649195
 20
162.6449168874
 10
100.5428265081
 20
162.5904745311
 10
99.7799019726
 20
162.5233214962
 10
98.9025676424
 20
162.4436647526
 10
97.9352578124
 20
162.3525034292
 10
96.9179804858
 20
162.2522282664
 10
96.0142627735
 20
162.1584351712
 10
95.2853836043
 20
162.0785240991
 10
94.7044465936
 20
162.0097641511
 10
94.2356637181
 20
161.9451901679
 10
93.8660104192
 20
161.885805353
 10
93.5768433376
 20
161.8319066076
 10
93.3816790806
 20
161.7901718005
 10
93.1518572101
 20
161.7325961883
 10
92.8998417186
 20
161.6530811791
 10
92.6492304096
 20
161.5445227446
 10
92.4608716159
 20
161.4247959672
 10
92.3049612027
 20
161.2692301723
 10
92.2113033916
 20
161.112969682
 10
92.160179392
 20
160.9589377232
 10
92.1424571337
 20
160.8038052461
 10
92.1921513312
 20
160.5231807977
 10
92.2269603537
 20
160.4443469005
 10
92.2750931809
 20
160.3624633672
 10
92.346772364
 20
160.2714588987
 10
92.4766930744
 20
160.1556520019
 10
92.6726939365
 20
160.0390677086
 10
92.9371430511
 20
159.9338880718
 10
93.1960235561
 20
159.8609723959
 10
93.4253549925
 20
159.8103945343
 10
93.6558543612
 20
159.7662693738
 10
93.8686848015
 20
159.7290504348
 10
94.1329398621
 20
159.6861023869
 10
94.4574866294
 20
159.6371208857
 10
94.9998518449
 20
159.562098584
 10
95.6865432011
 20
159.4759845848
 10
96.5343561637
 20
159.3795164592
 10
96.542389508
 20
159.3786865997
  0
LINE
  5
4E
330
1F
100
AcDbEntity
  8
0
  6
Continuous
 62
     7
370
    30
100
AcDbLine
 10
108.542389508
 20
158.3103997058
 30
0.0
 11
108.6720577472
 21
158.2971183673
 31
0.0
  0
LWPOLYLINE
  5
4F
330
1F
100
AcDbEntity
  8
0
  6
Continuous
 62
     7
370
    30
100
AcDbPolyline
 90
       50
 70
   128
 43
0.0
 10
111.7473342442
 20
158.7615529383
 10
111.7234604765
 20
158.7578764469
 10
111.5052067965
 20
158.703144093
 10
111.1711957001
 20
158.6380214362
 10
110.7341408213
 20
158.5644822061
 10
110.1650888635
 20
158.4807064669
 10
109.6592926732
 20
158.4136540752
 10
109.0359081
 20
158.3377783981
 10
108.2846496824
 20
158.2538257782
 10
107.4007235812
 20
158.1631732639
 10
106.3872097513
 20
158.0678991621
 10
105.290934956
 20
157.9735503047
 10
104.3112959789
 20
157.8959594608
 10
103.4763897602
 20
157.8319536786
 10
102.7806458506
 20
157.7770236916
 10
102.2389993836
 20
157.7332551912
 10
101.8590056336
 20
157.7020258552
 10
101.4652052748
 20
157.6692042096
 10
100.9066533167
 20
157.621842986
 10
100.1872789715
 20
157.5594137447
 10
99.3185366221
 20
157.4817685188
 10
98.379482239
 20
157.3948297404
 10
97.5297631893
 20
157.3131244428
 10
96.7792222916
 20
157.2381527102
 10
95.8341420491
 20
157.1391195608
 10
95.0873814089
 20
157.0560436284
 10
94.6725290796
 20
157.0057374008
 10
94.2490754062
 20
156.9471828662
 10
93.8171987023
 20
156.876993797
 10
93.3965096933
 20
156.7929449838
 10
93.0112594198
 20
156.6920225356
 10
92.6494542507
 20
156.547876153
 10
92.365952824
 20
156.3391287651
 10
92.2406030193
 20
156.170320946
 10
92.1672355122
 20
155.9883880465
 10
92.1436844492
 20
155.8370078418
 10
92.1475046828
 20
155.7085620569
 10
92.2049682489
 20
155.4923556056
 10
92.2932072753
 20
155.3369370838
 10
92.3814063393
 20
155.2337088998
 10
92.4822151395
 20
155.1467192323
 10
92.5851245597
 20
155.0792118907
 10
92.7265797943
 20
155.0087758765
 10
92.927211786
 20
154.9349686088
 10
93.3292163009
 20
154.8320674119
 10
93.9310870626
 20
154.7193744289
 10
94.4754856431
 20
154.6347923775
 10
95.1567140472
 20
154.5417414736
 10
95.9891407397
 20
154.4404733079
 10
96.542389508
 20
154.3800309622
  0
LINE
  5
50
330
1F
100
AcDbEntity
  8
0
  6
Continuous
 62
     7
370
    30
100
AcDbLine
 10
108.542389508
 20
153.3103331701
 30
0.0
 11
108.6684292638
 21
153.297064347
 31
0.0
  0
LWPOLYLINE
  5
51
330
1F
100
AcDbEntity
  8
0
  6
Continuous
 62
     7
370
    30
100
AcDbPolyline
 90
       49
 70
   128
 43
0.0
 10
111.73231181
 20
153.7504503524
 10
111.7309645609
 20
153.7554448894
 10
111.692589869
 20
153.7483113412
 10
111.5929324912
 20
153.7238333263
 10
111.4695533841
 20
153.6962427536
 10
111.2456651561
 20
153.6517589122
 10
110.9278142926
 20
153.5957495936
 10
110.4936470336
 20
153.5277201837
 10
109.9203699609
 20
153.4475264128
 10
109.1875616714
 20
153.3556405187
 10
108.2940576977
 20
153.2548222276
 10
107.3737249512
 20
153.160515981
 10
106.4930828117
 20
153.0774670768
 10
105.679908324
 20
153.0060773548
 10
104.8179680274
 20
152.9353425745
 10
104.0950844442
 20
152.8795658188
 10
103.4560434618
 20
152.830368773
 10
102.772369214
 20
152.7763615215
 10
102.0401328733
 20
152.7169655425
 10
101.037605206
 20
152.6330329794
 10
99.8787277771
 20
152.532127763
 10
98.59346411
 20
152.4149336413
 10
97.2428676726
 20
152.284788579
 10
96.3484721216
 20
152.1936930114
 10
95.5474206382
 20
152.1077039749
 10
94.8814748435
 20
152.031551463
 10
94.0718082276
 20
151.9194739164
 10
93.4618361967
 20
151.8071712881
 10
93.0247048435
 20
151.696241531
 10
92.7138073078
 20
151.5806496514
 10
92.4716926105
 20
151.4365551952
 10
92.3508801267
 20
151.325005474
 10
92.2668539753
 20
151.2150616636
 10
92.1852865876
 20
151.047488644
 10
92.1435899785
 20
150.8371968839
 10
92.1549345947
 20
150.6568691823
 10
92.193008624
 20
150.5209438095
 10
92.2362591086
 20
150.4267782241
 10
92.341076473
 20
150.2770654427
 10
92.4739810831
 20
150.1547357132
 10
92.6985374914
 20
150.0232047564
 10
92.9590920647
 20
149.9248474219
 10
93.2342678536
 20
149.8514461449
 10
93.669733478
 20
149.7638466368
 10
94.2027665155
 20
149.6752849369
 10
94.6771183945
 20
149.6058552158
 10
95.2649589224
 20
149.527846715
 10
95.9792902859
 20
149.4415963638
 10
96.542389508
 20
149.3795766459
  0
LWPOLYLINE
  5
52
330
1F
100
AcDbEntity
  8
0
  6
Continuous
 62
     7
370
    30
100
AcDbPolyline
 90
        3
 70
   128
 43
0.0
 10
108.542389508
 20
148.3105954398
 10
108.6734947171
 20
148.2972161142
 10
108.6736127558
 20
148.2972032547
  0
LWPOLYLINE
  5
53
330
1F
100
AcDbEntity
  8
0
  6
Continuous
 62
     7
370
    30
100
AcDbPolyline
 90
       42
 70
   128
 43
0.0
 10
111.7591246314
 20
148.7650856124
 10
111.7634234879
 20
148.7701866768
 10
111.6637859601
 20
148.7400270342
 10
111.3931675016
 20
148.6790803109
 10
111.0207388415
 20
148.6111584765
 10
110.5620260916
 20
148.5379466318
 10
109.7605811352
 20
148.4266365952
 10
108.8155551149
 20
148.3123967376
 10
107.7023230648
 20
148.193236593
 10
106.4452696429
 20
148.0731400904
 10
105.545335713
 20
147.9947121138
 10
104.6352391567
 20
147.9209577475
 10
103.859638445
 20
147.8615861227
 10
103.2293897345
 20
147.8126202079
 10
102.7547173887
 20
147.7749485527
 10
102.4112571969
 20
147.747269789
 10
101.9564881534
 20
147.7100785931
 10
101.3391591073
 20
147.6585997102
 10
100.5618874783
 20
147.592127539
 10
99.6352614235
 20
147.5103718384
 10
98.5826958509
 20
147.4139263784
 10
97.4998891006
 20
147.3101907978
 10
96.5555508948
 20
147.2152035201
 10
95.7557488528
 20
147.1305529474
 10
95.0912151705
 20
147.0563017559
 10
94.2946341791
 20
146.9537227689
 10
93.6933114325
 20
146.8544134614
 10
93.2106706769
 20
146.7486255115
 10
92.7468985103
 20
146.5931380721
 10
92.53878093
 20
146.4814250389
 10
92.3882709685
 20
146.3625941313
 10
92.2863624878
 20
146.2441246764
 10
92.2194205754
 20
146.1303549011
 10
92.1618115615
 20
145.9662360577
 10
92.1472106504
 20
145.7094827541
 10
92.2475607016
 20
145.4065874286
 10
92.3987453919
 20
145.2167558832
 10
92.6684845456
 20
145.0349919135
 10
92.9682475999
 20
144.9207677294
 10
93.3415002329
 20
144.8283791079
 10
93.8772080858
 20
144.7280498096
 10
94.042389508
 20
144.7018962385
  0
LWPOLYLINE
  5
54
330
1F
100
AcDbEntity
  8
0
  6
Continuous
 62
     7
370
    30
100
AcDbPolyline
 90
       40
 70
   128
 43
0.0
 10
111.5800807909
 20
143.7177514602
 10
111.0460148348
 20
143.6565329247
 10
110.3748202199
 20
143.5939363219
 10
109.6062468768
 20
143.5322897239
 10
108.7817961616
 20
143.4735377564
 10
107.6617085505
 20
143.4021117829
 10
106.5854127816
 20
143.3403003234
 10
105.6052751507
 20
143.2887067539
 10
104.5991426865
 20
143.2397859123
 10
103.7960716591
 20
143.2029424811
 10
103.1874521342
 20
143.1745189207
 10
102.7282442944
 20
143.1526261485
 10
102.2441197657
 20
143.1291330499
 10
101.3568041746
 20
143.0849731728
 10
100.3508857489
 20
143.0331511281
 10
99.2191846063
 20
142.9724829718
 10
98.0138927876
 20
142.9047972541
 10
96.8904655164
 20
142.8383104055
 10
95.8980244938
 20
142.7760792348
 10
95.0507276267
 20
142.7193618907
 10
94.3807042167
 20
142.6675422012
 10
93.8779889081
 20
142.6196906936
 10
93.6460264807
 20
142.5936391372
 10
93.4239107549
 20
142.565197252
 10
93.1744746319
 20
142.5269555357
 10
92.916479577
 20
142.475091337
 10
92.6665391401
 20
142.3993401786
 10
92.4909333157
 20
142.3096107297
 10
92.2988924533
 20
142.1354967977
 10
92.1597550882
 20
141.8433706337
 10
92.1615382268
 20
141.5207732495
 10
92.2638723263
 20
141.2843511106
 10
92.3818809296
 20
141.1462092889
 10
92.5535029218
 20
141.0258894309
 10
92.7252048913
 20
140.9531838754
 10
92.914043479
 20
140.901422657
 10
93.1799109078
 20
140.8525308195
 10
93.5304831312
 20
140.8060620437
 10
93.9557538304
 20
140.7597601245
 10
94.042389508
 20
140.7516548601
  0
LINE
  5
55
330
1F
100
AcDbEntity
  8
0
  6
Continuous
 62
     7
370
    30
100
AcDbLine
 10
111.042389508
 20
139.7291479545
 30
0.0
 11
111.0631926307
 21
139.7270235391
 31
0.0
  0
LWPOLYLINE
  5
56
330
1F
100
AcDbEntity
  8
0
  6
Continuous
 62
     7
370
    30
100
AcDbPolyline
 90
        3
 70
   128
 43
0.0
 10
111.8551449906
 20
140.7551963334
 10
111.8000043913
 20
140.7503272081
 10
111.5800807909
 20
140.7177514602
  0
LWPOLYLINE
  5
57
330
1F
100
AcDbEntity
  8
0
  6
Continuous
 62
     7
370
    30
100
AcDbPolyline
 90
       17
 70
   128
 43
0.0
 10
112.5142706903
 20
139.5204959387
 10
112.6447049255
 20
139.5968423783
 10
112.7752313911
 20
139.7232754013
 10
112.8360466582
 20
139.8105985843
 10
112.8866432718
 20
139.9113830794
 10
112.92854757
 20
140.0523101834
 10
112.9392087732
 20
140.2420324222
 10
112.8930484455
 20
140.4471458571
 10
112.8114338391
 20
140.6012834836
 10
112.7233387984
 20
140.7064065551
 10
112.6440499701
 20
140.7752217624
 10
112.3615866553
 20
140.9210503648
 10
112.151815002
 20
140.9795671715
 10
111.9402999889
 20
141.021673407
 10
111.649251656
 20
141.0664835638
 10
111.1946839864
 20
141.1207323239
 10
111.042389508
 20
141.1348787181
  0
LWPOLYLINE
  5
58
330
1F
100
AcDbEntity
  8
0
  6
Continuous
 62
     7
370
    30
100
AcDbPolyline
 90
       29
 70
   128
 43
0.0
 10
93.2412351385
 20
141.123144718
 10
93.2404957122
 20
141.1183996399
 10
93.3407716003
 20
141.1382013345
 10
93.5435747905
 20
141.1708479673
 10
93.8775513933
 20
141.2133770622
 10
94.3693574551
 20
141.2629469819
 10
95.0385111912
 20
141.316597934
 10
95.8431920478
 20
141.3711776482
 10
96.7433536135
 20
141.4283873382
 10
97.7121008239
 20
141.4866964323
 10
98.7203053228
 20
141.5445382742
 10
99.7396778319
 20
141.6005423835
 10
100.7093683957
 20
141.6517716326
 10
101.5049123884
 20
141.6924237948
 10
102.0030301799
 20
141.7172706681
 10
102.3969194362
 20
141.7365932459
 10
102.8928975249
 20
141.7605178173
 10
103.5387185129
 20
141.7909908553
 10
104.3000178415
 20
141.8259291054
 10
105.2409886972
 20
141.8704271792
 10
106.145751894
 20
141.9164072283
 10
107.0014444308
 20
141.963075229
 10
107.8505305492
 20
142.0128770965
 10
108.4934256823
 20
142.0532994914
 10
109.1816399161
 20
142.0997129058
 10
109.886987165
 20
142.1515480631
 10
110.5741609878
 20
142.2077712309
 10
111.2023835005
 20
142.266838045
 10
111.7288633141
 20
142.3267386071
  0
LINE
  5
59
330
1F
100
AcDbEntity
  8
0
  6
Continuous
 62
     7
370
    30
100
AcDbLine
 10
113.542389508
 20
139.02232432
 30
0.0
 11
113.042389508
 21
139.52232432
 31
0.0
  0
LINE
  5
5A
330
1F
100
AcDbEntity
  8
0
  6
Continuous
 62
     7
370
    30
100
AcDbLine
 10
92.042389508
 20
139.52232432
 30
0.0
 11
91.542389508
 21
139.02232432
 31
0.0
  0
LINE
  5
5B
330
1F
100
AcDbEntity
  8
0
  6
Continuous
 62
     7
370
    30
100
AcDbLine
 10
91.542389508
 20
139.02232432
 30
0.0
 11
91.542389508
 21
135.02232432
 31
0.0
  0
LINE
  5
5C
330
1F
100
AcDbEntity
  8
0
  6
Continuous
 62
     7
370
    30
100
AcDbLine
 10
113.542389508
 20
135.02232432
 30
0.0
 11
113.542389508
 21
139.02232432
 31
0.0
  0
LINE
  5
5D
330
1F
100
AcDbEntity
  8
0
  6
Continuous
 62
     7
370
    30
100
AcDbLine
 10
91.542389508
 20
135.02232432
 30
0.0
 11
92.042389508
 21
134.52232432
 31
0.0
  0
LINE
  5
5E
330
1F
100
AcDbEntity
  8
0
  6
Continuous
 62
     7
370
    30
100
AcDbLine
 10
113.042389508
 20
134.52232432
 30
0.0
 11
113.542389508
 21
135.02232432
 31
0.0
  0
LINE
  5
5F
330
1F
100
AcDbEntity
  8
0
  6
Continuous
 62
     7
370
    30
100
AcDbLine
 10
92.542389508
 20
115.02232432
 30
0.0
 11
93.042389508
 21
114.52232432
 31
0.0
  0
LINE
  5
60
330
1F
100
AcDbEntity
  8
0
  6
Continuous
 62
     7
370
    30
100
AcDbLine
 10
112.042389508
 20
114.52232432
 30
0.0
 11
112.542389508
 21
115.02232432
 31
0.0
  0
LINE
  5
61
330
1F
100
AcDbEntity
  8
0
  6
Continuous
 62
     7
370
    30
100
AcDbLine
 10
92.542389508
 20
134.52232432
 30
0.0
 11
92.542389508
 21
115.02232432
 31
0.0
  0
LINE
  5
62
330
1F
100
AcDbEntity
  8
0
  6
Continuous
 62
     7
370
    30
100
AcDbLine
 10
112.542389508
 20
115.02232432
 30
0.0
 11
112.542389508
 21
134.52232432
 31
0.0
  0
LINE
  5
63
330
1F
100
AcDbEntity
  8
0
  6
Continuous
 62
     7
370
    30
100
AcDbLine
 10
94.042389508
 20
145.500718141
 30
0.0
 11
94.042389508
 21
142.6353393449
 31
0.0
  0
LINE
  5
64
330
1F
100
AcDbEntity
  8
0
  6
Continuous
 62
     7
370
    30
100
AcDbLine
 10
94.042389508
 20
141.2299913595
 30
0.0
 11
94.042389508
 21
139.52232432
 31
0.0
  0
LINE
  5
65
330
1F
100
AcDbEntity
  8
0
  6
Continuous
 62
     7
370
    30
100
AcDbLine
 10
111.042389508
 20
139.52232432
 30
0.0
 11
111.042389508
 21
139.7681517487
 31
0.0
  0
LINE
  5
66
330
1F
100
AcDbEntity
  8
0
  6
Continuous
 62
     7
370
    30
100
AcDbLine
 10
111.042389508
 20
140.2764968913
 30
0.0
 11
111.042389508
 21
142.2517950702
 31
0.0
  0
LINE
  5
67
330
1F
100
AcDbEntity
  8
0
  6
Continuous
 62
     7
370
    30
100
AcDbLine
 10
111.042389508
 20
143.6561948214
 30
0.0
 11
111.042389508
 21
146.02232432
 31
0.0
  0
LINE
  5
68
330
1F
100
AcDbEntity
  8
0
  6
Continuous
 62
     7
370
    30
100
AcDbLine
 10
111.042389508
 20
146.02232432
 30
0.0
 11
110.542389508
 21
146.52232432
 31
0.0
  0
LINE
  5
69
330
1F
100
AcDbEntity
  8
0
  6
Continuous
 62
     7
370
    30
100
AcDbLine
 10
90.542389508
 20
171.6142340947
 30
0.0
 11
90.6519233122
 21
171.52232432
 31
0.0
  0
LINE
  5
6A
330
1F
100
AcDbEntity
  8
0
  6
Continuous
 62
     7
370
    30
100
AcDbLine
 10
114.4328557039
 20
171.52232432
 30
0.0
 11
114.542389508
 21
171.6142340947
 31
0.0
  0
LINE
  5
6B
330
1F
100
AcDbEntity
  8
0
  6
Continuous
 62
     7
370
    30
100
AcDbLine
 10
94.042389508
 20
171.52232432
 30
0.0
 11
94.042389508
 21
170.6356092898
 31
0.0
  0
LINE
  5
6C
330
1F
100
AcDbEntity
  8
0
  6
Continuous
 62
     7
370
    30
100
AcDbLine
 10
94.042389508
 20
169.2323253169
 30
0.0
 11
94.042389508
 21
166.9115215356
 31
0.0
  0
LINE
  5
6D
330
1F
100
AcDbEntity
  8
0
  6
Continuous
 62
     7
370
    30
100
AcDbLine
 10
111.042389508
 20
166.52232432
 30
0.0
 11
111.042389508
 21
167.2024612639
 31
0.0
  0
LINE
  5
6E
330
1F
100
AcDbEntity
  8
0
  6
Continuous
 62
     7
370
    30
100
AcDbLine
 10
111.042389508
 20
168.6171171963
 30
0.0
 11
111.042389508
 21
170.2515994293
 31
0.0
  0
LINE
  5
6F
330
1F
100
AcDbEntity
  8
0
  6
Continuous
 62
     7
370
    30
100
AcDbLine
 10
96.542389508
 20
165.8102996063
 30
0.0
 11
96.542389508
 21
162.2132472441
 31
0.0
  0
LINE
  5
70
330
1F
100
AcDbEntity
  8
0
  6
Continuous
 62
     7
370
    30
100
AcDbLine
 10
96.542389508
 20
160.8102627622
 30
0.0
 11
96.542389508
 21
157.2133354562
 31
0.0
  0
LINE
  5
71
330
1F
100
AcDbEntity
  8
0
  6
Continuous
 62
     7
370
    30
100
AcDbLine
 10
96.542389508
 20
155.8103822167
 30
0.0
 11
96.542389508
 21
152.2134437965
 31
0.0
  0
LINE
  5
72
330
1F
100
AcDbEntity
  8
0
  6
Continuous
 62
     7
370
    30
100
AcDbLine
 10
96.542389508
 20
150.8105151033
 30
0.0
 11
96.542389508
 21
147.2138105268
 31
0.0
  0
LINE
  5
73
330
1F
100
AcDbEntity
  8
0
  6
Continuous
 62
     7
370
    30
100
AcDbLine
 10
108.542389508
 20
146.52232432
 30
0.0
 11
108.542389508
 21
146.8795049213
 31
0.0
  0
LINE
  5
74
330
1F
100
AcDbEntity
  8
0
  6
Continuous
 62
     7
370
    30
100
AcDbLine
 10
108.542389508
 20
148.2831571435
 30
0.0
 11
108.542389508
 21
151.8791886649
 31
0.0
  0
LINE
  5
75
330
1F
100
AcDbEntity
  8
0
  6
Continuous
 62
     7
370
    30
100
AcDbLine
 10
108.542389508
 20
153.2828426835
 30
0.0
 11
108.542389508
 21
156.8786830662
 31
0.0
  0
LINE
  5
76
330
1F
100
AcDbEntity
  8
0
  6
Continuous
 62
     7
370
    30
100
AcDbLine
 10
108.542389508
 20
158.2826280293
 30
0.0
 11
108.542389508
 21
161.8793526056
 31
0.0
  0
LINE
  5
77
330
1F
100
AcDbEntity
  8
0
  6
Continuous
 62
     7
370
    30
100
AcDbLine
 10
108.542389508
 20
163.2839848505
 30
0.0
 11
108.542389508
 21
166.52232432
 31
0.0
  0
LINE
  5
78
330
1F
100
AcDbEntity
  8
0
  6
Continuous
 62
     7
370
    30
100
AcDbLine
 10
96.542389508
 20
113.52232432
 30
0.0
 11
96.542389508
 21
112.02232432
 31
0.0
  0
LINE
  5
79
330
1F
100
AcDbEntity
  8
0
  6
Continuous
 62
     7
370
    30
100
AcDbLine
 10
108.542389508
 20
112.02232432
 30
0.0
 11
108.542389508
 21
113.52232432
 31
0.0
  0
LINE
  5
7A
330
1F
100
AcDbEntity
  8
0
  6
Continuous
 62
     7
370
    30
100
AcDbLine
 10
96.542389508
 20
112.02232432
 30
0.0
 11
97.042389508
 21
111.52232432
 31
0.0
  0
LINE
  5
7B
330
1F
100
AcDbEntity
  8
0
  6
Continuous
 62
     7
370
    30
100
AcDbLine
 10
108.042389508
 20
111.52232432
 30
0.0
 11
108.542389508
 21
112.02232432
 31
0.0
  0
LINE
  5
7C
330
1F
100
AcDbEntity
  8
0
  6
Continuous
 62
     7
370
    30
100
AcDbLine
 10
110.292389508
 20
113.52232432
 30
0.0
 11
94.792389508
 21
113.52232432
 31
0.0
  0
ARC
  5
7D
330
1F
100
AcDbEntity
  8
0
  6
Continuous
 62
     7
370
    30
100
AcDbCircle
 10
111.6296431512
 20
168.0178831425
 30
0.0
 40
0.698395941650809
100
AcDbArc
 50
278.7773123252
 51
98.732836934
  0
ARC
  5
7E
330
1F
100
AcDbEntity
  8
0
  6
Continuous
 62
     7
370
    30
100
AcDbCircle
 10
111.5900920857
 20
171.0260061175
 30
0.0
 40
0.7226637578077482
100
AcDbArc
 50
359.7080905623
 51
43.3765392813
  0
ARC
  5
7F
330
1F
100
AcDbEntity
  8
0
  6
Continuous
 62
     7
370
    30
100
AcDbCircle
 10
111.6340115665
 20
170.9991037903
 30
0.0
 40
0.6791319862538011
100
AcDbArc
 50
278.4857756983
 51
1.9594095679
  0
ARC
  5
80
330
1F
100
AcDbEntity
  8
0
  6
Continuous
 62
     7
370
    30
100
AcDbCircle
 10
111.6274306829
 20
143.0193905902
 30
0.0
 40
0.6999793350963648
100
AcDbArc
 50
278.1423834724
 51
93.8558954696
  0
LWPOLYLINE
  5
81
330
1F
100
AcDbEntity
  8
0
  6
Continuous
 62
     7
370
    30
100
AcDbPolyline
 90
       15
 70
   128
 43
0.0
 10
112.1153645376
 20
139.52232432
 10
112.2451031828
 20
139.7131008727
 10
112.3080574316
 20
139.9388810015
 10
112.2971009684
 20
140.1741067741
 10
112.2134740467
 20
140.3921510273
 10
112.0666430937
 20
140.5683315168
 10
111.8732291274
 20
140.6827049064
 10
111.6551262847
 20
140.72232432
 10
111.4370234421
 20
140.6827049064
 10
111.2436094758
 20
140.5683315168
 10
111.0967785228
 20
140.3921510273
 10
111.0131516011
 20
140.1741067741
 10
111.0021951379
 20
139.9388810015
 10
111.0651493867
 20
139.7131008727
 10
111.1948880319
 20
139.52232432
  0
LINE
  5
82
330
1F
100
AcDbEntity
  8
0
  6
Continuous
 62
     7
370
    30
100
AcDbLine
 10
102.5516810612
 20
139.52232432
 30
0.0
 11
113.042389508
 21
139.52232432
 31
0.0
  0
LINE
  5
83
330
1F
100
AcDbEntity
  8
0
  6
Continuous
 62
     7
370
    30
100
AcDbLine
 10
92.042389508
 20
139.52232432
 30
0.0
 11
102.5516810612
 21
139.52232432
 31
0.0
  0
LINE
  5
84
330
1F
100
AcDbEntity
  8
0
  6
Continuous
 62
     7
370
    30
100
AcDbLine
 10
102.5521235161
 20
139.02232432
 30
0.0
 11
91.542389508
 21
139.02232432
 31
0.0
  0
LINE
  5
85
330
1F
100
AcDbEntity
  8
0
  6
Continuous
 62
     7
370
    30
100
AcDbLine
 10
113.542389508
 20
139.02232432
 30
0.0
 11
102.5521235161
 21
139.02232432
 31
0.0
  0
LINE
  5
86
330
1F
100
AcDbEntity
  8
0
  6
Continuous
 62
     7
370
    30
100
AcDbLine
 10
91.542389508
 20
135.02232432
 30
0.0
 11
113.542389508
 21
135.02232432
 31
0.0
  0
LINE
  5
87
330
1F
100
AcDbEntity
  8
0
  6
Continuous
 62
     7
370
    30
100
AcDbLine
 10
113.042389508
 20
134.52232432
 30
0.0
 11
92.042389508
 21
134.52232432
 31
0.0
  0
LINE
  5
88
330
1F
100
AcDbEntity
  8
0
  6
Continuous
 62
     7
370
    30
100
AcDbLine
 10
92.542389508
 20
115.02232432
 30
0.0
 11
112.542389508
 21
115.02232432
 31
0.0
  0
LINE
  5
89
330
1F
100
AcDbEntity
  8
0
  6
Continuous
 62
     7
370
    30
100
AcDbLine
 10
112.042389508
 20
114.52232432
 30
0.0
 11
93.042389508
 21
114.52232432
 31
0.0
  0
LINE
  5
8A
330
1F
100
AcDbEntity
  8
0
  6
Continuous
 62
     7
370
    30
100
AcDbLine
 10
102.5499112416
 20
146.02232432
 30
0.0
 11
98.6702567034
 21
146.02232432
 31
0.0
  0
LINE
  5
8B
330
1F
100
AcDbEntity
  8
0
  6
Continuous
 62
     7
370
    30
100
AcDbLine
 10
111.042389508
 20
146.02232432
 30
0.0
 11
102.5499112416
 21
146.02232432
 31
0.0
  0
LINE
  5
8C
330
1F
100
AcDbEntity
  8
0
  6
Continuous
 62
     7
370
    30
100
AcDbLine
 10
104.6610197201
 20
146.52232432
 30
0.0
 11
110.542389508
 21
146.52232432
 31
0.0
  0
LINE
  5
8D
330
1F
100
AcDbEntity
  8
0
  6
Continuous
 62
     7
370
    30
100
AcDbLine
 10
114.542389508
 20
173.162901881
 30
0.0
 11
114.542389508
 21
171.6278435638
 31
0.0
  0
LINE
  5
8E
330
1F
100
AcDbEntity
  8
0
  6
Continuous
 62
     7
370
    30
100
AcDbLine
 10
90.542389508
 20
173.1198148863
 30
0.0
 11
90.542389508
 21
171.6278435638
 31
0.0
  0
ARC
  5
8F
330
1F
100
AcDbEntity
  8
0
  6
Continuous
 62
     7
370
    30
100
AcDbCircle
 10
96.542389508
 20
184.2806715529
 30
0.0
 40
12.62461537305445
100
AcDbArc
 50
241.7199348044
 51
298.2800651956
  0
ARC
  5
90
330
1F
100
AcDbEntity
  8
0
  6
Continuous
 62
     7
370
    30
100
AcDbCircle
 10
108.542389508
 20
184.2806719624
 30
0.0
 40
12.62461573367996
100
AcDbArc
 50
241.7199356849
 51
298.2800643151
  0
LINE
  5
91
330
1F
100
AcDbEntity
  8
0
  6
Continuous
 62
     7
370
    30
100
AcDbLine
 10
90.6519233122
 20
171.52232432
 30
0.0
 11
114.4328557039
 21
171.52232432
 31
0.0
  0
LINE
  5
92
330
1F
100
AcDbEntity
  8
0
  6
Continuous
 62
     7
370
    30
100
AcDbLine
 10
102.542389508
 20
175.52232432
 30
0.0
 11
90.542389508
 21
175.52232432
 31
0.0
  0
LINE
  5
93
330
1F
100
AcDbEntity
  8
0
  6
Continuous
 62
     7
370
    30
100
AcDbLine
 10
102.542389508
 20
173.1198148863
 30
0.0
 11
102.542389508
 21
175.52232432
 31
0.0
  0
LINE
  5
94
330
1F
100
AcDbEntity
  8
0
  6
Continuous
 62
     7
370
    30
100
AcDbLine
 10
102.5237029792
 20
173.162901881
 30
0.0
 11
102.542389508
 21
173.1198148863
 31
0.0
  0
LINE
  5
95
330
1F
100
AcDbEntity
  8
0
  6
Continuous
 62
     7
370
    30
100
AcDbLine
 10
90.542389508
 20
173.1198148863
 30
0.0
 11
90.5610760369
 21
173.162901881
 31
0.0
  0
LINE
  5
96
330
1F
100
AcDbEntity
  8
0
  6
Continuous
 62
     7
370
    30
100
AcDbLine
 10
90.542389508
 20
173.1198148863
 30
0.0
 11
90.542389508
 21
175.52232432
 31
0.0
  0
LINE
  5
97
330
1F
100
AcDbEntity
  8
0
  6
Continuous
 62
     7
370
    30
100
AcDbLine
 10
114.542389508
 20
175.52232432
 30
0.0
 11
102.542389508
 21
175.52232432
 31
0.0
  0
LINE
  5
98
330
1F
100
AcDbEntity
  8
0
  6
Continuous
 62
     7
370
    30
100
AcDbLine
 10
114.542389508
 20
173.1198148863
 30
0.0
 11
114.542389508
 21
175.52232432
 31
0.0
  0
LINE
  5
99
330
1F
100
AcDbEntity
  8
0
  6
Continuous
 62
     7
370
    30
100
AcDbLine
 10
114.5237029792
 20
173.162901881
 30
0.0
 11
114.542389508
 21
173.1198148863
 31
0.0
  0
LINE
  5
9A
330
1F
100
AcDbEntity
  8
0
  6
Continuous
 62
     7
370
    30
100
AcDbLine
 10
102.542389508
 20
173.1198148863
 30
0.0
 11
102.5610760369
 21
173.162901881
 31
0.0
  0
LINE
  5
9B
330
1F
100
AcDbEntity
  8
0
  6
Continuous
 62
     7
370
    30
100
AcDbLine
 10
111.042389508
 20
166.52232432
 30
0.0
 11
104.6522011771
 21
166.52232432
 31
0.0
  0
LINE
  5
9C
330
1F
100
AcDbEntity
  8
0
  6
Continuous
 62
     7
370
    30
100
AcDbLine
 10
96.542389508
 20
112.02232432
 30
0.0
 11
108.542389508
 21
112.02232432
 31
0.0
  0
LINE
  5
9D
330
1F
100
AcDbEntity
  8
0
  6
Continuous
 62
     7
370
    30
100
AcDbLine
 10
108.042389508
 20
111.52232432
 30
0.0
 11
97.042389508
 21
111.52232432
 31
0.0
  0
LINE
  5
9E
330
1F
100
AcDbEntity
  8
0
  6
HIDDEN
 62
     7
370
     0
100
AcDbLine
 10
101.542389508
 20
113.52232432
 30
0.0
 11
101.542389508
 21
114.52232432
 31
0.0
  0
LINE
  5
9F
330
1F
100
AcDbEntity
  8
0
  6
HIDDEN
 62
     7
370
     0
100
AcDbLine
 10
103.542389508
 20
113.52232432
 30
0.0
 11
103.542389508
 21
114.52232432
 31
0.0
  0
LINE
  5
A0
330
1F
100
AcDbEntity
  8
0
  6
HIDDEN
 62
     7
370
     0
100
AcDbLine
 10
111.6551262847
 20
167.32232432
 30
0.0
 11
111.7362145384
 21
167.3276661978
 31
0.0
  0
ARC
  5
A1
330
1F
100
AcDbEntity
  8
0
  6
HIDDEN
 62
     7
370
     0
100
AcDbCircle
 10
111.6920192936
 20
168.0249952282
 30
0.0
 40
0.7036387562440103
100
AcDbArc
 50
103.8478266017
 51
266.9945040772
  0
ARC
  5
A2
330
1F
100
AcDbEntity
  8
0
  6
HIDDEN
 62
     7
370
     0
100
AcDbCircle
 10
111.6924638274
 20
171.0277334183
 30
0.0
 40
0.7015709745744544
100
AcDbArc
 50
135.1723715377
 51
273.4127181184
  0
LINE
  5
A3
330
1F
100
AcDbEntity
  8
0
  6
HIDDEN
 62
     7
370
     0
100
AcDbLine
 10
111.6551262847
 20
142.32232432
 30
0.0
 11
111.7265712373
 21
142.3264676363
 31
0.0
  0
ARC
  5
A4
330
1F
100
AcDbEntity
  8
0
  6
HIDDEN
 62
     7
370
     0
100
AcDbCircle
 10
111.6904680593
 20
143.0239514155
 30
0.0
 40
0.7025166347715682
100
AcDbArc
 50
99.0174460677
 51
267.116381985
  0
LINE
  5
A5
330
1F
100
AcDbEntity
  8
0
  6
HIDDEN
 62
     7
370
     0
100
AcDbLine
 10
98.6702567034
 20
146.02232432
 30
0.0
 11
94.042389508
 21
146.02232432
 31
0.0
  0
LINE
  5
A6
330
1F
100
AcDbEntity
  8
0
  6
HIDDEN
 62
     7
370
     0
100
AcDbLine
 10
102.5494687866
 20
146.52232432
 30
0.0
 11
104.6610197201
 21
146.52232432
 31
0.0
  0
LINE
  5
A7
330
1F
100
AcDbEntity
  8
0
  6
HIDDEN
 62
     7
370
     0
100
AcDbLine
 10
94.542389508
 20
146.52232432
 30
0.0
 11
102.5494687866
 21
146.52232432
 31
0.0
  0
LINE
  5
A8
330
1F
100
AcDbEntity
  8
0
  6
HIDDEN
 62
     7
370
     0
100
AcDbLine
 10
90.542389508
 20
173.1198148863
 30
0.0
 11
90.542389508
 21
173.162901881
 31
0.0
  0
LINE
  5
A9
330
1F
100
AcDbEntity
  8
0
  6
HIDDEN
 62
     7
370
     0
100
AcDbLine
 10
90.5610760369
 20
173.162901881
 30
0.0
 11
90.542389508
 21
173.162901881
 31
0.0
  0
LINE
  5
AA
330
1F
100
AcDbEntity
  8
0
  6
HIDDEN
 62
     7
370
     0
100
AcDbLine
 10
102.5610760369
 20
173.162901881
 30
0.0
 11
102.5237029792
 21
173.162901881
 31
0.0
  0
LINE
  5
AB
330
1F
100
AcDbEntity
  8
0
  6
HIDDEN
 62
     7
370
     0
100
AcDbLine
 10
114.542389508
 20
173.162901881
 30
0.0
 11
114.5237029792
 21
173.162901881
 31
0.0
  0
LINE
  5
AC
330
1F
100
AcDbEntity
  8
0
  6
HIDDEN
 62
     7
370
     0
100
AcDbLine
 10
104.6522011771
 20
166.52232432
 30
0.0
 11
94.042389508
 21
166.52232432
 31
0.0
  0
LINE
  5
AD
330
1F
100
AcDbEntity
  8
0
  6
HIDDEN
 62
     7
370
     0
100
AcDbLine
 10
96.542389508
 20
114.82232432
 30
0.0
 11
108.542389508
 21
114.82232432
 31
0.0
  0
LINE
  5
AE
330
1F
100
AcDbEntity
  8
0
  6
HIDDEN
 62
     7
370
     0
100
AcDbLine
 10
98.1998925039
 20
168.12232432
 30
0.0
 11
106.8848865122
 21
168.12232432
 31
0.0
  0
LINE
  5
AF
330
1F
100
AcDbEntity
  8
0
  6
HIDDEN
 62
     7
370
     0
100
AcDbLine
 10
106.8848865122
 20
118.92232432
 30
0.0
 11
98.1998925039
 21
118.92232432
 31
0.0
  0
LINE
  5
B0
330
1F
100
AcDbEntity
  8
0
  6
HIDDEN
 62
     7
370
     0
100
AcDbLine
 10
106.492389508
 20
123.46232432
 30
0.0
 11
98.592389508
 21
123.46232432
 31
0.0
  0
LINE
  5
B1
330
1F
100
AcDbEntity
  8
0
  6
HIDDEN
 62
     7
370
     0
100
AcDbLine
 10
99.042389508
 20
123.7327115986
 30
0.0
 11
106.042389508
 21
123.7327115986
 31
0.0
  0
LINE
  5
B2
330
1F
100
AcDbEntity
  8
0
  6
HIDDEN
 62
     7
370
     0
100
AcDbLine
 10
98.592389508
 20
163.58232432
 30
0.0
 11
106.492389508
 21
163.58232432
 31
0.0
  0
LINE
  5
B3
330
1F
100
AcDbEntity
  8
0
  6
HIDDEN
 62
     7
370
     0
100
AcDbLine
 10
99.042389508
 20
163.3119370415
 30
0.0
 11
106.042389508
 21
163.3119370415
 31
0.0
  0
LINE
  5
B4
330
1F
100
AcDbEntity
  8
0
  6
HIDDEN
 62
     7
370
     0
100
AcDbLine
 10
96.792389508
 20
114.52232432
 30
0.0
 11
96.792389508
 21
113.52232432
 31
0.0
  0
LINE
  5
B5
330
1F
100
AcDbEntity
  8
0
  6
HIDDEN
 62
     7
370
     0
100
AcDbLine
 10
108.292389508
 20
113.52232432
 30
0.0
 11
108.292389508
 21
114.52232432
 31
0.0
  0
LINE
  5
B6
330
1F
100
AcDbEntity
  8
0
  6
HIDDEN
 62
     7
370
     0
100
AcDbLine
 10
104.042389508
 20
114.52232432
 30
0.0
 11
104.042389508
 21
113.52232432
 31
0.0
  0
LINE
  5
B7
330
1F
100
AcDbEntity
  8
0
  6
HIDDEN
 62
     7
370
     0
100
AcDbLine
 10
105.042389508
 20
113.52232432
 30
0.0
 11
105.042389508
 21
114.52232432
 31
0.0
  0
LINE
  5
B8
330
1F
100
AcDbEntity
  8
0
  6
HIDDEN
 62
     7
370
     0
100
AcDbLine
 10
100.042389508
 20
114.52232432
 30
0.0
 11
100.042389508
 21
113.52232432
 31
0.0
  0
LINE
  5
B9
330
1F
100
AcDbEntity
  8
0
  6
HIDDEN
 62
     7
370
     0
100
AcDbLine
 10
101.042389508
 20
113.52232432
 30
0.0
 11
101.042389508
 21
114.52232432
 31
0.0
  0
LWPOLYLINE
  5
BA
330
1F
100
AcDbEntity
  8
0
  6
HIDDEN
 62
     7
370
     0
100
AcDbPolyline
 90
       25
 70
   128
 43
0.0
 10
94.042389508
 20
168.751856923
 10
94.5202215621
 20
168.7071876592
 10
95.3334184985
 20
168.641240026
 10
96.2009108715
 20
168.5792147859
 10
97.1617265617
 20
168.5173301802
 10
97.9503517989
 20
168.4706447159
 10
98.7875044839
 20
168.4244436611
 10
99.6624175346
 20
168.3793899973
 10
100.5046929277
 20
168.3388372665
 10
101.475202838
 20
168.2942874618
 10
102.2937472232
 20
168.2556410146
 10
103.1338141094
 20
168.2146951554
 10
104.5208456971
 20
168.1442080585
 10
105.8643286701
 20
168.0723065644
 10
106.5319214999
 20
168.035113133
 10
107.3408233442
 20
167.9885842312
 10
108.2695371102
 20
167.9328955267
 10
109.2539093159
 20
167.8705771671
 10
109.9000550551
 20
167.8272221319
 10
110.5206579324
 20
167.7802407701
 10
111.098082632
 20
167.7255004246
 10
111.4754595475
 20
167.6794758014
 10
111.7809369056
 20
167.6296095046
 10
111.9918467533
 20
167.5766042985
 10
112.0865862356
 20
167.5214902061
  0
LWPOLYLINE
  5
BB
330
1F
100
AcDbEntity
  8
0
  6
HIDDEN
 62
     7
370
     0
100
AcDbPolyline
 90
       16
 70
   128
 43
0.0
 10
112.0352153519
 20
167.5889228067
 10
111.8612191008
 20
167.6166251259
 10
111.7204993339
 20
167.719698837
 10
111.6298779749
 20
167.8441410043
 10
111.5791082782
 20
167.9598164199
 10
111.5539091409
 20
168.0566172685
 10
111.5473864771
 20
168.0976521046
 10
111.5414666826
 20
168.1817915385
 10
111.5443104193
 20
168.2490162062
 10
111.5581153596
 20
168.3359400783
 10
111.5758446517
 20
168.3987131377
 10
111.5998754987
 20
168.4588860287
 10
111.6293780364
 20
168.5163794065
 10
111.6951506061
 20
168.6177683796
 10
111.7423692036
 20
168.6910177178
 10
111.7321657991
 20
168.7085255241
  0
LWPOLYLINE
  5
BC
330
1F
100
AcDbEntity
  8
0
  6
HIDDEN
 62
     7
370
     0
100
AcDbPolyline
 90
       36
 70
   128
 43
0.0
 10
111.042389508
 20
169.1351490169
 10
110.3984399066
 20
169.1921727615
 10
109.5337652463
 20
169.2532034069
 10
108.458086932
 20
169.3221058721
 10
107.5094221172
 20
169.3792640837
 10
106.5534758877
 20
169.434267154
 10
105.6597390123
 20
169.4837128223
 10
104.8543628965
 20
169.5268149199
 10
103.9457350378
 20
169.5739156143
 10
103.2148428086
 20
169.6106850833
 10
102.4837126705
 20
169.6464955318
 10
101.7193918825
 20
169.682899061
 10
100.8382822362
 20
169.723537278
 10
99.8044527312
 20
169.7724871349
 10
98.9277834679
 20
169.817256604
 10
97.9838186859
 20
169.8692047264
 10
97.0011982161
 20
169.9281015211
 10
96.0836610885
 20
169.9886127663
 10
95.3113116504
 20
170.0450070268
 10
94.6819064499
 20
170.0961258392
 10
94.1860981473
 20
170.1411841293
 10
93.8099116243
 20
170.1797103947
 10
93.5369470803
 20
170.2114862226
 10
93.3481763232
 20
170.2382622547
 10
93.274364761
 20
170.2446238576
 10
93.3101457891
 20
170.2042628925
 10
93.4072779588
 20
170.0940450296
 10
93.4671273655
 20
169.9967404031
 10
93.5227668829
 20
169.8479663822
 10
93.5422767742
 20
169.6730231971
 10
93.5111118213
 20
169.4826277142
 10
93.4264309321
 20
169.3078332159
 10
93.335798506
 20
169.2016596321
 10
93.2924781082
 20
169.1631129636
 10
93.2828726418
 20
169.1511631015
 10
93.2888991234
 20
169.1492854437
  0
LWPOLYLINE
  5
BD
330
1F
100
AcDbEntity
  8
0
  6
HIDDEN
 62
     7
370
     0
100
AcDbPolyline
 90
       36
 70
   128
 43
0.0
 10
111.042389508
 20
144.4149186853
 10
111.0262752949
 20
144.4177685428
 10
110.3889504627
 20
144.5087290866
 10
109.7458431589
 20
144.5846064575
 10
108.9348667076
 20
144.6728661185
 10
107.9194520648
 20
144.7770789939
 10
107.1211360116
 20
144.855232174
 10
106.2255201168
 20
144.9396593186
 10
105.3024976888
 20
145.02353274
 10
104.512530914
 20
145.0930261485
 10
103.8771822558
 20
145.1474795348
 10
103.4034384634
 20
145.1872760727
 10
103.0597023205
 20
145.2157273967
 10
102.6030112947
 20
145.2529808027
 10
101.9892612988
 20
145.3020638859
 10
101.2292845674
 20
145.3612662429
 10
100.3345141736
 20
145.4299835994
 10
99.2918025376
 20
145.5157191906
 10
98.2197265747
 20
145.611773439
 10
97.2694706302
 20
145.7047193425
 10
96.4497991599
 20
145.7920837461
 10
95.4616877421
 20
145.9090627194
 10
94.7361014605
 20
146.00660263
 10
94.2193177208
 20
146.0855340133
 10
93.8112370651
 20
146.1569381383
 10
93.5974547153
 20
146.1993671665
 10
93.432507455
 20
146.2378185432
 10
93.3374291042
 20
146.2641953694
 10
93.3466919805
 20
146.2480746295
 10
93.4206403999
 20
146.1656690038
 10
93.5142047348
 20
145.9804627573
 10
93.538275272
 20
145.7208381816
 10
93.4708570302
 20
145.5035523604
 10
93.3881140488
 20
145.3859377039
 10
93.3406046646
 20
145.3394429615
 10
93.3449726229
 20
145.3389268232
  0
ARC
  5
BE
330
1F
100
AcDbEntity
  8
0
  6
HIDDEN
 62
     7
370
     0
100
AcDbCircle
 10
64.369488439
 20
-277.5650272867
 30
0.0
 40
429.5555261283546
100
AcDbArc
 50
84.0976132728
 51
85.7046314904
  0
LWPOLYLINE
  5
BF
330
1F
100
AcDbEntity
  8
0
  6
HIDDEN
 62
     7
370
     0
100
AcDbPolyline
 90
       16
 70
   128
 43
0.0
 10
96.4186448093
 20
150.797632586
 10
95.9464141874
 20
150.8498114616
 10
94.9481864404
 20
150.976730483
 10
94.2114155368
 20
151.0864997962
 10
93.7138552329
 20
151.1747369014
 10
93.4968549889
 20
151.2206645137
 10
93.3607256218
 20
151.2574091593
 10
93.3124923673
 20
151.2724897051
 10
93.3211853004
 20
151.2639495847
 10
93.3592976697
 20
151.2316871565
 10
93.4403145293
 20
151.1358142884
 10
93.5289982575
 20
150.9238147615
 10
93.5221902154
 20
150.6370831768
 10
93.4274880612
 20
150.4339633312
 10
93.3520593198
 20
150.348079773
 10
93.3527872155
 20
150.3428537955
  0
LWPOLYLINE
  5
C0
330
1F
100
AcDbEntity
  8
0
  6
HIDDEN
 62
     7
370
     0
100
AcDbPolyline
 90
       16
 70
   128
 43
0.0
 10
108.542389508
 20
154.7131801888
 10
108.2007526993
 20
154.7487658755
 10
107.1204644509
 20
154.8552830938
 10
106.0584424615
 20
154.9550597499
 10
105.0796055796
 20
155.0433437031
 10
104.2128801336
 20
155.1188631633
 10
103.4747447368
 20
155.181329195
 10
102.8724637875
 20
155.231076206
 10
102.4070376881
 20
155.2687757723
 10
101.9566189534
 20
155.3046429145
 10
101.1375238464
 20
155.3682970703
 10
100.1583881051
 20
155.4439765963
 10
99.0942283963
 20
155.5327926055
 10
98.0095496465
 20
155.6316525367
 10
96.9384524296
 20
155.7391105159
 10
96.542389508
 20
155.7833759215
  0
LWPOLYLINE
  5
C1
330
1F
100
AcDbEntity
  8
0
  6
HIDDEN
 62
     7
370
     0
100
AcDbPolyline
 90
       16
 70
   128
 43
0.0
 10
96.4169894923
 20
155.7973910748
 10
95.9215815659
 20
155.8527596327
 10
95.0164978045
 20
155.9674078445
 10
94.2997480786
 20
156.0721052009
 10
93.7876667373
 20
156.1584368414
 10
93.4766516899
 20
156.2176371035
 10
93.3927812896
 20
156.2354032211
 10
93.3690982456
 20
156.2325102503
 10
93.3922160599
 20
156.2006107958
 10
93.4430103708
 20
156.1323007294
 10
93.5024024571
 20
156.0151384757
 10
93.5422261729
 20
155.8106434655
 10
93.4880240078
 20
155.5406325244
 10
93.3814321129
 20
155.3807042547
 10
93.3500303479
 20
155.3442253761
 10
93.3522894987
 20
155.3444578825
  0
LWPOLYLINE
  5
C2
330
1F
100
AcDbEntity
  8
0
  6
HIDDEN
 62
     7
370
     0
100
AcDbPolyline
 90
       17
 70
   128
 43
0.0
 10
108.542389508
 20
159.713578982
 10
107.743017178
 20
159.7946059121
 10
106.6829421811
 20
159.8969386662
 10
105.6190481016
 20
159.9951047052
 10
104.6741774466
 20
160.0789699903
 10
103.8739787192
 20
160.147750914
 10
103.2307286339
 20
160.2016157701
 10
102.7480960532
 20
160.2412134442
 10
102.4045517903
 20
160.2689754706
 10
101.9647273962
 20
160.3040027436
 10
101.3689877941
 20
160.3505170703
 10
100.6289639635
 20
160.4070345587
 10
99.742776709
 20
160.4777682366
 10
98.839254725
 20
160.5552298012
 10
97.9798084054
 20
160.6344949532
 10
96.7988995913
 20
160.7539585934
 10
96.542389508
 20
160.7831113195
  0
LWPOLYLINE
  5
C3
330
1F
100
AcDbEntity
  8
0
  6
HIDDEN
 62
     7
370
     0
100
AcDbPolyline
 90
       19
 70
   128
 43
0.0
 10
96.4187418846
 20
160.7971640431
 10
95.7741062309
 20
160.8704277776
 10
94.9141777569
 20
160.9814705797
 10
94.1786466188
 20
161.0919897555
 10
93.6217801885
 20
161.1931045718
 10
93.4274046516
 20
161.2382709924
 10
93.3231378384
 20
161.2696516369
 10
93.3318866743
 20
161.2566450643
 10
93.4094987013
 20
161.1793292693
 10
93.4782792771
 20
161.0714419649
 10
93.5206698468
 20
160.9589369493
 10
93.5392517376
 20
160.8579452536
 10
93.5421614243
 20
160.7765712221
 10
93.5331674998
 20
160.6879199958
 10
93.5054662057
 20
160.5831541613
 10
93.4539192668
 20
160.4743160095
 10
93.3819344655
 20
160.3795268237
 10
93.3324815699
 20
160.3332657183
 10
93.3384074102
 20
160.3349359449
  0
LWPOLYLINE
  5
C4
330
1F
100
AcDbEntity
  8
0
  6
HIDDEN
 62
     7
370
     0
100
AcDbPolyline
 90
       15
 70
   128
 43
0.0
 10
108.542389508
 20
164.7134874416
 10
108.3863259352
 20
164.7298791296
 10
107.4897622841
 20
164.819503256
 10
106.1562540471
 20
164.9460601354
 10
104.9052227067
 20
165.0587354257
 10
103.7900012353
 20
165.1548545055
 10
102.8234492747
 20
165.2350769643
 10
102.1091608762
 20
165.2925640635
 10
101.4438282146
 20
165.3447328728
 10
100.8027308945
 20
165.3937383808
 10
100.0452711285
 20
165.4530634108
 10
99.1531621314
 20
165.5276704523
 10
98.3209985044
 20
165.6023225294
 10
97.429650408
 20
165.6884653375
 10
96.542389508
 20
165.7819794851
  0
LWPOLYLINE
  5
C5
330
1F
100
AcDbEntity
  8
0
  6
HIDDEN
 62
     7
370
     0
100
AcDbPolyline
 90
       19
 70
   128
 43
0.0
 10
96.4125808672
 20
165.7967274018
 10
95.661792295
 20
165.8841050243
 10
94.981703322
 20
165.9721388072
 10
94.4538907581
 20
166.0483980999
 10
94.0572550723
 20
166.1126226167
 10
93.7692809769
 20
166.1650767243
 10
93.5684425592
 20
166.2063118011
 10
93.4528410313
 20
166.2332861024
 10
93.3684922526
 20
166.2535830561
 10
93.3509858767
 20
166.2439477889
 10
93.3822071925
 20
166.2097015731
 10
93.4383468535
 20
166.138560531
 10
93.4988780764
 20
166.0236403179
 10
93.535966756
 20
165.8842481492
 10
93.5256137815
 20
165.6511239831
 10
93.4747289815
 20
165.5130428293
 10
93.4273100607
 20
165.4355505301
 10
93.394732586
 20
165.3906302796
 10
93.3976153145
 20
165.3819195402
  0
LWPOLYLINE
  5
C6
330
1F
100
AcDbEntity
  8
0
  6
HIDDEN
 62
     7
370
     0
100
AcDbPolyline
 90
       16
 70
   128
 43
0.0
 10
96.542389508
 20
164.3789218422
 10
97.615181189
 20
164.2682190252
 10
98.9237924889
 20
164.146983772
 10
99.8391412993
 20
164.0694697725
 10
100.6145821035
 20
164.0079797832
 10
101.2333398146
 20
163.9608820382
 10
101.7024598289
 20
163.9245810102
 10
102.0419602829
 20
163.8978825219
 10
102.4903596347
 20
163.8620744333
 10
103.1059673513
 20
163.8119029949
 10
103.8885032381
 20
163.7464239507
 10
104.8301101636
 20
163.6650328925
 10
105.9099271684
 20
163.567971086
 10
107.0028786035
 20
163.4652079436
 10
107.9538897779
 20
163.3714451086
 10
108.542389508
 20
163.3105855532
  0
LWPOLYLINE
  5
C7
330
1F
100
AcDbEntity
  8
0
  6
HIDDEN
 62
     7
370
     0
100
AcDbPolyline
 90
       17
 70
   128
 43
0.0
 10
108.666700512
 20
163.2977299612
 10
108.7607097077
 20
163.2880080232
 10
109.4306989044
 20
163.2152863444
 10
109.9765679427
 20
163.1530182244
 10
110.6166324704
 20
163.068849258
 10
111.10247319
 20
162.9891449863
 10
111.3724539267
 20
162.934846796
 10
111.5868009209
 20
162.8824833056
 10
111.725350948
 20
162.8401161449
 10
111.736869235
 20
162.8440155447
 10
111.6681135675
 20
162.9193722972
 10
111.5699341684
 20
163.1111366687
 10
111.5505718051
 20
163.3959764184
 10
111.635510949
 20
163.6219946725
 10
111.7203132325
 20
163.7267924412
 10
111.7615878976
 20
163.762388825
 10
111.7715113581
 20
163.7713428285
  0
LWPOLYLINE
  5
C8
330
1F
100
AcDbEntity
  8
0
  6
HIDDEN
 62
     7
370
     0
100
AcDbPolyline
 90
       15
 70
   128
 43
0.0
 10
96.542389508
 20
159.3786865997
 10
97.5437734653
 20
159.2752417582
 10
98.5515047321
 20
159.1801592982
 10
99.4656033865
 20
159.1004379161
 10
100.262501614
 20
159.0354433745
 10
100.9307883958
 20
158.983926436
 10
101.476794394
 20
158.9421291323
 10
102.0252718386
 20
158.8992031341
 10
102.6708558327
 20
158.8474852094
 10
103.4364730745
 20
158.7844818492
 10
104.3099248326
 20
158.7103555493
 10
105.2352638956
 20
158.629099248
 10
106.4275951249
 20
158.5199056545
 10
107.6185101847
 20
158.4050285376
 10
108.542389508
 20
158.3103997058
  0
LWPOLYLINE
  5
C9
330
1F
100
AcDbEntity
  8
0
  6
HIDDEN
 62
     7
370
     0
100
AcDbPolyline
 90
       16
 70
   128
 43
0.0
 10
108.6720577472
 20
158.2971183673
 10
108.7561204255
 20
158.2885082027
 10
109.7631015321
 20
158.177815586
 10
110.5594842413
 20
158.0774955481
 10
111.1667332968
 20
157.9779381232
 10
111.4605684129
 20
157.9156960317
 10
111.6646241555
 20
157.8604176019
 10
111.7466179783
 20
157.8343000426
 10
111.7272411165
 20
157.8551497657
 10
111.6582566894
 20
157.9327419406
 10
111.5734040537
 20
158.098773042
 10
111.545431569
 20
158.3569190741
 10
111.6150216614
 20
158.5876430458
 10
111.7089464191
 20
158.7191087634
 10
111.7518516478
 20
158.7622486055
 10
111.7473342442
 20
158.7615529383
  0
LWPOLYLINE
  5
CA
330
1F
100
AcDbEntity
  8
0
  6
HIDDEN
 62
     7
370
     0
100
AcDbPolyline
 90
       17
 70
   128
 43
0.0
 10
96.542389508
 20
154.3800309622
 10
96.9791936626
 20
154.3323101733
 10
98.0826068845
 20
154.2233900364
 10
99.0999215639
 20
154.1316376103
 10
99.9745904183
 20
154.0584634568
 10
100.6878878094
 20
154.0023558879
 10
101.2375241306
 20
153.9605612985
 10
101.6282743377
 20
153.9303673588
 10
101.9835336324
 20
153.9025026087
 10
102.4777776946
 20
153.863087521
 10
103.1142612497
 20
153.8112186953
 10
103.8919952122
 20
153.7461270126
 10
104.7532313219
 20
153.6717881186
 10
105.9965638405
 20
153.5599999168
 10
107.1497749495
 20
153.4510090643
 10
108.188627428
 20
153.3475754391
 10
108.542389508
 20
153.3103331701
  0
LWPOLYLINE
  5
CB
330
1F
100
AcDbEntity
  8
0
  6
HIDDEN
 62
     7
370
     0
100
AcDbPolyline
 90
       17
 70
   128
 43
0.0
 10
108.6684292638
 20
153.297064347
 10
109.097462172
 20
153.2518979488
 10
109.8751579088
 20
153.1648946543
 10
110.5573294874
 20
153.0782443086
 10
111.1266943983
 20
152.9884868431
 10
111.5265655047
 20
152.9098733068
 10
111.6456359124
 20
152.8828371564
 10
111.6921592023
 20
152.877567119
 10
111.6828720115
 20
152.9010847015
 10
111.643232729
 20
152.9563104297
 10
111.5938643946
 20
153.0471238389
 10
111.5472493057
 20
153.2170741397
 10
111.5693151381
 20
153.4761987223
 10
111.6256641718
 20
153.6054786628
 10
111.6860996558
 20
153.6909444087
 10
111.7339910576
 20
153.7442250268
 10
111.73231181
 20
153.7504503524
  0
ARC
  5
CC
330
1F
100
AcDbEntity
  8
0
  6
HIDDEN
 62
     7
370
     0
100
AcDbCircle
 10
67.6393097927
 20
-242.9643809259
 30
0.0
 40
393.4071288883508
100
AcDbArc
 50
84.0320937412
 51
85.7867619538
  0
LWPOLYLINE
  5
CD
330
1F
100
AcDbEntity
  8
0
  6
HIDDEN
 62
     7
370
     0
100
AcDbPolyline
 90
       17
 70
   128
 43
0.0
 10
108.6736127558
 20
148.2972032547
 10
109.5962763257
 20
148.1966858246
 10
110.3628064724
 20
148.1044297295
 10
111.0330747405
 20
148.0020607683
 10
111.5412521916
 20
147.8953365203
 10
111.7027526343
 20
147.8478714539
 10
111.7529837879
 20
147.8321282314
 10
111.7108215984
 20
147.8714154719
 10
111.6370991693
 20
147.9641917877
 10
111.5829952159
 20
148.0731641191
 10
111.5531399769
 20
148.1794835091
 10
111.542352934
 20
148.2959201781
 10
111.5541503645
 20
148.4161466048
 10
111.6030700793
 20
148.5643742461
 10
111.6707795849
 20
148.6737010942
 10
111.7500753999
 20
148.7543477072
 10
111.7591246314
 20
148.7650856124
  0
LWPOLYLINE
  5
CE
330
1F
100
AcDbEntity
  8
0
  6
HIDDEN
 62
     7
370
     0
100
AcDbPolyline
 90
       38
 70
   128
 43
0.0
 10
94.042389508
 20
144.7018962385
 10
94.3551083842
 20
144.6523827081
 10
94.9479619355
 20
144.5690464426
 10
95.6685864907
 20
144.4781610128
 10
96.5247220109
 20
144.3805758803
 10
97.4522871057
 20
144.2842995818
 10
98.3664548246
 20
144.1970264565
 10
99.2412009051
 20
144.119480446
 10
100.0579000255
 20
144.0517509877
 10
100.8045523862
 20
143.9934714835
 10
101.8039527442
 20
143.9166367429
 10
102.7336448894
 20
143.8423865713
 10
103.6420245156
 20
143.7672557062
 10
104.5575511564
 20
143.6888924084
 10
105.2878193096
 20
143.6243959111
 10
106.118729176
 20
143.5487100068
 10
107.0280263198
 20
143.4627885499
 10
107.9829963448
 20
143.3685175706
 10
108.9291521399
 20
143.2700819519
 10
109.7087804671
 20
143.1840283314
 10
110.3128458539
 20
143.1111799871
 10
110.7830489569
 20
143.0436213142
 10
111.1345515364
 20
142.9832155043
 10
111.3845971785
 20
142.9319686216
 10
111.5541208621
 20
142.8907898775
 10
111.668420721
 20
142.8591596982
 10
111.7057725174
 20
142.8688780924
 10
111.6835169926
 20
142.8964728645
 10
111.6462773375
 20
142.9450141781
 10
111.602055702
 20
143.0171338356
 10
111.5621144719
 20
143.1113456148
 10
111.5402793227
 20
143.2197477032
 10
111.5408427747
 20
143.3384395519
 10
111.5642704516
 20
143.4592408823
 10
111.6044428169
 20
143.5700033607
 10
111.6566274217
 20
143.6795794205
 10
111.6524853932
 20
143.7264885195
 10
111.5234152056
 20
143.7081407774
  0
LWPOLYLINE
  5
CF
330
1F
100
AcDbEntity
  8
0
  6
HIDDEN
 62
     7
370
     0
100
AcDbPolyline
 90
       21
 70
   128
 43
0.0
 10
94.042389508
 20
140.7516548601
 10
94.5045593299
 20
140.7084162234
 10
95.1950878902
 20
140.6517822027
 10
96.0403873548
 20
140.5901672895
 10
97.0447535137
 20
140.5245313909
 10
98.1069340814
 20
140.461746561
 10
99.1156215416
 20
140.4071750926
 10
100.0388033751
 20
140.3609366389
 10
101.1071894692
 20
140.3112558982
 10
102.004740733
 20
140.2694273779
 10
102.8599238049
 20
140.2281876511
 10
103.7717402938
 20
140.1827291303
 10
104.7816960767
 20
140.1305378143
 10
105.9134549886
 20
140.0696039871
 10
106.8147746995
 20
140.0190281968
 10
107.6789870713
 20
139.9685712699
 10
108.4727750132
 20
139.9202166383
 10
109.188266296
 20
139.8745959112
 10
110.0124485056
 20
139.8188412564
 10
110.7011986186
 20
139.763990376
 10
111.042389508
 20
139.7291479545
  0
LWPOLYLINE
  5
D0
330
1F
100
AcDbEntity
  8
0
  6
HIDDEN
 62
     7
370
     0
100
AcDbPolyline
 90
       17
 70
   128
 43
0.0
 10
111.0631926307
 20
139.7270235391
 10
111.2539637722
 20
139.7075419857
 10
111.5692089621
 20
139.6659244429
 10
111.7652737599
 20
139.6342568298
 10
111.8150443036
 20
139.6377831651
 10
111.7825317947
 20
139.6692294076
 10
111.6989542662
 20
139.7538780753
 10
111.6434485641
 20
139.830368126
 10
111.590035626
 20
139.9357023337
 10
111.5514806554
 20
140.0713466935
 10
111.5425173194
 20
140.2272215516
 10
111.6060813109
 20
140.4756648657
 10
111.6553843565
 20
140.5616322657
 10
111.7101230328
 20
140.6306021957
 10
111.8115203948
 20
140.7203497205
 10
111.8592219868
 20
140.7555563477
 10
111.8551449906
 20
140.7551963334
  0
LWPOLYLINE
  5
D1
330
1F
100
AcDbEntity
  8
0
  6
HIDDEN
 62
     7
370
     0
100
AcDbPolyline
 90
       37
 70
   128
 43
0.0
 10
111.042389508
 20
141.1348787181
 10
110.5815162001
 20
141.1776885137
 10
109.8189123478
 20
141.2340183805
 10
108.9675880796
 20
141.2901086615
 10
108.0448331159
 20
141.3473629742
 10
107.0782019207
 20
141.4043752686
 10
106.0949528184
 20
141.459860915
 10
105.1199464669
 20
141.5127470088
 10
104.3841429328
 20
141.5513859588
 10
103.7515230029
 20
141.5837816241
 10
103.2293914499
 20
141.6099627104
 10
102.8193070253
 20
141.6301781153
 10
102.3752343318
 20
141.6517265743
 10
101.7789557194
 20
141.680100264
 10
101.0437325549
 20
141.7141906679
 10
100.2781225379
 20
141.7495684138
 10
99.5241835014
 20
141.7864688705
 10
98.7888579679
 20
141.8246614239
 10
97.9072845988
 20
141.8736257667
 10
97.074419183
 20
141.9235476256
 10
96.2923935681
 20
141.9743405615
 10
95.5743849549
 20
142.0252142853
 10
94.932116875
 20
142.0753352505
 10
94.3782118713
 20
142.1235792022
 10
93.9298801072
 20
142.1678430312
 10
93.5884358539
 20
142.2065804508
 10
93.3472149426
 20
142.2398439627
 10
93.2305660006
 20
142.2593792574
 10
93.2495100662
 20
142.2388164776
 10
93.3000814306
 20
142.2011316766
 10
93.3885339443
 20
142.1135797337
 10
93.4992835102
 20
141.9230436434
 10
93.5389589909
 20
141.6179285052
 10
93.4697924659
 20
141.3816649121
 10
93.3759969684
 20
141.2428437676
 10
93.2420406702
 20
141.128314011
 10
93.2412351385
 20
141.123144718
  0
LINE
  5
D2
330
1F
100
AcDbEntity
  8
0
  6
HIDDEN
 62
     7
370
     0
100
AcDbLine
 10
94.042389508
 20
146.02232432
 30
0.0
 11
94.042389508
 21
145.500718141
 31
0.0
  0
LINE
  5
D3
330
1F
100
AcDbEntity
  8
0
  6
HIDDEN
 62
     7
370
     0
100
AcDbLine
 10
94.042389508
 20
142.6353393449
 30
0.0
 11
94.042389508
 21
141.2299913595
 31
0.0
  0
LINE
  5
D4
330
1F
100
AcDbEntity
  8
0
  6
HIDDEN
 62
     7
370
     0
100
AcDbLine
 10
111.042389508
 20
139.7681517487
 30
0.0
 11
111.042389508
 21
140.2764968913
 31
0.0
  0
LINE
  5
D5
330
1F
100
AcDbEntity
  8
0
  6
HIDDEN
 62
     7
370
     0
100
AcDbLine
 10
111.042389508
 20
142.2517950702
 30
0.0
 11
111.042389508
 21
143.6561948214
 31
0.0
  0
LINE
  5
D6
330
1F
100
AcDbEntity
  8
0
  6
HIDDEN
 62
     7
370
     0
100
AcDbLine
 10
94.542389508
 20
146.52232432
 30
0.0
 11
94.042389508
 21
146.02232432
 31
0.0
  0
LINE
  5
D7
330
1F
100
AcDbEntity
  8
0
  6
HIDDEN
 62
     7
370
     0
100
AcDbLine
 10
96.042389508
 20
146.52232432
 30
0.0
 11
96.542389508
 21
146.02232432
 31
0.0
  0
LINE
  5
D8
330
1F
100
AcDbEntity
  8
0
  6
HIDDEN
 62
     7
370
     0
100
AcDbLine
 10
108.542389508
 20
146.02232432
 30
0.0
 11
109.042389508
 21
146.52232432
 31
0.0
  0
LINE
  5
D9
330
1F
100
AcDbEntity
  8
0
  6
HIDDEN
 62
     7
370
     0
100
AcDbLine
 10
109.042389508
 20
114.52232432
 30
0.0
 11
108.542389508
 21
115.02232432
 31
0.0
  0
LINE
  5
DA
330
1F
100
AcDbEntity
  8
0
  6
HIDDEN
 62
     7
370
     0
100
AcDbLine
 10
96.542389508
 20
115.02232432
 30
0.0
 11
96.042389508
 21
114.52232432
 31
0.0
  0
LINE
  5
DB
330
1F
100
AcDbEntity
  8
0
  6
HIDDEN
 62
     7
370
     0
100
AcDbLine
 10
96.542389508
 20
146.02232432
 30
0.0
 11
96.542389508
 21
115.02232432
 31
0.0
  0
LINE
  5
DC
330
1F
100
AcDbEntity
  8
0
  6
HIDDEN
 62
     7
370
     0
100
AcDbLine
 10
108.542389508
 20
115.02232432
 30
0.0
 11
108.542389508
 21
146.02232432
 31
0.0
  0
LINE
  5
DD
330
1F
100
AcDbEntity
  8
0
  6
HIDDEN
 62
     7
370
     0
100
AcDbLine
 10
94.042389508
 20
170.6356092898
 30
0.0
 11
94.042389508
 21
169.2323253169
 31
0.0
  0
LINE
  5
DE
330
1F
100
AcDbEntity
  8
0
  6
HIDDEN
 62
     7
370
     0
100
AcDbLine
 10
94.042389508
 20
166.9115215356
 30
0.0
 11
94.042389508
 21
166.52232432
 31
0.0
  0
LINE
  5
DF
330
1F
100
AcDbEntity
  8
0
  6
HIDDEN
 62
     7
370
     0
100
AcDbLine
 10
111.042389508
 20
167.2024612639
 30
0.0
 11
111.042389508
 21
168.6171171963
 31
0.0
  0
LINE
  5
E0
330
1F
100
AcDbEntity
  8
0
  6
HIDDEN
 62
     7
370
     0
100
AcDbLine
 10
111.042389508
 20
170.2515994293
 30
0.0
 11
111.042389508
 21
171.52232432
 31
0.0
  0
LINE
  5
E1
330
1F
100
AcDbEntity
  8
0
  6
HIDDEN
 62
     7
370
     0
100
AcDbLine
 10
96.542389508
 20
166.52232432
 30
0.0
 11
96.542389508
 21
165.8102996063
 31
0.0
  0
LINE
  5
E2
330
1F
100
AcDbEntity
  8
0
  6
HIDDEN
 62
     7
370
     0
100
AcDbLine
 10
96.542389508
 20
162.2132472441
 30
0.0
 11
96.542389508
 21
160.8102627622
 31
0.0
  0
LINE
  5
E3
330
1F
100
AcDbEntity
  8
0
  6
HIDDEN
 62
     7
370
     0
100
AcDbLine
 10
96.542389508
 20
157.2133354562
 30
0.0
 11
96.542389508
 21
155.8103822167
 31
0.0
  0
LINE
  5
E4
330
1F
100
AcDbEntity
  8
0
  6
HIDDEN
 62
     7
370
     0
100
AcDbLine
 10
96.542389508
 20
152.2134437965
 30
0.0
 11
96.542389508
 21
150.8105151033
 31
0.0
  0
LINE
  5
E5
330
1F
100
AcDbEntity
  8
0
  6
HIDDEN
 62
     7
370
     0
100
AcDbLine
 10
96.542389508
 20
147.2138105268
 30
0.0
 11
96.542389508
 21
114.82232432
 31
0.0
  0
LINE
  5
E6
330
1F
100
AcDbEntity
  8
0
  6
HIDDEN
 62
     7
370
     0
100
AcDbLine
 10
108.542389508
 20
114.82232432
 30
0.0
 11
108.542389508
 21
146.52232432
 31
0.0
  0
LINE
  5
E7
330
1F
100
AcDbEntity
  8
0
  6
HIDDEN
 62
     7
370
     0
100
AcDbLine
 10
108.542389508
 20
146.8795049213
 30
0.0
 11
108.542389508
 21
148.2831571435
 31
0.0
  0
LINE
  5
E8
330
1F
100
AcDbEntity
  8
0
  6
HIDDEN
 62
     7
370
     0
100
AcDbLine
 10
108.542389508
 20
151.8791886649
 30
0.0
 11
108.542389508
 21
153.2828426835
 31
0.0
  0
LINE
  5
E9
330
1F
100
AcDbEntity
  8
0
  6
HIDDEN
 62
     7
370
     0
100
AcDbLine
 10
108.542389508
 20
156.8786830662
 30
0.0
 11
108.542389508
 21
158.2826280293
 31
0.0
  0
LINE
  5
EA
330
1F
100
AcDbEntity
  8
0
  6
HIDDEN
 62
     7
370
     0
100
AcDbLine
 10
108.542389508
 20
161.8793526056
 30
0.0
 11
108.542389508
 21
163.2839848505
 31
0.0
  0
LINE
  5
EB
330
1F
100
AcDbEntity
  8
0
  6
HIDDEN
 62
     7
370
     0
100
AcDbLine
 10
108.242389508
 20
113.52232432
 30
0.0
 11
108.242389508
 21
114.82232432
 31
0.0
  0
LINE
  5
EC
330
1F
100
AcDbEntity
  8
0
  6
HIDDEN
 62
     7
370
     0
100
AcDbLine
 10
96.842389508
 20
114.82232432
 30
0.0
 11
96.842389508
 21
113.52232432
 31
0.0
  0
LINE
  5
ED
330
1F
100
AcDbEntity
  8
0
  6
HIDDEN
 62
     7
370
     0
100
AcDbLine
 10
97.968889508
 20
175.52232432
 30
0.0
 11
98.1998925039
 21
168.12232432
 31
0.0
  0
LINE
  5
EE
330
1F
100
AcDbEntity
  8
0
  6
HIDDEN
 62
     7
370
     0
100
AcDbLine
 10
106.8848865122
 20
168.12232432
 30
0.0
 11
107.115889508
 21
175.52232432
 31
0.0
  0
LINE
  5
EF
330
1F
100
AcDbEntity
  8
0
  6
HIDDEN
 62
     7
370
     0
100
AcDbLine
 10
107.115889508
 20
111.52232432
 30
0.0
 11
106.8848865122
 21
118.92232432
 31
0.0
  0
LINE
  5
F0
330
1F
100
AcDbEntity
  8
0
  6
HIDDEN
 62
     7
370
     0
100
AcDbLine
 10
98.1998925039
 20
118.92232432
 30
0.0
 11
97.968889508
 21
111.52232432
 31
0.0
  0
LINE
  5
F1
330
1F
100
AcDbEntity
  8
0
  6
HIDDEN
 62
     7
370
     0
100
AcDbLine
 10
106.492389508
 20
118.92232432
 30
0.0
 11
106.492389508
 21
123.46232432
 31
0.0
  0
LINE
  5
F2
330
1F
100
AcDbEntity
  8
0
  6
HIDDEN
 62
     7
370
     0
100
AcDbLine
 10
98.592389508
 20
123.46232432
 30
0.0
 11
98.592389508
 21
118.92232432
 31
0.0
  0
LINE
  5
F3
330
1F
100
AcDbEntity
  8
0
  6
HIDDEN
 62
     7
370
     0
100
AcDbLine
 10
106.492389508
 20
123.46232432
 30
0.0
 11
106.042389508
 21
123.7327115986
 31
0.0
  0
LINE
  5
F4
330
1F
100
AcDbEntity
  8
0
  6
HIDDEN
 62
     7
370
     0
100
AcDbLine
 10
99.042389508
 20
123.7327115986
 30
0.0
 11
98.592389508
 21
123.46232432
 31
0.0
  0
LINE
  5
F5
330
1F
100
AcDbEntity
  8
0
  6
HIDDEN
 62
     7
370
     0
100
AcDbLine
 10
98.592389508
 20
168.12232432
 30
0.0
 11
98.592389508
 21
163.58232432
 31
0.0
  0
LINE
  5
F6
330
1F
100
AcDbEntity
  8
0
  6
HIDDEN
 62
     7
370
     0
100
AcDbLine
 10
106.492389508
 20
163.58232432
 30
0.0
 11
106.492389508
 21
168.12232432
 31
0.0
  0
LINE
  5
F7
330
1F
100
AcDbEntity
  8
0
  6
HIDDEN
 62
     7
370
     0
100
AcDbLine
 10
98.592389508
 20
163.58232432
 30
0.0
 11
99.042389508
 21
163.3119370415
 31
0.0
  0
LINE
  5
F8
330
1F
100
AcDbEntity
  8
0
  6
HIDDEN
 62
     7
370
     0
100
AcDbLine
 10
106.042389508
 20
163.3119370415
 30
0.0
 11
106.492389508
 21
163.58232432
 31
0.0
  0
LINE
  5
F9
330
1F
100
AcDbEntity
  8
0
  6
HIDDEN
 62
     7
370
     0
100
AcDbLine
 10
99.042389508
 20
163.3119370415
 30
0.0
 11
99.042389508
 21
123.7327115986
 31
0.0
  0
LINE
  5
FA
330
1F
100
AcDbEntity
  8
0
  6
HIDDEN
 62
     7
370
     0
100
AcDbLine
 10
106.042389508
 20
123.7327115986
 30
0.0
 11
106.042389508
 21
163.3119370415
 31
0.0
  0
DIMENSION
  5
FB
330
1F
100
AcDbEntity
  8
0
  6
Continuous
 62
     7
370
     0
100
AcDbDimension
  2
*D1
 10
139.6040595875
 20
171.52232432
 30
0.0
 11
139.6040595875
 21
173.52232432
 31
0.0
 70
   160
 71
     1
 42
4.0
  3
SLDDIMSTYLE0
100
AcDbAlignedDimension
 13
114.542389508
 23
175.52232432
 33
0.0
 14
114.4328557039
 24
171.52232432
 34
0.0
 50
90.0
100
AcDbRotatedDimension
1001
ACAD
1000
DSTYLE
1002
{
1070
    77
1070
     3
1070
   143
1040
0.0393700787
1070
    41
1040
3.0
1070
    44
1040
1.0
1070
    42
1040
1.0
1070
   147
1040
1.524
1070
    73
1070
     0
1070
    74
1070
     0
1070
   140
1040
3.5
1070
   284
1070
    12
1070
    78
1070
    12
1002
}
  0
DIMENSION
  5
114
330
1F
100
AcDbEntity
  8
0
  6
Continuous
 62
     7
370
     0
100
AcDbDimension
  2
*D2
 10
127.372555909
 20
166.52232432
 30
0.0
 11
127.372555909
 21
156.52232432
 31
0.0
 70
   160
  1
<>ST
 71
     1
 42
20.0
  3
SLDDIMSTYLE0
100
AcDbAlignedDimension
 13
110.542389508
 23
146.52232432
 33
0.0
 14
111.042389508
 24
166.52232432
 34
0.0
 50
90.0
100
AcDbRotatedDimension
1001
ACAD
1000
DSTYLE
1002
{
1070
    77
1070
     3
1070
   143
1040
0.0393700787
1070
    41
1040
3.0
1070
    44
1040
1.0
1070
    42
1040
1.0
1070
   147
1040
1.524
1070
    73
1070
     0
1070
    74
1070
     0
1070
   140
1040
3.5
1070
   284
1070
    12
1070
    78
1070
    12
1002
}
  0
DIMENSION
  5
129
330
1F
100
AcDbEntity
  8
0
  6
Continuous
 62
     7
370
     0
100
AcDbDimension
  2
*D3
 10
139.6040595875
 20
171.52232432
 30
0.0
 11
139.6040595875
 21
155.52232432
 31
0.0
 70
   160
 71
     1
 42
32.0
  3
SLDDIMSTYLE0
100
AcDbAlignedDimension
 13
113.042389508
 23
139.52232432
 33
0.0
 14
114.4328557039
 24
171.52232432
 34
0.0
 50
90.0
100
AcDbRotatedDimension
1001
ACAD
1000
DSTYLE
1002
{
1070
    77
1070
     3
1070
   143
1040
0.0393700787
1070
    41
1040
3.0
1070
    44
1040
1.0
1070
    42
1040
1.0
1070
   147
1040
1.524
1070
    73
1070
     0
1070
    74
1070
     0
1070
   140
1040
3.5
1070
   284
1070
    12
1070
    78
1070
    12
1002
}
  0
DIMENSION
  5
13D
330
1F
100
AcDbEntity
  8
0
  6
Continuous
 62
     7
370
     0
100
AcDbDimension
  2
*D4
 10
139.6040595875
 20
114.52232432
 30
0.0
 11
139.6040595875
 21
124.52232432
 31
0.0
 70
   160
 71
     1
 42
20.0
  3
SLDDIMSTYLE0
100
AcDbAlignedDimension
 13
113.042389508
 23
134.52232432
 33
0.0
 14
112.042389508
 24
114.52232432
 34
0.0
 50
90.0
100
AcDbRotatedDimension
1001
ACAD
1000
DSTYLE
1002
{
1070
    77
1070
     3
1070
   143
1040
0.0393700787
1070
    41
1040
3.0
1070
    44
1040
1.0
1070
    42
1040
1.0
1070
   147
1040
1.524
1070
    73
1070
     0
1070
    74
1070
     0
1070
   140
1040
3.5
1070
   284
1070
    12
1070
    78
1070
    12
1002
}
  0
DIMENSION
  5
151
330
1F
100
AcDbEntity
  8
0
  6
Continuous
 62
     7
370
     0
100
AcDbDimension
  2
*D5
 10
112.542389508
 20
91.6910141549
 30
0.0
 11
102.542389508
 21
91.6910141549
 31
0.0
 70
   160
  1
%%c<>
 71
     1
 42
20.0
  3
SLDDIMSTYLE0
100
AcDbAlignedDimension
 13
92.542389508
 23
115.02232432
 33
0.0
 14
112.542389508
 24
115.02232432
 34
0.0
100
AcDbRotatedDimension
1001
ACAD
1000
DSTYLE
1002
{
1070
    77
1070
     3
1070
   143
1040
0.0393700787
1070
    41
1040
3.0
1070
    44
1040
1.0
1070
    42
1040
1.0
1070
   147
1040
1.524
1070
    73
1070
     0
1070
    74
1070
     0
1070
   140
1040
3.5
1070
   284
1070
    12
1070
    78
1070
    12
1002
}
  0
DIMENSION
  5
167
330
1F
100
AcDbEntity
  8
0
  6
Continuous
 62
     7
370
     0
100
AcDbDimension
  2
*D6
 10
139.6040595875
 20
134.52232432
 30
0.0
 11
139.6040595875
 21
137.02232432
 31
0.0
 70
   160
 71
     1
 42
5.0
  3
SLDDIMSTYLE0
100
AcDbAlignedDimension
 13
113.042389508
 23
139.52232432
 33
0.0
 14
113.042389508
 24
134.52232432
 34
0.0
 50
90.0
100
AcDbRotatedDimension
1001
ACAD
1000
DSTYLE
1002
{
1070
    77
1070
     3
1070
   143
1040
0.0393700787
1070
    41
1040
3.0
1070
    44
1040
1.0
1070
    42
1040
1.0
1070
   147
1040
1.524
1070
    73
1070
     0
1070
    74
1070
     0
1070
   140
1040
3.5
1070
   284
1070
    12
1070
    78
1070
    12
1002
}
  0
DIMENSION
  5
17E
330
1F
100
AcDbEntity
  8
0
  6
Continuous
 62
     7
370
     0
100
AcDbDimension
  2
*D7
 10
150.4801842925
 20
111.52232432
 30
0.0
 11
150.4801842925
 21
143.52232432
 31
0.0
 70
   160
 71
     1
 42
64.0
  3
SLDDIMSTYLE0
100
AcDbAlignedDimension
 13
114.542389508
 23
175.52232432
 33
0.0
 14
108.042389508
 24
111.52232432
 34
0.0
 50
90.0
100
AcDbRotatedDimension
1001
ACAD
1000
DSTYLE
1002
{
1070
    77
1070
     3
1070
   143
1040
0.0393700787
1070
    41
1040
3.0
1070
    44
1040
1.0
1070
    42
1040
1.0
1070
   147
1040
1.524
1070
    73
1070
     0
1070
    74
1070
     0
1070
   140
1040
3.5
1070
   284
1070
    12
1070
    78
1070
    12
1002
}
  0
LINE
  5
192
330
1F
100
AcDbEntity
  8
0
  6
Continuous
 62
     7
370
    30
100
AcDbLine
 10
102.542389508
 20
207.6006128309
 30
0.0
 11
90.542389508
 21
214.5288160612
 31
0.0
  0
LINE
  5
193
330
1F
100
AcDbEntity
  8
0
  6
Continuous
 62
     7
370
    30
100
AcDbLine
 10
90.542389508
 20
214.5288160612
 30
0.0
 11
90.542389508
 21
228.3852225217
 31
0.0
  0
LINE
  5
194
330
1F
100
AcDbEntity
  8
0
  6
Continuous
 62
     7
370
    30
100
AcDbLine
 10
114.542389508
 20
228.3852225217
 30
0.0
 11
114.542389508
 21
214.5288160612
 31
0.0
  0
LINE
  5
195
330
1F
100
AcDbEntity
  8
0
  6
Continuous
 62
     7
370
    30
100
AcDbLine
 10
114.542389508
 20
214.5288160612
 30
0.0
 11
102.542389508
 21
207.6006128309
 31
0.0
  0
CIRCLE
  5
196
330
1F
100
AcDbEntity
  8
0
  6
Continuous
 62
     7
370
    30
100
AcDbCircle
 10
102.542389508
 20
221.4570192914
 30
0.0
 40
4.57350000000001
  0
LINE
  5
197
330
1F
100
AcDbEntity
  8
0
  6
Continuous
 62
     7
370
    30
100
AcDbLine
 10
102.542389508
 20
235.313425752
 30
0.0
 11
114.542389508
 21
228.3852225217
 31
0.0
  0
LINE
  5
198
330
1F
100
AcDbEntity
  8
0
  6
Continuous
 62
     7
370
    30
100
AcDbLine
 10
90.542389508
 20
228.3852225217
 30
0.0
 11
102.542389508
 21
235.313425752
 31
0.0
  0
CIRCLE
  5
199
330
1F
100
AcDbEntity
  8
0
  6
Continuous
 62
     7
370
    30
100
AcDbCircle
 10
102.542389508
 20
221.4570192914
 30
0.0
 40
4.34249700411668
  0
CIRCLE
  5
19A
330
1F
100
AcDbEntity
  8
0
  6
Continuous
 62
     7
370
    30
100
AcDbCircle
 10
102.542389508
 20
221.4570192914
 30
0.0
 40
3.950000000000003
  0
CIRCLE
  5
19B
330
1F
100
AcDbEntity
  8
0
  6
Continuous
 62
     7
370
    30
100
AcDbCircle
 10
102.542389508
 20
221.4570192914
 30
0.0
 40
3.5
  0
DIMENSION
  5
19C
330
1F
100
AcDbEntity
  8
0
  6
Continuous
 62
     7
370
     0
100
AcDbDimension
  2
*D8
 10
114.542389508
 20
249.5559128955
 30
0.0
 11
102.542389508
 21
249.5559128955
 31
0.0
 70
   160
 71
     1
 42
24.0
  3
SLDDIMSTYLE0
100
AcDbAlignedDimension
 13
90.542389508
 23
228.3852225217
 33
0.0
 14
114.542389508
 24
228.3852225217
 34
0.0
100
AcDbRotatedDimension
1001
ACAD
1000
DSTYLE
1002
{
1070
    77
1070
     3
1070
   143
1040
0.0393700787
1070
    41
1040
3.0
1070
    44
1040
1.0
1070
    42
1040
1.0
1070
   147
1040
1.524
1070
    73
1070
     0
1070
    74
1070
     0
1070
   140
1040
3.5
1070
   284
1070
    12
1070
    78
1070
    12
1002
}
  0
DIMENSION
  5
1AF
330
1F
100
AcDbEntity
  8
0
  6
Continuous
 62
     7
370
     0
100
AcDbDimension
  2
*D9
 10
78.5178967385
 20
207.6006128309
 30
0.0
 11
78.5178967385
 21
221.4570192914
 31
0.0
 70
   160
  1
(<>)
 71
     1
 42
27.7128129211
  3
SLDDIMSTYLE0
100
AcDbAlignedDimension
 13
102.542389508
 23
235.313425752
 33
0.0
 14
102.542389508
 24
207.6006128309
 34
0.0
 50
90.0
100
AcDbRotatedDimension
1001
ACAD
1000
DSTYLE
1002
{
1070
    77
1070
     3
1070
   143
1040
0.0393700787
1070
    41
1040
3.0
1070
    44
1040
1.0
1070
    42
1040
1.0
1070
   147
1040
1.524
1070
    73
1070
     0
1070
    74
1070
     0
1070
   140
1040
3.5
1070
   284
1070
    12
1070
    78
1070
    12
1002
}
  0
MTEXT
  5
1C5
330
1F
100
AcDbEntity
  8
0
  6
Continuous
 62
     7
370
     0
100
AcDbMText
 10
119.7005145936
 20
202.6738633549
 30
25.0
 40
3.5
 41
0.0
 71
     1
 72
     1
  1
PT1/8
  7
SLDTEXTSTYLE0
 73
     1
 44
1.0
  0
LEADER
  5
1CD
330
1F
100
AcDbEntity
  8
0
  6
Continuous
 62
     7
370
     0
100
AcDbLeader
  3
SLDDIMSTYLE1
 76
     3
 10
102.1729359299
 20
216.8984661982
 30
0.0
 10
119.1994053938
 20
198.5994367121
 30
0.0
 10
129.8826552362
 20
198.5994367121
 30
0.0
  0
INSERT
  5
1D9
330
1F
100
AcDbEntity
  8
0
  6
Continuous
 62
     7
370
     0
100
AcDbBlockReference
  2
SW_CENTERMARKSYMBOL_0
 10
102.542389508
 20
221.4570192914
 30
0.0
  0
ENDSEC
  0
SECTION
  2
OBJECTS
  0
DICTIONARY
  5
C
330
0
100
AcDbDictionary
281
     1
  3
ACAD_GROUP
350
D
  3
ACAD_LAYOUT
350
1A
  3
ACAD_MLINESTYLE
350
17
  3
ACAD_PLOTSETTINGS
350
19
  3
ACAD_PLOTSTYLENAME
350
E
  0
DICTIONARY
  5
D
102
{ACAD_REACTORS
330
C
102
}
330
C
100
AcDbDictionary
281
     1
  0
DICTIONARY
  5
1A
102
{ACAD_REACTORS
330
C
102
}
330
C
100
AcDbDictionary
281
     1
  3
Layout1
350
1E
  3
Layout2
350
26
  3
Model
350
22
  0
DICTIONARY
  5
17
102
{ACAD_REACTORS
330
C
102
}
330
C
100
AcDbDictionary
281
     1
  3
Standard
350
18
  0
DICTIONARY
  5
19
102
{ACAD_REACTORS
330
C
102
}
330
C
100
AcDbDictionary
281
     1
  0
ACDBDICTIONARYWDFLT
  5
E
102
{ACAD_REACTORS
330
C
102
}
330
C
100
AcDbDictionary
281
     1
  3
Normal
350
F
100
AcDbDictionaryWithDefault
340
F
  0
LAYOUT
  5
1E
102
{ACAD_REACTORS
330
1A
102
}
330
1A
100
AcDbPlotSettings
  1

  2

  4

  6

 40
0.0
 41
0.0
 42
0.0
 43
0.0
 44
0.0
 45
0.0
 46
0.0
 47
0.0
 48
0.0
 49
0.0
140
0.0
141
0.0
142
1.0
143
1.0
 70
   688
 72
     0
 73
     0
 74
     5
  7

 75
    16
147
1.0
148
0.0
149
0.0
100
AcDbLayout
  1
Layout1
 70
     1
 71
     1
 10
0.0
 20
0.0
 11
0.0
 21
0.0
 12
0.0
 22
0.0
 32
0.0
 14
0.0
 24
0.0
 34
0.0
 15
0.0
 25
0.0
 35
0.0
146
0.0
 13
0.0
 23
0.0
 33
0.0
 16
1.0
 26
0.0
 36
0.0
 17
0.0
 27
1.0
 37
0.0
 76
     0
330
1B
  0
LAYOUT
  5
26
102
{ACAD_REACTORS
330
1A
102
}
330
1A
100
AcDbPlotSettings
  1

  2

  4

  6

 40
0.0
 41
0.0
 42
0.0
 43
0.0
 44
0.0
 45
0.0
 46
0.0
 47
0.0
 48
0.0
 49
0.0
140
0.0
141
0.0
142
1.0
143
1.0
 70
   688
 72
     0
 73
     0
 74
     5
  7

 75
    16
147
1.0
148
0.0
149
0.0
100
AcDbLayout
  1
Layout2
 70
     1
 71
     2
 10
0.0
 20
0.0
 11
0.0
 21
0.0
 12
0.0
 22
0.0
 32
0.0
 14
0.0
 24
0.0
 34
0.0
 15
0.0
 25
0.0
 35
0.0
146
0.0
 13
0.0
 23
0.0
 33
0.0
 16
1.0
 26
0.0
 36
0.0
 17
0.0
 27
1.0
 37
0.0
 76
     0
330
23
  0
LAYOUT
  5
22
102
{ACAD_REACTORS
330
1A
102
}
330
1A
100
AcDbPlotSettings
  1

  2

  4

  6

 40
0.0
 41
0.0
 42
0.0
 43
0.0
 44
0.0
 45
0.0
 46
0.0
 47
0.0
 48
0.0
 49
0.0
140
0.0
141
0.0
142
1.0
143
1.0
 70
  1712
 72
     0
 73
     0
 74
     0
  7

 75
     0
147
1.0
148
0.0
149
0.0
100
AcDbLayout
  1
Model
 70
     1
 71
     0
 10
0.0
 20
0.0
 11
0.0
 21
0.0
 12
0.0
 22
0.0
 32
0.0
 14
0.0
 24
0.0
 34
0.0
 15
210.0
 25
297.0
 35
0.0
146
0.0
 13
0.0
 23
0.0
 33
0.0
 16
1.0
 26
0.0
 36
0.0
 17
0.0
 27
1.0
 37
0.0
 76
     0
330
1F
  0
MLINESTYLE
  5
18
102
{ACAD_REACTORS
330
17
102
}
330
17
100
AcDbMlineStyle
  2
Standard
 70
     0
  3

 62
   256
 51
90.0
 52
90.0
 71
     2
 49
0.5
 62
   256
  6
BYLAYER
 49
-0.5
 62
   256
  6
BYLAYER
  0
ACDBPLACEHOLDER
  5
F
102
{ACAD_REACTORS
330
E
102
}
330
E
  0
ENDSEC
  0
EOF
