  0
SECTION
  2
HEADER
  9
$ACADVER
  1
AC1015
  9
$ACADMAINTVER
 70
     6
  9
$DWGCODEPAGE
  3
DOS932
  9
$INSBASE
 10
0.0
 20
0.0
 30
0.0
  9
$EXTMIN
 10
0.0
 20
0.0
 30
0.0
  9
$EXTMAX
 10
210.0
 20
297.0
 30
0.0
  9
$LIMMIN
 10
0.0
 20
0.0
  9
$LIMMAX
 10
210.0
 20
297.0
  9
$ORTHOMODE
 70
     0
  9
$REGENMODE
 70
     1
  9
$FILLMODE
 70
     1
  9
$QTEXTMODE
 70
     0
  9
$MIRRTEXT
 70
     1
  9
$LTSCALE
 40
1.0
  9
$ATTMODE
 70
     1
  9
$TEXTSIZE
 40
3.5
  9
$TRACEWID
 40
1.0
  9
$TEXTSTYLE
  7
Standard
  9
$CLAYER
  8
0
  9
$CELTYPE
  6
ByLayer
  9
$CECOLOR
 62
   256
  9
$CELTSCALE
 40
1.0
  9
$DISPSILH
 70
     0
  9
$DIMSCALE
 40
1.0
  9
$DIMASZ
 40
3.0
  9
$DIMEXO
 40
1.0
  9
$DIMDLI
 40
3.75
  9
$DIMRND
 40
0.0
  9
$DIMDLE
 40
0.0
  9
$DIMEXE
 40
1.0
  9
$DIMTP
 40
0.0
  9
$DIMTM
 40
0.0
  9
$DIMTXT
 40
3.5
  9
$DIMCEN
 40
2.5
  9
$DIMTSZ
 40
0.0
  9
$DIMTOL
 70
     0
  9
$DIMLIM
 70
     0
  9
$DIMTIH
 70
     1
  9
$DIMTOH
 70
     1
  9
$DIMSE1
 70
     0
  9
$DIMSE2
 70
     0
  9
$DIMTAD
 70
     1
  9
$DIMZIN
 70
     0
  9
$DIMBLK
  1

  9
$DIMASO
 70
     1
  9
$DIMSHO
 70
     1
  9
$DIMPOST
  1

  9
$DIMAPOST
  1

  9
$DIMALT
 70
     0
  9
$DIMALTD
 70
     3
  9
$DIMALTF
 40
0.0393700787
  9
$DIMLFAC
 40
1.0
  9
$DIMTOFL
 70
     1
  9
$DIMTVP
 40
0.0
  9
$DIMTIX
 70
     0
  9
$DIMSOXD
 70
     0
  9
$DIMSAH
 70
     0
  9
$DIMBLK1
  1

  9
$DIMBLK2
  1

  9
$DIMSTYLE
  2
ISO-25
  9
$DIMCLRD
 70
     0
  9
$DIMCLRE
 70
     0
  9
$DIMCLRT
 70
     0
  9
$DIMTFAC
 40
1.0
  9
$DIMGAP
 40
1.524
  9
$DIMJUST
 70
     0
  9
$DIMSD1
 70
     0
  9
$DIMSD2
 70
     0
  9
$DIMTOLJ
 70
     0
  9
$DIMTZIN
 70
     0
  9
$DIMALTZ
 70
     0
  9
$DIMALTTZ
 70
     0
  9
$DIMUPT
 70
     0
  9
$DIMDEC
 70
     1
  9
$DIMTDEC
 70
     3
  9
$DIMALTU
 70
     2
  9
$DIMALTTD
 70
     3
  9
$DIMTXSTY
  7
Standard
  9
$DIMAUNIT
 70
     0
  9
$DIMADEC
 70
     2
  9
$DIMALTRND
 40
0.0
  9
$DIMAZIN
 70
     0
  9
$DIMDSEP
 70
    44
  9
$DIMATFIT
 70
     3
  9
$DIMFRAC
 70
     0
  9
$DIMLDRBLK
  1

  9
$DIMLUNIT
 70
     2
  9
$DIMLWD
 70
    -2
  9
$DIMLWE
 70
    -2
  9
$DIMTMOVE
 70
     0
  9
$LUNITS
 70
     2
  9
$LUPREC
 70
     1
  9
$SKETCHINC
 40
1.0
  9
$FILLETRAD
 40
10.0
  9
$AUNITS
 70
     0
  9
$AUPREC
 70
     2
  9
$MENU
  1
.
  9
$ELEVATION
 40
0.0
  9
$PELEVATION
 40
0.0
  9
$THICKNESS
 40
0.0
  9
$LIMCHECK
 70
     0
  9
$CHAMFERA
 40
10.0
  9
$CHAMFERB
 40
10.0
  9
$CHAMFERC
 40
20.0
  9
$CHAMFERD
 40
0.0
  9
$SKPOLY
 70
     0
  9
$TDCREATE
 40
2456561.900940729
  9
$TDUCREATE
 40
2456561.525940729
  9
$TDUPDATE
 40
2456561.900942535
  9
$TDUUPDATE
 40
2456561.525942535
  9
$TDINDWG
 40
0.0000000116
  9
$TDUSRTIMER
 40
0.0000000116
  9
$USRTIMER
 70
     1
  9
$ANGBASE
 50
0.0
  9
$ANGDIR
 70
     0
  9
$PDMODE
 70
     0
  9
$PDSIZE
 40
-1.0
  9
$PLINEWID
 40
0.0
  9
$SPLFRAME
 70
     0
  9
$SPLINETYPE
 70
     6
  9
$SPLINESEGS
 70
     8
  9
$HANDSEED
  5
300
  9
$SURFTAB1
 70
     6
  9
$SURFTAB2
 70
     6
  9
$SURFTYPE
 70
     6
  9
$SURFU
 70
     6
  9
$SURFV
 70
     6
  9
$UCSBASE
  2

  9
$UCSNAME
  2

  9
$UCSORG
 10
0.0
 20
0.0
 30
0.0
  9
$UCSXDIR
 10
1.0
 20
0.0
 30
0.0
  9
$UCSYDIR
 10
0.0
 20
1.0
 30
0.0
  9
$UCSORTHOREF
  2

  9
$UCSORTHOVIEW
 70
     0
  9
$UCSORGTOP
 10
0.0
 20
0.0
 30
0.0
  9
$UCSORGBOTTOM
 10
0.0
 20
0.0
 30
0.0
  9
$UCSORGLEFT
 10
0.0
 20
0.0
 30
0.0
  9
$UCSORGRIGHT
 10
0.0
 20
0.0
 30
0.0
  9
$UCSORGFRONT
 10
0.0
 20
0.0
 30
0.0
  9
$UCSORGBACK
 10
0.0
 20
0.0
 30
0.0
  9
$PUCSBASE
  2

  9
$PUCSNAME
  2

  9
$PUCSORG
 10
0.0
 20
0.0
 30
0.0
  9
$PUCSXDIR
 10
1.0
 20
0.0
 30
0.0
  9
$PUCSYDIR
 10
0.0
 20
1.0
 30
0.0
  9
$PUCSORTHOREF
  2

  9
$PUCSORTHOVIEW
 70
     0
  9
$PUCSORGTOP
 10
0.0
 20
0.0
 30
0.0
  9
$PUCSORGBOTTOM
 10
0.0
 20
0.0
 30
0.0
  9
$PUCSORGLEFT
 10
0.0
 20
0.0
 30
0.0
  9
$PUCSORGRIGHT
 10
0.0
 20
0.0
 30
0.0
  9
$PUCSORGFRONT
 10
0.0
 20
0.0
 30
0.0
  9
$PUCSORGBACK
 10
0.0
 20
0.0
 30
0.0
  9
$USERI1
 70
     0
  9
$USERI2
 70
     0
  9
$USERI3
 70
     0
  9
$USERI4
 70
     0
  9
$USERI5
 70
     0
  9
$USERR1
 40
0.0
  9
$USERR2
 40
0.0
  9
$USERR3
 40
0.0
  9
$USERR4
 40
0.0
  9
$USERR5
 40
0.0
  9
$WORLDVIEW
 70
     1
  9
$SHADEDGE
 70
     3
  9
$SHADEDIF
 70
    70
  9
$TILEMODE
 70
     1
  9
$MAXACTVP
 70
    64
  9
$PINSBASE
 10
0.0
 20
0.0
 30
0.0
  9
$PLIMCHECK
 70
     0
  9
$PEXTMIN
 10
1.0000000000E+20
 20
1.0000000000E+20
 30
1.0000000000E+20
  9
$PEXTMAX
 10
-1.0000000000E+20
 20
-1.0000000000E+20
 30
-1.0000000000E+20
  9
$PLIMMIN
 10
0.0
 20
0.0
  9
$PLIMMAX
 10
420.0
 20
297.0
  9
$UNITMODE
 70
     0
  9
$VISRETAIN
 70
     1
  9
$PLINEGEN
 70
     0
  9
$PSLTSCALE
 70
     1
  9
$TREEDEPTH
 70
  3020
  9
$CMLSTYLE
  2
Standard
  9
$CMLJUST
 70
     0
  9
$CMLSCALE
 40
20.0
  9
$PROXYGRAPHICS
 70
     1
  9
$MEASUREMENT
 70
     1
  9
$CELWEIGHT
370
    -1
  9
$ENDCAPS
280
     0
  9
$JOINSTYLE
280
     0
  9
$LWDISPLAY
290
     1
  9
$INSUNITS
 70
     4
  9
$HYPERLINKBASE
  1

  9
$STYLESHEET
  1

  9
$XEDIT
290
     1
  9
$CEPSNTYPE
380
     0
  9
$PSTYLEMODE
290
     1
  9
$FINGERPRINTGUID
  2
{E415C123-D6E6-441E-B542-5DAE988B74AB}
  9
$VERSIONGUID
  2
{FAEB1C32-E019-11D5-929B-00C0DF256EC4}
  9
$EXTNAMES
290
     1
  9
$PSVPSCALE
 40
0.0
  9
$OLESTARTUP
290
     0
  0
ENDSEC
  0
SECTION
  2
CLASSES
  0
CLASS
  1
ACDBDICTIONARYWDFLT
  2
AcDbDictionaryWithDefault
  3
ObjectDBX Classes
 90
        0
280
     0
281
     0
  0
CLASS
  1
VISUALSTYLE
  2
AcDbVisualStyle
  3
ObjectDBX Classes
 90
     4095
280
     0
281
     0
  0
CLASS
  1
MATERIAL
  2
AcDbMaterial
  3
ObjectDBX Classes
 90
     1153
280
     0
281
     0
  0
CLASS
  1
ACDBPLACEHOLDER
  2
AcDbPlaceHolder
  3
ObjectDBX Classes
 90
        0
280
     0
281
     0
  0
CLASS
  1
LAYOUT
  2
AcDbLayout
  3
ObjectDBX Classes
 90
        0
280
     0
281
     0
  0
ENDSEC
  0
SECTION
  2
TABLES
  0
TABLE
  2
VPORT
  5
8
330
0
100
AcDbSymbolTable
 70
     1
  0
VPORT
  5
29
330
8
100
AcDbSymbolTableRecord
100
AcDbViewportTableRecord
  2
*Active
 70
     0
 10
0.0
 20
0.0
 11
1.0
 21
1.0
 12
105.0
 22
148.5
 13
0.0
 23
0.0
 14
10.0
 24
10.0
 15
10.0
 25
10.0
 16
0.0
 26
0.0
 36
1.0
 17
0.0
 27
0.0
 37
0.0
 40
297.0
 41
0.7070707071
 42
50.0
 43
0.0
 44
0.0
 50
0.0
 51
0.0
 71
     0
 72
  2000
 73
     1
 74
     3
 75
     0
 76
     0
 77
     0
 78
     0
281
     0
 65
     1
110
0.0
120
0.0
130
0.0
111
1.0
121
0.0
131
0.0
112
0.0
122
1.0
132
0.0
 79
     0
146
0.0
  0
ENDTAB
  0
TABLE
  2
LTYPE
  5
5
330
0
100
AcDbSymbolTable
 70
     6
  0
LTYPE
  5
14
330
5
100
AcDbSymbolTableRecord
100
AcDbLinetypeTableRecord
  2
ByBlock
 70
     0
  3

 72
    65
 73
     0
 40
0.0
  0
LTYPE
  5
15
330
5
100
AcDbSymbolTableRecord
100
AcDbLinetypeTableRecord
  2
ByLayer
 70
     0
  3

 72
    65
 73
     0
 40
0.0
  0
LTYPE
  5
16
330
5
100
AcDbSymbolTableRecord
100
AcDbLinetypeTableRecord
  2
Continuous
 70
     0
  3
Solid line
 72
    65
 73
     0
 40
0.0
  0
LTYPE
  5
3F
330
5
100
AcDbSymbolTableRecord
100
AcDbLinetypeTableRecord
  2
HIDDEN
 70
     0
  3
Hidden __ __ __ __ __ __ __ __ __ __ __ __ __ __
 72
    65
 73
     2
 40
1.905
 49
1.27
 74
     0
 49
-0.635
 74
     0
  0
LTYPE
  5
40
330
5
100
AcDbSymbolTableRecord
100
AcDbLinetypeTableRecord
  2
PHANTOM
 70
     0
  3
Phantom ______  __  __  ______  __  __  ______
 72
    65
 73
     6
 40
12.7
 49
6.35
 74
     0
 49
-1.27
 74
     0
 49
1.27
 74
     0
 49
-1.27
 74
     0
 49
1.27
 74
     0
 49
-1.27
 74
     0
  0
LTYPE
  5
41
330
5
100
AcDbSymbolTableRecord
100
AcDbLinetypeTableRecord
  2
CENTER
 70
     0
  3
Center ____ _ ____ _ ____ _ ____ _ ____ _ ____
 72
    65
 73
     4
 40
10.16
 49
6.35
 74
     0
 49
-1.27
 74
     0
 49
1.27
 74
     0
 49
-1.27
 74
     0
  0
LTYPE
  5
42
330
5
100
AcDbSymbolTableRecord
100
AcDbLinetypeTableRecord
  2
CENTERX2
 70
     0
  3
Center (2x) ________  __  ________  __  _____
 72
    65
 73
     4
 40
20.32
 49
12.7
 74
     0
 49
-2.54
 74
     0
 49
2.54
 74
     0
 49
-2.54
 74
     0
  0
LTYPE
  5
43
330
5
100
AcDbSymbolTableRecord
100
AcDbLinetypeTableRecord
  2
DOT2
 70
     0
  3
Dot (.5x) ........................................
 72
    65
 73
     2
 40
0.635
 49
0.0
 74
     0
 49
-0.635
 74
     0
  0
ENDTAB
  0
TABLE
  2
LAYER
  5
2
330
0
100
AcDbSymbolTable
 70
     1
  0
LAYER
  5
10
330
2
100
AcDbSymbolTableRecord
100
AcDbLayerTableRecord
  2
0
 70
     0
 62
     7
  6
Continuous
370
    -3
390
F
  0
ENDTAB
  0
TABLE
  2
STYLE
  5
3
330
0
100
AcDbSymbolTable
 70
     2
  0
STYLE
  5
11
330
3
100
AcDbSymbolTableRecord
100
AcDbTextStyleTableRecord
  2
Standard
 70
     0
 40
0.0
 41
1.0
 50
0.0
 71
     0
 42
3.5
  3
txt
  4
bigfont
  0
STYLE
  5
4C
330
3
100
AcDbSymbolTableRecord
100
AcDbTextStyleTableRecord
  2
SLDTEXTSTYLE0
 70
     0
 40
0.0
 41
0.7
 50
0.0
 71
     0
 42
0.2
  3
TXT
  4
bigfont
  0
ENDTAB
  0
TABLE
  2
VIEW
  5
6
330
0
100
AcDbSymbolTable
 70
     0
  0
ENDTAB
  0
TABLE
  2
UCS
  5
7
330
0
100
AcDbSymbolTable
 70
     0
  0
ENDTAB
  0
TABLE
  2
APPID
  5
9
330
0
100
AcDbSymbolTable
 70
     1
  0
APPID
  5
12
330
9
100
AcDbSymbolTableRecord
100
AcDbRegAppTableRecord
  2
ACAD
 70
     0
  0
ENDTAB
  0
TABLE
  2
DIMSTYLE
  5
A
330
0
100
AcDbSymbolTable
 70
     3
100
AcDbDimStyleTable
  0
DIMSTYLE
105
27
330
A
100
AcDbSymbolTableRecord
100
AcDbDimStyleTableRecord
  2
ISO-25
 70
     0
 41
2.5
 42
0.625
 43
3.75
 44
1.25
 73
     0
 74
     0
 77
     1
 78
     8
140
2.5
141
2.5
143
0.0393700787
147
0.625
171
     3
172
     1
178
     0
271
     2
272
     2
274
     3
278
    44
283
     0
284
     8
340
11
  0
DIMSTYLE
105
1D1
102
{ACAD_REACTORS
330
1D0
330
1F6
330
202
330
22E
102
}
330
A
100
AcDbSymbolTableRecord
100
AcDbDimStyleTableRecord
  2
SLDDIMSTYLE0
 70
     0
 41
3.0
 44
0.0
 45
0.000000001
 73
     0
 74
     0
 77
     3
 78
    12
 79
     3
140
3.5
147
0.875
172
     1
173
     1
178
     0
271
     1
272
     3
276
     2
284
    12
289
     0
340
4C
  0
DIMSTYLE
105
1DF
102
{ACAD_REACTORS
330
1DE
330
1E9
330
20E
330
21A
330
224
330
23B
102
}
330
A
100
AcDbSymbolTableRecord
100
AcDbDimStyleTableRecord
  2
SLDDIMSTYLE1
 70
     0
 41
3.0
 44
0.0
 45
0.000000001
 73
     0
 74
     0
 77
     3
 78
    12
 79
     3
140
3.5
147
0.875
173
     1
178
     0
271
     1
272
     3
276
     2
284
    12
340
4C
  0
ENDTAB
  0
TABLE
  2
BLOCK_RECORD
  5
1
330
0
100
AcDbSymbolTable
 70
    17
  0
BLOCK_RECORD
  5
1F
330
1
100
AcDbSymbolTableRecord
100
AcDbBlockTableRecord
  2
*Model_Space
340
22
  0
BLOCK_RECORD
  5
1B
330
1
100
AcDbSymbolTableRecord
100
AcDbBlockTableRecord
  2
*Paper_Space
340
1E
  0
BLOCK_RECORD
  5
23
330
1
100
AcDbSymbolTableRecord
100
AcDbBlockTableRecord
  2
*Paper_Space0
340
26
  0
BLOCK_RECORD
  5
1D2
330
1
100
AcDbSymbolTableRecord
100
AcDbBlockTableRecord
  2
_D
340
0
  0
BLOCK_RECORD
  5
1E0
330
1
100
AcDbSymbolTableRecord
100
AcDbBlockTableRecord
  2
_D_1
340
0
  0
BLOCK_RECORD
  5
1EA
330
1
100
AcDbSymbolTableRecord
100
AcDbBlockTableRecord
  2
_D_2
340
0
  0
BLOCK_RECORD
  5
1F7
330
1
100
AcDbSymbolTableRecord
100
AcDbBlockTableRecord
  2
_D_3
340
0
  0
BLOCK_RECORD
  5
203
330
1
100
AcDbSymbolTableRecord
100
AcDbBlockTableRecord
  2
_D_4
340
0
  0
BLOCK_RECORD
  5
20F
330
1
100
AcDbSymbolTableRecord
100
AcDbBlockTableRecord
  2
_D_5
340
0
  0
BLOCK_RECORD
  5
21B
330
1
100
AcDbSymbolTableRecord
100
AcDbBlockTableRecord
  2
_D_6
340
0
  0
BLOCK_RECORD
  5
225
330
1
100
AcDbSymbolTableRecord
100
AcDbBlockTableRecord
  2
_D_7
340
0
  0
BLOCK_RECORD
  5
22F
330
1
100
AcDbSymbolTableRecord
100
AcDbBlockTableRecord
  2
_D_8
340
0
  0
BLOCK_RECORD
  5
23C
330
1
100
AcDbSymbolTableRecord
100
AcDbBlockTableRecord
  2
_D_9
340
0
  0
BLOCK_RECORD
  5
247
330
1
100
AcDbSymbolTableRecord
100
AcDbBlockTableRecord
  2
SW_NOTE_0
340
0
102
{BLKREFS
331
251
102
}
  0
BLOCK_RECORD
  5
252
330
1
100
AcDbSymbolTableRecord
100
AcDbBlockTableRecord
  2
SW_NOTE_1
340
0
102
{BLKREFS
331
25C
102
}
  0
BLOCK_RECORD
  5
25D
330
1
100
AcDbSymbolTableRecord
100
AcDbBlockTableRecord
  2
SW_NOTE_2
340
0
102
{BLKREFS
331
267
102
}
  0
BLOCK_RECORD
  5
268
330
1
100
AcDbSymbolTableRecord
100
AcDbBlockTableRecord
  2
_OPEN30
340
0
102
{BLKREFS
331
26E
331
270
331
272
331
2FE
102
}
  0
BLOCK_RECORD
  5
2E7
330
1
100
AcDbSymbolTableRecord
100
AcDbBlockTableRecord
  2
SW_NOTE_3
340
0
102
{BLKREFS
331
2F1
102
}
  0
BLOCK_RECORD
  5
2F2
330
1
100
AcDbSymbolTableRecord
100
AcDbBlockTableRecord
  2
SW_CENTERMARKSYMBOL_0
340
0
102
{BLKREFS
331
2FD
102
}
  0
ENDTAB
  0
ENDSEC
  0
SECTION
  2
BLOCKS
  0
BLOCK
  5
20
330
1F
100
AcDbEntity
  8
0
100
AcDbBlockBegin
  2
*Model_Space
 70
     0
 10
0.0
 20
0.0
 30
0.0
  3
*Model_Space
  1

  0
ENDBLK
  5
21
330
1F
100
AcDbEntity
  8
0
100
AcDbBlockEnd
  0
BLOCK
  5
1C
330
1B
100
AcDbEntity
 67
     1
  8
0
100
AcDbBlockBegin
  2
*Paper_Space
 70
     0
 10
0.0
 20
0.0
 30
0.0
  3
*Paper_Space
  1

  0
ENDBLK
  5
1D
330
1B
100
AcDbEntity
 67
     1
  8
0
100
AcDbBlockEnd
  0
BLOCK
  5
24
330
23
100
AcDbEntity
  8
0
100
AcDbBlockBegin
  2
*Paper_Space0
 70
     0
 10
0.0
 20
0.0
 30
0.0
  3
*Paper_Space0
  1

  0
ENDBLK
  5
25
330
23
100
AcDbEntity
  8
0
100
AcDbBlockEnd
  0
BLOCK
  5
1D3
330
1D2
100
AcDbEntity
  8
0
100
AcDbBlockBegin
  2
_D
 70
     0
 10
0.0
 20
0.0
 30
0.0
  3
_D
  1

  0
SOLID
  5
1D5
330
1D2
100
AcDbEntity
  8
0
  6
Continuous
 62
     7
370
     0
100
AcDbTrace
 10
116.6030038633
 20
184.2923814433
 30
0.0
 11
119.6030038633
 21
183.5423814433
 31
0.0
 12
119.6030038633
 22
185.0423814433
 32
0.0
 13
119.6030038633
 23
185.0423814433
 33
0.0
  0
SOLID
  5
1D6
330
1D2
100
AcDbEntity
  8
0
  6
Continuous
 62
     7
370
     0
100
AcDbTrace
 10
105.6030038633
 20
184.2923814433
 30
0.0
 11
102.6030038633
 21
185.0423814433
 31
0.0
 12
102.6030038633
 22
183.5423814433
 32
0.0
 13
102.6030038633
 23
183.5423814433
 33
0.0
  0
LINE
  5
1D7
330
1D2
100
AcDbEntity
  8
0
  6
Continuous
 62
     7
370
     0
100
AcDbLine
 10
116.6030038633
 20
173.6802235166
 30
0.0
 11
116.6030038633
 21
185.2923814433
 31
0.0
  0
LINE
  5
1D8
330
1D2
100
AcDbEntity
  8
0
  6
Continuous
 62
     7
370
     0
100
AcDbLine
 10
105.6030038633
 20
173.6802235166
 30
0.0
 11
105.6030038633
 21
185.2923814433
 31
0.0
  0
LINE
  5
1D9
330
1D2
100
AcDbEntity
  8
0
  6
Continuous
 62
     7
370
     0
100
AcDbLine
 10
116.6030038633
 20
184.2923814433
 30
0.0
 11
121.6030038633
 21
184.2923814433
 31
0.0
  0
LINE
  5
1DA
330
1D2
100
AcDbEntity
  8
0
  6
Continuous
 62
     7
370
     0
100
AcDbLine
 10
116.6030038633
 20
184.2923814433
 30
0.0
 11
105.6030038633
 21
184.2923814433
 31
0.0
  0
LINE
  5
1DB
330
1D2
100
AcDbEntity
  8
0
  6
Continuous
 62
     7
370
     0
100
AcDbLine
 10
105.6030038633
 20
184.2923814433
 30
0.0
 11
100.6030038633
 21
184.2923814433
 31
0.0
  0
MTEXT
  5
1DC
330
1D2
100
AcDbEntity
  8
0
  6
Continuous
 62
     7
370
     0
100
AcDbMText
 10
106.1128303595
 20
188.8041187653
 30
0.1
 40
3.5
 41
0.0
 71
     1
 72
     1
  1
%%c
  7
SLDTEXTSTYLE0
 73
     1
 44
1.0
  0
MTEXT
  5
1DD
330
1D2
100
AcDbEntity
  8
0
  6
Continuous
 62
     7
370
     0
100
AcDbMText
 10
109.9827608746
 20
188.8041187653
 30
0.1
 40
3.5
 41
0.0
 71
     1
 72
     1
  1
11
  7
SLDTEXTSTYLE0
 73
     1
 44
1.0
  0
ENDBLK
  5
1D4
330
1D2
100
AcDbEntity
  8
0
100
AcDbBlockEnd
  0
BLOCK
  5
1E1
330
1E0
100
AcDbEntity
  8
0
100
AcDbBlockBegin
  2
_D_1
 70
     0
 10
0.0
 20
0.0
 30
0.0
  3
_D_1
  1

  0
SOLID
  5
1E3
330
1E0
100
AcDbEntity
  8
0
  6
Continuous
 62
     7
370
     0
100
AcDbTrace
 10
130.6988089848
 20
163.6802235166
 30
0.0
 11
131.4488089848
 21
166.6802235166
 31
0.0
 12
129.9488089848
 22
166.6802235166
 32
0.0
 13
129.9488089848
 23
166.6802235166
 33
0.0
  0
SOLID
  5
1E4
330
1E0
100
AcDbEntity
  8
0
  6
Continuous
 62
     7
370
     0
100
AcDbTrace
 10
130.6988089848
 20
172.6802235166
 30
0.0
 11
129.9488089848
 21
169.6802235166
 31
0.0
 12
131.4488089848
 22
169.6802235166
 32
0.0
 13
131.4488089848
 23
169.6802235166
 33
0.0
  0
LINE
  5
1E5
330
1E0
100
AcDbEntity
  8
0
  6
Continuous
 62
     7
370
     0
100
AcDbLine
 10
118.1030038633
 20
163.6802235166
 30
0.0
 11
131.6988089848
 21
163.6802235166
 31
0.0
  0
LINE
  5
1E6
330
1E0
100
AcDbEntity
  8
0
  6
Continuous
 62
     7
370
     0
100
AcDbLine
 10
117.6030038877
 20
172.6802235166
 30
0.0
 11
131.6988089848
 21
172.6802235166
 31
0.0
  0
LINE
  5
1E7
330
1E0
100
AcDbEntity
  8
0
  6
Continuous
 62
     7
370
     0
100
AcDbLine
 10
130.6988089848
 20
163.6802235166
 30
0.0
 11
130.6988089848
 21
172.6802235166
 31
0.0
  0
MTEXT
  5
1E8
330
1E0
100
AcDbEntity
  8
0
  6
Continuous
 62
     7
370
     0
100
AcDbMText
 10
126.1870721284
 20
166.1434180191
 30
0.1
 40
3.5
 41
0.0
 71
     1
 72
     1
  1
9
  7
SLDTEXTSTYLE0
 11
-1.037486409151910E-14
 21
1.0
 31
0.0
 73
     1
 44
1.0
  0
ENDBLK
  5
1E2
330
1E0
100
AcDbEntity
  8
0
100
AcDbBlockEnd
  0
BLOCK
  5
1EB
330
1EA
100
AcDbEntity
  8
0
100
AcDbBlockBegin
  2
_D_2
 70
     0
 10
0.0
 20
0.0
 30
0.0
  3
_D_2
  1

  0
SOLID
  5
1ED
330
1EA
100
AcDbEntity
  8
0
  6
Continuous
 62
     7
370
     0
100
AcDbTrace
 10
85.9321626748
 20
150.6802235166
 30
0.0
 11
86.6821626748
 21
153.6802235166
 31
0.0
 12
85.1821626748
 22
153.6802235166
 32
0.0
 13
85.1821626748
 23
153.6802235166
 33
0.0
  0
SOLID
  5
1EE
330
1EA
100
AcDbEntity
  8
0
  6
Continuous
 62
     7
370
     0
100
AcDbTrace
 10
85.9321626748
 20
130.6802235166
 30
0.0
 11
85.1821626748
 21
127.6802235166
 31
0.0
 12
86.6821626748
 22
127.6802235166
 32
0.0
 13
86.6821626748
 23
127.6802235166
 33
0.0
  0
LINE
  5
1EF
330
1EA
100
AcDbEntity
  8
0
  6
Continuous
 62
     7
370
     0
100
AcDbLine
 10
105.6030038633
 20
150.6802235166
 30
0.0
 11
84.9321626748
 21
150.6802235166
 31
0.0
  0
LINE
  5
1F0
330
1EA
100
AcDbEntity
  8
0
  6
Continuous
 62
     7
370
     0
100
AcDbLine
 10
106.1030038633
 20
130.6802235166
 30
0.0
 11
84.9321626748
 21
130.6802235166
 31
0.0
  0
LINE
  5
1F1
330
1EA
100
AcDbEntity
  8
0
  6
Continuous
 62
     7
370
     0
100
AcDbLine
 10
85.9321626748
 20
150.6802235166
 30
0.0
 11
85.9321626748
 21
155.6802235166
 31
0.0
  0
LINE
  5
1F2
330
1EA
100
AcDbEntity
  8
0
  6
Continuous
 62
     7
370
     0
100
AcDbLine
 10
85.9321626748
 20
150.6802235166
 30
0.0
 11
85.9321626748
 21
130.6802235166
 31
0.0
  0
LINE
  5
1F3
330
1EA
100
AcDbEntity
  8
0
  6
Continuous
 62
     7
370
     0
100
AcDbLine
 10
85.9321626748
 20
130.6802235166
 30
0.0
 11
85.9321626748
 21
125.6802235166
 31
0.0
  0
MTEXT
  5
1F4
330
1EA
100
AcDbEntity
  8
0
  6
Continuous
 62
     7
370
     0
100
AcDbMText
 10
81.4204258184
 20
135.5882098893
 30
0.1
 40
3.5
 41
0.0
 71
     1
 72
     1
  1
20
  7
SLDTEXTSTYLE0
 11
-1.770233605404514E-14
 21
1.0
 31
0.0
 73
     1
 44
1.0
  0
MTEXT
  5
1F5
330
1EA
100
AcDbEntity
  8
0
  6
Continuous
 62
     7
370
     0
100
AcDbMText
 10
81.4204258184
 20
141.6986266146
 30
0.1
 40
3.5
 41
0.0
 71
     1
 72
     1
  1
st
  7
SLDTEXTSTYLE0
 11
-1.770233605404514E-14
 21
1.0
 31
0.0
 73
     1
 44
1.0
  0
ENDBLK
  5
1EC
330
1EA
100
AcDbEntity
  8
0
100
AcDbBlockEnd
  0
BLOCK
  5
1F8
330
1F7
100
AcDbEntity
  8
0
100
AcDbBlockBegin
  2
_D_3
 70
     0
 10
0.0
 20
0.0
 30
0.0
  3
_D_3
  1

  0
SOLID
  5
1FA
330
1F7
100
AcDbEntity
  8
0
  6
Continuous
 62
     7
370
     0
100
AcDbTrace
 10
94.7218276015
 20
124.6802235166
 30
0.0
 11
93.9718276015
 21
121.6802235166
 31
0.0
 12
95.4718276015
 22
121.6802235166
 32
0.0
 13
95.4718276015
 23
121.6802235166
 33
0.0
  0
SOLID
  5
1FB
330
1F7
100
AcDbEntity
  8
0
  6
Continuous
 62
     7
370
     0
100
AcDbTrace
 10
94.7218276015
 20
127.6802235166
 30
0.0
 11
95.4718276015
 21
130.6802235166
 31
0.0
 12
93.9718276015
 22
130.6802235166
 32
0.0
 13
93.9718276015
 23
130.6802235166
 33
0.0
  0
LINE
  5
1FC
330
1F7
100
AcDbEntity
  8
0
  6
Continuous
 62
     7
370
     0
100
AcDbLine
 10
100.2880492871
 20
124.6802235166
 30
0.0
 11
93.7218276015
 21
124.6802235166
 31
0.0
  0
LINE
  5
1FD
330
1F7
100
AcDbEntity
  8
0
  6
Continuous
 62
     7
370
     0
100
AcDbLine
 10
100.2880492883
 20
127.6802235166
 30
0.0
 11
93.7218276015
 21
127.6802235166
 31
0.0
  0
LINE
  5
1FE
330
1F7
100
AcDbEntity
  8
0
  6
Continuous
 62
     7
370
     0
100
AcDbLine
 10
94.7218276015
 20
124.6802235166
 30
0.0
 11
94.7218276015
 21
117.2995017414
 31
0.0
  0
LINE
  5
1FF
330
1F7
100
AcDbEntity
  8
0
  6
Continuous
 62
     7
370
     0
100
AcDbLine
 10
94.7218276015
 20
124.6802235166
 30
0.0
 11
94.7218276015
 21
127.6802235166
 31
0.0
  0
LINE
  5
200
330
1F7
100
AcDbEntity
  8
0
  6
Continuous
 62
     7
370
     0
100
AcDbLine
 10
94.7218276015
 20
127.6802235166
 30
0.0
 11
94.7218276015
 21
132.6802235166
 31
0.0
  0
MTEXT
  5
201
330
1F7
100
AcDbEntity
  8
0
  6
Continuous
 62
     7
370
     0
100
AcDbMText
 10
90.2100907451
 20
117.2995017414
 30
0.1
 40
3.5
 41
0.0
 71
     1
 72
     1
  1
3
  7
SLDTEXTSTYLE0
 11
-9.042596461968916E-15
 21
1.0
 31
0.0
 73
     1
 44
1.0
  0
ENDBLK
  5
1F9
330
1F7
100
AcDbEntity
  8
0
100
AcDbBlockEnd
  0
BLOCK
  5
204
330
203
100
AcDbEntity
  8
0
100
AcDbBlockBegin
  2
_D_4
 70
     0
 10
0.0
 20
0.0
 30
0.0
  3
_D_4
  1

  0
SOLID
  5
206
330
203
100
AcDbEntity
  8
0
  6
Continuous
 62
     7
370
     0
100
AcDbTrace
 10
130.6988089848
 20
130.6802235166
 30
0.0
 11
131.4488089848
 21
133.6802235166
 31
0.0
 12
129.9488089848
 22
133.6802235166
 32
0.0
 13
129.9488089848
 23
133.6802235166
 33
0.0
  0
SOLID
  5
207
330
203
100
AcDbEntity
  8
0
  6
Continuous
 62
     7
370
     0
100
AcDbTrace
 10
130.6988089848
 20
124.6802235166
 30
0.0
 11
129.9488089848
 21
121.6802235166
 31
0.0
 12
131.4488089848
 22
121.6802235166
 32
0.0
 13
131.4488089848
 23
121.6802235166
 33
0.0
  0
LINE
  5
208
330
203
100
AcDbEntity
  8
0
  6
Continuous
 62
     7
370
     0
100
AcDbLine
 10
116.1030038633
 20
130.6802235166
 30
0.0
 11
131.6988089848
 21
130.6802235166
 31
0.0
  0
LINE
  5
209
330
203
100
AcDbEntity
  8
0
  6
Continuous
 62
     7
370
     0
100
AcDbLine
 10
121.9179584395
 20
124.6802235166
 30
0.0
 11
131.6988089848
 21
124.6802235166
 31
0.0
  0
LINE
  5
20A
330
203
100
AcDbEntity
  8
0
  6
Continuous
 62
     7
370
     0
100
AcDbLine
 10
130.6988089848
 20
130.6802235166
 30
0.0
 11
130.6988089848
 21
135.6802235166
 31
0.0
  0
LINE
  5
20B
330
203
100
AcDbEntity
  8
0
  6
Continuous
 62
     7
370
     0
100
AcDbLine
 10
130.6988089848
 20
130.6802235166
 30
0.0
 11
130.6988089848
 21
124.6802235166
 31
0.0
  0
LINE
  5
20C
330
203
100
AcDbEntity
  8
0
  6
Continuous
 62
     7
370
     0
100
AcDbLine
 10
130.6988089848
 20
124.6802235166
 30
0.0
 11
130.6988089848
 21
119.6802235166
 31
0.0
  0
MTEXT
  5
20D
330
203
100
AcDbEntity
  8
0
  6
Continuous
 62
     7
370
     0
100
AcDbMText
 10
126.1870721284
 20
125.6434180191
 30
0.1
 40
3.5
 41
0.0
 71
     1
 72
     1
  1
6
  7
SLDTEXTSTYLE0
 11
-1.770233605404514E-14
 21
1.0
 31
0.0
 73
     1
 44
1.0
  0
ENDBLK
  5
205
330
203
100
AcDbEntity
  8
0
100
AcDbBlockEnd
  0
BLOCK
  5
210
330
20F
100
AcDbEntity
  8
0
100
AcDbBlockBegin
  2
_D_5
 70
     0
 10
0.0
 20
0.0
 30
0.0
  3
_D_5
  1

  0
SOLID
  5
212
330
20F
100
AcDbEntity
  8
0
  6
Continuous
 62
     7
370
     0
100
AcDbTrace
 10
130.6988089848
 20
124.6802235166
 30
0.0
 11
131.4488089848
 21
127.6802235166
 31
0.0
 12
129.9488089848
 22
127.6802235166
 32
0.0
 13
129.9488089848
 23
127.6802235166
 33
0.0
  0
SOLID
  5
213
330
20F
100
AcDbEntity
  8
0
  6
Continuous
 62
     7
370
     0
100
AcDbTrace
 10
130.6988089848
 20
109.6802235166
 30
0.0
 11
129.9488089848
 21
106.6802235166
 31
0.0
 12
131.4488089848
 22
106.6802235166
 32
0.0
 13
131.4488089848
 23
106.6802235166
 33
0.0
  0
LINE
  5
214
330
20F
100
AcDbEntity
  8
0
  6
Continuous
 62
     7
370
     0
100
AcDbLine
 10
121.9179584395
 20
124.6802235166
 30
0.0
 11
131.6988089848
 21
124.6802235166
 31
0.0
  0
LINE
  5
215
330
20F
100
AcDbEntity
  8
0
  6
Continuous
 62
     7
370
     0
100
AcDbLine
 10
117.1030038633
 20
109.6802235166
 30
0.0
 11
131.6988089848
 21
109.6802235166
 31
0.0
  0
LINE
  5
216
330
20F
100
AcDbEntity
  8
0
  6
Continuous
 62
     7
370
     0
100
AcDbLine
 10
130.6988089848
 20
124.6802235166
 30
0.0
 11
130.6988089848
 21
129.6802235166
 31
0.0
  0
LINE
  5
217
330
20F
100
AcDbEntity
  8
0
  6
Continuous
 62
     7
370
     0
100
AcDbLine
 10
130.6988089848
 20
124.6802235166
 30
0.0
 11
130.6988089848
 21
109.6802235166
 31
0.0
  0
LINE
  5
218
330
20F
100
AcDbEntity
  8
0
  6
Continuous
 62
     7
370
     0
100
AcDbLine
 10
130.6988089848
 20
109.6802235166
 30
0.0
 11
130.6988089848
 21
104.6802235166
 31
0.0
  0
MTEXT
  5
219
330
20F
100
AcDbEntity
  8
0
  6
Continuous
 62
     7
370
     0
100
AcDbMText
 10
126.1870721284
 20
114.125015154
 30
0.1
 40
3.5
 41
0.0
 71
     1
 72
     1
  1
15
  7
SLDTEXTSTYLE0
 11
-1.770233605404514E-14
 21
1.0
 31
0.0
 73
     1
 44
1.0
  0
ENDBLK
  5
211
330
20F
100
AcDbEntity
  8
0
100
AcDbBlockEnd
  0
BLOCK
  5
21C
330
21B
100
AcDbEntity
  8
0
100
AcDbBlockBegin
  2
_D_6
 70
     0
 10
0.0
 20
0.0
 30
0.0
  3
_D_6
  1

  0
SOLID
  5
21E
330
21B
100
AcDbEntity
  8
0
  6
Continuous
 62
     7
370
     0
100
AcDbTrace
 10
139.3718336836
 20
124.6802235166
 30
0.0
 11
138.6218336836
 21
121.6802235166
 31
0.0
 12
140.1218336836
 22
121.6802235166
 32
0.0
 13
140.1218336836
 23
121.6802235166
 33
0.0
  0
SOLID
  5
21F
330
21B
100
AcDbEntity
  8
0
  6
Continuous
 62
     7
370
     0
100
AcDbTrace
 10
139.3718336836
 20
107.6802235166
 30
0.0
 11
140.1218336836
 21
110.6802235166
 31
0.0
 12
138.6218336836
 22
110.6802235166
 32
0.0
 13
138.6218336836
 23
110.6802235166
 33
0.0
  0
LINE
  5
220
330
21B
100
AcDbEntity
  8
0
  6
Continuous
 62
     7
370
     0
100
AcDbLine
 10
121.9179584395
 20
124.6802235166
 30
0.0
 11
140.3718336836
 21
124.6802235166
 31
0.0
  0
LINE
  5
221
330
21B
100
AcDbEntity
  8
0
  6
Continuous
 62
     7
370
     0
100
AcDbLine
 10
114.6030038633
 20
107.6802235166
 30
0.0
 11
140.3718336836
 21
107.6802235166
 31
0.0
  0
LINE
  5
222
330
21B
100
AcDbEntity
  8
0
  6
Continuous
 62
     7
370
     0
100
AcDbLine
 10
139.3718336836
 20
124.6802235166
 30
0.0
 11
139.3718336836
 21
107.6802235166
 31
0.0
  0
MTEXT
  5
223
330
21B
100
AcDbEntity
  8
0
  6
Continuous
 62
     7
370
     0
100
AcDbMText
 10
134.8600968272
 20
113.125015154
 30
0.1
 40
3.5
 41
0.0
 71
     1
 72
     1
  1
17
  7
SLDTEXTSTYLE0
 11
-1.592597921464489E-14
 21
1.0
 31
0.0
 73
     1
 44
1.0
  0
ENDBLK
  5
21D
330
21B
100
AcDbEntity
  8
0
100
AcDbBlockEnd
  0
BLOCK
  5
226
330
225
100
AcDbEntity
  8
0
100
AcDbBlockBegin
  2
_D_7
 70
     0
 10
0.0
 20
0.0
 30
0.0
  3
_D_7
  1

  0
SOLID
  5
228
330
225
100
AcDbEntity
  8
0
  6
Continuous
 62
     7
370
     0
100
AcDbTrace
 10
148.2311538534
 20
107.6802235166
 30
0.0
 11
148.9811538534
 21
110.6802235166
 31
0.0
 12
147.4811538534
 22
110.6802235166
 32
0.0
 13
147.4811538534
 23
110.6802235166
 33
0.0
  0
SOLID
  5
229
330
225
100
AcDbEntity
  8
0
  6
Continuous
 62
     7
370
     0
100
AcDbTrace
 10
148.2311538534
 20
172.6802235166
 30
0.0
 11
147.4811538534
 21
169.6802235166
 31
0.0
 12
148.9811538534
 22
169.6802235166
 32
0.0
 13
148.9811538534
 23
169.6802235166
 33
0.0
  0
LINE
  5
22A
330
225
100
AcDbEntity
  8
0
  6
Continuous
 62
     7
370
     0
100
AcDbLine
 10
114.6030038633
 20
107.6802235166
 30
0.0
 11
149.2311538534
 21
107.6802235166
 31
0.0
  0
LINE
  5
22B
330
225
100
AcDbEntity
  8
0
  6
Continuous
 62
     7
370
     0
100
AcDbLine
 10
117.6030038877
 20
172.6802235166
 30
0.0
 11
149.2311538534
 21
172.6802235166
 31
0.0
  0
LINE
  5
22C
330
225
100
AcDbEntity
  8
0
  6
Continuous
 62
     7
370
     0
100
AcDbLine
 10
148.2311538534
 20
107.6802235166
 30
0.0
 11
148.2311538534
 21
172.6802235166
 31
0.0
  0
MTEXT
  5
22D
330
225
100
AcDbEntity
  8
0
  6
Continuous
 62
     7
370
     0
100
AcDbMText
 10
143.719416997
 20
137.125015154
 30
0.1
 40
3.5
 41
0.0
 71
     1
 72
     1
  1
65
  7
SLDTEXTSTYLE0
 11
-1.037486409151910E-14
 21
1.0
 31
0.0
 73
     1
 44
1.0
  0
ENDBLK
  5
227
330
225
100
AcDbEntity
  8
0
100
AcDbBlockEnd
  0
BLOCK
  5
230
330
22F
100
AcDbEntity
  8
0
100
AcDbBlockBegin
  2
_D_8
 70
     0
 10
0.0
 20
0.0
 30
0.0
  3
_D_8
  1

  0
SOLID
  5
232
330
22F
100
AcDbEntity
  8
0
  6
Continuous
 62
     7
370
     0
100
AcDbTrace
 10
108.1030038633
 20
96.8155908625
 30
0.0
 11
105.1030038633
 21
97.5655908625
 31
0.0
 12
105.1030038633
 22
96.0655908625
 32
0.0
 13
105.1030038633
 23
96.0655908625
 33
0.0
  0
SOLID
  5
233
330
22F
100
AcDbEntity
  8
0
  6
Continuous
 62
     7
370
     0
100
AcDbTrace
 10
114.1030038633
 20
96.8155908625
 30
0.0
 11
117.1030038633
 21
96.0655908625
 31
0.0
 12
117.1030038633
 22
97.5655908625
 32
0.0
 13
117.1030038633
 23
97.5655908625
 33
0.0
  0
LINE
  5
234
330
22F
100
AcDbEntity
  8
0
  6
Continuous
 62
     7
370
     0
100
AcDbLine
 10
108.1030038633
 20
107.1802235166
 30
0.0
 11
108.1030038633
 21
95.8155908625
 31
0.0
  0
LINE
  5
235
330
22F
100
AcDbEntity
  8
0
  6
Continuous
 62
     7
370
     0
100
AcDbLine
 10
114.1030038633
 20
107.1802235166
 30
0.0
 11
114.1030038633
 21
95.8155908625
 31
0.0
  0
LINE
  5
236
330
22F
100
AcDbEntity
  8
0
  6
Continuous
 62
     7
370
     0
100
AcDbLine
 10
108.1030038633
 20
96.8155908625
 30
0.0
 11
103.1030038633
 21
96.8155908625
 31
0.0
  0
LINE
  5
237
330
22F
100
AcDbEntity
  8
0
  6
Continuous
 62
     7
370
     0
100
AcDbLine
 10
108.1030038633
 20
96.8155908625
 30
0.0
 11
114.1030038633
 21
96.8155908625
 31
0.0
  0
LINE
  5
238
330
22F
100
AcDbEntity
  8
0
  6
Continuous
 62
     7
370
     0
100
AcDbLine
 10
114.1030038633
 20
96.8155908625
 30
0.0
 11
128.5435566245
 21
96.8155908625
 31
0.0
  0
MTEXT
  5
239
330
22F
100
AcDbEntity
  8
0
  6
Continuous
 62
     7
370
     0
100
AcDbMText
 10
120.6000148817
 20
101.3273281845
 30
0.1
 40
3.5
 41
0.0
 71
     1
 72
     1
  1
%%c
  7
SLDTEXTSTYLE0
 73
     1
 44
1.0
  0
MTEXT
  5
23A
330
22F
100
AcDbEntity
  8
0
  6
Continuous
 62
     7
370
     0
100
AcDbMText
 10
124.4699453967
 20
101.3273281845
 30
0.1
 40
3.5
 41
0.0
 71
     1
 72
     1
  1
6
  7
SLDTEXTSTYLE0
 73
     1
 44
1.0
  0
ENDBLK
  5
231
330
22F
100
AcDbEntity
  8
0
100
AcDbBlockEnd
  0
BLOCK
  5
23D
330
23C
100
AcDbEntity
  8
0
100
AcDbBlockBegin
  2
_D_9
 70
     0
 10
0.0
 20
0.0
 30
0.0
  3
_D_9
  1

  0
SOLID
  5
23F
330
23C
100
AcDbEntity
  8
0
  6
Continuous
 62
     7
370
     0
100
AcDbTrace
 10
101.2880492873
 20
88.8027038511
 30
0.0
 11
98.2880492873
 21
89.5527038511
 31
0.0
 12
98.2880492873
 22
88.0527038511
 32
0.0
 13
98.2880492873
 23
88.0527038511
 33
0.0
  0
SOLID
  5
240
330
23C
100
AcDbEntity
  8
0
  6
Continuous
 62
     7
370
     0
100
AcDbTrace
 10
120.9179584393
 20
88.8027038511
 30
0.0
 11
123.9179584393
 21
88.0527038511
 31
0.0
 12
123.9179584393
 22
89.5527038511
 32
0.0
 13
123.9179584393
 23
89.5527038511
 33
0.0
  0
LINE
  5
241
330
23C
100
AcDbEntity
  8
0
  6
Continuous
 62
     7
370
     0
100
AcDbLine
 10
101.2880492873
 20
111.355059191
 30
0.0
 11
101.2880492873
 21
87.8027038511
 31
0.0
  0
LINE
  5
242
330
23C
100
AcDbEntity
  8
0
  6
Continuous
 62
     7
370
     0
100
AcDbLine
 10
120.9179584393
 20
111.355059191
 30
0.0
 11
120.9179584393
 21
87.8027038511
 31
0.0
  0
LINE
  5
243
330
23C
100
AcDbEntity
  8
0
  6
Continuous
 62
     7
370
     0
100
AcDbLine
 10
101.2880492873
 20
88.8027038511
 30
0.0
 11
96.2880492873
 21
88.8027038511
 31
0.0
  0
LINE
  5
244
330
23C
100
AcDbEntity
  8
0
  6
Continuous
 62
     7
370
     0
100
AcDbLine
 10
101.2880492873
 20
88.8027038511
 30
0.0
 11
120.9179584393
 21
88.8027038511
 31
0.0
  0
LINE
  5
245
330
23C
100
AcDbEntity
  8
0
  6
Continuous
 62
     7
370
     0
100
AcDbLine
 10
120.9179584393
 20
88.8027038511
 30
0.0
 11
125.9179584393
 21
88.8027038511
 31
0.0
  0
MTEXT
  5
246
330
23C
100
AcDbEntity
  8
0
  6
Continuous
 62
     7
370
     0
100
AcDbMText
 10
106.010990236
 20
93.3144407075
 30
0.1
 40
3.5
 41
0.0
 71
     1
 72
     1
  1
19.6
  7
SLDTEXTSTYLE0
 73
     1
 44
1.0
  0
ENDBLK
  5
23E
330
23C
100
AcDbEntity
  8
0
100
AcDbBlockEnd
  0
BLOCK
  5
248
330
247
100
AcDbEntity
  8
0
100
AcDbBlockBegin
  2
SW_NOTE_0
 70
     0
 10
0.0
 20
0.0
 30
0.0
  3
SW_NOTE_0
  1

  0
LINE
  5
24A
330
247
100
AcDbEntity
  8
0
  6
Continuous
 62
     0
370
     0
100
AcDbLine
 10
-0.0143166545
 20
-0.0923649512
 30
0.0
 11
4.0188980548
 21
-0.0923649512
 31
0.0
  0
LINE
  5
24B
330
247
100
AcDbEntity
  8
0
  6
Continuous
 62
     0
370
     0
100
AcDbLine
 10
4.0188980548
 20
-0.0923649512
 30
0.0
 11
-0.0143166545
 21
-0.0923649512
 31
0.0
  0
LINE
  5
24C
330
247
100
AcDbEntity
  8
0
  6
Continuous
 62
     0
370
     0
100
AcDbLine
 10
-0.0143166545
 20
-0.0923649512
 30
0.0
 11
4.0188980548
 21
-0.0923649512
 31
0.0
  0
LINE
  5
24D
330
247
100
AcDbEntity
  8
0
  6
Continuous
 62
     0
370
     0
100
AcDbLine
 10
4.0188980548
 20
-0.0923649512
 30
0.0
 11
-0.0143166545
 21
-0.0923649512
 31
0.0
  0
LINE
  5
24E
330
247
100
AcDbEntity
  8
0
  6
Continuous
 62
     0
370
     0
100
AcDbLine
 10
-0.0143166545
 20
-0.0923649512
 30
0.0
 11
4.0188980548
 21
-0.0923649512
 31
0.0
  0
LINE
  5
24F
330
247
100
AcDbEntity
  8
0
  6
Continuous
 62
     0
370
     0
100
AcDbLine
 10
4.0188980548
 20
-0.0923649512
 30
0.0
 11
-0.0143166545
 21
-0.0923649512
 31
0.0
  0
MTEXT
  5
250
330
247
100
AcDbEntity
  8
0
  6
Continuous
 62
     0
370
     0
100
AcDbMText
 10
0.0
 20
4.5117370892
 30
0.0
 40
3.5
 41
0.0
 71
     1
 72
     1
  1
PF
  7
SLDTEXTSTYLE0
 73
     1
 44
1.0
  0
ENDBLK
  5
249
330
247
100
AcDbEntity
  8
0
100
AcDbBlockEnd
  0
BLOCK
  5
253
330
252
100
AcDbEntity
  8
0
100
AcDbBlockBegin
  2
SW_NOTE_1
 70
     0
 10
0.0
 20
0.0
 30
0.0
  3
SW_NOTE_1
  1

  0
LINE
  5
255
330
252
100
AcDbEntity
  8
0
  6
Continuous
 62
     0
370
     0
100
AcDbLine
 10
-0.0350694068
 20
-0.0336860952
 30
0.0
 11
8.0313600119
 21
-0.0336860952
 31
0.0
  0
LINE
  5
256
330
252
100
AcDbEntity
  8
0
  6
Continuous
 62
     0
370
     0
100
AcDbLine
 10
8.0313600119
 20
-0.0336860952
 30
0.0
 11
-0.0350694068
 21
-0.0336860952
 31
0.0
  0
LINE
  5
257
330
252
100
AcDbEntity
  8
0
  6
Continuous
 62
     0
370
     0
100
AcDbLine
 10
-0.0350694068
 20
-0.0336860952
 30
0.0
 11
8.0313600119
 21
-0.0336860952
 31
0.0
  0
LINE
  5
258
330
252
100
AcDbEntity
  8
0
  6
Continuous
 62
     0
370
     0
100
AcDbLine
 10
8.0313600119
 20
-0.0336860952
 30
0.0
 11
-0.0350694068
 21
-0.0336860952
 31
0.0
  0
LINE
  5
259
330
252
100
AcDbEntity
  8
0
  6
Continuous
 62
     0
370
     0
100
AcDbLine
 10
-0.0350694068
 20
-0.0336860952
 30
0.0
 11
8.0313600119
 21
-0.0336860952
 31
0.0
  0
LINE
  5
25A
330
252
100
AcDbEntity
  8
0
  6
Continuous
 62
     0
370
     0
100
AcDbLine
 10
8.0313600119
 20
-0.0336860952
 30
0.0
 11
-0.0350694068
 21
-0.0336860952
 31
0.0
  0
MTEXT
  5
25B
330
252
100
AcDbEntity
  8
0
  6
Continuous
 62
     0
370
     0
100
AcDbMText
 10
0.0
 20
4.5117370892
 30
0.0
 40
3.5
 41
0.0
 71
     1
 72
     1
  1
BF-6
  7
SLDTEXTSTYLE0
 73
     1
 44
1.0
  0
ENDBLK
  5
254
330
252
100
AcDbEntity
  8
0
100
AcDbBlockEnd
  0
BLOCK
  5
25E
330
25D
100
AcDbEntity
  8
0
100
AcDbBlockBegin
  2
SW_NOTE_2
 70
     0
 10
0.0
 20
0.0
 30
0.0
  3
SW_NOTE_2
  1

  0
LINE
  5
260
330
25D
100
AcDbEntity
  8
0
  6
Continuous
 62
     0
370
     0
100
AcDbLine
 10
-0.0512213222
 20
-0.0561478527
 30
0.0
 11
18.216868832
 21
-0.0561478527
 31
0.0
  0
LINE
  5
261
330
25D
100
AcDbEntity
  8
0
  6
Continuous
 62
     0
370
     0
100
AcDbLine
 10
18.216868832
 20
-0.0561478527
 30
0.0
 11
-0.0512213222
 21
-0.0561478527
 31
0.0
  0
LINE
  5
262
330
25D
100
AcDbEntity
  8
0
  6
Continuous
 62
     0
370
     0
100
AcDbLine
 10
-0.0512213222
 20
-0.0561478527
 30
0.0
 11
18.216868832
 21
-0.0561478527
 31
0.0
  0
LINE
  5
263
330
25D
100
AcDbEntity
  8
0
  6
Continuous
 62
     0
370
     0
100
AcDbLine
 10
18.216868832
 20
-0.0561478527
 30
0.0
 11
-0.0512213222
 21
-0.0561478527
 31
0.0
  0
LINE
  5
264
330
25D
100
AcDbEntity
  8
0
  6
Continuous
 62
     0
370
     0
100
AcDbLine
 10
-0.0512213222
 20
-0.0561478527
 30
0.0
 11
18.216868832
 21
-0.0561478527
 31
0.0
  0
LINE
  5
265
330
25D
100
AcDbEntity
  8
0
  6
Continuous
 62
     0
370
     0
100
AcDbLine
 10
18.216868832
 20
-0.0561478527
 30
0.0
 11
-0.0512213222
 21
-0.0561478527
 31
0.0
  0
MTEXT
  5
266
330
25D
100
AcDbEntity
  8
0
  6
Continuous
 62
     0
370
     0
100
AcDbMText
 10
0.0
 20
4.5117370892
 30
0.0
 40
3.5
 41
0.0
 71
     1
 72
     1
  1
M12 P=1.0
  7
SLDTEXTSTYLE0
 73
     1
 44
1.0
  0
ENDBLK
  5
25F
330
25D
100
AcDbEntity
  8
0
100
AcDbBlockEnd
  0
BLOCK
  5
269
330
268
100
AcDbEntity
  8
0
100
AcDbBlockBegin
  2
_OPEN30
 70
     0
 10
0.0
 20
0.0
 30
0.0
  3
_OPEN30
  1

  0
LINE
  5
26B
330
268
100
AcDbEntity
  8
0
  6
ByBlock
 62
     0
370
    -2
100
AcDbLine
 10
-1.0
 20
0.267949
 30
0.0
 11
0.0
 21
0.0
 31
0.0
  0
LINE
  5
26C
330
268
100
AcDbEntity
  8
0
  6
ByBlock
 62
     0
370
    -2
100
AcDbLine
 10
0.0
 20
0.0
 30
0.0
 11
-1.0
 21
-0.267949
 31
0.0
  0
LINE
  5
26D
330
268
100
AcDbEntity
  8
0
  6
ByBlock
 62
     0
370
    -2
100
AcDbLine
 10
0.0
 20
0.0
 30
0.0
 11
-1.0
 21
0.0
 31
0.0
  0
ENDBLK
  5
26A
330
268
100
AcDbEntity
  8
0
100
AcDbBlockEnd
  0
BLOCK
  5
2E8
330
2E7
100
AcDbEntity
  8
0
100
AcDbBlockBegin
  2
SW_NOTE_3
 70
     0
 10
0.0
 20
0.0
 30
0.0
  3
SW_NOTE_3
  1

  0
LINE
  5
2EA
330
2E7
100
AcDbEntity
  8
0
  6
Continuous
 62
     0
370
     0
100
AcDbLine
 10
-0.0635382278
 20
-0.0008070619
 30
0.0
 11
3.9696764816
 21
-0.0008070619
 31
0.0
  0
LINE
  5
2EB
330
2E7
100
AcDbEntity
  8
0
  6
Continuous
 62
     0
370
     0
100
AcDbLine
 10
3.9696764816
 20
-0.0008070619
 30
0.0
 11
-0.0635382278
 21
-0.0008070619
 31
0.0
  0
LINE
  5
2EC
330
2E7
100
AcDbEntity
  8
0
  6
Continuous
 62
     0
370
     0
100
AcDbLine
 10
-0.0635382278
 20
-0.0008070619
 30
0.0
 11
3.9696764816
 21
-0.0008070619
 31
0.0
  0
LINE
  5
2ED
330
2E7
100
AcDbEntity
  8
0
  6
Continuous
 62
     0
370
     0
100
AcDbLine
 10
3.9696764816
 20
-0.0008070619
 30
0.0
 11
-0.0635382278
 21
-0.0008070619
 31
0.0
  0
LINE
  5
2EE
330
2E7
100
AcDbEntity
  8
0
  6
Continuous
 62
     0
370
     0
100
AcDbLine
 10
-0.0635382278
 20
-0.0008070619
 30
0.0
 11
3.9696764816
 21
-0.0008070619
 31
0.0
  0
LINE
  5
2EF
330
2E7
100
AcDbEntity
  8
0
  6
Continuous
 62
     0
370
     0
100
AcDbLine
 10
3.9696764816
 20
-0.0008070619
 30
0.0
 11
-0.0635382278
 21
-0.0008070619
 31
0.0
  0
MTEXT
  5
2F0
330
2E7
100
AcDbEntity
  8
0
  6
Continuous
 62
     0
370
     0
100
AcDbMText
 10
0.0
 20
4.5117370892
 30
0.0
 40
3.5
 41
0.0
 71
     1
 72
     1
  1
M5
  7
SLDTEXTSTYLE0
 73
     1
 44
1.0
  0
ENDBLK
  5
2E9
330
2E7
100
AcDbEntity
  8
0
100
AcDbBlockEnd
  0
BLOCK
  5
2F3
330
2F2
100
AcDbEntity
  8
0
100
AcDbBlockBegin
  2
SW_CENTERMARKSYMBOL_0
 70
     0
 10
0.0
 20
0.0
 30
0.0
  3
SW_CENTERMARKSYMBOL_0
  1

  0
LINE
  5
2F5
330
2F2
100
AcDbEntity
  8
0
  6
Continuous
 62
     0
370
     0
100
AcDbLine
 10
0.0
 20
0.0
 30
0.0
 11
0.0
 21
2.5
 31
0.0
  0
LINE
  5
2F6
330
2F2
100
AcDbEntity
  8
0
  6
Continuous
 62
     0
370
     0
100
AcDbLine
 10
0.0
 20
0.0
 30
0.0
 11
-2.5
 21
0.0
 31
0.0
  0
LINE
  5
2F7
330
2F2
100
AcDbEntity
  8
0
  6
Continuous
 62
     0
370
     0
100
AcDbLine
 10
0.0
 20
0.0
 30
0.0
 11
0.0
 21
-2.5
 31
0.0
  0
LINE
  5
2F8
330
2F2
100
AcDbEntity
  8
0
  6
Continuous
 62
     0
370
     0
100
AcDbLine
 10
0.0
 20
0.0
 30
0.0
 11
2.5
 21
0.0
 31
0.0
  0
LINE
  5
2F9
330
2F2
100
AcDbEntity
  8
0
  6
Continuous
 62
     0
370
     0
100
AcDbLine
 10
0.0
 20
5.0
 30
0.0
 11
0.0
 21
8.0
 31
0.0
  0
LINE
  5
2FA
330
2F2
100
AcDbEntity
  8
0
  6
Continuous
 62
     0
370
     0
100
AcDbLine
 10
-5.0
 20
0.0
 30
0.0
 11
-8.0
 21
0.0
 31
0.0
  0
LINE
  5
2FB
330
2F2
100
AcDbEntity
  8
0
  6
Continuous
 62
     0
370
     0
100
AcDbLine
 10
0.0
 20
-5.0
 30
0.0
 11
0.0
 21
-8.0
 31
0.0
  0
LINE
  5
2FC
330
2F2
100
AcDbEntity
  8
0
  6
Continuous
 62
     0
370
     0
100
AcDbLine
 10
5.0
 20
0.0
 30
0.0
 11
8.0
 21
0.0
 31
0.0
  0
ENDBLK
  5
2F4
330
2F2
100
AcDbEntity
  8
0
100
AcDbBlockEnd
  0
ENDSEC
  0
SECTION
  2
ENTITIES
  0
LINE
  5
44
330
1F
100
AcDbEntity
  8
0
  6
Continuous
 62
     7
370
     0
100
AcDbLine
 10
20.2604743903
 20
285.0
 30
0.0
 11
196.7604743903
 21
285.0
 31
0.0
  0
LINE
  5
45
330
1F
100
AcDbEntity
  8
0
  6
Continuous
 62
     7
370
     0
100
AcDbLine
 10
20.2604743903
 20
285.0
 30
0.0
 11
20.2604743903
 21
10.0
 31
0.0
  0
LINE
  5
46
330
1F
100
AcDbEntity
  8
0
  6
Continuous
 62
     7
370
     0
100
AcDbLine
 10
20.2604743903
 20
10.0
 30
0.0
 11
196.7604743903
 21
10.0
 31
0.0
  0
LINE
  5
47
330
1F
100
AcDbEntity
  8
0
  6
Continuous
 62
     7
370
     0
100
AcDbLine
 10
196.7604743903
 20
285.0
 30
0.0
 11
196.7604743903
 21
10.0
 31
0.0
  0
LINE
  5
48
330
1F
100
AcDbEntity
  8
0
  6
Continuous
 62
     7
370
     0
100
AcDbLine
 10
127.0104743903
 20
50.75
 30
0.0
 11
196.7604743903
 21
50.75
 31
0.0
  0
LINE
  5
49
330
1F
100
AcDbEntity
  8
0
  6
Continuous
 62
     7
370
     0
100
AcDbLine
 10
127.0104743903
 20
50.75
 30
0.0
 11
127.0104743903
 21
10.0
 31
0.0
  0
LINE
  5
4A
330
1F
100
AcDbEntity
  8
0
  6
Continuous
 62
     7
370
     0
100
AcDbLine
 10
127.0104743903
 20
22.75
 30
0.0
 11
196.7604743903
 21
22.75
 31
0.0
  0
LINE
  5
4B
330
1F
100
AcDbEntity
  8
0
  6
Continuous
 62
     7
370
     0
100
AcDbLine
 10
127.0104743903
 20
36.75
 30
0.0
 11
196.7604743903
 21
36.75
 31
0.0
  0
MTEXT
  5
4D
330
1F
100
AcDbEntity
  8
0
  6
Continuous
 62
     7
370
     0
100
AcDbMText
 10
161.8183451164
 20
30.4171582345
 30
0.0
 40
4.2333333333
 41
0.0
 71
     2
 72
     1
  1
VFIL-S-20A
  7
SLDTEXTSTYLE0
 73
     1
 44
1.0
  0
MTEXT
  5
4E
330
1F
100
AcDbEntity
  8
0
  6
Continuous
 62
     7
370
     0
100
AcDbMText
 10
159.9011939813
 20
43.9409718514
 30
0.0
 40
4.2333333333
 41
0.0
 71
     2
 72
     1
  1
吸着金具・スモール用(M5)
  7
SLDTEXTSTYLE0
 73
     1
 44
1.0
  0
MTEXT
  5
4F
330
1F
100
AcDbEntity
  8
0
  6
Continuous
 62
     7
370
     0
100
AcDbMText
 10
162.5976446815
 20
16.8228189052
 30
0.0
 40
4.2333333333
 41
0.0
 71
     2
 72
     1
  1
210976
  7
SLDTEXTSTYLE0
 73
     1
 44
1.0
  0
LINE
  5
50
330
1F
100
AcDbEntity
  8
0
  6
Continuous
 62
     7
370
     0
100
AcDbLine
 10
104.3030038633
 20
155.6802235166
 30
0.0
 11
105.1030038633
 21
155.6802235166
 31
0.0
  0
LINE
  5
51
330
1F
100
AcDbEntity
  8
0
  6
Continuous
 62
     7
370
     0
100
AcDbLine
 10
117.1030038633
 20
155.6802235166
 30
0.0
 11
117.9030038633
 21
155.6802235166
 31
0.0
  0
LINE
  5
52
330
1F
100
AcDbEntity
  8
0
  6
Continuous
 62
     7
370
     0
100
AcDbLine
 10
105.1030038633
 20
163.6802235166
 30
0.0
 11
104.3030038633
 21
163.6802235166
 31
0.0
  0
LINE
  5
53
330
1F
100
AcDbEntity
  8
0
  6
Continuous
 62
     7
370
     0
100
AcDbLine
 10
117.9030038633
 20
163.6802235166
 30
0.0
 11
117.1030038633
 21
163.6802235166
 31
0.0
  0
LINE
  5
54
330
1F
100
AcDbEntity
  8
0
  6
Continuous
 62
     7
370
     0
100
AcDbLine
 10
99.3030038633
 20
157.5802235166
 30
0.0
 11
101.8030038633
 21
157.5802235166
 31
0.0
  0
LINE
  5
55
330
1F
100
AcDbEntity
  8
0
  6
Continuous
 62
     7
370
     0
100
AcDbLine
 10
101.8030038633
 20
161.7802235166
 30
0.0
 11
99.3030038633
 21
161.7802235166
 31
0.0
  0
LINE
  5
56
330
1F
100
AcDbEntity
  8
0
  6
Continuous
 62
     7
370
     0
100
AcDbLine
 10
96.8030038633
 20
162.0302235166
 30
0.0
 11
94.3030038633
 21
161.6802235166
 31
0.0
  0
LINE
  5
57
330
1F
100
AcDbEntity
  8
0
  6
Continuous
 62
     7
370
     0
100
AcDbLine
 10
99.3030038633
 20
162.0302235166
 30
0.0
 11
96.8030038633
 21
161.6802235166
 31
0.0
  0
LINE
  5
58
330
1F
100
AcDbEntity
  8
0
  6
Continuous
 62
     7
370
     0
100
AcDbLine
 10
94.3030038633
 20
157.6802235166
 30
0.0
 11
96.8030038633
 21
157.3302235166
 31
0.0
  0
LINE
  5
59
330
1F
100
AcDbEntity
  8
0
  6
Continuous
 62
     7
370
     0
100
AcDbLine
 10
96.8030038633
 20
157.6802235166
 30
0.0
 11
99.3030038633
 21
157.3302235166
 31
0.0
  0
LINE
  5
5A
330
1F
100
AcDbEntity
  8
0
  6
Continuous
 62
     7
370
     0
100
AcDbLine
 10
114.8316414673
 20
108.9802235166
 30
0.0
 11
114.8316414673
 21
109.5802235166
 31
0.0
  0
SPLINE
  5
5B
330
1F
100
AcDbEntity
  8
0
  6
Continuous
 62
     7
370
     0
100
AcDbSpline
210
0.0
220
0.0
230
1.0
 70
     8
 71
     3
 72
    30
 73
    26
 74
     0
 42
0.00000001
 43
0.00000001
 12
1.0
 22
0.0
 32
0.0
 13
1.0
 23
0.0
 33
0.0
 40
0.0
 40
0.0
 40
0.0
 40
0.0
 40
0.0094059072044896
 40
0.0477742951469793
 40
0.0857446707463665
 40
0.1225142624929156
 40
0.1579517426050326
 40
0.1919475245002625
 40
0.2244246111612939
 40
0.2860355877242407
 40
0.3441658653613583
 40
0.3987460605488017
 40
0.453515309499599
 40
0.5164205581411372
 40
0.5877357982637286
 40
0.6589857267837178
 40
0.7232130172195776
 40
0.7812520864786927
 40
0.8389833716873047
 40
0.86826543771054
 40
0.9000686217902155
 40
0.9200449519842089
 40
0.9432823164938916
 40
0.9699431477282676
 40
1.0
 40
1.0
 40
1.0
 40
1.0
 10
116.131000442906
 20
139.6827242053597
 30
0.0
 10
116.1319236416148
 20
139.686986480257
 30
0.0
 10
116.136612733973
 20
139.7086353413943
 30
0.0
 10
116.0324370014584
 20
139.6500798258054
 30
0.0
 10
115.8470412293466
 20
139.5951691050704
 30
0.0
 10
115.5896398071267
 20
139.5228593392597
 30
0.0
 10
115.2799022821024
 20
139.4485914114036
 30
0.0
 10
114.9262226202771
 20
139.3723238527156
 30
0.0
 10
114.4176822625751
 20
139.2728383835467
 30
0.0
 10
113.7291885926136
 20
139.152666075143
 30
0.0
 10
112.8583793865418
 20
139.0150925315933
 30
0.0
 10
111.9672946521684
 20
138.8823842426111
 30
0.0
 10
111.0247427159966
 20
138.7459842903467
 30
0.0
 10
109.988564763612
 20
138.5962004276018
 30
0.0
 10
108.9018885629729
 20
138.4329920003841
 30
0.0
 10
107.8999665901269
 20
138.2687365798257
 30
0.0
 10
107.0758677790407
 20
138.1136022637849
 30
0.0
 10
106.4357384232536
 20
137.9684074274699
 30
0.0
 10
106.005186505346
 20
137.8432631684572
 30
0.0
 10
105.7157804571387
 20
137.732246067687
 30
0.0
 10
105.5410664296262
 20
137.6487444607069
 30
0.0
 10
105.3710276785035
 20
137.5338155355829
 30
0.0
 10
105.23908523621
 20
137.4020980235377
 30
0.0
 10
105.1271372848387
 20
137.2212064755699
 30
0.0
 10
105.112304829742
 20
137.0741541081258
 30
0.0
 10
105.1044445490657
 20
136.996225479676
 30
0.0
  0
SPLINE
  5
5C
330
1F
100
AcDbEntity
  8
0
  6
Continuous
 62
     7
370
     0
100
AcDbSpline
210
0.0
220
0.0
230
1.0
 70
     8
 71
     3
 72
    27
 73
    23
 74
     0
 42
0.00000001
 43
0.00000001
 12
1.0
 22
0.0
 32
0.0
 13
1.0
 23
0.0
 33
0.0
 40
0.0
 40
0.0
 40
0.0
 40
0.0
 40
0.0139156847535766
 40
0.0494770228463381
 40
0.0839569571902714
 40
0.1526733509179356
 40
0.2209113624601823
 40
0.2867719897125665
 40
0.3477009360697007
 40
0.4035829341868482
 40
0.4564079051317294
 40
0.5159776888012317
 40
0.5836266694105043
 40
0.6556821094081621
 40
0.7231978702102749
 40
0.7858144405875277
 40
0.8464329924795924
 40
0.8769601800904817
 40
0.9087658820357365
 40
0.9503562161102562
 40
0.975970083793588
 40
1.0
 40
1.0
 40
1.0
 40
1.0
 10
116.1279406054771
 20
134.6868796062658
 30
0.0
 10
116.1291203435327
 20
134.6925124620348
 30
0.0
 10
116.1333148857173
 20
134.712540002074
 30
0.0
 10
116.0250786524807
 20
134.654401310105
 30
0.0
 10
115.7754620790843
 20
134.5740087056322
 30
0.0
 10
115.3099526552192
 20
134.450633494829
 30
0.0
 10
114.5554625054589
 20
134.2965913214105
 30
0.0
 10
113.6788156875958
 20
134.143873658828
 30
0.0
 10
112.7673735789266
 20
134.0012431643657
 30
0.0
 10
111.8705551966706
 20
133.8683876846794
 30
0.0
 10
110.9585022124539
 20
133.7364554977929
 30
0.0
 10
109.9833584551747
 20
133.5951910814492
 30
0.0
 10
108.9399523696039
 20
133.4387822360645
 30
0.0
 10
107.9388523892528
 20
133.275816059888
 30
0.0
 10
107.0837355844402
 20
133.1153216363408
 30
0.0
 10
106.4122538162195
 20
132.9629214132055
 30
0.0
 10
105.970618572462
 20
132.8335036403537
 30
0.0
 10
105.6772981091422
 20
132.7151162710082
 30
0.0
 10
105.4674531356398
 20
132.609976302188
 30
0.0
 10
105.2586348002134
 20
132.4374289382665
 30
0.0
 10
105.1314919343229
 20
132.2283583926544
 30
0.0
 10
105.1172933812513
 20
132.0962756676907
 30
0.0
 10
105.1104206166506
 20
132.0323414434131
 30
0.0
  0
SPLINE
  5
5D
330
1F
100
AcDbEntity
  8
0
  6
Continuous
 62
     7
370
     0
100
AcDbSpline
210
0.0
220
0.0
230
1.0
 70
     8
 71
     3
 72
    18
 73
    14
 74
     0
 42
0.00000001
 43
0.00000001
 12
1.0
 22
0.0
 32
0.0
 13
1.0
 23
0.0
 33
0.0
 40
0.0
 40
0.0
 40
0.0
 40
0.0
 40
0.0031766904173596
 40
0.0721743472987607
 40
0.1329922761740638
 40
0.2550517169483105
 40
0.3798533107616253
 40
0.5069821527894534
 40
0.6469850943987051
 40
0.7261400466429764
 40
0.8113351189845062
 40
0.9025949954763578
 40
1.0
 40
1.0
 40
1.0
 40
1.0
 10
116.1349224832585
 20
129.6968806527269
 30
0.0
 10
116.1350882466344
 20
129.6976172680171
 30
0.0
 10
116.1388543874557
 20
129.714353153734
 30
0.0
 10
116.0986290536516
 20
129.6876197752659
 30
0.0
 10
115.9229203074979
 20
129.6222080451258
 30
0.0
 10
115.6130711732949
 20
129.5276462974761
 30
0.0
 10
115.0924280159577
 20
129.4048923503534
 30
0.0
 10
114.4076464330809
 20
129.2697934558541
 30
0.0
 10
113.7015062006295
 20
129.1489478466237
 30
0.0
 10
113.0327692935447
 20
129.0427776165223
 30
0.0
 10
112.4453823609105
 20
128.9533765880066
 30
0.0
 10
111.7951009974042
 20
128.8574694427316
 30
0.0
 10
111.3386587634839
 20
128.7913930602211
 30
0.0
 10
111.1030041062924
 20
128.7572787602904
 30
0.0
  0
SPLINE
  5
5E
330
1F
100
AcDbEntity
  8
0
  6
Continuous
 62
     7
370
     0
100
AcDbSpline
210
0.0
220
0.0
230
1.0
 70
     8
 71
     3
 72
    13
 73
     9
 74
     0
 42
0.00000001
 43
0.00000001
 12
1.0
 22
0.0
 32
0.0
 13
1.0
 23
0.0
 33
0.0
 40
0.0
 40
0.0
 40
0.0
 40
0.0
 40
0.1660706176915451
 40
0.3115382448724562
 40
0.4380412732396788
 40
0.5524375889786308
 40
0.7844482607600716
 40
0.9999999999999999
 40
0.9999999999999999
 40
0.9999999999999999
 40
0.9999999999999999
 10
117.1013609565073
 20
129.495724568926
 30
0.0
 10
117.081272562535
 20
129.6142612460298
 30
0.0
 10
117.0435879733679
 20
129.8366287475858
 30
0.0
 10
116.8129268087774
 20
130.0588274391609
 30
0.0
 10
116.5794034894838
 20
130.1935270865771
 30
0.0
 10
116.2954838343836
 20
130.3099836793291
 30
0.0
 10
115.8628013677529
 20
130.4469469605282
 30
0.0
 10
115.4075020887951
 20
130.5468760743198
 30
0.0
 10
115.1882241757325
 20
130.595003204186
 30
0.0
  0
SPLINE
  5
5F
330
1F
100
AcDbEntity
  8
0
  6
Continuous
 62
     7
370
     0
100
AcDbSpline
210
0.0
220
0.0
230
1.0
 70
     8
 71
     3
 72
     9
 73
     5
 74
     0
 42
0.00000001
 43
0.00000001
 12
1.0
 22
0.0
 32
0.0
 13
1.0
 23
0.0
 33
0.0
 40
0.0
 40
0.0
 40
0.0
 40
0.0
 40
0.7848968903573499
 40
1.0
 40
1.0
 40
1.0
 40
1.0
 10
114.7522746899689
 20
130.680223516626
 30
0.0
 10
114.5953380582476
 20
130.7115194195983
 30
0.0
 10
114.3953925193503
 20
130.751392049184
 30
0.0
 10
114.1547638404031
 20
130.7906179857193
 30
0.0
 10
114.1030038632924
 20
130.7990556066466
 30
0.0
  0
SPLINE
  5
60
330
1F
100
AcDbEntity
  8
0
  6
Continuous
 62
     7
370
     0
100
AcDbSpline
210
0.0
220
0.0
230
1.0
 70
     8
 71
     3
 72
    12
 73
     8
 74
     0
 42
0.00000001
 43
0.00000001
 12
1.0
 22
0.0
 32
0.0
 13
1.0
 23
0.0
 33
0.0
 40
0.0
 40
0.0
 40
0.0
 40
0.0
 40
0.0591628371077086
 40
0.369596394765624
 40
0.6657514113660182
 40
0.9475543439173204
 40
1.0
 40
1.0
 40
1.0
 40
1.0
 10
108.1030038632924
 20
131.7190153828575
 30
0.0
 10
108.0684298667364
 20
131.7248739627489
 30
0.0
 10
107.8524425154798
 20
131.7614731204663
 30
0.0
 10
107.5059451014219
 20
131.826602719467
 30
0.0
 10
107.0928277461589
 20
131.9114874332663
 30
0.0
 10
106.8132245797039
 20
131.9720365865921
 30
0.0
 10
106.7135180742073
 20
132.0011022496343
 30
0.0
 10
106.6978735112254
 20
132.0056628306497
 30
0.0
  0
SPLINE
  5
61
330
1F
100
AcDbEntity
  8
0
  6
Continuous
 62
     7
370
     0
100
AcDbSpline
210
0.0
220
0.0
230
1.0
 70
     8
 71
     3
 72
    17
 73
    13
 74
     0
 42
0.00000001
 43
0.00000001
 12
1.0
 22
0.0
 32
0.0
 13
1.0
 23
0.0
 33
0.0
 40
0.0
 40
0.0
 40
0.0
 40
0.0
 40
0.0840201982851994
 40
0.1578428232967622
 40
0.2493699331727053
 40
0.3194605067212396
 40
0.3766517557619459
 40
0.4340271401250943
 40
0.5897031206313977
 40
0.752191181910609
 40
0.9328290100482451
 40
1.0
 40
1.0
 40
1.0
 40
1.0
 10
117.1027112571753
 20
134.4953875256117
 30
0.0
 10
117.0949614621837
 20
134.5731019480649
 30
0.0
 10
117.080402468675
 20
134.7190985548482
 30
0.0
 10
116.9559828195928
 20
134.9216165861184
 30
0.0
 10
116.7853028237371
 20
135.0757793389127
 30
0.0
 10
116.60385848445
 20
135.1783148014902
 30
0.0
 10
116.4665169608678
 20
135.2403607608713
 30
0.0
 10
116.2325063537679
 20
135.3319807780519
 30
0.0
 10
115.8541469683816
 20
135.4470821126849
 30
0.0
 10
115.2329568071232
 20
135.5912066818181
 30
0.0
 10
114.6426429455119
 20
135.7084766318202
 30
0.0
 10
114.2180845460662
 20
135.778682892243
 30
0.0
 10
114.1030038632923
 20
135.7977129818491
 30
0.0
  0
SPLINE
  5
62
330
1F
100
AcDbEntity
  8
0
  6
Continuous
 62
     7
370
     0
100
AcDbSpline
210
0.0
220
0.0
230
1.0
 70
     8
 71
     3
 72
    10
 73
     6
 74
     0
 42
0.00000001
 43
0.00000001
 12
1.0
 22
0.0
 32
0.0
 13
1.0
 23
0.0
 33
0.0
 40
0.0
 40
0.0
 40
0.0
 40
0.0
 40
0.2128233236794368
 40
0.7456104272096438
 40
1.0
 40
1.0
 40
1.0
 40
1.0
 10
108.1030038632923
 20
136.7209202817228
 30
0.0
 10
107.9779478587697
 20
136.7422803652818
 30
0.0
 10
107.5398235998999
 20
136.8171138034234
 30
0.0
 10
107.0436148320944
 20
136.9181754229101
 30
0.0
 10
106.7858520577514
 20
136.9863756926715
 30
0.0
 10
106.7025516195919
 20
137.0084157733938
 30
0.0
  0
SPLINE
  5
63
330
1F
100
AcDbEntity
  8
0
  6
Continuous
 62
     7
370
     0
100
AcDbSpline
210
0.0
220
0.0
230
1.0
 70
     8
 71
     3
 72
    16
 73
    12
 74
     0
 42
0.00000001
 43
0.00000001
 12
1.0
 22
0.0
 32
0.0
 13
1.0
 23
0.0
 33
0.0
 40
0.0
 40
0.0
 40
0.0
 40
0.0
 40
0.123693350207032
 40
0.227582009487354
 40
0.3125247202199719
 40
0.3823120609231271
 40
0.5133114430340067
 40
0.6386585016622086
 40
0.7599527909200494
 40
0.889045540054683
 40
1.0
 40
1.0
 40
1.0
 40
1.0
 10
117.1016301368948
 20
139.4956133121494
 30
0.0
 10
117.0833929005846
 20
139.6089390754554
 30
0.0
 10
117.0498384137829
 20
139.8174458779366
 30
0.0
 10
116.8405370544264
 20
140.0356681764628
 30
0.0
 10
116.6299072194681
 20
140.1670074935545
 30
0.0
 10
116.4104203354973
 20
140.2664643840586
 30
0.0
 10
116.1057142986566
 20
140.3735217481026
 30
0.0
 10
115.6821922721981
 20
140.4878816122605
 30
0.0
 10
115.2014072128675
 20
140.5962272674364
 30
0.0
 10
114.681659021606
 20
140.699587625813
 30
0.0
 10
114.2859214282246
 20
140.767763742022
 30
0.0
 10
114.1030038632923
 20
140.7992760607202
 30
0.0
  0
SPLINE
  5
64
330
1F
100
AcDbEntity
  8
0
  6
Continuous
 62
     7
370
     0
100
AcDbSpline
210
0.0
220
0.0
230
1.0
 70
     8
 71
     3
 72
    10
 73
     6
 74
     0
 42
0.00000001
 43
0.00000001
 12
1.0
 22
0.0
 32
0.0
 13
1.0
 23
0.0
 33
0.0
 40
0.0
 40
0.0
 40
0.0
 40
0.0
 40
0.3054907810746902
 40
0.6949848877167647
 40
1.0
 40
1.0
 40
1.0
 40
1.0
 10
108.1030038632923
 20
141.7186088476312
 30
0.0
 10
107.9352050880571
 20
141.7483763348353
 30
0.0
 10
107.5534665211664
 20
141.8160967212882
 30
0.0
 10
107.0716806159914
 20
141.9126891063403
 30
0.0
 10
106.8108612722239
 20
141.9790728144231
 30
0.0
 10
106.6963144249582
 20
142.0082272642459
 30
0.0
  0
SPLINE
  5
65
330
1F
100
AcDbEntity
  8
0
  6
Continuous
 62
     7
370
     0
100
AcDbSpline
210
0.0
220
0.0
230
1.0
 70
     8
 71
     3
 72
    14
 73
    10
 74
     0
 42
0.00000001
 43
0.00000001
 12
1.0
 22
0.0
 32
0.0
 13
1.0
 23
0.0
 33
0.0
 40
0.0
 40
0.0
 40
0.0
 40
0.0
 40
0.1411786776870075
 40
0.313132970904867
 40
0.5066406136439574
 40
0.664538446130593
 40
0.7801213221975396
 40
0.8904307819256986
 40
1.0
 40
1.0
 40
1.0
 40
1.0
 10
105.1036356168262
 20
152.0178195846133
 30
0.0
 10
105.1178467226734
 20
151.9204971726909
 30
0.0
 10
105.1493668209396
 20
151.7046369841682
 30
0.0
 10
105.343549700938
 20
151.4955253160366
 30
0.0
 10
105.5895699118607
 20
151.3368312887313
 30
0.0
 10
105.8756969432876
 20
151.2180221416565
 30
0.0
 10
106.1217489400011
 20
151.1381707072608
 30
0.0
 10
106.345898680153
 20
151.0739675479055
 30
0.0
 10
106.5174947001378
 20
151.0319704740687
 30
0.0
 10
106.6030038632922
 20
151.0110426306429
 30
0.0
  0
SPLINE
  5
66
330
1F
100
AcDbEntity
  8
0
  6
Continuous
 62
     7
370
     0
100
AcDbSpline
210
0.0
220
0.0
230
1.0
 70
     8
 71
     3
 72
    12
 73
     8
 74
     0
 42
0.00000001
 43
0.00000001
 12
1.0
 22
0.0
 32
0.0
 13
1.0
 23
0.0
 33
0.0
 40
0.0
 40
0.0
 40
0.0
 40
0.0
 40
0.0727072830294101
 40
0.4146142385689892
 40
0.717694727001835
 40
0.9821998452370434
 40
1.0
 40
1.0
 40
1.0
 40
1.0
 10
114.1030038632922
 20
149.795437947762
 30
0.0
 10
114.1448472638896
 20
149.788370900109
 30
0.0
 10
114.3834598066081
 20
149.7480709678397
 30
0.0
 10
114.7472672285441
 20
149.6786293495739
 30
0.0
 10
115.1635185508586
 20
149.5914617901796
 30
0.0
 10
115.4072282651772
 20
149.5355905394042
 30
0.0
 10
115.5040714773939
 20
149.5093785242049
 30
0.0
 10
115.5101777188639
 20
149.5077257816888
 30
0.0
  0
SPLINE
  5
67
330
1F
100
AcDbEntity
  8
0
  6
Continuous
 62
     7
370
     0
100
AcDbSpline
210
0.0
220
0.0
230
1.0
 70
     8
 71
     3
 72
    18
 73
    14
 74
     0
 42
0.00000001
 43
0.00000001
 12
1.0
 22
0.0
 32
0.0
 13
1.0
 23
0.0
 33
0.0
 40
0.0
 40
0.0
 40
0.0
 40
0.0
 40
0.0979980393836783
 40
0.2245428177644765
 40
0.3237464040239805
 40
0.4138351180418548
 40
0.4866413205882492
 40
0.565419349534329
 40
0.6373521357575828
 40
0.7200019325957528
 40
0.8132969852829404
 40
0.9171583126676732
 40
1.0
 40
1.0
 40
1.0
 40
1.0
 10
105.1040087406158
 20
147.0195478831648
 30
0.0
 10
105.1192533324892
 20
146.9198986292614
 30
0.0
 10
105.1541832518677
 20
146.6915723851824
 30
0.0
 10
105.3428534617992
 20
146.5020778277657
 30
0.0
 10
105.5664547152018
 20
146.354280628497
 30
0.0
 10
105.7990738743622
 20
146.2484914878007
 30
0.0
 10
106.0452706763939
 20
146.160966211717
 30
0.0
 10
106.2832004466182
 20
146.0912515004421
 30
0.0
 10
106.5433479719349
 20
146.0239841773033
 30
0.0
 10
106.8527096145156
 20
145.952097831552
 30
0.0
 10
107.2373110407333
 20
145.8719169531796
 30
0.0
 10
107.6553994953341
 20
145.7919145177802
 30
0.0
 10
107.9654374380684
 20
145.7388048705452
 30
0.0
 10
108.1030038632922
 20
145.7152396763933
 30
0.0
  0
SPLINE
  5
68
330
1F
100
AcDbEntity
  8
0
  6
Continuous
 62
     7
370
     0
100
AcDbSpline
210
0.0
220
0.0
230
1.0
 70
     8
 71
     3
 72
    11
 73
     7
 74
     0
 42
0.00000001
 43
0.00000001
 12
1.0
 22
0.0
 32
0.0
 13
1.0
 23
0.0
 33
0.0
 40
0.0
 40
0.0
 40
0.0
 40
0.0
 40
0.1349322199119669
 40
0.459690649528525
 40
0.7562022864110017
 40
1.0
 40
1.0
 40
1.0
 40
1.0
 10
114.1030038632923
 20
144.7950883917139
 30
0.0
 10
114.1800786587683
 20
144.7818719169564
 30
0.0
 10
114.4426591070688
 20
144.7368456817869
 30
0.0
 10
114.8210085763372
 20
144.6634688730462
 30
0.0
 10
115.2188802222243
 20
144.5801671927326
 30
0.0
 10
115.4236077005802
 20
144.5294069175677
 30
0.0
 10
115.5159845789157
 20
144.5065029292958
 30
0.0
  0
SPLINE
  5
69
330
1F
100
AcDbEntity
  8
0
  6
Continuous
 62
     7
370
     0
100
AcDbSpline
210
0.0
220
0.0
230
1.0
 70
     8
 71
     3
 72
    18
 73
    14
 74
     0
 42
0.00000001
 43
0.00000001
 12
1.0
 22
0.0
 32
0.0
 13
1.0
 23
0.0
 33
0.0
 40
0.0
 40
0.0
 40
0.0
 40
0.0
 40
0.0079019871314352
 40
0.0156965517838927
 40
0.0239159463938025
 40
0.0330163101907828
 40
0.0550546670080511
 40
0.0834786759821369
 40
0.1618036737324253
 40
0.2701894207148803
 40
0.4615967943200512
 40
0.7055152784723729
 40
1.0
 40
1.0
 40
1.0
 40
1.0
 10
105.104369444358
 20
142.0103074524177
 30
0.0
 10
105.1042989660133
 20
142.0044563838977
 30
0.0
 10
105.104158967432
 20
141.9928337884052
 30
0.0
 10
105.1049518883949
 20
141.9735590682145
 30
0.0
 10
105.1064822744196
 20
141.9539225529396
 30
0.0
 10
105.109770280769
 20
141.9253482184131
 30
0.0
 10
105.1161236465078
 20
141.8885512556413
 30
0.0
 10
105.1316751776676
 20
141.8240615038221
 30
0.0
 10
105.1617235034823
 20
141.7429770359727
 30
0.0
 10
105.2241236023774
 20
141.6304781652486
 30
0.0
 10
105.3378506021383
 20
141.5032827379278
 30
0.0
 10
105.5333399653715
 20
141.3638945841214
 30
0.0
 10
105.7287185487555
 20
141.2814763530307
 30
0.0
 10
105.8355827113632
 20
141.2363969226419
 30
0.0
  0
SPLINE
  5
6A
330
1F
100
AcDbEntity
  8
0
  6
Continuous
 62
     7
370
     0
100
AcDbSpline
210
0.0
220
0.0
230
1.0
 70
     8
 71
     3
 72
    32
 73
    28
 74
     0
 42
0.00000001
 43
0.00000001
 12
1.0
 22
0.0
 32
0.0
 13
1.0
 23
0.0
 33
0.0
 40
0.0
 40
0.0
 40
0.0
 40
0.0
 40
0.0262547240379081
 40
0.0562747230369836
 40
0.0894198895347052
 40
0.1266101620502054
 40
0.1678664717821702
 40
0.2131713682567226
 40
0.2624181289264684
 40
0.3096728671622833
 40
0.351312251308804
 40
0.387262511398693
 40
0.4174799323652333
 40
0.4447091858102213
 40
0.4791918885031639
 40
0.5219320984076088
 40
0.572966045439141
 40
0.6314625700883043
 40
0.6869643328505033
 40
0.7363532340759138
 40
0.7925843204261491
 40
0.8378078036225767
 40
0.873511788327249
 40
0.9152235016866791
 40
0.9426813079313638
 40
0.9666189781662451
 40
1.0
 40
1.0
 40
1.0
 40
1.0
 10
106.0456753674167
 20
141.7962163839005
 30
0.0
 10
106.0523364378422
 20
141.798185292218
 30
0.0
 10
106.0666138643651
 20
141.8024054763681
 30
0.0
 10
106.1864332582714
 20
141.8567966546031
 30
0.0
 10
106.3919175420851
 20
141.9264039251244
 30
0.0
 10
106.6835168755521
 20
142.0076887868523
 30
0.0
 10
107.0815215333961
 20
142.1012653415063
 30
0.0
 10
107.5967922758766
 20
142.2061617703237
 30
0.0
 10
108.2144625613068
 20
142.3172813822865
 30
0.0
 10
108.876978906864
 20
142.4257993307241
 30
0.0
 10
109.5132222176836
 20
142.5240084908031
 30
0.0
 10
110.0833161694654
 20
142.6089667213958
 30
0.0
 10
110.5873839092854
 20
142.6826722354171
 30
0.0
 10
111.0882143381273
 20
142.7552448437638
 30
0.0
 10
111.6585220337899
 20
142.8377004442901
 30
0.0
 10
112.3528836212115
 20
142.9390159505117
 30
0.0
 10
113.1550614139676
 20
143.0595368033686
 30
0.0
 10
113.973905229518
 20
143.1904750892776
 30
0.0
 10
114.7103719178899
 20
143.3207466192829
 30
0.0
 10
115.3563610229772
 20
143.4507126176537
 30
0.0
 10
115.8752949914058
 20
143.5752874886637
 30
0.0
 10
116.2638438333037
 20
143.6943232459702
 30
0.0
 10
116.5562839327569
 20
143.8104207221655
 30
0.0
 10
116.7594258687491
 20
143.9227879196912
 30
0.0
 10
116.904276327082
 20
144.0389911554903
 30
0.0
 10
117.0616334830583
 20
144.2310636723533
 30
0.0
 10
117.0876848056519
 20
144.4133796918393
 30
0.0
 10
117.1028564667088
 20
144.5195561380816
 30
0.0
  0
SPLINE
  5
6B
330
1F
100
AcDbEntity
  8
0
  6
Continuous
 62
     7
370
     0
100
AcDbSpline
210
0.0
220
0.0
230
1.0
 70
     8
 71
     3
 72
    36
 73
    32
 74
     0
 42
0.00000001
 43
0.00000001
 12
1.0
 22
0.0
 32
0.0
 13
1.0
 23
0.0
 33
0.0
 40
0.0
 40
0.0
 40
0.0
 40
0.0
 40
0.0005699862090483
 40
0.0304434312683013
 40
0.0572737265228393
 40
0.0808815086397568
 40
0.1056845637948367
 40
0.1345802724302534
 40
0.1675872909839139
 40
0.2047380376960694
 40
0.2460651004336513
 40
0.2907425670626744
 40
0.3321042803310709
 40
0.3797862523692082
 40
0.4189172535878122
 40
0.4494258224992311
 40
0.4798676250024845
 40
0.5176597408385061
 40
0.5628478884503169
 40
0.6016609405716735
 40
0.6443575158659676
 40
0.6852622001931081
 40
0.7223840851536155
 40
0.7557252183180864
 40
0.7852747956892253
 40
0.8110084088834805
 40
0.8385981602908623
 40
0.8777499392703138
 40
0.9265534436446763
 40
0.9691794614408985
 40
1.0
 40
1.0
 40
1.0
 40
1.0
 10
106.0433665682715
 20
146.7990113597695
 30
0.0
 10
106.0432040887135
 20
146.7986766068472
 30
0.0
 10
106.0345259221569
 20
146.780797178506
 30
0.0
 10
106.072576570319
 20
146.8108238281734
 30
0.0
 10
106.1459458945722
 20
146.8372096400777
 30
0.0
 10
106.2785203496363
 20
146.8879829489452
 30
0.0
 10
106.4560695382201
 20
146.9440431001412
 30
0.0
 10
106.6915479058979
 20
147.0088100795836
 30
0.0
 10
107.0082166054004
 20
147.0845477205682
 30
0.0
 10
107.4192626702148
 20
147.1709923741861
 30
0.0
 10
107.9315724020248
 20
147.2673390526406
 30
0.0
 10
108.5170845130818
 20
147.367589848618
 30
0.0
 10
109.1777424897492
 20
147.4730323402054
 30
0.0
 10
109.8477444072305
 20
147.5743947066331
 30
0.0
 10
110.4807024538804
 20
147.6672007743302
 30
0.0
 10
111.0274754974308
 20
147.746409248727
 30
0.0
 10
111.5682603163995
 20
147.8245729649033
 30
0.0
 10
112.185899633
 20
147.914461989016
 30
0.0
 10
112.8350494672548
 20
148.0111492870782
 30
0.0
 10
113.4837587794476
 20
148.1117440512311
 30
0.0
 10
114.077992542476
 20
148.2090386661551
 30
0.0
 10
114.622684577554
 20
148.305255140984
 30
0.0
 10
115.0827513182433
 20
148.394484831664
 30
0.0
 10
115.4562223633302
 20
148.474983964205
 30
0.0
 10
115.7558176432195
 20
148.5472639071868
 30
0.0
 10
116.0045776914504
 20
148.6145307926736
 30
0.0
 10
116.2692260716931
 20
148.6960701525202
 30
0.0
 10
116.5837575965193
 20
148.8192439648421
 30
0.0
 10
116.8501527141227
 20
148.9853761112831
 30
0.0
 10
117.0497166096531
 20
149.1914547486038
 30
0.0
 10
117.0822550466548
 20
149.404535372175
 30
0.0
 10
117.0959092219086
 20
149.4939508587665
 30
0.0
  0
SPLINE
  5
6C
330
1F
100
AcDbEntity
  8
0
  6
Continuous
 62
     7
370
     0
100
AcDbSpline
210
0.0
220
0.0
230
1.0
 70
     8
 71
     3
 72
    36
 73
    32
 74
     0
 42
0.00000001
 43
0.00000001
 12
1.0
 22
0.0
 32
0.0
 13
1.0
 23
0.0
 33
0.0
 40
0.0
 40
0.0
 40
0.0
 40
0.0
 40
0.0108421488944131
 40
0.0515147225230773
 40
0.0819329579233016
 40
0.1064185986165258
 40
0.1344444368583187
 40
0.1662923306809475
 40
0.2019733899900856
 40
0.2414868762560442
 40
0.2840423475779401
 40
0.3236220423752031
 40
0.3589442676242851
 40
0.3993308908951455
 40
0.4320012898682414
 40
0.4590163809168331
 40
0.4919967157412547
 40
0.5327715085073883
 40
0.5813821564305414
 40
0.6230184567573557
 40
0.6675130133802807
 40
0.7086911529628728
 40
0.7459094666723175
 40
0.779134457141292
 40
0.8083425753843422
 40
0.8335189822642715
 40
0.8592708596827364
 40
0.8935782633998401
 40
0.9352697198569055
 40
0.9736008893753497
 40
1.0
 40
1.0
 40
1.0
 40
1.0
 10
106.0670239610246
 20
151.8207509710364
 30
0.0
 10
106.0657625380916
 20
151.8162510101923
 30
0.0
 10
106.059769090389
 20
151.794870171716
 30
0.0
 10
106.1358584128159
 20
151.8380016596773
 30
0.0
 10
106.2742301449104
 20
151.8862410731984
 30
0.0
 10
106.4748814042151
 20
151.9499000309489
 30
0.0
 10
106.7067514174414
 20
152.0122091896826
 30
0.0
 10
107.0140604538601
 20
152.0853695717628
 30
0.0
 10
107.4053659964122
 20
152.1678793084457
 30
0.0
 10
107.8884553330463
 20
152.2595453656874
 30
0.0
 10
108.4396353361063
 20
152.3547818300253
 30
0.0
 10
109.0118065084004
 20
152.4468230943444
 30
0.0
 10
109.6008282019301
 20
152.5372462449408
 30
0.0
 10
110.1743953058312
 20
152.622398821353
 30
0.0
 10
110.7145984352427
 20
152.7011191244042
 30
0.0
 10
111.2185183640983
 20
152.7740558667218
 30
0.0
 10
111.76649193554
 20
152.8533813607783
 30
0.0
 10
112.4250224057069
 20
152.9497546187646
 30
0.0
 10
113.1106478811128
 20
153.0531077079917
 30
0.0
 10
113.7817744208454
 20
153.1595642979234
 30
0.0
 10
114.3746419166113
 20
153.2603464754854
 30
0.0
 10
114.8994068909927
 20
153.3579604608924
 30
0.0
 10
115.3317938991085
 20
153.4471804520772
 30
0.0
 10
115.6784917250452
 20
153.5274435622146
 30
0.0
 10
115.9520074037879
 20
153.5993004128828
 30
0.0
 10
116.1717873935778
 20
153.6651196163198
 30
0.0
 10
116.3931754597818
 20
153.7417971227445
 30
0.0
 10
116.6496618615137
 20
153.8547536581303
 30
0.0
 10
116.8729527257831
 20
154.007442328577
 30
0.0
 10
117.050098118517
 20
154.1994222086873
 30
0.0
 10
117.0786292182228
 20
154.3867255432741
 30
0.0
 10
117.0902651273477
 20
154.4631139265654
 30
0.0
  0
LWPOLYLINE
  5
6D
330
1F
100
AcDbEntity
  8
0
  6
Continuous
 62
     7
370
     0
100
AcDbPolyline
 90
       31
 70
   128
 43
0.0
 10
116.1460221694
 20
154.7008508416
 10
116.1484756787
 20
154.710092186
 10
116.0751057267
 20
154.6830048256
 10
115.9535612906
 20
154.6371519044
 10
115.8000954662
 20
154.5868231375
 10
115.5862350857
 20
154.5262069859
 10
115.2990295946
 20
154.4551752635
 10
114.9265555035
 20
154.3738450782
 10
114.4578523342
 20
154.2823292904
 10
113.8846271754
 20
154.1808740773
 10
113.2765919713
 20
154.0814727394
 10
112.697873306
 20
153.9918983869
 10
112.0006988718
 20
153.8879745828
 10
111.4113472892
 20
153.8020091938
 10
110.9430599508
 20
153.7341841142
 10
110.4673265398
 20
153.6651755674
 10
109.8708716114
 20
153.5777129237
 10
109.1664825031
 20
153.4716028572
 10
108.5820414767
 20
153.3796357157
 10
107.9728958165
 20
153.2777449288
 10
107.4330068744
 20
153.1795744846
 10
106.9861270478
 20
153.0899407778
 10
106.6233854681
 20
153.0087784562
 10
106.3346809558
 20
152.9360204399
 10
106.1093790949
 20
152.8715981514
 10
105.8898780997
 20
152.798428677
 10
105.6143555927
 20
152.6800637052
 10
105.3422659609
 20
152.5003692198
 10
105.1651493574
 20
152.2708306755
 10
105.1036352912
 20
151.9946964235
 10
105.1036352912
 20
151.9946964235
  0
SPLINE
  5
6E
330
1F
100
AcDbEntity
  8
0
  6
Continuous
 62
     7
370
     0
100
AcDbSpline
210
0.0
220
0.0
230
1.0
 70
     8
 71
     3
 72
    35
 73
    31
 74
     0
 42
0.00000001
 43
0.00000001
 12
1.0
 22
0.0
 32
0.0
 13
1.0
 23
0.0
 33
0.0
 40
0.0
 40
0.0
 40
0.0
 40
0.0
 40
0.0164193181744815
 40
0.0614936321756656
 40
0.0936330783088009
 40
0.1184024647704613
 40
0.1467899859565457
 40
0.1790247080202801
 40
0.2151227975093119
 40
0.2551199894040337
 40
0.2979827890449243
 40
0.3376770284846055
 40
0.3732097965686839
 40
0.4140729988722204
 40
0.4474764356976198
 40
0.4763359002992841
 40
0.5127478004534634
 40
0.5580371314845146
 40
0.6122781987511137
 40
0.6582002205392946
 40
0.7015101051262986
 40
0.7404385419774263
 40
0.7749730160291957
 40
0.8141620273995428
 40
0.8456929904542658
 40
0.8789012252915159
 40
0.9084418051896594
 40
0.9415232936081518
 40
0.9738525687339906
 40
1.0
 40
1.0
 40
1.0
 40
1.0
 10
116.130613541913
 20
149.6849848550682
 30
0.0
 10
116.1314695510724
 20
149.6906232295188
 30
0.0
 10
116.1346754766674
 20
149.7117400701117
 30
0.0
 10
116.0301233989233
 20
149.6603407600038
 30
0.0
 10
115.8601599685478
 20
149.6049532157568
 30
0.0
 10
115.6366150756338
 20
149.538601228576
 30
0.0
 10
115.3863644024453
 20
149.4746566116434
 30
0.0
 10
115.0586313505446
 20
149.3999733038215
 30
0.0
 10
114.643841983477
 20
149.3159017768327
 30
0.0
 10
114.1358574705616
 20
149.2229102893873
 30
0.0
 10
113.5641596238716
 20
149.1267857707795
 30
0.0
 10
112.9767827825164
 20
149.0340402206525
 30
0.0
 10
112.3739486334301
 20
148.9427150733338
 30
0.0
 10
111.7856476817388
 20
148.856189746277
 30
0.0
 10
111.2249992710895
 20
148.7749263427321
 30
0.0
 10
110.687100422249
 20
148.6971856418006
 30
0.0
 10
110.0872482668283
 20
148.6100194002024
 30
0.0
 10
109.3632055180103
 20
148.5026389103703
 30
0.0
 10
108.6221977074993
 20
148.3874400371439
 30
0.0
 10
107.9422252611047
 20
148.2737904929109
 30
0.0
 10
107.383645120987
 20
148.17187240767
 30
0.0
 10
106.9226654311644
 20
148.0783223690927
 30
0.0
 10
106.5256455863321
 20
147.987401485267
 30
0.0
 10
106.199387919481
 20
147.9004400814597
 30
0.0
 10
105.9271998768755
 20
147.8145176315995
 30
0.0
 10
105.6897334155261
 20
147.7224298821501
 30
0.0
 10
105.4706621038041
 20
147.6077092739941
 30
0.0
 10
105.2987103226742
 20
147.4743620477902
 30
0.0
 10
105.1483492064233
 20
147.2928318894797
 30
0.0
 10
105.1238441810533
 20
147.1170893421642
 30
0.0
 10
105.112886938314
 20
147.0385073484101
 30
0.0
  0
SPLINE
  5
6F
330
1F
100
AcDbEntity
  8
0
  6
Continuous
 62
     7
370
     0
100
AcDbSpline
210
0.0
220
0.0
230
1.0
 70
     8
 71
     3
 72
    28
 73
    24
 74
     0
 42
0.00000001
 43
0.00000001
 12
1.0
 22
0.0
 32
0.0
 13
1.0
 23
0.0
 33
0.0
 40
0.0
 40
0.0
 40
0.0
 40
0.0
 40
0.0062103387188985
 40
0.0510682223661623
 40
0.096813422163398
 40
0.1401184672376695
 40
0.1807440071802036
 40
0.2184764004305065
 40
0.2540574267671336
 40
0.3200970112686214
 40
0.3793984058986931
 40
0.4368460368686669
 40
0.4994975857006951
 40
0.5675032802863267
 40
0.6348840516081289
 40
0.6959867162251526
 40
0.7511578065413622
 40
0.8059116138447704
 40
0.8625309311192172
 40
0.892746420324323
 40
0.9260082294040825
 40
0.9627946553416784
 40
1.0
 40
1.0
 40
1.0
 40
1.0
 10
116.121106853342
 20
144.6655927834709
 30
0.0
 10
116.1213045058446
 20
144.6684986323444
 30
0.0
 10
116.1229298216948
 20
144.692393711687
 30
0.0
 10
116.020928657288
 20
144.6388261412656
 30
0.0
 10
115.8063916888068
 20
144.5812820212926
 30
0.0
 10
115.4860344154793
 20
144.4962153944043
 30
0.0
 10
115.0984738714192
 20
144.4084290870855
 30
0.0
 10
114.6600596507684
 20
144.3193587686327
 30
0.0
 10
114.0620456438765
 20
144.2093020103961
 30
0.0
 10
113.2896792526608
 20
144.0814832640653
 30
0.0
 10
112.3315874963805
 20
143.9359227554337
 30
0.0
 10
111.3508326222876
 20
143.7929884228125
 30
0.0
 10
110.3097248684354
 20
143.6428843828616
 30
0.0
 10
109.2406357889929
 20
143.4848078859484
 30
0.0
 10
108.2492718094568
 20
143.3279607137472
 30
0.0
 10
107.4173563965778
 20
143.1802142640765
 30
0.0
 10
106.7504779528148
 20
143.042853671503
 30
0.0
 10
106.1905951064622
 20
142.9021090846452
 30
0.0
 10
105.8150037174042
 20
142.7771470884871
 30
0.0
 10
105.5397205939835
 20
142.6487641719476
 30
0.0
 10
105.3259942458463
 20
142.5013160261442
 30
0.0
 10
105.1458508604543
 20
142.2912280615661
 30
0.0
 10
105.1220289127656
 20
142.1033758651079
 30
0.0
 10
105.110050502639
 20
142.0089179861066
 30
0.0
  0
SPLINE
  5
70
330
1F
100
AcDbEntity
  8
0
  6
Continuous
 62
     7
370
     0
100
AcDbSpline
210
0.0
220
0.0
230
1.0
 70
     8
 71
     3
 72
    17
 73
    13
 74
     0
 42
0.00000001
 43
0.00000001
 12
1.0
 22
0.0
 32
0.0
 13
1.0
 23
0.0
 33
0.0
 40
0.0
 40
0.0
 40
0.0
 40
0.0
 40
0.0852300321679516
 40
0.2116887803760296
 40
0.3307884448186609
 40
0.4253474718912357
 40
0.5200796573028085
 40
0.6331308159099155
 40
0.7302166582040553
 40
0.8377818397919703
 40
0.955747313050431
 40
1.0
 40
1.0
 40
1.0
 40
1.0
 10
117.102893256271
 20
144.4964938301297
 30
0.0
 10
117.0898353677105
 20
144.5893023351883
 30
0.0
 10
117.0574030380101
 20
144.8198140309443
 30
0.0
 10
116.845210478849
 20
145.0370299967664
 30
0.0
 10
116.5957304108232
 20
145.1875551632698
 30
0.0
 10
116.3292185843768
 20
145.2970342730563
 30
0.0
 10
116.0525037432432
 20
145.3876193753456
 30
0.0
 10
115.7163408784339
 20
145.4785772664633
 30
0.0
 10
115.3177214596223
 20
145.570761505595
 30
0.0
 10
114.863181299666
 20
145.663489086643
 30
0.0
 10
114.4529616135674
 20
145.7404566656633
 30
0.0
 10
114.1780099524409
 20
145.7865337465467
 30
0.0
 10
114.1030038632923
 20
145.7991034528809
 30
0.0
  0
SPLINE
  5
71
330
1F
100
AcDbEntity
  8
0
  6
Continuous
 62
     7
370
     0
100
AcDbSpline
210
0.0
220
0.0
230
1.0
 70
     8
 71
     3
 72
    11
 73
     7
 74
     0
 42
0.00000001
 43
0.00000001
 12
1.0
 22
0.0
 32
0.0
 13
1.0
 23
0.0
 33
0.0
 40
0.0
 40
0.0
 40
0.0
 40
0.0
 40
0.2694109406119249
 40
0.5602840942434493
 40
0.8200805065511485
 40
1.0
 40
1.0
 40
1.0
 40
1.0
 10
108.1030038632922
 20
146.7190158242623
 30
0.0
 10
107.9546247612817
 20
146.7452352299508
 30
0.0
 10
107.6460461616681
 20
146.7997627704227
 30
0.0
 10
107.2495613561854
 20
146.8790010620164
 30
0.0
 10
106.9265948948614
 20
146.9491824842042
 30
0.0
 10
106.7617980020379
 20
146.9907592174229
 30
0.0
 10
106.694367706498
 20
147.0077712578837
 30
0.0
  0
SPLINE
  5
72
330
1F
100
AcDbEntity
  8
0
  6
Continuous
 62
     7
370
     0
100
AcDbSpline
210
0.0
220
0.0
230
1.0
 70
     8
 71
     3
 72
    16
 73
    12
 74
     0
 42
0.00000001
 43
0.00000001
 12
1.0
 22
0.0
 32
0.0
 13
1.0
 23
0.0
 33
0.0
 40
0.0
 40
0.0
 40
0.0
 40
0.0
 40
0.1074662580707146
 40
0.2297430547390947
 40
0.3616092847807852
 40
0.4707088179282074
 40
0.5792441703846678
 40
0.6965422923570072
 40
0.8368774237426818
 40
0.9571507893581651
 40
1.0
 40
1.0
 40
1.0
 40
1.0
 10
117.101373061068
 20
149.4953378418635
 30
0.0
 10
117.0877368578124
 20
149.5919692138394
 30
0.0
 10
117.0585851682751
 20
149.798549278875
 30
0.0
 10
116.8769494496383
 20
150.0056833826247
 30
0.0
 10
116.6576859098214
 20
150.1560410005499
 30
0.0
 10
116.3852564811112
 20
150.2771349232034
 30
0.0
 10
116.1191368876836
 20
150.3669187434034
 30
0.0
 10
115.7912044293902
 20
150.4598309684309
 30
0.0
 10
115.3910992819041
 20
150.5544315995785
 30
0.0
 10
115.0379898345102
 20
150.6295808712923
 30
0.0
 10
114.8212253059665
 20
150.6696881058787
 30
0.0
 10
114.7642853706348
 20
150.6802235166261
 30
0.0
  0
SPLINE
  5
73
330
1F
100
AcDbEntity
  8
0
  6
Continuous
 62
     7
370
     0
100
AcDbSpline
210
0.0
220
0.0
230
1.0
 70
     8
 71
     3
 72
    14
 73
    10
 74
     0
 42
0.00000001
 43
0.00000001
 12
1.0
 22
0.0
 32
0.0
 13
1.0
 23
0.0
 33
0.0
 40
0.0
 40
0.0
 40
0.0
 40
0.0
 40
0.109468434201458
 40
0.2232853834086048
 40
0.3413042482088956
 40
0.4660616073528988
 40
0.6175352072376681
 40
0.7999791949195897
 40
1.0
 40
1.0
 40
1.0
 40
1.0
 10
117.1026896954686
 20
154.4962323471868
 30
0.0
 10
117.0961924079614
 20
154.5661478964928
 30
0.0
 10
117.0829397352365
 20
154.7087563145897
 30
0.0
 10
116.9823137656906
 20
154.881169064238
 30
0.0
 10
116.8423752567392
 20
155.0262705088996
 30
0.0
 10
116.6535670919446
 20
155.1513220623891
 30
0.0
 10
116.403274936185
 20
155.2674635821683
 30
0.0
 10
116.0646560871381
 20
155.3860880330271
 30
0.0
 10
115.7615314729409
 20
155.4628545866974
 30
0.0
 10
115.6030038632921
 20
155.5030018320359
 30
0.0
  0
SPLINE
  5
74
330
1F
100
AcDbEntity
  8
0
  6
Continuous
 62
     7
370
     0
100
AcDbSpline
210
0.0
220
0.0
230
1.0
 70
     8
 71
     3
 72
    12
 73
     8
 74
     0
 42
0.00000001
 43
0.00000001
 12
1.0
 22
0.0
 32
0.0
 13
1.0
 23
0.0
 33
0.0
 40
0.0
 40
0.0
 40
0.0
 40
0.0
 40
0.2766963814405344
 40
0.5300286086108472
 40
0.7604967584284086
 40
0.9682565509251437
 40
1.0
 40
1.0
 40
1.0
 40
1.0
 10
105.8350344200981
 20
141.2367061204557
 30
0.0
 10
105.9770109595568
 20
141.1880633068301
 30
0.0
 10
106.2489755847281
 20
141.0948850632598
 30
0.0
 10
106.7997176966217
 20
140.962393095721
 30
0.0
 10
107.3881582045755
 20
140.8428475337487
 30
0.0
 10
107.8220825315229
 20
140.7619728959062
 30
0.0
 10
108.0701282106242
 20
140.7210240506726
 30
0.0
 10
108.1030038632923
 20
140.7155967438236
 30
0.0
  0
SPLINE
  5
75
330
1F
100
AcDbEntity
  8
0
  6
Continuous
 62
     7
370
     0
100
AcDbSpline
210
0.0
220
0.0
230
1.0
 70
     8
 71
     3
 72
    11
 73
     7
 74
     0
 42
0.00000001
 43
0.00000001
 12
1.0
 22
0.0
 32
0.0
 13
1.0
 23
0.0
 33
0.0
 40
0.0
 40
0.0
 40
0.0
 40
0.0
 40
0.1856681373585599
 40
0.5585425270410421
 40
0.904153813943197
 40
0.9999999999999999
 40
0.9999999999999999
 40
0.9999999999999999
 40
0.9999999999999999
 10
114.1030038632923
 20
139.7945928430053
 30
0.0
 10
114.2091649877506
 20
139.7763811135114
 30
0.0
 10
114.5285278228175
 20
139.7215950551276
 30
0.0
 10
114.9644865901346
 20
139.6342175355582
 30
0.0
 10
115.3332287427542
 20
139.5543101012837
 30
0.0
 10
115.4799242068269
 20
139.5144766873291
 30
0.0
 10
115.5117737089974
 20
139.5058283326426
 30
0.0
  0
SPLINE
  5
76
330
1F
100
AcDbEntity
  8
0
  6
Continuous
 62
     7
370
     0
100
AcDbSpline
210
0.0
220
0.0
230
1.0
 70
     8
 71
     3
 72
    14
 73
    10
 74
     0
 42
0.00000001
 43
0.00000001
 12
1.0
 22
0.0
 32
0.0
 13
1.0
 23
0.0
 33
0.0
 40
0.0
 40
0.0
 40
0.0
 40
0.0
 40
0.1216429152994767
 40
0.2339670282014494
 40
0.3381586480767418
 40
0.4377425298133994
 40
0.6319172177290011
 40
0.8207262241468609
 40
0.9999999999999999
 40
0.9999999999999999
 40
0.9999999999999999
 40
0.9999999999999999
 10
105.1044349031909
 20
137.0193875473873
 30
0.0
 10
105.1236584049625
 20
136.9042133148097
 30
0.0
 10
105.1606327373356
 20
136.6826881001663
 30
0.0
 10
105.3857214700266
 20
136.4628410822599
 30
0.0
 10
105.6215508692483
 20
136.3242309136809
 30
0.0
 10
105.9450765007705
 20
136.1914597364926
 30
0.0
 10
106.4710437867471
 20
136.0355460235659
 30
0.0
 10
107.2196208472755
 20
135.870668567764
 30
0.0
 10
107.8136725189332
 20
135.7657697971799
 30
0.0
 10
108.1030038632923
 20
135.7146791197814
 30
0.0
  0
SPLINE
  5
77
330
1F
100
AcDbEntity
  8
0
  6
Continuous
 62
     7
370
     0
100
AcDbSpline
210
0.0
220
0.0
230
1.0
 70
     8
 71
     3
 72
    11
 73
     7
 74
     0
 42
0.00000001
 43
0.00000001
 12
1.0
 22
0.0
 32
0.0
 13
1.0
 23
0.0
 33
0.0
 40
0.0
 40
0.0
 40
0.0
 40
0.0
 40
0.2113979446145187
 40
0.5364282480388667
 40
0.8451127193704342
 40
1.0
 40
1.0
 40
1.0
 40
1.0
 10
114.1030038632924
 20
134.793277590459
 30
0.0
 10
114.2901462553043
 20
134.7607651861562
 30
0.0
 10
114.7650253543601
 20
134.6782640430564
 30
0.0
 10
115.3586774532623
 20
134.5506908048165
 30
0.0
 10
115.7991374521402
 20
134.4327493538235
 30
0.0
 10
115.9577931818022
 20
134.3759076590354
 30
0.0
 10
116.0108027847809
 20
134.3569158729854
 30
0.0
  0
SPLINE
  5
78
330
1F
100
AcDbEntity
  8
0
  6
Continuous
 62
     7
370
     0
100
AcDbSpline
210
0.0
220
0.0
230
1.0
 70
     8
 71
     3
 72
    15
 73
    11
 74
     0
 42
0.00000001
 43
0.00000001
 12
1.0
 22
0.0
 32
0.0
 13
1.0
 23
0.0
 33
0.0
 40
0.0
 40
0.0
 40
0.0
 40
0.0
 40
0.1308973106498104
 40
0.2423223963021575
 40
0.3354838831039716
 40
0.4164288459672557
 40
0.5815148676259663
 40
0.7539366630933276
 40
0.9342624542978527
 40
1.0
 40
1.0
 40
1.0
 40
1.0
 10
105.103709639572
 20
132.0178529691899
 30
0.0
 10
105.1240368227306
 20
131.8986961138745
 30
0.0
 10
105.1616673264332
 20
131.6781081233916
 30
0.0
 10
105.3954574283961
 20
131.4551695731022
 30
0.0
 10
105.6268244362153
 20
131.3225234298958
 30
0.0
 10
105.8916561613989
 20
131.2124755820946
 30
0.0
 10
106.3100818070322
 20
131.0783861229163
 30
0.0
 10
106.9628938243746
 20
130.9253613997535
 30
0.0
 10
107.5715298489096
 20
130.805030109571
 30
0.0
 10
107.9909522327208
 20
130.7353029295753
 30
0.0
 10
108.1030038632924
 20
130.7166748245545
 30
0.0
  0
SPLINE
  5
79
330
1F
100
AcDbEntity
  8
0
  6
Continuous
 62
     7
370
     0
100
AcDbSpline
210
0.0
220
0.0
230
1.0
 70
     8
 71
     3
 72
    22
 73
    18
 74
     0
 42
0.00000001
 43
0.00000001
 12
1.0
 22
0.0
 32
0.0
 13
1.0
 23
0.0
 33
0.0
 40
0.0
 40
0.0
 40
0.0
 40
0.0
 40
0.1001558722616722
 40
0.1943786277275573
 40
0.2827154453701415
 40
0.3650999057698843
 40
0.4414496347610312
 40
0.5117313625431061
 40
0.5759460617790925
 40
0.6340566166446169
 40
0.7019311205808655
 40
0.758730646323003
 40
0.8065204214361968
 40
0.8473515231848286
 40
0.8954707386401735
 40
0.9514521303045743
 40
1.0
 40
1.0
 40
1.0
 40
1.0
 10
111.1030041062924
 20
127.7572787606237
 30
0.0
 10
111.4004725174378
 20
127.8003037211234
 30
0.0
 10
111.9777876587773
 20
127.8838048937567
 30
0.0
 10
112.7995323929101
 20
128.0056747484001
 30
0.0
 10
113.5362021206126
 20
128.1201812692061
 30
0.0
 10
114.1825744860578
 20
128.2274901683031
 30
0.0
 10
114.7375199589609
 20
128.3276976125678
 30
0.0
 10
115.2031815846263
 20
128.4208731994166
 30
0.0
 10
115.5861751205695
 20
128.5069927542883
 30
0.0
 10
115.9245604550059
 20
128.5934572524474
 30
0.0
 10
116.2085550417034
 20
128.6783002012501
 30
0.0
 10
116.4385916470038
 20
128.7625725493016
 30
0.0
 10
116.6030086115942
 20
128.8354610616418
 30
0.0
 10
116.7718613473444
 20
128.9333814730709
 30
0.0
 10
116.9291932875401
 20
129.0675419987408
 30
0.0
 10
117.0605215871152
 20
129.2441455090184
 30
0.0
 10
117.0794132204933
 20
129.3892068534194
 30
0.0
 10
117.0881873048372
 20
129.4565795599151
 30
0.0
  0
SPLINE
  5
7A
330
1F
100
AcDbEntity
  8
0
  6
Continuous
 62
     7
370
     0
100
AcDbSpline
210
0.0
220
0.0
230
1.0
 70
     8
 71
     3
 72
    29
 73
    25
 74
     0
 42
0.00000001
 43
0.00000001
 12
1.0
 22
0.0
 32
0.0
 13
1.0
 23
0.0
 33
0.0
 40
0.0
 40
0.0
 40
0.0
 40
0.0
 40
0.0110933750211289
 40
0.0265470173640371
 40
0.0410003883693531
 40
0.056437995259304
 40
0.1085993961222732
 40
0.1691156545390585
 40
0.2367632556635925
 40
0.2732911431455786
 40
0.3111128203798934
 40
0.3812184899480707
 40
0.4426624094768655
 40
0.4974320654761039
 40
0.5565739128035768
 40
0.6217600468482203
 40
0.6927941626469518
 40
0.7647056640793386
 40
0.8358971444924044
 40
0.8713909578818669
 40
0.9096856931331717
 40
0.9539908473920035
 40
0.9787037134853316
 40
1.0
 40
1.0
 40
1.0
 40
1.0
 10
106.0663885112681
 20
131.8087020404671
 30
0.0
 10
106.0658054171788
 20
131.8060953630777
 30
0.0
 10
106.0644100430132
 20
131.799857449928
 30
0.0
 10
106.0996811665248
 20
131.8182252233952
 30
0.0
 10
106.1567519922604
 20
131.8420306994325
 30
0.0
 10
106.2859445958433
 20
131.8916670682957
 30
0.0
 10
106.5810918033506
 20
131.9834578516181
 30
0.0
 10
107.1619611643761
 20
132.120999623211
 30
0.0
 10
107.8181347307972
 20
132.2475433073171
 30
0.0
 10
108.4570134039924
 20
132.3573578595667
 30
0.0
 10
109.1508141509909
 20
132.4692739096004
 30
0.0
 10
110.0233503943944
 20
132.600832734157
 30
0.0
 10
111.0219554085633
 20
132.7456892409654
 30
0.0
 10
111.965132704768
 20
132.8820051504977
 30
0.0
 10
112.9066833509433
 20
133.0212490182217
 30
0.0
 10
113.8789495978172
 20
133.1737388614043
 30
0.0
 10
114.8058890908446
 20
133.3364857852869
 30
0.0
 10
115.6203552688988
 20
133.5067456505789
 30
0.0
 10
116.1702506770725
 20
133.6607573727192
 30
0.0
 10
116.5061635757513
 20
133.7887625568188
 30
0.0
 10
116.7663706559814
 20
133.9210177025611
 30
0.0
 10
116.9698622351395
 20
134.1082091229503
 30
0.0
 10
117.0800778324309
 20
134.3088982597891
 30
0.0
 10
117.0914489332583
 20
134.4261842965878
 30
0.0
 10
117.0967122821243
 20
134.4804725610364
 30
0.0
  0
SPLINE
  5
7B
330
1F
100
AcDbEntity
  8
0
  6
Continuous
 62
     7
370
     0
100
AcDbSpline
210
0.0
220
0.0
230
1.0
 70
     8
 71
     3
 72
    28
 73
    24
 74
     0
 42
0.00000001
 43
0.00000001
 12
1.0
 22
0.0
 32
0.0
 13
1.0
 23
0.0
 33
0.0
 40
0.0
 40
0.0
 40
0.0
 40
0.0
 40
0.0164553633202877
 40
0.0451524871787854
 40
0.0730470432127659
 40
0.1300141764580249
 40
0.1901455342359652
 40
0.2572075572434633
 40
0.2934393777297376
 40
0.330927969262266
 40
0.3782093293472697
 40
0.4217092362705546
 40
0.4613961083580121
 40
0.5154281805006221
 40
0.572119192840628
 40
0.6330141002713465
 40
0.6981499285048031
 40
0.7675655160191869
 40
0.8418803595140684
 40
0.8811259355731882
 40
0.9206878228544089
 40
0.9601760950398212
 40
1.0
 40
1.0
 40
1.0
 40
1.0
 10
106.0686617476165
 20
136.8164580981688
 30
0.0
 10
106.0660901360919
 20
136.8104663893301
 30
0.0
 10
106.0590337949989
 20
136.7940255152363
 30
0.0
 10
106.1616177525861
 20
136.8478838651694
 30
0.0
 10
106.3567846452366
 20
136.914402092443
 30
0.0
 10
106.7277741836031
 20
137.0221012443345
 30
0.0
 10
107.3677173205783
 20
137.1633782785647
 30
0.0
 10
108.0606386545979
 20
137.2906570494485
 30
0.0
 10
108.7219943698535
 20
137.4005761562662
 30
0.0
 10
109.3237114414906
 20
137.4953486137849
 30
0.0
 10
109.9930332471588
 20
137.5959617175591
 30
0.0
 10
110.6942363495077
 20
137.6982839140342
 30
0.0
 10
111.4391032632035
 20
137.8058723583117
 30
0.0
 10
112.2526694450681
 20
137.9239441776191
 30
0.0
 10
113.1519680154461
 20
138.0588610510118
 30
0.0
 10
114.050618566256
 20
138.2029392915551
 30
0.0
 10
114.9118688127254
 20
138.356911601097
 30
0.0
 10
115.7055168037543
 20
138.5269001462155
 30
0.0
 10
116.2644615615158
 20
138.6927466748585
 30
0.0
 10
116.6149768958634
 20
138.8405472805286
 30
0.0
 10
116.8453791322213
 20
138.9829312024538
 30
0.0
 10
117.0513083181193
 20
139.1958513877791
 30
0.0
 10
117.084792000095
 20
139.4108123686882
 30
0.0
 10
117.1016046891008
 20
139.5187476944094
 30
0.0
  0
LINE
  5
7C
330
1F
100
AcDbEntity
  8
0
  6
Continuous
 62
     7
370
     0
100
AcDbLine
 10
117.1030038633
 20
110.6802235166
 30
0.0
 11
117.1030038633
 21
111.797942406
 31
0.0
  0
LINE
  5
7D
330
1F
100
AcDbEntity
  8
0
  6
Continuous
 62
     7
370
     0
100
AcDbLine
 10
117.1030038633
 20
117.797942406
 30
0.0
 11
117.1030038633
 21
123.1802235166
 31
0.0
  0
LINE
  5
7E
330
1F
100
AcDbEntity
  8
0
  6
Continuous
 62
     7
370
     0
100
AcDbLine
 10
116.6030038633
 20
123.1802235166
 30
0.0
 11
116.6030038633
 21
124.6802235166
 31
0.0
  0
LINE
  5
7F
330
1F
100
AcDbEntity
  8
0
  6
Continuous
 62
     7
370
     0
100
AcDbLine
 10
105.6030038633
 20
124.6802235166
 30
0.0
 11
105.6030038633
 21
123.1802235166
 31
0.0
  0
LINE
  5
80
330
1F
100
AcDbEntity
  8
0
  6
Continuous
 62
     7
370
     0
100
AcDbLine
 10
106.6030038633
 20
130.1802235166
 30
0.0
 11
106.6030038633
 21
127.6802235166
 31
0.0
  0
LINE
  5
81
330
1F
100
AcDbEntity
  8
0
  6
Continuous
 62
     7
370
     0
100
AcDbLine
 10
115.6030038633
 20
127.6802235166
 30
0.0
 11
115.6030038633
 21
128.5129803917
 31
0.0
  0
LINE
  5
82
330
1F
100
AcDbEntity
  8
0
  6
Continuous
 62
     7
370
     0
100
AcDbLine
 10
115.6030038633
 20
129.530348472
 30
0.0
 11
115.6030038633
 21
130.1802235166
 31
0.0
  0
LINE
  5
83
330
1F
100
AcDbEntity
  8
0
  6
Continuous
 62
     7
370
     0
100
AcDbLine
 10
116.1030038633
 20
109.6802235166
 30
0.0
 11
117.1030038633
 21
110.6802235166
 31
0.0
  0
LINE
  5
84
330
1F
100
AcDbEntity
  8
0
  6
Continuous
 62
     7
370
     0
100
AcDbLine
 10
115.6030038633
 20
130.1802235166
 30
0.0
 11
115.1030038633
 21
130.6802235166
 31
0.0
  0
LINE
  5
85
330
1F
100
AcDbEntity
  8
0
  6
Continuous
 62
     7
370
     0
100
AcDbLine
 10
107.1030038633
 20
130.6802235166
 30
0.0
 11
106.6030038633
 21
130.1802235166
 31
0.0
  0
LINE
  5
86
330
1F
100
AcDbEntity
  8
0
  6
Continuous
 62
     7
370
     0
100
AcDbLine
 10
105.1030038633
 20
110.6802235166
 30
0.0
 11
106.1030038633
 21
109.6802235166
 31
0.0
  0
LINE
  5
87
330
1F
100
AcDbEntity
  8
0
  6
Continuous
 62
     7
370
     0
100
AcDbLine
 10
105.1030038633
 20
123.1802235166
 30
0.0
 11
105.1030038633
 21
117.797942406
 31
0.0
  0
LINE
  5
88
330
1F
100
AcDbEntity
  8
0
  6
Continuous
 62
     7
370
     0
100
AcDbLine
 10
105.1030038633
 20
111.797942406
 30
0.0
 11
105.1030038633
 21
110.6802235166
 31
0.0
  0
LINE
  5
89
330
1F
100
AcDbEntity
  8
0
  6
Continuous
 62
     7
370
     0
100
AcDbLine
 10
114.1030038633
 20
108.1802235166
 30
0.0
 11
114.1030038633
 21
108.9802235166
 31
0.0
  0
LINE
  5
8A
330
1F
100
AcDbEntity
  8
0
  6
Continuous
 62
     7
370
     0
100
AcDbLine
 10
105.6030038633
 20
172.6802235166
 30
0.0
 11
105.6030038633
 21
170.6802235166
 31
0.0
  0
LINE
  5
8B
330
1F
100
AcDbEntity
  8
0
  6
Continuous
 62
     7
370
     0
100
AcDbLine
 10
107.2030038633
 20
170.6802235166
 30
0.0
 11
107.2030038633
 21
163.6802235166
 31
0.0
  0
LINE
  5
8C
330
1F
100
AcDbEntity
  8
0
  6
Continuous
 62
     7
370
     0
100
AcDbLine
 10
115.6030038633
 20
150.6802235166
 30
0.0
 11
115.6030038633
 21
153.5116434781
 31
0.0
  0
LINE
  5
8D
330
1F
100
AcDbEntity
  8
0
  6
Continuous
 62
     7
370
     0
100
AcDbLine
 10
115.6030038633
 20
154.5309598942
 30
0.0
 11
115.6030038633
 21
155.6802235166
 31
0.0
  0
LINE
  5
8E
330
1F
100
AcDbEntity
  8
0
  6
Continuous
 62
     7
370
     0
100
AcDbLine
 10
114.1030038633
 20
130.6802235166
 30
0.0
 11
114.1030038633
 21
133.2168272005
 31
0.0
  0
LINE
  5
8F
330
1F
100
AcDbEntity
  8
0
  6
Continuous
 62
     7
370
     0
100
AcDbLine
 10
114.1030038633
 20
134.2211002064
 30
0.0
 11
114.1030038633
 21
138.2154813773
 31
0.0
  0
LINE
  5
90
330
1F
100
AcDbEntity
  8
0
  6
Continuous
 62
     7
370
     0
100
AcDbLine
 10
114.1030038633
 20
139.2209042808
 30
0.0
 11
114.1030038633
 21
143.2156876419
 31
0.0
  0
LINE
  5
91
330
1F
100
AcDbEntity
  8
0
  6
Continuous
 62
     7
370
     0
100
AcDbLine
 10
114.1030038633
 20
144.2194128206
 30
0.0
 11
114.1030038633
 21
148.2147232553
 31
0.0
  0
LINE
  5
92
330
1F
100
AcDbEntity
  8
0
  6
Continuous
 62
     7
370
     0
100
AcDbLine
 10
114.1030038633
 20
149.2187815995
 30
0.0
 11
114.1030038633
 21
150.6802235166
 31
0.0
  0
LINE
  5
93
330
1F
100
AcDbEntity
  8
0
  6
Continuous
 62
     7
370
     0
100
AcDbLine
 10
113.6030038633
 20
107.6802235166
 30
0.0
 11
114.1030038633
 21
108.1802235166
 31
0.0
  0
LINE
  5
94
330
1F
100
AcDbEntity
  8
0
  6
Continuous
 62
     7
370
     0
100
AcDbLine
 10
106.6030038633
 20
155.6802235166
 30
0.0
 11
106.6030038633
 21
153.0036419756
 31
0.0
  0
LINE
  5
95
330
1F
100
AcDbEntity
  8
0
  6
Continuous
 62
     7
370
     0
100
AcDbLine
 10
106.6030038633
 20
151.9828381442
 30
0.0
 11
106.6030038633
 21
150.6802235166
 31
0.0
  0
LINE
  5
96
330
1F
100
AcDbEntity
  8
0
  6
Continuous
 62
     7
370
     0
100
AcDbLine
 10
108.1030038633
 20
150.6802235166
 30
0.0
 11
108.1030038633
 21
148.2991667694
 31
0.0
  0
LINE
  5
97
330
1F
100
AcDbEntity
  8
0
  6
Continuous
 62
     7
370
     0
100
AcDbLine
 10
108.1030038633
 20
147.2951499398
 30
0.0
 11
108.1030038633
 21
143.2990274032
 31
0.0
  0
LINE
  5
98
330
1F
100
AcDbEntity
  8
0
  6
Continuous
 62
     7
370
     0
100
AcDbLine
 10
108.1030038633
 20
142.2952143834
 30
0.0
 11
108.1030038633
 21
138.2984131929
 31
0.0
  0
LINE
  5
99
330
1F
100
AcDbEntity
  8
0
  6
Continuous
 62
     7
370
     0
100
AcDbLine
 10
108.1030038633
 20
137.2947377926
 30
0.0
 11
108.1030038633
 21
133.2988429237
 31
0.0
  0
LINE
  5
9A
330
1F
100
AcDbEntity
  8
0
  6
Continuous
 62
     7
370
     0
100
AcDbLine
 10
108.1030038633
 20
132.2954830416
 30
0.0
 11
108.1030038633
 21
130.6802235166
 31
0.0
  0
LINE
  5
9B
330
1F
100
AcDbEntity
  8
0
  6
Continuous
 62
     7
370
     0
100
AcDbLine
 10
109.1030038633
 20
109.6802235166
 30
0.0
 11
109.1030038633
 21
109.5802435166
 31
0.0
  0
LINE
  5
9C
330
1F
100
AcDbEntity
  8
0
  6
Continuous
 62
     7
370
     0
100
AcDbLine
 10
108.1030038633
 20
108.9802235166
 30
0.0
 11
108.1030038633
 21
108.1802235166
 31
0.0
  0
LINE
  5
9D
330
1F
100
AcDbEntity
  8
0
  6
Continuous
 62
     7
370
     0
100
AcDbLine
 10
108.1030038633
 20
108.1802235166
 30
0.0
 11
108.6030038633
 21
107.6802235166
 31
0.0
  0
LINE
  5
9E
330
1F
100
AcDbEntity
  8
0
  6
Continuous
 62
     7
370
     0
100
AcDbLine
 10
116.6030038633
 20
170.6802235166
 30
0.0
 11
116.6030038633
 21
172.6802235166
 31
0.0
  0
LINE
  5
9F
330
1F
100
AcDbEntity
  8
0
  6
Continuous
 62
     7
370
     0
100
AcDbLine
 10
113.1030038633
 20
109.5802235166
 30
0.0
 11
113.1030038633
 21
109.6802235166
 31
0.0
  0
LINE
  5
A0
330
1F
100
AcDbEntity
  8
0
  6
Continuous
 62
     7
370
     0
100
AcDbLine
 10
115.0030038633
 20
163.6802235166
 30
0.0
 11
115.0030038633
 21
170.6802235166
 31
0.0
  0
LINE
  5
A1
330
1F
100
AcDbEntity
  8
0
  6
Continuous
 62
     7
370
     0
100
AcDbLine
 10
104.973910083
 20
114.797942406
 30
0.0
 11
108.6387595584
 21
114.797942406
 31
0.0
  0
SPLINE
  5
A2
330
1F
100
AcDbEntity
  8
0
  6
Continuous
 62
     7
370
     0
100
AcDbSpline
210
0.0
220
0.0
230
1.0
 70
     8
 71
     3
 72
     9
 73
     5
 74
     0
 42
0.00000001
 43
0.00000001
 12
1.0
 22
0.0
 32
0.0
 13
1.0
 23
0.0
 33
0.0
 40
0.0
 40
0.0
 40
0.0
 40
0.0
 40
0.5008258004972294
 40
1.0
 40
1.0
 40
1.0
 40
1.0
 10
108.6387595584418
 20
114.7979424060105
 30
0.0
 10
108.2266402436075
 20
114.7235320418519
 30
0.0
 10
107.40376068264
 20
114.5749567007156
 30
0.0
 10
106.5978275842561
 20
114.3520799470011
 30
0.0
 10
106.1955265750175
 20
114.2408256218779
 30
0.0
  0
SPLINE
  5
A3
330
1F
100
AcDbEntity
  8
0
  6
Continuous
 62
     7
370
     0
100
AcDbSpline
210
0.0
220
0.0
230
1.0
 70
     8
 71
     3
 72
     9
 73
     5
 74
     0
 42
0.00000001
 43
0.00000001
 12
1.0
 22
0.0
 32
0.0
 13
1.0
 23
0.0
 33
0.0
 40
0.0
 40
0.0
 40
0.0
 40
0.0
 40
0.4990042696526443
 40
1.0
 40
1.0
 40
1.0
 40
1.0
 10
106.1955265750175
 20
114.2408256218779
 30
0.0
 10
105.9944448336147
 20
114.3520437137661
 30
0.0
 10
105.5914788599111
 20
114.574923754383
 30
0.0
 10
105.1800394637835
 20
114.7235042247458
 30
0.0
 10
104.9739100830268
 20
114.7979424060105
 30
0.0
  0
SPLINE
  5
A4
330
1F
100
AcDbEntity
  8
0
  6
Continuous
 62
     7
370
     0
100
AcDbSpline
210
0.0
220
0.0
230
1.0
 70
     8
 71
     3
 72
     9
 73
     5
 74
     0
 42
0.00000001
 43
0.00000001
 12
1.0
 22
0.0
 32
0.0
 13
1.0
 23
0.0
 33
0.0
 40
0.0
 40
0.0
 40
0.0
 40
0.0
 40
0.4990042696526443
 40
1.0
 40
1.0
 40
1.0
 40
1.0
 10
106.1955265750175
 20
117.240825621878
 30
0.0
 10
105.9944448336147
 20
117.3520437137662
 30
0.0
 10
105.5914788599111
 20
117.5749237543831
 30
0.0
 10
105.1800394637834
 20
117.7235042247459
 30
0.0
 10
104.9739100830268
 20
117.7979424060106
 30
0.0
  0
LINE
  5
A5
330
1F
100
AcDbEntity
  8
0
  6
Continuous
 62
     7
370
     0
100
AcDbLine
 10
104.973910083
 20
117.797942406
 30
0.0
 11
108.6387595584
 21
117.797942406
 31
0.0
  0
SPLINE
  5
A6
330
1F
100
AcDbEntity
  8
0
  6
Continuous
 62
     7
370
     0
100
AcDbSpline
210
0.0
220
0.0
230
1.0
 70
     8
 71
     3
 72
     9
 73
     5
 74
     0
 42
0.00000001
 43
0.00000001
 12
1.0
 22
0.0
 32
0.0
 13
1.0
 23
0.0
 33
0.0
 40
0.0
 40
0.0
 40
0.0
 40
0.0
 40
0.5008258004972294
 40
1.0
 40
1.0
 40
1.0
 40
1.0
 10
108.6387595584418
 20
117.7979424060107
 30
0.0
 10
108.2266402436075
 20
117.723532041852
 30
0.0
 10
107.40376068264
 20
117.5749567007157
 30
0.0
 10
106.5978275842561
 20
117.3520799470012
 30
0.0
 10
106.1955265750175
 20
117.240825621878
 30
0.0
  0
SPLINE
  5
A7
330
1F
100
AcDbEntity
  8
0
  6
Continuous
 62
     7
370
     0
100
AcDbSpline
210
0.0
220
0.0
230
1.0
 70
    24
 71
     3
 72
    11
 73
     7
 74
     0
 42
0.00000001
 43
0.00000001
 12
1.0
 22
0.0
 32
0.0
 13
1.0
 23
0.0
 33
0.0
 40
0.0
 40
0.0
 40
0.0
 40
0.0
 40
0.2500000023153451
 40
0.4999999998736468
 40
0.7500000005171855
 40
1.0
 40
1.0
 40
1.0
 40
1.0
 10
113.5672481620197
 20
117.7979424060107
 30
0.0
 10
113.9058933410258
 20
117.7979424060107
 30
0.0
 10
114.5831836925941
 20
117.7979424060107
 30
0.0
 10
115.5372707847152
 20
117.7979424060107
 30
0.0
 10
116.4357563543625
 20
117.7979424060108
 30
0.0
 10
116.9666505417557
 20
117.7979424060107
 30
0.0
 10
117.2320976348361
 20
117.7979424060107
 30
0.0
  0
LINE
  5
A8
330
1F
100
AcDbEntity
  8
0
  6
Continuous
 62
     7
370
     0
100
AcDbLine
 10
117.2320976348
 20
117.797942406
 30
0.0
 11
119.6963419515
 21
117.797942406
 31
0.0
  0
SPLINE
  5
A9
330
1F
100
AcDbEntity
  8
0
  6
Continuous
 62
     7
370
     0
100
AcDbSpline
210
0.0
220
0.0
230
1.0
 70
    24
 71
     3
 72
    10
 73
     6
 74
     0
 42
0.00000001
 43
0.00000001
 12
1.0
 22
0.0
 32
0.0
 13
1.0
 23
0.0
 33
0.0
 40
0.0
 40
0.0
 40
0.0
 40
0.0
 40
0.4998717430991072
 40
0.9997434858588283
 40
1.0
 40
1.0
 40
1.0
 40
1.0
 10
119.6963419514757
 20
117.7979424060108
 30
0.0
 10
119.7664760784758
 20
117.7979424060137
 30
0.0
 10
119.9067443324283
 20
117.7979424060195
 30
0.0
 10
119.9744689086047
 20
117.7979424059903
 30
0.0
 10
119.9529818321637
 20
117.7979424060108
 30
0.0
 10
119.9529708115127
 20
117.7979424060108
 30
0.0
  0
SPLINE
  5
AA
330
1F
100
AcDbEntity
  8
0
  6
Continuous
 62
     7
370
     0
100
AcDbSpline
210
0.0
220
0.0
230
1.0
 70
    24
 71
     3
 72
     9
 73
     5
 74
     0
 42
0.00000001
 43
0.00000001
 12
1.0
 22
0.0
 32
0.0
 13
1.0
 23
0.0
 33
0.0
 40
0.0
 40
0.0
 40
0.0
 40
0.0
 40
0.4999999998302633
 40
1.0
 40
1.0
 40
1.0
 40
1.0
 10
102.2530038676821
 20
117.7979424060106
 30
0.0
 10
102.2638152698916
 20
117.7979424060106
 30
0.0
 10
102.285438074318
 20
117.7979424060106
 30
0.0
 10
102.434923208162
 20
117.7979424060106
 30
0.0
 10
102.5096657751093
 20
117.7979424060106
 30
0.0
  0
LINE
  5
AB
330
1F
100
AcDbEntity
  8
0
  6
Continuous
 62
     7
370
     0
100
AcDbLine
 10
102.5096657751
 20
117.797942406
 30
0.0
 11
104.9739100917
 21
117.797942406
 31
0.0
  0
SPLINE
  5
AC
330
1F
100
AcDbEntity
  8
0
  6
Continuous
 62
     7
370
     0
100
AcDbSpline
210
0.0
220
0.0
230
1.0
 70
    24
 71
     3
 72
    11
 73
     7
 74
     0
 42
0.00000001
 43
0.00000001
 12
1.0
 22
0.0
 32
0.0
 13
1.0
 23
0.0
 33
0.0
 40
0.0
 40
0.0
 40
0.0
 40
0.0
 40
0.2499999994828141
 40
0.5000000001263532
 40
0.7499999976846551
 40
1.0
 40
1.0
 40
1.0
 40
1.0
 10
104.9739100917489
 20
117.7979424060106
 30
0.0
 10
105.2393571848293
 20
117.7979424060106
 30
0.0
 10
105.7702513722226
 20
117.7979424060106
 30
0.0
 10
106.6687369418699
 20
117.7979424060106
 30
0.0
 10
107.622824033991
 20
117.7979424060107
 30
0.0
 10
108.3001143855593
 20
117.7979424060107
 30
0.0
 10
108.6387595645653
 20
117.7979424060107
 30
0.0
  0
LINE
  5
AD
330
1F
100
AcDbEntity
  8
0
  6
Continuous
 62
     7
370
     0
100
AcDbLine
 10
108.6387595646
 20
117.797942406
 30
0.0
 11
113.567248162
 21
117.797942406
 31
0.0
  0
SPLINE
  5
AE
330
1F
100
AcDbEntity
  8
0
  6
Continuous
 62
     7
370
     0
100
AcDbSpline
210
0.0
220
0.0
230
1.0
 70
    24
 71
     3
 72
    11
 73
     7
 74
     0
 42
0.00000001
 43
0.00000001
 12
1.0
 22
0.0
 32
0.0
 13
1.0
 23
0.0
 33
0.0
 40
0.0
 40
0.0
 40
0.0
 40
0.0
 40
0.2500000023153451
 40
0.4999999998736468
 40
0.7500000005171855
 40
1.0
 40
1.0
 40
1.0
 40
1.0
 10
113.5672481620198
 20
114.7979424060106
 30
0.0
 10
113.9058933410258
 20
114.7979424060106
 30
0.0
 10
114.5831836925941
 20
114.7979424060106
 30
0.0
 10
115.5372707847152
 20
114.7979424060106
 30
0.0
 10
116.4357563543625
 20
114.7979424060107
 30
0.0
 10
116.9666505417558
 20
114.7979424060107
 30
0.0
 10
117.2320976348362
 20
114.7979424060106
 30
0.0
  0
LINE
  5
AF
330
1F
100
AcDbEntity
  8
0
  6
Continuous
 62
     7
370
     0
100
AcDbLine
 10
117.2320976348
 20
114.797942406
 30
0.0
 11
119.6963419515
 21
114.797942406
 31
0.0
  0
SPLINE
  5
B0
330
1F
100
AcDbEntity
  8
0
  6
Continuous
 62
     7
370
     0
100
AcDbSpline
210
0.0
220
0.0
230
1.0
 70
    24
 71
     3
 72
    10
 73
     6
 74
     0
 42
0.00000001
 43
0.00000001
 12
1.0
 22
0.0
 32
0.0
 13
1.0
 23
0.0
 33
0.0
 40
0.0
 40
0.0
 40
0.0
 40
0.0
 40
0.4998717430991072
 40
0.9997434858588283
 40
1.0
 40
1.0
 40
1.0
 40
1.0
 10
119.6963419514758
 20
114.7979424060107
 30
0.0
 10
119.7664760784758
 20
114.7979424060144
 30
0.0
 10
119.9067443324284
 20
114.7979424060219
 30
0.0
 10
119.9744689086048
 20
114.7979424059845
 30
0.0
 10
119.9529818321637
 20
114.7979424060107
 30
0.0
 10
119.9529708115127
 20
114.7979424060107
 30
0.0
  0
SPLINE
  5
B1
330
1F
100
AcDbEntity
  8
0
  6
Continuous
 62
     7
370
     0
100
AcDbSpline
210
0.0
220
0.0
230
1.0
 70
    24
 71
     3
 72
     9
 73
     5
 74
     0
 42
0.00000001
 43
0.00000001
 12
1.0
 22
0.0
 32
0.0
 13
1.0
 23
0.0
 33
0.0
 40
0.0
 40
0.0
 40
0.0
 40
0.0
 40
0.4999999998302633
 40
1.0
 40
1.0
 40
1.0
 40
1.0
 10
102.2530038676822
 20
114.7979424060105
 30
0.0
 10
102.2638152698917
 20
114.7979424060105
 30
0.0
 10
102.285438074318
 20
114.7979424060105
 30
0.0
 10
102.434923208162
 20
114.7979424060105
 30
0.0
 10
102.5096657751094
 20
114.7979424060105
 30
0.0
  0
LINE
  5
B2
330
1F
100
AcDbEntity
  8
0
  6
Continuous
 62
     7
370
     0
100
AcDbLine
 10
102.5096657751
 20
114.797942406
 30
0.0
 11
104.9739100917
 21
114.797942406
 31
0.0
  0
SPLINE
  5
B3
330
1F
100
AcDbEntity
  8
0
  6
Continuous
 62
     7
370
     0
100
AcDbSpline
210
0.0
220
0.0
230
1.0
 70
    24
 71
     3
 72
    11
 73
     7
 74
     0
 42
0.00000001
 43
0.00000001
 12
1.0
 22
0.0
 32
0.0
 13
1.0
 23
0.0
 33
0.0
 40
0.0
 40
0.0
 40
0.0
 40
0.0
 40
0.2499999994828141
 40
0.5000000001263532
 40
0.7499999976846551
 40
1.0
 40
1.0
 40
1.0
 40
1.0
 10
104.973910091749
 20
114.7979424060105
 30
0.0
 10
105.2393571848294
 20
114.7979424060105
 30
0.0
 10
105.7702513722226
 20
114.7979424060105
 30
0.0
 10
106.6687369418699
 20
114.7979424060105
 30
0.0
 10
107.622824033991
 20
114.7979424060105
 30
0.0
 10
108.3001143855593
 20
114.7979424060106
 30
0.0
 10
108.6387595645654
 20
114.7979424060105
 30
0.0
  0
LINE
  5
B4
330
1F
100
AcDbEntity
  8
0
  6
Continuous
 62
     7
370
     0
100
AcDbLine
 10
108.6387595646
 20
114.797942406
 30
0.0
 11
113.567248162
 21
114.797942406
 31
0.0
  0
SPLINE
  5
B5
330
1F
100
AcDbEntity
  8
0
  6
Continuous
 62
     7
370
     0
100
AcDbSpline
210
0.0
220
0.0
230
1.0
 70
     8
 71
     3
 72
     9
 73
     5
 74
     0
 42
0.00000001
 43
0.00000001
 12
1.0
 22
0.0
 32
0.0
 13
1.0
 23
0.0
 33
0.0
 40
0.0
 40
0.0
 40
0.0
 40
0.0
 40
0.4990042685583544
 40
1.0
 40
1.0
 40
1.0
 40
1.0
 10
116.0104811512926
 20
115.3550591910107
 30
0.0
 10
116.2115628912505
 20
115.2438410980074
 30
0.0
 10
116.6145288629423
 20
115.020961054667
 30
0.0
 10
117.0259682602882
 20
114.8723805863921
 30
0.0
 10
117.2320976421054
 20
114.7979424060107
 30
0.0
  0
LINE
  5
B6
330
1F
100
AcDbEntity
  8
0
  6
Continuous
 62
     7
370
     0
100
AcDbLine
 10
116.0104811513
 20
117.240825621
 30
0.0
 11
116.0104811513
 21
115.355059191
 31
0.0
  0
SPLINE
  5
B7
330
1F
100
AcDbEntity
  8
0
  6
Continuous
 62
     7
370
     0
100
AcDbSpline
210
0.0
220
0.0
230
1.0
 70
     8
 71
     3
 72
     9
 73
     5
 74
     0
 42
0.00000001
 43
0.00000001
 12
1.0
 22
0.0
 32
0.0
 13
1.0
 23
0.0
 33
0.0
 40
0.0
 40
0.0
 40
0.0
 40
0.0
 40
0.4988474740134617
 40
1.0
 40
1.0
 40
1.0
 40
1.0
 10
117.2320976421053
 20
117.7979424060107
 30
0.0
 10
117.0268497234626
 20
117.7238557688046
 30
0.0
 10
116.6154054858254
 20
117.5753401581911
 30
0.0
 10
116.21243222091
 20
117.3525016848251
 30
0.0
 10
116.0104811512926
 20
117.2408256210107
 30
0.0
  0
LINE
  5
B8
330
1F
100
AcDbEntity
  8
0
  6
Continuous
 62
     7
370
     0
100
AcDbLine
 10
119.6963419485
 20
117.797942406
 30
0.0
 11
117.2320976421
 21
117.797942406
 31
0.0
  0
SPLINE
  5
B9
330
1F
100
AcDbEntity
  8
0
  6
Continuous
 62
     7
370
     0
100
AcDbSpline
210
0.0
220
0.0
230
1.0
 70
     8
 71
     3
 72
     9
 73
     5
 74
     0
 42
0.00000001
 43
0.00000001
 12
1.0
 22
0.0
 32
0.0
 13
1.0
 23
0.0
 33
0.0
 40
0.0
 40
0.0
 40
0.0
 40
0.0
 40
0.4990042685583533
 40
1.0
 40
1.0
 40
1.0
 40
1.0
 10
120.9179584392925
 20
117.2408256210108
 30
0.0
 10
120.7168766993346
 20
117.3520437140141
 30
0.0
 10
120.3139107276428
 20
117.5749237573545
 30
0.0
 10
119.9024713302969
 20
117.7235042256294
 30
0.0
 10
119.6963419484797
 20
117.7979424060108
 30
0.0
  0
LINE
  5
BA
330
1F
100
AcDbEntity
  8
0
  6
Continuous
 62
     7
370
     0
100
AcDbLine
 10
120.9179584393
 20
115.355059191
 30
0.0
 11
120.9179584393
 21
117.240825621
 31
0.0
  0
SPLINE
  5
BB
330
1F
100
AcDbEntity
  8
0
  6
Continuous
 62
     7
370
     0
100
AcDbSpline
210
0.0
220
0.0
230
1.0
 70
     8
 71
     3
 72
     9
 73
     5
 74
     0
 42
0.00000001
 43
0.00000001
 12
1.0
 22
0.0
 32
0.0
 13
1.0
 23
0.0
 33
0.0
 40
0.0
 40
0.0
 40
0.0
 40
0.0
 40
0.4988474740134612
 40
1.0
 40
1.0
 40
1.0
 40
1.0
 10
119.6963419484798
 20
114.7979424060108
 30
0.0
 10
119.9015898671225
 20
114.8720290432169
 30
0.0
 10
120.3130341047597
 20
115.0205446538304
 30
0.0
 10
120.7160073696752
 20
115.2433831271964
 30
0.0
 10
120.9179584392926
 20
115.3550591910108
 30
0.0
  0
LINE
  5
BC
330
1F
100
AcDbEntity
  8
0
  6
Continuous
 62
     7
370
     0
100
AcDbLine
 10
117.2320976421
 20
114.797942406
 30
0.0
 11
119.6963419485
 21
114.797942406
 31
0.0
  0
SPLINE
  5
BD
330
1F
100
AcDbEntity
  8
0
  6
Continuous
 62
     7
370
     0
100
AcDbSpline
210
0.0
220
0.0
230
1.0
 70
     8
 71
     3
 72
     9
 73
     5
 74
     0
 42
0.00000001
 43
0.00000001
 12
1.0
 22
0.0
 32
0.0
 13
1.0
 23
0.0
 33
0.0
 40
0.0
 40
0.0
 40
0.0
 40
0.0
 40
0.4990042685583544
 40
1.0
 40
1.0
 40
1.0
 40
1.0
 10
116.0104811512926
 20
112.3550591910106
 30
0.0
 10
116.2115628912506
 20
112.2438410980073
 30
0.0
 10
116.6145288629424
 20
112.0209610546669
 30
0.0
 10
117.0259682602882
 20
111.872380586392
 30
0.0
 10
117.2320976421054
 20
111.7979424060106
 30
0.0
  0
LINE
  5
BE
330
1F
100
AcDbEntity
  8
0
  6
Continuous
 62
     7
370
     0
100
AcDbLine
 10
116.0104811513
 20
114.240825621
 30
0.0
 11
116.0104811513
 21
112.355059191
 31
0.0
  0
SPLINE
  5
BF
330
1F
100
AcDbEntity
  8
0
  6
Continuous
 62
     7
370
     0
100
AcDbSpline
210
0.0
220
0.0
230
1.0
 70
     8
 71
     3
 72
     9
 73
     5
 74
     0
 42
0.00000001
 43
0.00000001
 12
1.0
 22
0.0
 32
0.0
 13
1.0
 23
0.0
 33
0.0
 40
0.0
 40
0.0
 40
0.0
 40
0.0
 40
0.4988474740134617
 40
1.0
 40
1.0
 40
1.0
 40
1.0
 10
117.2320976421054
 20
114.7979424060106
 30
0.0
 10
117.0268497234627
 20
114.7238557688045
 30
0.0
 10
116.6154054858254
 20
114.575340158191
 30
0.0
 10
116.21243222091
 20
114.352501684825
 30
0.0
 10
116.0104811512926
 20
114.2408256210106
 30
0.0
  0
SPLINE
  5
C0
330
1F
100
AcDbEntity
  8
0
  6
Continuous
 62
     7
370
     0
100
AcDbSpline
210
0.0
220
0.0
230
1.0
 70
     8
 71
     3
 72
     9
 73
     5
 74
     0
 42
0.00000001
 43
0.00000001
 12
1.0
 22
0.0
 32
0.0
 13
1.0
 23
0.0
 33
0.0
 40
0.0
 40
0.0
 40
0.0
 40
0.0
 40
0.4990042685583533
 40
1.0
 40
1.0
 40
1.0
 40
1.0
 10
120.9179584392926
 20
114.2408256210107
 30
0.0
 10
120.7168766993346
 20
114.352043714014
 30
0.0
 10
120.3139107276428
 20
114.5749237573544
 30
0.0
 10
119.902471330297
 20
114.7235042256293
 30
0.0
 10
119.6963419484798
 20
114.7979424060107
 30
0.0
  0
LINE
  5
C1
330
1F
100
AcDbEntity
  8
0
  6
Continuous
 62
     7
370
     0
100
AcDbLine
 10
120.9179584393
 20
112.355059191
 30
0.0
 11
120.9179584393
 21
114.240825621
 31
0.0
  0
SPLINE
  5
C2
330
1F
100
AcDbEntity
  8
0
  6
Continuous
 62
     7
370
     0
100
AcDbSpline
210
0.0
220
0.0
230
1.0
 70
     8
 71
     3
 72
     9
 73
     5
 74
     0
 42
0.00000001
 43
0.00000001
 12
1.0
 22
0.0
 32
0.0
 13
1.0
 23
0.0
 33
0.0
 40
0.0
 40
0.0
 40
0.0
 40
0.0
 40
0.4988474740134612
 40
1.0
 40
1.0
 40
1.0
 40
1.0
 10
119.6963419484798
 20
111.7979424060107
 30
0.0
 10
119.9015898671225
 20
111.8720290432168
 30
0.0
 10
120.3130341047597
 20
112.0205446538303
 30
0.0
 10
120.7160073696752
 20
112.2433831271963
 30
0.0
 10
120.9179584392926
 20
112.3550591910107
 30
0.0
  0
LINE
  5
C3
330
1F
100
AcDbEntity
  8
0
  6
Continuous
 62
     7
370
     0
100
AcDbLine
 10
117.2320976421
 20
111.797942406
 30
0.0
 11
119.6963419485
 21
111.797942406
 31
0.0
  0
SPLINE
  5
C4
330
1F
100
AcDbEntity
  8
0
  6
Continuous
 62
     7
370
     0
100
AcDbSpline
210
0.0
220
0.0
230
1.0
 70
     8
 71
     3
 72
     9
 73
     5
 74
     0
 42
0.00000001
 43
0.00000001
 12
1.0
 22
0.0
 32
0.0
 13
1.0
 23
0.0
 33
0.0
 40
0.0
 40
0.0
 40
0.0
 40
0.0
 40
0.4984265185207669
 40
1.0
 40
1.0
 40
1.0
 40
1.0
 10
116.0104811512926
 20
117.2408256210107
 30
0.0
 10
115.6087852535261
 20
117.351920512664
 30
0.0
 10
114.8028572323634
 20
117.5748117263639
 30
0.0
 10
113.9799810441936
 20
117.7234096354232
 30
0.0
 10
113.5672481696669
 20
117.7979424060107
 30
0.0
  0
SPLINE
  5
C5
330
1F
100
AcDbEntity
  8
0
  6
Continuous
 62
     7
370
     0
100
AcDbSpline
210
0.0
220
0.0
230
1.0
 70
     8
 71
     3
 72
     9
 73
     5
 74
     0
 42
0.00000001
 43
0.00000001
 12
1.0
 22
0.0
 32
0.0
 13
1.0
 23
0.0
 33
0.0
 40
0.0
 40
0.0
 40
0.0
 40
0.0
 40
0.5008258026266235
 40
1.0
 40
1.0
 40
1.0
 40
1.0
 10
108.6387595569182
 20
117.7979424060107
 30
0.0
 10
108.2266402403909
 20
117.723532042393
 30
0.0
 10
107.403760679542
 20
117.5749567029687
 30
0.0
 10
106.5978275822633
 20
117.3520799468562
 30
0.0
 10
106.1955265752925
 20
117.2408256210106
 30
0.0
  0
LINE
  5
C6
330
1F
100
AcDbEntity
  8
0
  6
Continuous
 62
     7
370
     0
100
AcDbLine
 10
106.1955265753
 20
117.240825621
 30
0.0
 11
106.1955265753
 21
115.355059191
 31
0.0
  0
SPLINE
  5
C7
330
1F
100
AcDbEntity
  8
0
  6
Continuous
 62
     7
370
     0
100
AcDbSpline
210
0.0
220
0.0
230
1.0
 70
     8
 71
     3
 72
     9
 73
     5
 74
     0
 42
0.00000001
 43
0.00000001
 12
1.0
 22
0.0
 32
0.0
 13
1.0
 23
0.0
 33
0.0
 40
0.0
 40
0.0
 40
0.0
 40
0.0
 40
0.498426518520767
 40
1.0
 40
1.0
 40
1.0
 40
1.0
 10
106.1955265752926
 20
115.3550591910106
 30
0.0
 10
106.597222473059
 20
115.2439642993573
 30
0.0
 10
107.4031504942217
 20
115.0210730856575
 30
0.0
 10
108.2260266823915
 20
114.8724751765981
 30
0.0
 10
108.6387595569182
 20
114.7979424060107
 30
0.0
  0
SPLINE
  5
C8
330
1F
100
AcDbEntity
  8
0
  6
Continuous
 62
     7
370
     0
100
AcDbSpline
210
0.0
220
0.0
230
1.0
 70
     8
 71
     3
 72
     9
 73
     5
 74
     0
 42
0.00000001
 43
0.00000001
 12
1.0
 22
0.0
 32
0.0
 13
1.0
 23
0.0
 33
0.0
 40
0.0
 40
0.0
 40
0.0
 40
0.0
 40
0.5008258026266244
 40
1.0
 40
1.0
 40
1.0
 40
1.0
 10
113.5672481696669
 20
114.7979424060107
 30
0.0
 10
113.9793674861941
 20
114.8723527696284
 30
0.0
 10
114.8022470470431
 20
115.0209281090527
 30
0.0
 10
115.6081801443218
 20
115.2438048651651
 30
0.0
 10
116.0104811512926
 20
115.3550591910107
 30
0.0
  0
SPLINE
  5
C9
330
1F
100
AcDbEntity
  8
0
  6
Continuous
 62
     7
370
     0
100
AcDbSpline
210
0.0
220
0.0
230
1.0
 70
     8
 71
     3
 72
     9
 73
     5
 74
     0
 42
0.00000001
 43
0.00000001
 12
1.0
 22
0.0
 32
0.0
 13
1.0
 23
0.0
 33
0.0
 40
0.0
 40
0.0
 40
0.0
 40
0.0
 40
0.498426518520767
 40
1.0
 40
1.0
 40
1.0
 40
1.0
 10
106.1955265752926
 20
112.3550591910105
 30
0.0
 10
106.5972224730591
 20
112.2439642993572
 30
0.0
 10
107.4031504942218
 20
112.0210730856574
 30
0.0
 10
108.2260266823915
 20
111.872475176598
 30
0.0
 10
108.6387595569182
 20
111.7979424060105
 30
0.0
  0
LINE
  5
CA
330
1F
100
AcDbEntity
  8
0
  6
Continuous
 62
     7
370
     0
100
AcDbLine
 10
106.1955265753
 20
114.240825621
 30
0.0
 11
106.1955265753
 21
112.355059191
 31
0.0
  0
SPLINE
  5
CB
330
1F
100
AcDbEntity
  8
0
  6
Continuous
 62
     7
370
     0
100
AcDbSpline
210
0.0
220
0.0
230
1.0
 70
     8
 71
     3
 72
     9
 73
     5
 74
     0
 42
0.00000001
 43
0.00000001
 12
1.0
 22
0.0
 32
0.0
 13
1.0
 23
0.0
 33
0.0
 40
0.0
 40
0.0
 40
0.0
 40
0.0
 40
0.5008258026266235
 40
1.0
 40
1.0
 40
1.0
 40
1.0
 10
108.6387595569182
 20
114.7979424060105
 30
0.0
 10
108.226640240391
 20
114.7235320423929
 30
0.0
 10
107.4037606795421
 20
114.5749567029686
 30
0.0
 10
106.5978275822633
 20
114.3520799468562
 30
0.0
 10
106.1955265752926
 20
114.2408256210105
 30
0.0
  0
SPLINE
  5
CC
330
1F
100
AcDbEntity
  8
0
  6
Continuous
 62
     7
370
     0
100
AcDbSpline
210
0.0
220
0.0
230
1.0
 70
     8
 71
     3
 72
     9
 73
     5
 74
     0
 42
0.00000001
 43
0.00000001
 12
1.0
 22
0.0
 32
0.0
 13
1.0
 23
0.0
 33
0.0
 40
0.0
 40
0.0
 40
0.0
 40
0.0
 40
0.4984265185207669
 40
1.0
 40
1.0
 40
1.0
 40
1.0
 10
116.0104811512926
 20
114.2408256210106
 30
0.0
 10
115.6087852535261
 20
114.3519205126639
 30
0.0
 10
114.8028572323634
 20
114.5748117263637
 30
0.0
 10
113.9799810441936
 20
114.7234096354231
 30
0.0
 10
113.5672481696669
 20
114.7979424060106
 30
0.0
  0
SPLINE
  5
CD
330
1F
100
AcDbEntity
  8
0
  6
Continuous
 62
     7
370
     0
100
AcDbSpline
210
0.0
220
0.0
230
1.0
 70
     8
 71
     3
 72
     9
 73
     5
 74
     0
 42
0.00000001
 43
0.00000001
 12
1.0
 22
0.0
 32
0.0
 13
1.0
 23
0.0
 33
0.0
 40
0.0
 40
0.0
 40
0.0
 40
0.0
 40
0.5008258026266244
 40
1.0
 40
1.0
 40
1.0
 40
1.0
 10
113.567248169667
 20
111.7979424060106
 30
0.0
 10
113.9793674861942
 20
111.8723527696283
 30
0.0
 10
114.8022470470431
 20
112.0209281090526
 30
0.0
 10
115.6081801443218
 20
112.243804865165
 30
0.0
 10
116.0104811512926
 20
112.3550591910106
 30
0.0
  0
LINE
  5
CE
330
1F
100
AcDbEntity
  8
0
  6
Continuous
 62
     7
370
     0
100
AcDbLine
 10
108.6387595569
 20
111.797942406
 30
0.0
 11
113.5672481697
 21
111.797942406
 31
0.0
  0
SPLINE
  5
CF
330
1F
100
AcDbEntity
  8
0
  6
Continuous
 62
     7
370
     0
100
AcDbSpline
210
0.0
220
0.0
230
1.0
 70
     8
 71
     3
 72
     9
 73
     5
 74
     0
 42
0.00000001
 43
0.00000001
 12
1.0
 22
0.0
 32
0.0
 13
1.0
 23
0.0
 33
0.0
 40
0.0
 40
0.0
 40
0.0
 40
0.0
 40
0.4990042685583541
 40
1.0
 40
1.0
 40
1.0
 40
1.0
 10
101.2880492872926
 20
112.3550591910105
 30
0.0
 10
101.4891310272506
 20
112.2438410980071
 30
0.0
 10
101.8920969989423
 20
112.0209610546667
 30
0.0
 10
102.3035363962882
 20
111.8723805863918
 30
0.0
 10
102.5096657781054
 20
111.7979424060105
 30
0.0
  0
LINE
  5
D0
330
1F
100
AcDbEntity
  8
0
  6
Continuous
 62
     7
370
     0
100
AcDbLine
 10
101.2880492873
 20
114.240825621
 30
0.0
 11
101.2880492873
 21
112.355059191
 31
0.0
  0
SPLINE
  5
D1
330
1F
100
AcDbEntity
  8
0
  6
Continuous
 62
     7
370
     0
100
AcDbSpline
210
0.0
220
0.0
230
1.0
 70
     8
 71
     3
 72
     9
 73
     5
 74
     0
 42
0.00000001
 43
0.00000001
 12
1.0
 22
0.0
 32
0.0
 13
1.0
 23
0.0
 33
0.0
 40
0.0
 40
0.0
 40
0.0
 40
0.0
 40
0.4988474740134616
 40
1.0
 40
1.0
 40
1.0
 40
1.0
 10
102.5096657781054
 20
114.7979424060105
 30
0.0
 10
102.3044178594626
 20
114.7238557688044
 30
0.0
 10
101.8929736218254
 20
114.5753401581909
 30
0.0
 10
101.49000035691
 20
114.3525016848248
 30
0.0
 10
101.2880492872926
 20
114.2408256210105
 30
0.0
  0
LINE
  5
D2
330
1F
100
AcDbEntity
  8
0
  6
Continuous
 62
     7
370
     0
100
AcDbLine
 10
104.9739100845
 20
114.797942406
 30
0.0
 11
102.5096657781
 21
114.797942406
 31
0.0
  0
SPLINE
  5
D3
330
1F
100
AcDbEntity
  8
0
  6
Continuous
 62
     7
370
     0
100
AcDbSpline
210
0.0
220
0.0
230
1.0
 70
     8
 71
     3
 72
     9
 73
     5
 74
     0
 42
0.00000001
 43
0.00000001
 12
1.0
 22
0.0
 32
0.0
 13
1.0
 23
0.0
 33
0.0
 40
0.0
 40
0.0
 40
0.0
 40
0.0
 40
0.4990042685583531
 40
0.9999999999999999
 40
0.9999999999999999
 40
0.9999999999999999
 40
0.9999999999999999
 10
106.1955265752926
 20
114.2408256210105
 30
0.0
 10
105.9944448353346
 20
114.3520437140138
 30
0.0
 10
105.5914788636428
 20
114.5749237573543
 30
0.0
 10
105.180039466297
 20
114.7235042256292
 30
0.0
 10
104.9739100844798
 20
114.7979424060105
 30
0.0
  0
SPLINE
  5
D4
330
1F
100
AcDbEntity
  8
0
  6
Continuous
 62
     7
370
     0
100
AcDbSpline
210
0.0
220
0.0
230
1.0
 70
     8
 71
     3
 72
     9
 73
     5
 74
     0
 42
0.00000001
 43
0.00000001
 12
1.0
 22
0.0
 32
0.0
 13
1.0
 23
0.0
 33
0.0
 40
0.0
 40
0.0
 40
0.0
 40
0.0
 40
0.4988474740134617
 40
1.0
 40
1.0
 40
1.0
 40
1.0
 10
104.9739100844798
 20
111.7979424060105
 30
0.0
 10
105.1791580031225
 20
111.8720290432166
 30
0.0
 10
105.5906022407597
 20
112.0205446538301
 30
0.0
 10
105.9935755056752
 20
112.2433831271961
 30
0.0
 10
106.1955265752926
 20
112.3550591910105
 30
0.0
  0
LINE
  5
D5
330
1F
100
AcDbEntity
  8
0
  6
Continuous
 62
     7
370
     0
100
AcDbLine
 10
102.5096657781
 20
111.797942406
 30
0.0
 11
104.9739100845
 21
111.797942406
 31
0.0
  0
SPLINE
  5
D6
330
1F
100
AcDbEntity
  8
0
  6
Continuous
 62
     7
370
     0
100
AcDbSpline
210
0.0
220
0.0
230
1.0
 70
     8
 71
     3
 72
     9
 73
     5
 74
     0
 42
0.00000001
 43
0.00000001
 12
1.0
 22
0.0
 32
0.0
 13
1.0
 23
0.0
 33
0.0
 40
0.0
 40
0.0
 40
0.0
 40
0.0
 40
0.4990042685583541
 40
1.0
 40
1.0
 40
1.0
 40
1.0
 10
101.2880492872926
 20
115.3550591910106
 30
0.0
 10
101.4891310272505
 20
115.2438410980072
 30
0.0
 10
101.8920969989423
 20
115.0209610546668
 30
0.0
 10
102.3035363962882
 20
114.8723805863919
 30
0.0
 10
102.5096657781054
 20
114.7979424060106
 30
0.0
  0
LINE
  5
D7
330
1F
100
AcDbEntity
  8
0
  6
Continuous
 62
     7
370
     0
100
AcDbLine
 10
101.2880492873
 20
117.240825621
 30
0.0
 11
101.2880492873
 21
115.355059191
 31
0.0
  0
SPLINE
  5
D8
330
1F
100
AcDbEntity
  8
0
  6
Continuous
 62
     7
370
     0
100
AcDbSpline
210
0.0
220
0.0
230
1.0
 70
     8
 71
     3
 72
     9
 73
     5
 74
     0
 42
0.00000001
 43
0.00000001
 12
1.0
 22
0.0
 32
0.0
 13
1.0
 23
0.0
 33
0.0
 40
0.0
 40
0.0
 40
0.0
 40
0.0
 40
0.4988474740134616
 40
1.0
 40
1.0
 40
1.0
 40
1.0
 10
102.5096657781053
 20
117.7979424060106
 30
0.0
 10
102.3044178594626
 20
117.7238557688045
 30
0.0
 10
101.8929736218254
 20
117.575340158191
 30
0.0
 10
101.49000035691
 20
117.3525016848249
 30
0.0
 10
101.2880492872925
 20
117.2408256210106
 30
0.0
  0
LINE
  5
D9
330
1F
100
AcDbEntity
  8
0
  6
Continuous
 62
     7
370
     0
100
AcDbLine
 10
104.9739100845
 20
117.797942406
 30
0.0
 11
102.5096657781
 21
117.797942406
 31
0.0
  0
SPLINE
  5
DA
330
1F
100
AcDbEntity
  8
0
  6
Continuous
 62
     7
370
     0
100
AcDbSpline
210
0.0
220
0.0
230
1.0
 70
     8
 71
     3
 72
     9
 73
     5
 74
     0
 42
0.00000001
 43
0.00000001
 12
1.0
 22
0.0
 32
0.0
 13
1.0
 23
0.0
 33
0.0
 40
0.0
 40
0.0
 40
0.0
 40
0.0
 40
0.4990042685583531
 40
0.9999999999999999
 40
0.9999999999999999
 40
0.9999999999999999
 40
0.9999999999999999
 10
106.1955265752925
 20
117.2408256210106
 30
0.0
 10
105.9944448353346
 20
117.3520437140139
 30
0.0
 10
105.5914788636428
 20
117.5749237573544
 30
0.0
 10
105.1800394662969
 20
117.7235042256293
 30
0.0
 10
104.9739100844797
 20
117.7979424060106
 30
0.0
  0
SPLINE
  5
DB
330
1F
100
AcDbEntity
  8
0
  6
Continuous
 62
     7
370
     0
100
AcDbSpline
210
0.0
220
0.0
230
1.0
 70
     8
 71
     3
 72
     9
 73
     5
 74
     0
 42
0.00000001
 43
0.00000001
 12
1.0
 22
0.0
 32
0.0
 13
1.0
 23
0.0
 33
0.0
 40
0.0
 40
0.0
 40
0.0
 40
0.0
 40
0.4988474740134617
 40
1.0
 40
1.0
 40
1.0
 40
1.0
 10
104.9739100844798
 20
114.7979424060106
 30
0.0
 10
105.1791580031225
 20
114.8720290432167
 30
0.0
 10
105.5906022407597
 20
115.0205446538302
 30
0.0
 10
105.9935755056752
 20
115.2433831271962
 30
0.0
 10
106.1955265752926
 20
115.3550591910106
 30
0.0
  0
SPLINE
  5
DC
330
1F
100
AcDbEntity
  8
0
  6
Continuous
 62
     7
370
     0
100
AcDbSpline
210
0.0
220
0.0
230
1.0
 70
     8
 71
     3
 72
     9
 73
     5
 74
     0
 42
0.00000001
 43
0.00000001
 12
1.0
 22
0.0
 32
0.0
 13
1.0
 23
0.0
 33
0.0
 40
0.0
 40
0.0
 40
0.0
 40
0.0
 40
0.4990042685583533
 40
1.0
 40
1.0
 40
1.0
 40
1.0
 10
101.2880492872926
 20
114.2408256210105
 30
0.0
 10
101.4891310272505
 20
114.3520437140138
 30
0.0
 10
101.8920969989423
 20
114.5749237573542
 30
0.0
 10
102.3035363962882
 20
114.7235042256291
 30
0.0
 10
102.5096657781054
 20
114.7979424060105
 30
0.0
  0
SPLINE
  5
DD
330
1F
100
AcDbEntity
  8
0
  6
Continuous
 62
     7
370
     0
100
AcDbSpline
210
0.0
220
0.0
230
1.0
 70
     8
 71
     3
 72
     9
 73
     5
 74
     0
 42
0.00000001
 43
0.00000001
 12
1.0
 22
0.0
 32
0.0
 13
1.0
 23
0.0
 33
0.0
 40
0.0
 40
0.0
 40
0.0
 40
0.0
 40
0.4990042685583533
 40
1.0
 40
1.0
 40
1.0
 40
1.0
 10
101.2880492872925
 20
117.2408256210106
 30
0.0
 10
101.4891310272505
 20
117.3520437140139
 30
0.0
 10
101.8920969989423
 20
117.5749237573543
 30
0.0
 10
102.3035363962881
 20
117.7235042256292
 30
0.0
 10
102.5096657781053
 20
117.7979424060106
 30
0.0
  0
SPLINE
  5
DE
330
1F
100
AcDbEntity
  8
0
  6
Continuous
 62
     7
370
     0
100
AcDbSpline
210
0.0
220
0.0
230
1.0
 70
     8
 71
     3
 72
     9
 73
     5
 74
     0
 42
0.00000001
 43
0.00000001
 12
1.0
 22
0.0
 32
0.0
 13
1.0
 23
0.0
 33
0.0
 40
0.0
 40
0.0
 40
0.0
 40
0.0
 40
0.4990042685583541
 40
1.0
 40
1.0
 40
1.0
 40
1.0
 10
120.9179584392926
 20
115.3550591910108
 30
0.0
 10
120.7168766993346
 20
115.2438410980075
 30
0.0
 10
120.3139107276428
 20
115.020961054667
 30
0.0
 10
119.902471330297
 20
114.8723805863921
 30
0.0
 10
119.6963419484798
 20
114.7979424060108
 30
0.0
  0
SPLINE
  5
DF
330
1F
100
AcDbEntity
  8
0
  6
Continuous
 62
     7
370
     0
100
AcDbSpline
210
0.0
220
0.0
230
1.0
 70
     8
 71
     3
 72
     9
 73
     5
 74
     0
 42
0.00000001
 43
0.00000001
 12
1.0
 22
0.0
 32
0.0
 13
1.0
 23
0.0
 33
0.0
 40
0.0
 40
0.0
 40
0.0
 40
0.0
 40
0.4990042685583541
 40
1.0
 40
1.0
 40
1.0
 40
1.0
 10
120.9179584392926
 20
112.3550591910107
 30
0.0
 10
120.7168766993346
 20
112.2438410980074
 30
0.0
 10
120.3139107276429
 20
112.0209610546669
 30
0.0
 10
119.902471330297
 20
111.872380586392
 30
0.0
 10
119.6963419484798
 20
111.7979424060107
 30
0.0
  0
SPLINE
  5
E0
330
1F
100
AcDbEntity
  8
0
  6
Continuous
 62
     7
370
     0
100
AcDbSpline
210
0.0
220
0.0
230
1.0
 70
    24
 71
     3
 72
     9
 73
     5
 74
     0
 42
0.00000001
 43
0.00000001
 12
1.0
 22
0.0
 32
0.0
 13
1.0
 23
0.0
 33
0.0
 40
0.0
 40
0.0
 40
0.0
 40
0.0
 40
0.5000000001697366
 40
1.0
 40
1.0
 40
1.0
 40
1.0
 10
119.6963419514758
 20
114.7979424060108
 30
0.0
 10
119.7710845184232
 20
114.7979424060108
 30
0.0
 10
119.9205696522671
 20
114.7979424060108
 30
0.0
 10
119.9421924566935
 20
114.7979424060108
 30
0.0
 10
119.953003858903
 20
114.7979424060108
 30
0.0
  0
SPLINE
  5
E1
330
1F
100
AcDbEntity
  8
0
  6
Continuous
 62
     7
370
     0
100
AcDbSpline
210
0.0
220
0.0
230
1.0
 70
    24
 71
     3
 72
     9
 73
     5
 74
     0
 42
0.00000001
 43
0.00000001
 12
1.0
 22
0.0
 32
0.0
 13
1.0
 23
0.0
 33
0.0
 40
0.0
 40
0.0
 40
0.0
 40
0.0
 40
0.4998716769231157
 40
1.0
 40
1.0
 40
1.0
 40
1.0
 10
102.2530369150732
 20
114.7979424060106
 30
0.0
 10
102.263845502512
 20
114.7979424060106
 30
0.0
 10
102.2854682267786
 20
114.7979424060106
 30
0.0
 10
102.434920473551
 20
114.7979424060106
 30
0.0
 10
102.5096657751094
 20
114.7979424060106
 30
0.0
  0
LINE
  5
E2
330
1F
100
AcDbEntity
  8
0
  6
Continuous
 62
     7
370
     0
100
AcDbLine
 10
102.5096657751
 20
114.797942406
 30
0.0
 11
104.9739100917
 21
114.797942406
 31
0.0
  0
SPLINE
  5
E3
330
1F
100
AcDbEntity
  8
0
  6
Continuous
 62
     7
370
     0
100
AcDbSpline
210
0.0
220
0.0
230
1.0
 70
    24
 71
     3
 72
    11
 73
     7
 74
     0
 42
0.00000001
 43
0.00000001
 12
1.0
 22
0.0
 32
0.0
 13
1.0
 23
0.0
 33
0.0
 40
0.0
 40
0.0
 40
0.0
 40
0.0
 40
0.2499999994828141
 40
0.5000000001263532
 40
0.7499999976846551
 40
1.0
 40
1.0
 40
1.0
 40
1.0
 10
104.973910091749
 20
114.7979424060106
 30
0.0
 10
105.2393571848294
 20
114.7979424060106
 30
0.0
 10
105.7702513722226
 20
114.7979424060106
 30
0.0
 10
106.6687369418699
 20
114.7979424060106
 30
0.0
 10
107.622824033991
 20
114.7979424060106
 30
0.0
 10
108.3001143855593
 20
114.7979424060107
 30
0.0
 10
108.6387595645654
 20
114.7979424060107
 30
0.0
  0
SPLINE
  5
E4
330
1F
100
AcDbEntity
  8
0
  6
Continuous
 62
     7
370
     0
100
AcDbSpline
210
0.0
220
0.0
230
1.0
 70
    24
 71
     3
 72
    11
 73
     7
 74
     0
 42
0.00000001
 43
0.00000001
 12
1.0
 22
0.0
 32
0.0
 13
1.0
 23
0.0
 33
0.0
 40
0.0
 40
0.0
 40
0.0
 40
0.0
 40
0.2500000023153451
 40
0.4999999998736468
 40
0.7500000005171855
 40
1.0
 40
1.0
 40
1.0
 40
1.0
 10
113.5672481620198
 20
114.7979424060107
 30
0.0
 10
113.9058933410258
 20
114.7979424060107
 30
0.0
 10
114.5831836925941
 20
114.7979424060107
 30
0.0
 10
115.5372707847152
 20
114.7979424060107
 30
0.0
 10
116.4357563543625
 20
114.7979424060107
 30
0.0
 10
116.9666505417558
 20
114.7979424060107
 30
0.0
 10
117.2320976348362
 20
114.7979424060107
 30
0.0
  0
LINE
  5
E5
330
1F
100
AcDbEntity
  8
0
  6
Continuous
 62
     7
370
     0
100
AcDbLine
 10
117.2320976348
 20
114.797942406
 30
0.0
 11
119.6963419515
 21
114.797942406
 31
0.0
  0
SPLINE
  5
E6
330
1F
100
AcDbEntity
  8
0
  6
Continuous
 62
     7
370
     0
100
AcDbSpline
210
0.0
220
0.0
230
1.0
 70
    24
 71
     3
 72
    11
 73
     7
 74
     0
 42
0.00000001
 43
0.00000001
 12
1.0
 22
0.0
 32
0.0
 13
1.0
 23
0.0
 33
0.0
 40
0.0
 40
0.0
 40
0.0
 40
0.0
 40
0.2499999994828141
 40
0.5000000001263532
 40
0.7499999976846551
 40
1.0
 40
1.0
 40
1.0
 40
1.0
 10
104.973910091749
 20
111.7979424060105
 30
0.0
 10
105.2393571848294
 20
111.7979424060105
 30
0.0
 10
105.7702513722226
 20
111.7979424060105
 30
0.0
 10
106.6687369418699
 20
111.7979424060105
 30
0.0
 10
107.6228240339911
 20
111.7979424060105
 30
0.0
 10
108.3001143855594
 20
111.7979424060106
 30
0.0
 10
108.6387595645654
 20
111.7979424060105
 30
0.0
  0
LINE
  5
E7
330
1F
100
AcDbEntity
  8
0
  6
Continuous
 62
     7
370
     0
100
AcDbLine
 10
102.5096657751
 20
111.797942406
 30
0.0
 11
104.9739100917
 21
111.797942406
 31
0.0
  0
SPLINE
  5
E8
330
1F
100
AcDbEntity
  8
0
  6
Continuous
 62
     7
370
     0
100
AcDbSpline
210
0.0
220
0.0
230
1.0
 70
    27
 71
     3
 72
    11
 73
     7
 74
     0
 42
0.00000001
 43
0.00000001
 12
1.0
 22
0.0
 32
0.0
 13
1.0
 23
0.0
 33
0.0
 40
0.0
 40
0.0
 40
0.0
 40
0.0
 40
0.2500000000848682
 40
0.5000000000000002
 40
0.7499999999151318
 40
1.0
 40
1.0
 40
1.0
 40
1.0
 10
102.5096657751094
 20
111.7979424060105
 30
0.0
 10
102.4364676941935
 20
111.7979424060105
 30
0.0
 10
102.2900715324112
 20
111.7979424060105
 30
0.0
 10
102.234470035324
 20
111.7979424060105
 30
0.0
 10
102.2900715324112
 20
111.7979424060105
 30
0.0
 10
102.4364676941935
 20
111.7979424060105
 30
0.0
 10
102.5096657751094
 20
111.7979424060105
 30
0.0
  0
SPLINE
  5
E9
330
1F
100
AcDbEntity
  8
0
  6
Continuous
 62
     7
370
     0
100
AcDbSpline
210
0.0
220
0.0
230
1.0
 70
    24
 71
     3
 72
     9
 73
     5
 74
     0
 42
0.00000001
 43
0.00000001
 12
1.0
 22
0.0
 32
0.0
 13
1.0
 23
0.0
 33
0.0
 40
0.0
 40
0.0
 40
0.0
 40
0.0
 40
0.5000000001697366
 40
1.0
 40
1.0
 40
1.0
 40
1.0
 10
119.6963419514758
 20
111.7979424060107
 30
0.0
 10
119.7710845184232
 20
111.7979424060106
 30
0.0
 10
119.9205696522672
 20
111.7979424060106
 30
0.0
 10
119.9421924566935
 20
111.7979424060107
 30
0.0
 10
119.953003858903
 20
111.7979424060107
 30
0.0
  0
LINE
  5
EA
330
1F
100
AcDbEntity
  8
0
  6
Continuous
 62
     7
370
     0
100
AcDbLine
 10
117.2320976348
 20
111.797942406
 30
0.0
 11
119.6963419515
 21
111.797942406
 31
0.0
  0
SPLINE
  5
EB
330
1F
100
AcDbEntity
  8
0
  6
Continuous
 62
     7
370
     0
100
AcDbSpline
210
0.0
220
0.0
230
1.0
 70
    24
 71
     3
 72
    11
 73
     7
 74
     0
 42
0.00000001
 43
0.00000001
 12
1.0
 22
0.0
 32
0.0
 13
1.0
 23
0.0
 33
0.0
 40
0.0
 40
0.0
 40
0.0
 40
0.0
 40
0.2500000023153451
 40
0.4999999998736468
 40
0.7500000005171855
 40
1.0
 40
1.0
 40
1.0
 40
1.0
 10
113.5672481620198
 20
111.7979424060106
 30
0.0
 10
113.9058933410259
 20
111.7979424060106
 30
0.0
 10
114.5831836925941
 20
111.7979424060106
 30
0.0
 10
115.5372707847152
 20
111.7979424060106
 30
0.0
 10
116.4357563543626
 20
111.7979424060106
 30
0.0
 10
116.9666505417558
 20
111.7979424060106
 30
0.0
 10
117.2320976348362
 20
111.7979424060106
 30
0.0
  0
SPLINE
  5
EC
330
1F
100
AcDbEntity
  8
0
  6
Continuous
 62
     7
370
     0
100
AcDbSpline
210
0.0
220
0.0
230
1.0
 70
     8
 71
     3
 72
     9
 73
     5
 74
     0
 42
0.00000001
 43
0.00000001
 12
1.0
 22
0.0
 32
0.0
 13
1.0
 23
0.0
 33
0.0
 40
0.0
 40
0.0
 40
0.0
 40
0.0
 40
0.5008258004972287
 40
1.0
 40
1.0
 40
1.0
 40
1.0
 10
113.5672481681433
 20
114.7979424060107
 30
0.0
 10
113.9793674829776
 20
114.8723527701694
 30
0.0
 10
114.8022470439451
 20
115.0209281113057
 30
0.0
 10
115.608180142329
 20
115.2438048650202
 30
0.0
 10
116.0104811515676
 20
115.3550591901434
 30
0.0
  0
SPLINE
  5
ED
330
1F
100
AcDbEntity
  8
0
  6
Continuous
 62
     7
370
     0
100
AcDbSpline
210
0.0
220
0.0
230
1.0
 70
     8
 71
     3
 72
     9
 73
     5
 74
     0
 42
0.00000001
 43
0.00000001
 12
1.0
 22
0.0
 32
0.0
 13
1.0
 23
0.0
 33
0.0
 40
0.0
 40
0.0
 40
0.0
 40
0.0
 40
0.499004269652645
 40
1.0
 40
1.0
 40
1.0
 40
1.0
 10
116.0104811515676
 20
115.3550591901434
 30
0.0
 10
116.2115628929704
 20
115.2438410982552
 30
0.0
 10
116.614528866674
 20
115.0209610576383
 30
0.0
 10
117.0259682628017
 20
114.8723805872755
 30
0.0
 10
117.2320976435583
 20
114.7979424060107
 30
0.0
  0
LINE
  5
EE
330
1F
100
AcDbEntity
  8
0
  6
Continuous
 62
     7
370
     0
100
AcDbLine
 10
117.2320976436
 20
114.797942406
 30
0.0
 11
113.5672481681
 21
114.797942406
 31
0.0
  0
SPLINE
  5
EF
330
1F
100
AcDbEntity
  8
0
  6
Continuous
 62
     7
370
     0
100
AcDbSpline
210
0.0
220
0.0
230
1.0
 70
     8
 71
     3
 72
     9
 73
     5
 74
     0
 42
0.00000001
 43
0.00000001
 12
1.0
 22
0.0
 32
0.0
 13
1.0
 23
0.0
 33
0.0
 40
0.0
 40
0.0
 40
0.0
 40
0.0
 40
0.5008258004972287
 40
1.0
 40
1.0
 40
1.0
 40
1.0
 10
113.5672481681433
 20
111.7979424060106
 30
0.0
 10
113.9793674829777
 20
111.8723527701693
 30
0.0
 10
114.8022470439452
 20
112.0209281113055
 30
0.0
 10
115.6081801423291
 20
112.2438048650201
 30
0.0
 10
116.0104811515676
 20
112.3550591901433
 30
0.0
  0
SPLINE
  5
F0
330
1F
100
AcDbEntity
  8
0
  6
Continuous
 62
     7
370
     0
100
AcDbSpline
210
0.0
220
0.0
230
1.0
 70
     8
 71
     3
 72
     9
 73
     5
 74
     0
 42
0.00000001
 43
0.00000001
 12
1.0
 22
0.0
 32
0.0
 13
1.0
 23
0.0
 33
0.0
 40
0.0
 40
0.0
 40
0.0
 40
0.0
 40
0.499004269652645
 40
1.0
 40
1.0
 40
1.0
 40
1.0
 10
116.0104811515676
 20
112.3550591901433
 30
0.0
 10
116.2115628929704
 20
112.2438410982551
 30
0.0
 10
116.614528866674
 20
112.0209610576381
 30
0.0
 10
117.0259682628017
 20
111.8723805872754
 30
0.0
 10
117.2320976435584
 20
111.7979424060106
 30
0.0
  0
LINE
  5
F1
330
1F
100
AcDbEntity
  8
0
  6
Continuous
 62
     7
370
     0
100
AcDbLine
 10
117.2320976436
 20
111.797942406
 30
0.0
 11
113.5672481681
 21
111.797942406
 31
0.0
  0
LINE
  5
F2
330
1F
100
AcDbEntity
  8
0
  6
Continuous
 62
     7
370
     0
100
AcDbLine
 10
108.6387595604
 20
111.797942406
 30
0.0
 11
104.9739100845
 21
111.797942406
 31
0.0
  0
SPLINE
  5
F3
330
1F
100
AcDbEntity
  8
0
  6
Continuous
 62
     7
370
     0
100
AcDbSpline
210
0.0
220
0.0
230
1.0
 70
     8
 71
     3
 72
     9
 73
     5
 74
     0
 42
0.00000001
 43
0.00000001
 12
1.0
 22
0.0
 32
0.0
 13
1.0
 23
0.0
 33
0.0
 40
0.0
 40
0.0
 40
0.0
 40
0.0
 40
0.498847472771303
 40
1.0
 40
1.0
 40
1.0
 40
1.0
 10
104.9739100844991
 20
111.7979424060105
 30
0.0
 10
105.1791580027127
 20
111.8720290432391
 30
0.0
 10
105.5906022405143
 20
112.0205446542675
 30
0.0
 10
105.9935755063824
 20
112.24338312658
 30
0.0
 10
106.1955265769778
 20
112.3550591901432
 30
0.0
  0
SPLINE
  5
F4
330
1F
100
AcDbEntity
  8
0
  6
Continuous
 62
     7
370
     0
100
AcDbSpline
210
0.0
220
0.0
230
1.0
 70
     8
 71
     3
 72
     9
 73
     5
 74
     0
 42
0.00000001
 43
0.00000001
 12
1.0
 22
0.0
 32
0.0
 13
1.0
 23
0.0
 33
0.0
 40
0.0
 40
0.0
 40
0.0
 40
0.0
 40
0.4984265172808144
 40
1.0
 40
1.0
 40
1.0
 40
1.0
 10
106.1955265769778
 20
112.3550591901432
 30
0.0
 10
106.5972224738729
 20
112.2439642981257
 30
0.0
 10
107.4031504952924
 20
112.0210730831406
 30
0.0
 10
108.2260266843899
 20
111.87247517588
 30
0.0
 10
108.6387595604021
 20
111.7979424060105
 30
0.0
  0
SPLINE
  5
F5
330
1F
100
AcDbEntity
  8
0
  6
Continuous
 62
     7
370
     0
100
AcDbSpline
210
0.0
220
0.0
230
1.0
 70
     8
 71
     3
 72
     9
 73
     5
 74
     0
 42
0.00000001
 43
0.00000001
 12
1.0
 22
0.0
 32
0.0
 13
1.0
 23
0.0
 33
0.0
 40
0.0
 40
0.0
 40
0.0
 40
0.0
 40
0.498847472771303
 40
1.0
 40
1.0
 40
1.0
 40
1.0
 10
104.9739100844991
 20
114.7979424060106
 30
0.0
 10
105.1791580027127
 20
114.8720290432392
 30
0.0
 10
105.5906022405143
 20
115.0205446542676
 30
0.0
 10
105.9935755063824
 20
115.2433831265801
 30
0.0
 10
106.1955265769778
 20
115.3550591901433
 30
0.0
  0
SPLINE
  5
F6
330
1F
100
AcDbEntity
  8
0
  6
Continuous
 62
     7
370
     0
100
AcDbSpline
210
0.0
220
0.0
230
1.0
 70
     8
 71
     3
 72
     9
 73
     5
 74
     0
 42
0.00000001
 43
0.00000001
 12
1.0
 22
0.0
 32
0.0
 13
1.0
 23
0.0
 33
0.0
 40
0.0
 40
0.0
 40
0.0
 40
0.0
 40
0.4984265172808144
 40
1.0
 40
1.0
 40
1.0
 40
1.0
 10
106.1955265769778
 20
115.3550591901433
 30
0.0
 10
106.5972224738729
 20
115.2439642981258
 30
0.0
 10
107.4031504952924
 20
115.0210730831407
 30
0.0
 10
108.2260266843898
 20
114.8724751758801
 30
0.0
 10
108.6387595604021
 20
114.7979424060107
 30
0.0
  0
LINE
  5
F7
330
1F
100
AcDbEntity
  8
0
  6
Continuous
 62
     7
370
     0
100
AcDbLine
 10
119.9530038633
 20
114.797942406
 30
0.0
 11
119.6963419478
 21
114.797942406
 31
0.0
  0
SPLINE
  5
F8
330
1F
100
AcDbEntity
  8
0
  6
Continuous
 62
     7
370
     0
100
AcDbSpline
210
0.0
220
0.0
230
1.0
 70
     8
 71
     3
 72
     9
 73
     5
 74
     0
 42
0.00000001
 43
0.00000001
 12
1.0
 22
0.0
 32
0.0
 13
1.0
 23
0.0
 33
0.0
 40
0.0
 40
0.0
 40
0.0
 40
0.0
 40
0.4988474727712973
 40
0.9999999999999999
 40
0.9999999999999999
 40
0.9999999999999999
 40
0.9999999999999999
 10
119.6963419477759
 20
114.7979424060108
 30
0.0
 10
119.9015898661734
 20
114.8720290432393
 30
0.0
 10
120.3130341043435
 20
115.0205446542677
 30
0.0
 10
120.7160073693766
 20
115.2433831265803
 30
0.0
 10
120.9179584395535
 20
115.3550591901435
 30
0.0
  0
LINE
  5
F9
330
1F
100
AcDbEntity
  8
0
  6
Continuous
 62
     7
370
     0
100
AcDbLine
 10
119.9530038633
 20
111.797942406
 30
0.0
 11
119.6963419478
 21
111.797942406
 31
0.0
  0
SPLINE
  5
FA
330
1F
100
AcDbEntity
  8
0
  6
Continuous
 62
     7
370
     0
100
AcDbSpline
210
0.0
220
0.0
230
1.0
 70
     8
 71
     3
 72
     9
 73
     5
 74
     0
 42
0.00000001
 43
0.00000001
 12
1.0
 22
0.0
 32
0.0
 13
1.0
 23
0.0
 33
0.0
 40
0.0
 40
0.0
 40
0.0
 40
0.0
 40
0.4988474727712973
 40
0.9999999999999999
 40
0.9999999999999999
 40
0.9999999999999999
 40
0.9999999999999999
 10
119.6963419477759
 20
111.7979424060106
 30
0.0
 10
119.9015898661734
 20
111.8720290432392
 30
0.0
 10
120.3130341043435
 20
112.0205446542676
 30
0.0
 10
120.7160073693766
 20
112.2433831265802
 30
0.0
 10
120.9179584395535
 20
112.3550591901434
 30
0.0
  0
LINE
  5
FB
330
1F
100
AcDbEntity
  8
0
  6
Continuous
 62
     7
370
     0
100
AcDbLine
 10
102.2530038633
 20
114.797942406
 30
0.0
 11
102.5096657788
 21
114.797942406
 31
0.0
  0
SPLINE
  5
FC
330
1F
100
AcDbEntity
  8
0
  6
Continuous
 62
     7
370
     0
100
AcDbSpline
210
0.0
220
0.0
230
1.0
 70
     8
 71
     3
 72
     9
 73
     5
 74
     0
 42
0.00000001
 43
0.00000001
 12
1.0
 22
0.0
 32
0.0
 13
1.0
 23
0.0
 33
0.0
 40
0.0
 40
0.0
 40
0.0
 40
0.0
 40
0.4988474727712973
 40
0.9999999999999999
 40
0.9999999999999999
 40
0.9999999999999999
 40
0.9999999999999999
 10
102.5096657788093
 20
114.7979424060105
 30
0.0
 10
102.3044178604118
 20
114.7238557687819
 30
0.0
 10
101.8929736222416
 20
114.5753401577535
 30
0.0
 10
101.4900003572086
 20
114.352501685441
 30
0.0
 10
101.2880492870317
 20
114.2408256218778
 30
0.0
  0
LINE
  5
FD
330
1F
100
AcDbEntity
  8
0
  6
Continuous
 62
     7
370
     0
100
AcDbLine
 10
102.2530038633
 20
117.797942406
 30
0.0
 11
102.5096657788
 21
117.797942406
 31
0.0
  0
SPLINE
  5
FE
330
1F
100
AcDbEntity
  8
0
  6
Continuous
 62
     7
370
     0
100
AcDbSpline
210
0.0
220
0.0
230
1.0
 70
     8
 71
     3
 72
     9
 73
     5
 74
     0
 42
0.00000001
 43
0.00000001
 12
1.0
 22
0.0
 32
0.0
 13
1.0
 23
0.0
 33
0.0
 40
0.0
 40
0.0
 40
0.0
 40
0.0
 40
0.4988474727712973
 40
0.9999999999999999
 40
0.9999999999999999
 40
0.9999999999999999
 40
0.9999999999999999
 10
102.5096657788092
 20
117.7979424060106
 30
0.0
 10
102.3044178604117
 20
117.723855768782
 30
0.0
 10
101.8929736222416
 20
117.5753401577536
 30
0.0
 10
101.4900003572085
 20
117.3525016854411
 30
0.0
 10
101.2880492870316
 20
117.2408256218779
 30
0.0
  0
SPLINE
  5
FF
330
1F
100
AcDbEntity
  8
0
  6
Continuous
 62
     7
370
     0
100
AcDbSpline
210
0.0
220
0.0
230
1.0
 70
     8
 71
     3
 72
     9
 73
     5
 74
     0
 42
0.00000001
 43
0.00000001
 12
1.0
 22
0.0
 32
0.0
 13
1.0
 23
0.0
 33
0.0
 40
0.0
 40
0.0
 40
0.0
 40
0.0
 40
0.4990042680088594
 40
1.0
 40
1.0
 40
1.0
 40
1.0
 10
101.2880492870316
 20
115.3550591901433
 30
0.0
 10
101.4891310271405
 20
115.2438410981436
 30
0.0
 10
101.8920969995784
 20
115.020961056569
 30
0.0
 10
102.3035363957343
 20
114.8723805870812
 30
0.0
 10
102.5096657771813
 20
114.7979424060106
 30
0.0
  0
SPLINE
  5
100
330
1F
100
AcDbEntity
  8
0
  6
Continuous
 62
     7
370
     0
100
AcDbSpline
210
0.0
220
0.0
230
1.0
 70
     8
 71
     3
 72
     9
 73
     5
 74
     0
 42
0.00000001
 43
0.00000001
 12
1.0
 22
0.0
 32
0.0
 13
1.0
 23
0.0
 33
0.0
 40
0.0
 40
0.0
 40
0.0
 40
0.0
 40
0.4990042680088594
 40
1.0
 40
1.0
 40
1.0
 40
1.0
 10
101.2880492870317
 20
112.3550591901431
 30
0.0
 10
101.4891310271405
 20
112.2438410981434
 30
0.0
 10
101.8920969995785
 20
112.0209610565689
 30
0.0
 10
102.3035363957343
 20
111.8723805870811
 30
0.0
 10
102.5096657771814
 20
111.7979424060105
 30
0.0
  0
LINE
  5
101
330
1F
100
AcDbEntity
  8
0
  6
Continuous
 62
     7
370
     0
100
AcDbLine
 10
102.5096657772
 20
111.797942406
 30
0.0
 11
102.2530038633
 21
111.797942406
 31
0.0
  0
LINE
  5
102
330
1F
100
AcDbEntity
  8
0
  6
Continuous
 62
     7
370
     0
100
AcDbLine
 10
113.5672481662
 20
117.797942406
 30
0.0
 11
117.2320976421
 21
117.797942406
 31
0.0
  0
SPLINE
  5
103
330
1F
100
AcDbEntity
  8
0
  6
Continuous
 62
     7
370
     0
100
AcDbSpline
210
0.0
220
0.0
230
1.0
 70
     8
 71
     3
 72
     9
 73
     5
 74
     0
 42
0.00000001
 43
0.00000001
 12
1.0
 22
0.0
 32
0.0
 13
1.0
 23
0.0
 33
0.0
 40
0.0
 40
0.0
 40
0.0
 40
0.0
 40
0.498847472771303
 40
1.0
 40
1.0
 40
1.0
 40
1.0
 10
117.232097642086
 20
117.7979424060107
 30
0.0
 10
117.0268497238724
 20
117.7238557687822
 30
0.0
 10
116.6154054860709
 20
117.5753401577538
 30
0.0
 10
116.2124322202027
 20
117.3525016854413
 30
0.0
 10
116.0104811496073
 20
117.2408256218781
 30
0.0
  0
SPLINE
  5
104
330
1F
100
AcDbEntity
  8
0
  6
Continuous
 62
     7
370
     0
100
AcDbSpline
210
0.0
220
0.0
230
1.0
 70
     8
 71
     3
 72
     9
 73
     5
 74
     0
 42
0.00000001
 43
0.00000001
 12
1.0
 22
0.0
 32
0.0
 13
1.0
 23
0.0
 33
0.0
 40
0.0
 40
0.0
 40
0.0
 40
0.0
 40
0.4984265172808144
 40
1.0
 40
1.0
 40
1.0
 40
1.0
 10
116.0104811496073
 20
117.2408256218781
 30
0.0
 10
115.6087852527122
 20
117.3519205138956
 30
0.0
 10
114.8028572312927
 20
117.5748117288807
 30
0.0
 10
113.9799810421953
 20
117.7234096361413
 30
0.0
 10
113.567248166183
 20
117.7979424060107
 30
0.0
  0
SPLINE
  5
105
330
1F
100
AcDbEntity
  8
0
  6
Continuous
 62
     7
370
     0
100
AcDbSpline
210
0.0
220
0.0
230
1.0
 70
     8
 71
     3
 72
     9
 73
     5
 74
     0
 42
0.00000001
 43
0.00000001
 12
1.0
 22
0.0
 32
0.0
 13
1.0
 23
0.0
 33
0.0
 40
0.0
 40
0.0
 40
0.0
 40
0.0
 40
0.498847472771303
 40
1.0
 40
1.0
 40
1.0
 40
1.0
 10
117.232097642086
 20
114.7979424060106
 30
0.0
 10
117.0268497238724
 20
114.723855768782
 30
0.0
 10
116.6154054860709
 20
114.5753401577537
 30
0.0
 10
116.2124322202028
 20
114.3525016854412
 30
0.0
 10
116.0104811496074
 20
114.240825621878
 30
0.0
  0
SPLINE
  5
106
330
1F
100
AcDbEntity
  8
0
  6
Continuous
 62
     7
370
     0
100
AcDbSpline
210
0.0
220
0.0
230
1.0
 70
     8
 71
     3
 72
     9
 73
     5
 74
     0
 42
0.00000001
 43
0.00000001
 12
1.0
 22
0.0
 32
0.0
 13
1.0
 23
0.0
 33
0.0
 40
0.0
 40
0.0
 40
0.0
 40
0.0
 40
0.4984265172808144
 40
1.0
 40
1.0
 40
1.0
 40
1.0
 10
116.0104811496074
 20
114.240825621878
 30
0.0
 10
115.6087852527122
 20
114.3519205138955
 30
0.0
 10
114.8028572312928
 20
114.5748117288806
 30
0.0
 10
113.9799810421953
 20
114.7234096361412
 30
0.0
 10
113.567248166183
 20
114.7979424060106
 30
0.0
  0
SPLINE
  5
107
330
1F
100
AcDbEntity
  8
0
  6
Continuous
 62
     7
370
     0
100
AcDbSpline
210
0.0
220
0.0
230
1.0
 70
     8
 71
     3
 72
     9
 73
     5
 74
     0
 42
0.00000001
 43
0.00000001
 12
1.0
 22
0.0
 32
0.0
 13
1.0
 23
0.0
 33
0.0
 40
0.0
 40
0.0
 40
0.0
 40
0.0
 40
0.4990042680088588
 40
1.0
 40
1.0
 40
1.0
 40
1.0
 10
120.9179584395535
 20
117.2408256218781
 30
0.0
 10
120.7168766994446
 20
117.3520437138778
 30
0.0
 10
120.3139107270067
 20
117.5749237554523
 30
0.0
 10
119.9024713308509
 20
117.7235042249401
 30
0.0
 10
119.6963419494038
 20
117.7979424060108
 30
0.0
  0
LINE
  5
108
330
1F
100
AcDbEntity
  8
0
  6
Continuous
 62
     7
370
     0
100
AcDbLine
 10
119.6963419494
 20
117.797942406
 30
0.0
 11
119.9530038633
 21
117.797942406
 31
0.0
  0
SPLINE
  5
109
330
1F
100
AcDbEntity
  8
0
  6
Continuous
 62
     7
370
     0
100
AcDbSpline
210
0.0
220
0.0
230
1.0
 70
     8
 71
     3
 72
     9
 73
     5
 74
     0
 42
0.00000001
 43
0.00000001
 12
1.0
 22
0.0
 32
0.0
 13
1.0
 23
0.0
 33
0.0
 40
0.0
 40
0.0
 40
0.0
 40
0.0
 40
0.4990042680088588
 40
1.0
 40
1.0
 40
1.0
 40
1.0
 10
120.9179584395535
 20
114.240825621878
 30
0.0
 10
120.7168766994446
 20
114.3520437138777
 30
0.0
 10
120.3139107270067
 20
114.5749237554522
 30
0.0
 10
119.9024713308509
 20
114.72350422494
 30
0.0
 10
119.6963419494038
 20
114.7979424060107
 30
0.0
  0
SPLINE
  5
10A
330
1F
100
AcDbEntity
  8
0
  6
Continuous
 62
     7
370
     0
100
AcDbSpline
210
0.0
220
0.0
230
1.0
 70
    24
 71
     3
 72
    13
 73
     9
 74
     0
 42
0.00000001
 43
0.00000001
 12
1.0
 22
0.0
 32
0.0
 13
1.0
 23
0.0
 33
0.0
 40
0.0
 40
0.0
 40
0.0
 40
0.0
 40
0.1724208731134389
 40
0.3592962942654244
 40
0.5461717135881542
 40
0.733047132910884
 40
0.9199225540628696
 40
1.0
 40
1.0
 40
1.0
 40
1.0
 10
105.1030038632921
 20
157.6802235166267
 30
0.0
 10
105.1030038632921
 20
157.894674693857
 30
0.0
 10
105.1030038632921
 20
158.3415551201556
 30
0.0
 10
105.1030038632921
 20
159.0922261784465
 30
0.0
 10
105.1030038632921
 20
159.8800822337406
 30
0.0
 10
105.1030038632921
 20
160.6573810226321
 30
0.0
 10
105.1030038632921
 20
161.2697958573728
 30
0.0
 10
105.1030038632921
 20
161.5855170962901
 30
0.0
 10
105.1030038632921
 20
161.6802235166267
 30
0.0
  0
SPLINE
  5
10B
330
1F
100
AcDbEntity
  8
0
  6
Continuous
 62
     7
370
     0
100
AcDbSpline
210
0.0
220
0.0
230
1.0
 70
    24
 71
     3
 72
    10
 73
     6
 74
     0
 42
0.00000001
 43
0.00000001
 12
1.0
 22
0.0
 32
0.0
 13
1.0
 23
0.0
 33
0.0
 40
0.0
 40
0.0
 40
0.0
 40
0.0
 40
0.3984117272653643
 40
0.7971009837531531
 40
1.0
 40
1.0
 40
1.0
 40
1.0
 10
117.9030038632921
 20
155.6802770203938
 30
0.0
 10
117.9030038632921
 20
155.6964656944472
 30
0.0
 10
117.9030038632921
 20
155.7288543194061
 30
0.0
 10
117.9030038632921
 20
155.9112963523777
 30
0.0
 10
117.9030038632921
 20
156.1068618281609
 30
0.0
 10
117.9030038632921
 20
156.1728206316261
 30
0.0
  0
SPLINE
  5
10C
330
1F
100
AcDbEntity
  8
0
  6
Continuous
 62
     7
370
     0
100
AcDbSpline
210
0.0
220
0.0
230
1.0
 70
    24
 71
     3
 72
    13
 73
     9
 74
     0
 42
0.00000001
 43
0.00000001
 12
1.0
 22
0.0
 32
0.0
 13
1.0
 23
0.0
 33
0.0
 40
0.0
 40
0.0
 40
0.0
 40
0.0
 40
0.0422165622995314
 40
0.2337732492333164
 40
0.4253299361671019
 40
0.6168866249759667
 40
0.8084433124792382
 40
1.0
 40
1.0
 40
1.0
 40
1.0
 10
117.9030038632921
 20
156.2728813694605
 30
0.0
 10
117.9030038632921
 20
156.2992622486718
 30
0.0
 10
117.9030038632921
 20
156.4453457645935
 30
0.0
 10
117.9030038632921
 20
156.8406236652775
 30
0.0
 10
117.9030038632921
 20
157.4417262982504
 30
0.0
 10
117.9030038632921
 20
158.1401266548596
 30
0.0
 10
117.9030038632921
 20
158.8947057998242
 30
0.0
 10
117.9030038632921
 20
159.4183842776842
 30
0.0
 10
117.9030038632921
 20
159.6802235166261
 30
0.0
  0
SPLINE
  5
10D
330
1F
100
AcDbEntity
  8
0
  6
Continuous
 62
     7
370
     0
100
AcDbSpline
210
0.0
220
0.0
230
1.0
 70
    24
 71
     3
 72
    13
 73
     9
 74
     0
 42
0.00000001
 43
0.00000001
 12
1.0
 22
0.0
 32
0.0
 13
1.0
 23
0.0
 33
0.0
 40
0.0
 40
0.0
 40
0.0
 40
0.0
 40
0.1915373605706217
 40
0.3830747211237548
 40
0.5746120829823494
 40
0.7661494429660534
 40
0.9576868029497578
 40
1.0
 40
1.0
 40
1.0
 40
1.0
 10
117.9030038632921
 20
159.6802235166261
 30
0.0
 10
117.9030038632921
 20
159.9420627186317
 30
0.0
 10
117.9030038632921
 20
160.4657411226189
 30
0.0
 10
117.9030038632921
 20
161.2203208216293
 30
0.0
 10
117.9030038632921
 20
161.9187190728643
 30
0.0
 10
117.9030038632921
 20
162.5198295732885
 30
0.0
 10
117.9030038632921
 20
162.9151795102088
 30
0.0
 10
117.9030038632921
 20
163.0613179182496
 30
0.0
 10
117.9030038632921
 20
163.0877603750667
 30
0.0
  0
SPLINE
  5
10E
330
1F
100
AcDbEntity
  8
0
  6
Continuous
 62
     7
370
     0
100
AcDbSpline
210
0.0
220
0.0
230
1.0
 70
    24
 71
     3
 72
    11
 73
     7
 74
     0
 42
0.00000001
 43
0.00000001
 12
1.0
 22
0.0
 32
0.0
 13
1.0
 23
0.0
 33
0.0
 40
0.0
 40
0.0
 40
0.0
 40
0.0
 40
0.2027864578961354
 40
0.6012545412802329
 40
0.9997226247007129
 40
1.0
 40
1.0
 40
1.0
 40
1.0
 10
117.9030038632921
 20
163.1876264016261
 30
0.0
 10
117.9030038632921
 20
163.2541513504374
 30
0.0
 10
117.9030038632921
 20
163.4513954267736
 30
0.0
 10
117.9030038632921
 20
163.6118530092081
 30
0.0
 10
117.9030038632919
 20
163.7058421662484
 30
0.0
 10
117.9030038632921
 20
163.680187858507
 30
0.0
 10
117.9030038632921
 20
163.6801700128585
 30
0.0
  0
LINE
  5
10F
330
1F
100
AcDbEntity
  8
0
  6
Continuous
 62
     7
370
     0
100
AcDbLine
 10
104.3030038633
 20
156.9953444386
 30
0.0
 11
105.1030038633
 21
156.9953444386
 31
0.0
  0
LINE
  5
110
330
1F
100
AcDbEntity
  8
0
  6
Continuous
 62
     7
370
     0
100
AcDbLine
 10
104.3030038633
 20
155.6802235166
 30
0.0
 11
104.3030038633
 21
156.9953444386
 31
0.0
  0
LINE
  5
111
330
1F
100
AcDbEntity
  8
0
  6
Continuous
 62
     7
370
     0
100
AcDbLine
 10
117.1030038633
 20
159.6802235166
 30
0.0
 11
117.9030038633
 21
159.6802235166
 31
0.0
  0
LINE
  5
112
330
1F
100
AcDbEntity
  8
0
  6
Continuous
 62
     7
370
     0
100
AcDbLine
 10
117.9030038633
 20
156.1728206316
 30
0.0
 11
117.9030038633
 21
155.6802235166
 31
0.0
  0
LINE
  5
113
330
1F
100
AcDbEntity
  8
0
  6
Continuous
 62
     7
370
     0
100
AcDbLine
 10
117.1030038633
 20
157.6802235166
 30
0.0
 11
117.1030038633
 21
159.6802235166
 31
0.0
  0
SPLINE
  5
114
330
1F
100
AcDbEntity
  8
0
  6
Continuous
 62
     7
370
     0
100
AcDbSpline
210
0.0
220
0.0
230
1.0
 70
    24
 71
     3
 72
    10
 73
     6
 74
     0
 42
0.00000001
 43
0.00000001
 12
1.0
 22
0.0
 32
0.0
 13
1.0
 23
0.0
 33
0.0
 40
0.0
 40
0.0
 40
0.0
 40
0.0
 40
0.3733329101315851
 40
0.7466658202290836
 40
1.0
 40
1.0
 40
1.0
 40
1.0
 10
117.1030038632921
 20
159.6802235166261
 30
0.0
 10
117.1030038632921
 20
159.9414664053774
 30
0.0
 10
117.1030038632921
 20
160.463952182856
 30
0.0
 10
117.1030038632921
 20
161.1456711664901
 30
0.0
 10
117.1030038632921
 20
161.5263369418694
 30
0.0
 10
117.1030038632921
 20
161.6802235166261
 30
0.0
  0
SPLINE
  5
115
330
1F
100
AcDbEntity
  8
0
  6
Continuous
 62
     7
370
     0
100
AcDbSpline
210
0.0
220
0.0
230
1.0
 70
    24
 71
     3
 72
    10
 73
     6
 74
     0
 42
0.00000001
 43
0.00000001
 12
1.0
 22
0.0
 32
0.0
 13
1.0
 23
0.0
 33
0.0
 40
0.0
 40
0.0
 40
0.0
 40
0.0
 40
0.2533341797709168
 40
0.626667089868415
 40
1.0
 40
1.0
 40
1.0
 40
1.0
 10
117.1030038632921
 20
157.6802235166261
 30
0.0
 10
117.1030038632921
 20
157.8341100913828
 30
0.0
 10
117.1030038632921
 20
158.2147758667622
 30
0.0
 10
117.1030038632921
 20
158.8964948503962
 30
0.0
 10
117.1030038632921
 20
159.4189806278749
 30
0.0
 10
117.1030038632921
 20
159.6802235166261
 30
0.0
  0
SPLINE
  5
116
330
1F
100
AcDbEntity
  8
0
  6
Continuous
 62
     7
370
     0
100
AcDbSpline
210
0.0
220
0.0
230
1.0
 70
    24
 71
     3
 72
    11
 73
     7
 74
     0
 42
0.00000001
 43
0.00000001
 12
1.0
 22
0.0
 32
0.0
 13
1.0
 23
0.0
 33
0.0
 40
0.0
 40
0.0
 40
0.0
 40
0.0
 40
0.2703600669427101
 40
0.5407201338607345
 40
0.8110802026214525
 40
0.9999999999999999
 40
0.9999999999999999
 40
0.9999999999999999
 40
0.9999999999999999
 10
104.3030038632921
 20
156.9953444399248
 30
0.0
 10
104.3030038632921
 20
157.1993883160325
 30
0.0
 10
104.3030038632921
 20
157.6074760682292
 30
0.0
 10
104.3030038632921
 20
158.3270492779165
 30
0.0
 10
104.3030038632921
 20
159.0139810811339
 30
0.0
 10
104.3030038632921
 20
159.4592433472497
 30
0.0
 10
104.3030038632921
 20
159.6423971567168
 30
0.0
  0
SPLINE
  5
117
330
1F
100
AcDbEntity
  8
0
  6
Continuous
 62
     7
370
     0
100
AcDbSpline
210
0.0
220
0.0
230
1.0
 70
    24
 71
     3
 72
    13
 73
     9
 74
     0
 42
0.00000001
 43
0.00000001
 12
1.0
 22
0.0
 32
0.0
 13
1.0
 23
0.0
 33
0.0
 40
0.0
 40
0.0
 40
0.0
 40
0.0
 40
0.0303246089802006
 40
0.2242596864514711
 40
0.418194765821102
 40
0.6121298438689298
 40
0.8060649219344649
 40
1.0
 40
1.0
 40
1.0
 40
1.0
 10
104.3030038632921
 20
159.7558562385649
 30
0.0
 10
104.3030038632921
 20
159.7966827727147
 30
0.0
 10
104.3030038632921
 20
160.0986073829647
 30
0.0
 10
104.3030038632921
 20
160.6602887894484
 30
0.0
 10
104.3030038632921
 20
161.4035040767359
 30
0.0
 10
104.3030038632921
 20
162.0782867833531
 30
0.0
 10
104.3030038632921
 20
162.6702943071153
 30
0.0
 10
104.3030038632921
 20
162.9648172806231
 30
0.0
 10
104.3030038632921
 20
163.112078767377
 30
0.0
  0
SPLINE
  5
118
330
1F
100
AcDbEntity
  8
0
  6
Continuous
 62
     7
370
     0
100
AcDbSpline
210
0.0
220
0.0
230
1.0
 70
    24
 71
     3
 72
    10
 73
     6
 74
     0
 42
0.00000001
 43
0.00000001
 12
1.0
 22
0.0
 32
0.0
 13
1.0
 23
0.0
 33
0.0
 40
0.0
 40
0.0
 40
0.0
 40
0.0
 40
0.3071135616066785
 40
0.7036743962094015
 40
0.9999999999999999
 40
0.9999999999999999
 40
0.9999999999999999
 40
0.9999999999999999
 10
104.303003863292
 20
163.1876264017901
 30
0.0
 10
104.303003863292
 20
163.280293048725
 30
0.0
 10
104.303003863292
 20
163.4926156387454
 30
0.0
 10
104.303003863292
 20
163.6555064225316
 30
0.0
 10
104.303003863292
 20
163.6626327879725
 30
0.0
 10
104.303003863292
 20
163.6656805089627
 30
0.0
  0
SPLINE
  5
119
330
1F
100
AcDbEntity
  8
0
  6
Continuous
 62
     7
370
     0
100
AcDbSpline
210
0.0
220
0.0
230
1.0
 70
    24
 71
     3
 72
    11
 73
     7
 74
     0
 42
0.00000001
 43
0.00000001
 12
1.0
 22
0.0
 32
0.0
 13
1.0
 23
0.0
 33
0.0
 40
0.0
 40
0.0
 40
0.0
 40
0.0
 40
0.1003062639577037
 40
0.4971481386130519
 40
0.8939900171529414
 40
1.0
 40
1.0
 40
1.0
 40
1.0
 10
104.3030038632921
 20
155.6947665242893
 30
0.0
 10
104.3030038632921
 20
155.6903375237696
 30
0.0
 10
104.3030038632921
 20
155.6683860595502
 30
0.0
 10
104.3030038632921
 20
155.7902522775366
 30
0.0
 10
104.3030038632921
 20
155.9595602439186
 30
0.0
 10
104.3030038632921
 20
156.1356894984781
 30
0.0
 10
104.3030038632921
 20
156.1728206312996
 30
0.0
  0
SPLINE
  5
11A
330
1F
100
AcDbEntity
  8
0
  6
Continuous
 62
     7
370
     0
100
AcDbSpline
210
0.0
220
0.0
230
1.0
 70
    24
 71
     3
 72
     9
 73
     5
 74
     0
 42
0.00000001
 43
0.00000001
 12
1.0
 22
0.0
 32
0.0
 13
1.0
 23
0.0
 33
0.0
 40
0.0
 40
0.0
 40
0.0
 40
0.0
 40
0.3210918561245301
 40
1.0
 40
1.0
 40
1.0
 40
1.0
 10
104.3030038632921
 20
156.27767843525
 30
0.0
 10
104.3030038632921
 20
156.3381564558493
 30
0.0
 10
104.3030038632921
 20
156.5265076066048
 30
0.0
 10
104.3030038632921
 20
156.805758639504
 30
0.0
 10
104.3030038632921
 20
156.9953444399248
 30
0.0
  0
LINE
  5
11B
330
1F
100
AcDbEntity
  8
0
  6
Continuous
 62
     7
370
     0
100
AcDbLine
 10
104.3030038633
 20
156.9953444391
 30
0.0
 11
104.3030038633
 21
159.6802235168
 31
0.0
  0
LINE
  5
11C
330
1F
100
AcDbEntity
  8
0
  6
Continuous
 62
     7
370
     0
100
AcDbLine
 10
104.3030038633
 20
163.1876264018
 30
0.0
 11
104.3030038633
 21
163.6802235166
 31
0.0
  0
LINE
  5
11D
330
1F
100
AcDbEntity
  8
0
  6
Continuous
 62
     7
370
     0
100
AcDbLine
 10
117.9030038633
 20
163.6802235166
 30
0.0
 11
117.9030038633
 21
163.1876264016
 31
0.0
  0
LINE
  5
11E
330
1F
100
AcDbEntity
  8
0
  6
Continuous
 62
     7
370
     0
100
AcDbLine
 10
117.1030038633
 20
159.6802235173
 30
0.0
 11
117.1030038633
 21
161.6802235166
 31
0.0
  0
LINE
  5
11F
330
1F
100
AcDbEntity
  8
0
  6
Continuous
 62
     7
370
     0
100
AcDbLine
 10
99.3030038633
 20
157.8615701691
 30
0.0
 11
101.8030038633
 21
157.8615701691
 31
0.0
  0
LINE
  5
120
330
1F
100
AcDbEntity
  8
0
  6
Continuous
 62
     7
370
     0
100
AcDbLine
 10
104.3030038633
 20
159.6802235173
 30
0.0
 11
104.3030038633
 21
159.7685139733
 31
0.0
  0
LINE
  5
121
330
1F
100
AcDbEntity
  8
0
  6
Continuous
 62
     7
370
     0
100
AcDbLine
 10
104.3030038633
 20
163.099335945
 30
0.0
 11
104.3030038633
 21
163.1876264009
 31
0.0
  0
LINE
  5
122
330
1F
100
AcDbEntity
  8
0
  6
Continuous
 62
     7
370
     0
100
AcDbLine
 10
104.3030038633
 20
156.172820633
 30
0.0
 11
104.3030038633
 21
156.2611110868
 31
0.0
  0
LINE
  5
123
330
1F
100
AcDbEntity
  8
0
  6
Continuous
 62
     7
370
     0
100
AcDbLine
 10
104.3030038633
 20
157.0709771612
 30
0.0
 11
104.3030038633
 21
159.6802235173
 31
0.0
  0
LINE
  5
124
330
1F
100
AcDbEntity
  8
0
  6
Continuous
 62
     7
370
     0
100
AcDbLine
 10
104.3030038633
 20
159.6802235165
 30
0.0
 11
101.8030038633
 21
159.6802235165
 31
0.0
  0
LINE
  5
125
330
1F
100
AcDbEntity
  8
0
  6
Continuous
 62
     7
370
     0
100
AcDbLine
 10
101.8030038633
 20
159.6802235165
 30
0.0
 11
101.8030038633
 21
163.1876264018
 31
0.0
  0
LINE
  5
126
330
1F
100
AcDbEntity
  8
0
  6
Continuous
 62
     7
370
     0
100
AcDbLine
 10
101.8030038633
 20
163.1876264018
 30
0.0
 11
104.3030038633
 21
163.1876264018
 31
0.0
  0
LINE
  5
127
330
1F
100
AcDbEntity
  8
0
  6
Continuous
 62
     7
370
     0
100
AcDbLine
 10
104.3030038633
 20
163.1876264018
 30
0.0
 11
104.3030038633
 21
159.6802235165
 31
0.0
  0
LINE
  5
128
330
1F
100
AcDbEntity
  8
0
  6
Continuous
 62
     7
370
     0
100
AcDbLine
 10
104.3030038633
 20
156.1728206313
 30
0.0
 11
101.8030038633
 21
156.1728206313
 31
0.0
  0
LINE
  5
129
330
1F
100
AcDbEntity
  8
0
  6
Continuous
 62
     7
370
     0
100
AcDbLine
 10
101.8030038633
 20
156.1728206313
 30
0.0
 11
101.8030038633
 21
159.6802235165
 31
0.0
  0
LINE
  5
12A
330
1F
100
AcDbEntity
  8
0
  6
Continuous
 62
     7
370
     0
100
AcDbLine
 10
104.3030038633
 20
159.6802235165
 30
0.0
 11
104.3030038633
 21
156.1728206313
 31
0.0
  0
LINE
  5
12B
330
1F
100
AcDbEntity
  8
0
  6
Continuous
 62
     7
370
     0
100
AcDbLine
 10
101.8030038633
 20
156.172820633
 30
0.0
 11
101.8030038633
 21
159.6802235173
 31
0.0
  0
SPLINE
  5
12C
330
1F
100
AcDbEntity
  8
0
  6
Continuous
 62
     7
370
     0
100
AcDbSpline
210
0.0
220
0.0
230
1.0
 70
    24
 71
     3
 72
    10
 73
     6
 74
     0
 42
0.00000001
 43
0.00000001
 12
1.0
 22
0.0
 32
0.0
 13
1.0
 23
0.0
 33
0.0
 40
0.0
 40
0.0
 40
0.0
 40
0.0
 40
0.249829321759064
 40
0.6249146608624084
 40
1.0
 40
1.0
 40
1.0
 40
1.0
 10
99.30300386329212
 20
157.3402885410764
 30
0.0
 10
99.30300386329212
 20
157.3403648960397
 30
0.0
 10
99.30300386329212
 20
157.3405558877763
 30
0.0
 10
99.30300386329212
 20
157.4390870452129
 30
0.0
 10
99.30300386329212
 20
157.5764048942306
 30
0.0
 10
99.30300386329212
 20
157.6450638187426
 30
0.0
  0
SPLINE
  5
12D
330
1F
100
AcDbEntity
  8
0
  6
Continuous
 62
     7
370
     0
100
AcDbSpline
210
0.0
220
0.0
230
1.0
 70
    24
 71
     3
 72
    21
 73
    17
 74
     0
 42
0.00000001
 43
0.00000001
 12
1.0
 22
0.0
 32
0.0
 13
1.0
 23
0.0
 33
0.0
 40
0.0
 40
0.0
 40
0.0
 40
0.0
 40
0.0749965872861385
 40
0.1499931745654293
 40
0.2249897623558741
 40
0.2999863494122048
 40
0.374982936468535
 40
0.4499795242589802
 40
0.5249761115382712
 40
0.5999726988244094
 40
0.6749692861105476
 40
0.7499658733898384
 40
0.8249624611802836
 40
0.8999590482366142
 40
0.9749556352929446
 40
0.9999999999999999
 40
0.9999999999999999
 40
0.9999999999999999
 40
0.9999999999999999
 10
99.30300386329212
 20
157.6450638187426
 30
0.0
 10
99.30300386329212
 20
157.729541028437
 30
0.0
 10
99.30300386329212
 20
157.8984954478179
 30
0.0
 10
99.3030038632921
 20
158.2413541975345
 30
0.0
 10
99.3030038632921
 20
158.6338927068424
 30
0.0
 10
99.3030038632921
 20
159.0681455467281
 30
0.0
 10
99.3030038632921
 20
159.5255176690738
 30
0.0
 10
99.30300386329209
 20
159.9889407543194
 30
0.0
 10
99.30300386329209
 20
160.4404797252984
 30
0.0
 10
99.30300386329208
 20
160.8627779087285
 30
0.0
 10
99.30300386329208
 20
161.2397497360513
 30
0.0
 10
99.30300386329208
 20
161.5563402440426
 30
0.0
 10
99.30300386329208
 20
161.8025124928072
 30
0.0
 10
99.30300386329208
 20
161.9608565338363
 30
0.0
 10
99.30300386329208
 20
162.0340645251736
 30
0.0
 10
99.30300386329208
 20
162.0229427339394
 30
0.0
 10
99.30300386329208
 20
162.0201584921768
 30
0.0
  0
SPLINE
  5
12E
330
1F
100
AcDbEntity
  8
0
  6
Continuous
 62
     7
370
     0
100
AcDbSpline
210
0.0
220
0.0
230
1.0
 70
    24
 71
     3
 72
    21
 73
    17
 74
     0
 42
0.00000001
 43
0.00000001
 12
1.0
 22
0.0
 32
0.0
 13
1.0
 23
0.0
 33
0.0
 40
0.0
 40
0.0
 40
0.0
 40
0.0
 40
0.0749964602875597
 40
0.1499929205682718
 40
0.2249893813601372
 40
0.2999858414178891
 40
0.3749823014756413
 40
0.4499787622675065
 40
0.5249752225482187
 40
0.5999716828357783
 40
0.674968143123338
 40
0.7499646034040499
 40
0.8249610641959152
 40
0.8999575242536674
 40
0.9749539843114196
 40
0.9999999999999999
 40
0.9999999999999999
 40
0.9999999999999999
 40
0.9999999999999999
 10
94.30300386329212
 20
157.9481727099167
 30
0.0
 10
94.30300386329212
 20
158.020068207529
 30
0.0
 10
94.30300386329212
 20
158.1638592027467
 30
0.0
 10
94.30300386329212
 20
158.4556538833569
 30
0.0
 10
94.30300386329212
 20
158.7897292104263
 30
0.0
 10
94.3030038632921
 20
159.1593060954397
 30
0.0
 10
94.3030038632921
 20
159.5485589655051
 30
0.0
 10
94.30300386329209
 20
159.942961591306
 30
0.0
 10
94.3030038632921
 20
160.3272500770219
 30
0.0
 10
94.30300386329208
 20
160.6866527871589
 30
0.0
 10
94.30300386329209
 20
161.0074798711267
 30
0.0
 10
94.30300386329208
 20
161.2769186129589
 30
0.0
 10
94.30300386329209
 20
161.4864268663879
 30
0.0
 10
94.30300386329208
 20
161.6211879143111
 30
0.0
 10
94.30300386329208
 20
161.6834927203601
 30
0.0
 10
94.30300386329208
 20
161.6740270223476
 30
0.0
 10
94.30300386329208
 20
161.6716572487174
 30
0.0
  0
SPLINE
  5
12F
330
1F
100
AcDbEntity
  8
0
  6
Continuous
 62
     7
370
     0
100
AcDbSpline
210
0.0
220
0.0
230
1.0
 70
    24
 71
     3
 72
    10
 73
     6
 74
     0
 42
0.00000001
 43
0.00000001
 12
1.0
 22
0.0
 32
0.0
 13
1.0
 23
0.0
 33
0.0
 40
0.0
 40
0.0
 40
0.0
 40
0.0
 40
0.2498229682967046
 40
0.6249114841312287
 40
1.0
 40
1.0
 40
1.0
 40
1.0
 10
94.30300386329212
 20
157.6887897845358
 30
0.0
 10
94.30300386329212
 20
157.6888548188495
 30
0.0
 10
94.30300386329212
 20
157.6890174968042
 30
0.0
 10
94.30300386329212
 20
157.7728733971291
 30
0.0
 10
94.30300386329213
 20
157.8897396056524
 30
0.0
 10
94.30300386329212
 20
157.9481727099167
 30
0.0
  0
LINE
  5
130
330
1F
100
AcDbEntity
  8
0
  6
Continuous
 62
     7
370
     0
100
AcDbLine
 10
96.8030038633
 20
162.0302235166
 30
0.0
 11
96.8030038633
 21
157.6450638179
 31
0.0
  0
LINE
  5
131
330
1F
100
AcDbEntity
  8
0
  6
Continuous
 62
     7
370
     0
100
AcDbLine
 10
96.8030038633
 20
157.6450638179
 30
0.0
 11
94.3030038633
 21
157.9481727092
 31
0.0
  0
LINE
  5
132
330
1F
100
AcDbEntity
  8
0
  6
Continuous
 62
     7
370
     0
100
AcDbLine
 10
94.3030038633
 20
157.9481727092
 30
0.0
 11
94.3030038633
 21
161.6802235166
 31
0.0
  0
SPLINE
  5
133
330
1F
100
AcDbEntity
  8
0
  6
Continuous
 62
     7
370
     0
100
AcDbSpline
210
0.0
220
0.0
230
1.0
 70
    24
 71
     3
 72
    10
 73
     6
 74
     0
 42
0.00000001
 43
0.00000001
 12
1.0
 22
0.0
 32
0.0
 13
1.0
 23
0.0
 33
0.0
 40
0.0
 40
0.0
 40
0.0
 40
0.0
 40
0.249829321759064
 40
0.6249146608624084
 40
1.0
 40
1.0
 40
1.0
 40
1.0
 10
96.80300386329212
 20
157.3402885410764
 30
0.0
 10
96.80300386329213
 20
157.3403648960397
 30
0.0
 10
96.80300386329212
 20
157.3405558877763
 30
0.0
 10
96.80300386329212
 20
157.4390870452129
 30
0.0
 10
96.80300386329212
 20
157.5764048942306
 30
0.0
 10
96.80300386329212
 20
157.6450638187426
 30
0.0
  0
SPLINE
  5
134
330
1F
100
AcDbEntity
  8
0
  6
Continuous
 62
     7
370
     0
100
AcDbSpline
210
0.0
220
0.0
230
1.0
 70
    24
 71
     3
 72
    21
 73
    17
 74
     0
 42
0.00000001
 43
0.00000001
 12
1.0
 22
0.0
 32
0.0
 13
1.0
 23
0.0
 33
0.0
 40
0.0
 40
0.0
 40
0.0
 40
0.0
 40
0.0749965872861385
 40
0.1499931745654293
 40
0.2249897623558741
 40
0.2999863494122048
 40
0.374982936468535
 40
0.4499795242589802
 40
0.5249761115382712
 40
0.5999726988244094
 40
0.6749692861105476
 40
0.7499658733898384
 40
0.8249624611802836
 40
0.8999590482366142
 40
0.9749556352929446
 40
0.9999999999999999
 40
0.9999999999999999
 40
0.9999999999999999
 40
0.9999999999999999
 10
96.80300386329212
 20
157.6450638187426
 30
0.0
 10
96.80300386329212
 20
157.7295410284369
 30
0.0
 10
96.80300386329212
 20
157.8984954478179
 30
0.0
 10
96.80300386329212
 20
158.2413541975345
 30
0.0
 10
96.80300386329212
 20
158.6338927068424
 30
0.0
 10
96.8030038632921
 20
159.068145546728
 30
0.0
 10
96.8030038632921
 20
159.5255176690738
 30
0.0
 10
96.80300386329209
 20
159.9889407543193
 30
0.0
 10
96.80300386329209
 20
160.4404797252984
 30
0.0
 10
96.80300386329209
 20
160.8627779087284
 30
0.0
 10
96.80300386329208
 20
161.2397497360513
 30
0.0
 10
96.80300386329208
 20
161.5563402440426
 30
0.0
 10
96.80300386329208
 20
161.8025124928072
 30
0.0
 10
96.80300386329208
 20
161.9608565338363
 30
0.0
 10
96.80300386329208
 20
162.0340645251736
 30
0.0
 10
96.80300386329208
 20
162.0229427339394
 30
0.0
 10
96.80300386329208
 20
162.0201584921768
 30
0.0
  0
LINE
  5
135
330
1F
100
AcDbEntity
  8
0
  6
Continuous
 62
     7
370
     0
100
AcDbLine
 10
99.3030038633
 20
162.0302235166
 30
0.0
 11
99.3030038633
 21
157.6450638179
 31
0.0
  0
LINE
  5
136
330
1F
100
AcDbEntity
  8
0
  6
Continuous
 62
     7
370
     0
100
AcDbLine
 10
99.3030038633
 20
157.6450638179
 30
0.0
 11
96.8030038633
 21
157.9481727092
 31
0.0
  0
LINE
  5
137
330
1F
100
AcDbEntity
  8
0
  6
Continuous
 62
     7
370
     0
100
AcDbLine
 10
96.8030038633
 20
157.6450638177
 30
0.0
 11
96.8030038633
 21
157.3302235166
 31
0.0
  0
LINE
  5
138
330
1F
100
AcDbEntity
  8
0
  6
Continuous
 62
     7
370
     0
100
AcDbLine
 10
94.3030038633
 20
157.6802235166
 30
0.0
 11
94.3030038633
 21
157.9481727091
 31
0.0
  0
LINE
  5
139
330
1F
100
AcDbEntity
  8
0
  6
Continuous
 62
     7
370
     0
100
AcDbLine
 10
99.3030038633
 20
157.6450638177
 30
0.0
 11
99.3030038633
 21
157.3302235166
 31
0.0
  0
LINE
  5
13A
330
1F
100
AcDbEntity
  8
0
  6
Continuous
 62
     7
370
     0
100
AcDbLine
 10
120.4030038633
 20
156.1728206316
 30
0.0
 11
120.4030038633
 21
159.6802235166
 31
0.0
  0
LINE
  5
13B
330
1F
100
AcDbEntity
  8
0
  6
Continuous
 62
     7
370
     0
100
AcDbLine
 10
120.4030038633
 20
159.6802235166
 30
0.0
 11
120.4030038633
 21
163.1876264016
 31
0.0
  0
LINE
  5
13C
330
1F
100
AcDbEntity
  8
0
  6
Continuous
 62
     7
370
     0
100
AcDbLine
 10
120.4030038633
 20
163.1876264016
 30
0.0
 11
117.9030038633
 21
163.1876264016
 31
0.0
  0
LINE
  5
13D
330
1F
100
AcDbEntity
  8
0
  6
Continuous
 62
     7
370
     0
100
AcDbLine
 10
120.4030038633
 20
159.6802235166
 30
0.0
 11
117.9030038633
 21
159.6802235166
 31
0.0
  0
LINE
  5
13E
330
1F
100
AcDbEntity
  8
0
  6
Continuous
 62
     7
370
     0
100
AcDbLine
 10
117.9030038633
 20
159.6802235166
 30
0.0
 11
117.9030038633
 21
163.1876264016
 31
0.0
  0
LINE
  5
13F
330
1F
100
AcDbEntity
  8
0
  6
Continuous
 62
     7
370
     0
100
AcDbLine
 10
120.4030038633
 20
163.1876264016
 30
0.0
 11
120.4030038633
 21
159.6802235166
 31
0.0
  0
LINE
  5
140
330
1F
100
AcDbEntity
  8
0
  6
Continuous
 62
     7
370
     0
100
AcDbLine
 10
120.4030038633
 20
156.1728206316
 30
0.0
 11
117.9030038633
 21
156.1728206316
 31
0.0
  0
LINE
  5
141
330
1F
100
AcDbEntity
  8
0
  6
Continuous
 62
     7
370
     0
100
AcDbLine
 10
117.9030038633
 20
156.1728206316
 30
0.0
 11
117.9030038633
 21
159.6802235166
 31
0.0
  0
LINE
  5
142
330
1F
100
AcDbEntity
  8
0
  6
Continuous
 62
     7
370
     0
100
AcDbLine
 10
120.4030038633
 20
159.6802235166
 30
0.0
 11
120.4030038633
 21
156.1728206316
 31
0.0
  0
LINE
  5
143
330
1F
100
AcDbEntity
  8
0
  6
Continuous
 62
     7
370
     0
100
AcDbLine
 10
117.9030038633
 20
156.1728206316
 30
0.0
 11
117.9030038633
 21
156.2611110875
 31
0.0
  0
LINE
  5
144
330
1F
100
AcDbEntity
  8
0
  6
Continuous
 62
     7
370
     0
100
AcDbLine
 10
117.9030038633
 20
159.5919330629
 30
0.0
 11
117.9030038633
 21
159.6802235166
 31
0.0
  0
LINE
  5
145
330
1F
100
AcDbEntity
  8
0
  6
Continuous
 62
     7
370
     0
100
AcDbLine
 10
117.9030038633
 20
159.6802235166
 30
0.0
 11
117.9030038633
 21
159.7685139704
 31
0.0
  0
LINE
  5
146
330
1F
100
AcDbEntity
  8
0
  6
Continuous
 62
     7
370
     0
100
AcDbLine
 10
117.9030038633
 20
163.0993359457
 30
0.0
 11
117.9030038633
 21
163.1876264016
 31
0.0
  0
LINE
  5
147
330
1F
100
AcDbEntity
  8
0
  6
Continuous
 62
     7
370
     0
100
AcDbLine
 10
114.8316414673
 20
108.9802235166
 30
0.0
 11
114.7957641466
 21
108.9802235166
 31
0.0
  0
LINE
  5
148
330
1F
100
AcDbEntity
  8
0
  6
Continuous
 62
     7
370
     0
100
AcDbLine
 10
114.7957641466
 20
108.9802235166
 30
0.0
 11
114.7957641466
 21
109.5802235166
 31
0.0
  0
LINE
  5
149
330
1F
100
AcDbEntity
  8
0
  6
Continuous
 62
     7
370
     0
100
AcDbLine
 10
114.7957641466
 20
109.5802235166
 30
0.0
 11
114.8316414673
 21
109.5802235166
 31
0.0
  0
SPLINE
  5
14A
330
1F
100
AcDbEntity
  8
0
  6
Continuous
 62
     7
370
     0
100
AcDbSpline
210
0.0
220
0.0
230
1.0
 70
    24
 71
     3
 72
    23
 73
    19
 74
     0
 42
0.00000001
 43
0.00000001
 12
1.0
 22
0.0
 32
0.0
 13
1.0
 23
0.0
 33
0.0
 40
0.0
 40
0.0
 40
0.0
 40
0.0
 40
0.0624999997935546
 40
0.1250000000154767
 40
0.1875000003641483
 40
0.2500000001235359
 40
0.3124999998573624
 40
0.3750000000230471
 40
0.4374999999181284
 40
0.4999999998405007
 40
0.5624999996771629
 40
0.6249999997760995
 40
0.6874999999859641
 40
0.7499999999943386
 40
0.8125000000037618
 40
0.87499999992297
 40
0.937499999725516
 40
1.0
 40
1.0
 40
1.0
 40
1.0
 10
106.6030038649618
 20
108.980223516626
 30
0.0
 10
106.6138814890956
 20
108.980223516626
 30
0.0
 10
106.6356367374378
 20
108.980223516626
 30
0.0
 10
106.8101891904315
 20
108.980223516626
 30
0.0
 10
107.0840486341151
 20
108.980223516626
 30
0.0
 10
107.4606121583367
 20
108.980223516626
 30
0.0
 10
107.9277137052831
 20
108.980223516626
 30
0.0
 10
108.4744039348195
 20
108.9802235166261
 30
0.0
 10
109.0868099105259
 20
108.980223516626
 30
0.0
 10
109.7496636060835
 20
108.980223516626
 30
0.0
 10
110.4463720205535
 20
108.9802235166261
 30
0.0
 10
111.1594984133246
 20
108.9802235166261
 30
0.0
 10
111.8712455102677
 20
108.9802235166261
 30
0.0
 10
112.563646694233
 20
108.9802235166261
 30
0.0
 10
113.2199845110416
 20
108.9802235166261
 30
0.0
 10
113.8215866612875
 20
108.9802235166261
 30
0.0
 10
114.3618130344693
 20
108.9802235166261
 30
0.0
 10
114.6511137784272
 20
108.9802235166261
 30
0.0
 10
114.7957641509523
 20
108.9802235166261
 30
0.0
  0
LINE
  5
14B
330
1F
100
AcDbEntity
  8
0
  6
Continuous
 62
     7
370
     0
100
AcDbLine
 10
106.6030038633
 20
109.5802235166
 30
0.0
 11
114.7957641476
 21
109.5802235166
 31
0.0
  0
LINE
  5
14C
330
1F
100
AcDbEntity
  8
0
  6
Continuous
 62
     7
370
     0
100
AcDbLine
 10
114.7957641476
 20
108.9802235166
 30
0.0
 11
106.6030038633
 21
108.9802235166
 31
0.0
  0
LINE
  5
14D
330
1F
100
AcDbEntity
  8
0
  6
Continuous
 62
     7
370
     0
100
AcDbLine
 10
106.6030038633
 20
108.9802235166
 30
0.0
 11
106.6030038633
 21
109.5802235166
 31
0.0
  0
SPLINE
  5
14E
330
1F
100
AcDbEntity
  8
0
  6
Continuous
 62
     7
370
     0
100
AcDbSpline
210
0.0
220
0.0
230
1.0
 70
    24
 71
     3
 72
    23
 73
    19
 74
     0
 42
0.00000001
 43
0.00000001
 12
1.0
 22
0.0
 32
0.0
 13
1.0
 23
0.0
 33
0.0
 40
0.0
 40
0.0
 40
0.0
 40
0.0
 40
0.0624999997935546
 40
0.1250000000154767
 40
0.1875000003641483
 40
0.2500000001235359
 40
0.3124999998573624
 40
0.3750000000230471
 40
0.4374999999181284
 40
0.4999999998405007
 40
0.5624999996771629
 40
0.6249999997760995
 40
0.6874999999859641
 40
0.7499999999943386
 40
0.8125000000037618
 40
0.87499999992297
 40
0.937499999725516
 40
1.0
 40
1.0
 40
1.0
 40
1.0
 10
106.6030038649618
 20
109.580223516626
 30
0.0
 10
106.6138814890956
 20
109.580223516626
 30
0.0
 10
106.6356367374378
 20
109.580223516626
 30
0.0
 10
106.8101891904315
 20
109.580223516626
 30
0.0
 10
107.0840486341151
 20
109.580223516626
 30
0.0
 10
107.4606121583367
 20
109.580223516626
 30
0.0
 10
107.9277137052831
 20
109.580223516626
 30
0.0
 10
108.4744039348195
 20
109.580223516626
 30
0.0
 10
109.0868099105259
 20
109.580223516626
 30
0.0
 10
109.7496636060835
 20
109.580223516626
 30
0.0
 10
110.4463720205535
 20
109.580223516626
 30
0.0
 10
111.1594984133246
 20
109.5802235166261
 30
0.0
 10
111.8712455102677
 20
109.5802235166261
 30
0.0
 10
112.563646694233
 20
109.5802235166261
 30
0.0
 10
113.2199845110416
 20
109.5802235166261
 30
0.0
 10
113.8215866612875
 20
109.5802235166261
 30
0.0
 10
114.3618130344693
 20
109.5802235166261
 30
0.0
 10
114.6511137784272
 20
109.5802235166261
 30
0.0
 10
114.7957641509523
 20
109.5802235166261
 30
0.0
  0
SPLINE
  5
14F
330
1F
100
AcDbEntity
  8
0
  6
Continuous
 62
     7
370
     0
100
AcDbSpline
210
0.0
220
0.0
230
1.0
 70
    24
 71
     3
 72
    10
 73
     6
 74
     0
 42
0.00000001
 43
0.00000001
 12
1.0
 22
0.0
 32
0.0
 13
1.0
 23
0.0
 33
0.0
 40
0.0
 40
0.0
 40
0.0
 40
0.0
 40
0.2816895955512345
 40
0.6408448097884808
 40
0.9999999999999999
 40
0.9999999999999999
 40
0.9999999999999999
 40
0.9999999999999999
 10
114.8308496234201
 20
109.5802235166261
 30
0.0
 10
114.8305575425646
 20
109.5802235166261
 30
0.0
 10
114.8298930576024
 20
109.5802235166261
 30
0.0
 10
114.8183227578537
 20
109.5802235166261
 30
0.0
 10
114.8032836864184
 20
109.5802235166261
 30
0.0
 10
114.7957641509523
 20
109.5802235166261
 30
0.0
  0
SPLINE
  5
150
330
1F
100
AcDbEntity
  8
0
  6
Continuous
 62
     7
370
     0
100
AcDbSpline
210
0.0
220
0.0
230
1.0
 70
     8
 71
     3
 72
    12
 73
     8
 74
     0
 42
0.00000001
 43
0.00000001
 12
1.0
 22
0.0
 32
0.0
 13
1.0
 23
0.0
 33
0.0
 40
0.0
 40
0.0
 40
0.0
 40
0.0
 40
0.2403674164103866
 40
0.4806471511432067
 40
0.7210203242756976
 40
0.9614934166507588
 40
1.0
 40
1.0
 40
1.0
 40
1.0
 10
106.4551272330979
 20
141.7073282172228
 30
0.0
 10
106.5437179786453
 20
141.6723062371988
 30
0.0
 10
106.7208671534415
 20
141.6022750525345
 30
0.0
 10
107.0840100308743
 20
141.4971479692518
 30
0.0
 10
107.5171900481222
 20
141.3920677772198
 30
0.0
 10
107.8620752495274
 20
141.3164390718679
 30
0.0
 10
108.0737826372328
 20
141.275796565572
 30
0.0
 10
108.1030038632923
 20
141.270186823385
 30
0.0
  0
SPLINE
  5
151
330
1F
100
AcDbEntity
  8
0
  6
Continuous
 62
     7
370
     0
100
AcDbSpline
210
0.0
220
0.0
230
1.0
 70
     8
 71
     3
 72
    14
 73
    10
 74
     0
 42
0.00000001
 43
0.00000001
 12
1.0
 22
0.0
 32
0.0
 13
1.0
 23
0.0
 33
0.0
 40
0.0
 40
0.0
 40
0.0
 40
0.0
 40
0.0144510937348506
 40
0.1909784893097582
 40
0.3675886142335575
 40
0.5442159651864973
 40
0.7207691463801018
 40
0.8972879183361766
 40
0.9999999999999999
 40
0.9999999999999999
 40
0.9999999999999999
 40
0.9999999999999999
 10
114.1030038632923
 20
140.2448359403901
 30
0.0
 10
114.1180288873561
 20
140.2419688105379
 30
0.0
 10
114.3165921553138
 20
140.204078244061
 30
0.0
 10
114.6500623059429
 20
140.1311255003044
 30
0.0
 10
115.0886973590523
 20
140.0260734678604
 30
0.0
 10
115.4545683150801
 20
139.921024440417
 30
0.0
 10
115.7430240955095
 20
139.8159358348216
 30
0.0
 10
115.9323045865418
 20
139.7254752608405
 30
0.0
 10
115.9904163258439
 20
139.6700986676248
 30
0.0
 10
116.011792107336
 20
139.6497289803538
 30
0.0
  0
SPLINE
  5
152
330
1F
100
AcDbEntity
  8
0
  6
Continuous
 62
     7
370
     0
100
AcDbSpline
210
0.0
220
0.0
230
1.0
 70
     8
 71
     3
 72
    13
 73
     9
 74
     0
 42
0.00000001
 43
0.00000001
 12
1.0
 22
0.0
 32
0.0
 13
1.0
 23
0.0
 33
0.0
 40
0.0
 40
0.0
 40
0.0
 40
0.0
 40
0.1509926465354116
 40
0.3300018610615611
 40
0.5090861927582443
 40
0.6882161044665338
 40
0.8672898569323132
 40
0.9999999999999999
 40
0.9999999999999999
 40
0.9999999999999999
 40
0.9999999999999999
 10
106.1981191062257
 20
136.8572641254686
 30
0.0
 10
106.2362041337067
 20
136.8277309061521
 30
0.0
 10
106.3194408358621
 20
136.7631846016716
 30
0.0
 10
106.5507531518187
 20
136.6635510688475
 30
0.0
 10
106.8655204844681
 20
136.5584858543608
 30
0.0
 10
107.2571863608868
 20
136.4534403257427
 30
0.0
 10
107.6687408065886
 20
136.3574213421951
 30
0.0
 10
107.973348328281
 20
136.2964113019338
 30
0.0
 10
108.1030038632923
 20
136.2704425098068
 30
0.0
  0
SPLINE
  5
153
330
1F
100
AcDbEntity
  8
0
  6
Continuous
 62
     7
370
     0
100
AcDbSpline
210
0.0
220
0.0
230
1.0
 70
     8
 71
     3
 72
    14
 73
    10
 74
     0
 42
0.00000001
 43
0.00000001
 12
1.0
 22
0.0
 32
0.0
 13
1.0
 23
0.0
 33
0.0
 40
0.0
 40
0.0
 40
0.0
 40
0.0
 40
0.0871574612964399
 40
0.2656218928167856
 40
0.4440033931247642
 40
0.6223848934954969
 40
0.8008493250882042
 40
0.9793224168728027
 40
1.0
 40
1.0
 40
1.0
 40
1.0
 10
114.1030038632923
 20
135.2437995193561
 30
0.0
 10
114.190124967073
 20
135.226694316133
 30
0.0
 10
114.4556360563852
 20
135.1745643390827
 30
0.0
 10
114.8411115018456
 20
135.0874356944877
 30
0.0
 10
115.250809099563
 20
134.9823278083774
 30
0.0
 10
115.5860816880416
 20
134.8772228442508
 30
0.0
 10
115.835584999283
 20
134.7721661811887
 30
0.0
 10
115.9770988569518
 20
134.6980766360502
 30
0.0
 10
116.0088708862809
 20
134.6589743346047
 30
0.0
 10
116.0121697391613
 20
134.6549143880895
 30
0.0
  0
SPLINE
  5
154
330
1F
100
AcDbEntity
  8
0
  6
Continuous
 62
     7
370
     0
100
AcDbSpline
210
0.0
220
0.0
230
1.0
 70
     8
 71
     3
 72
    14
 73
    10
 74
     0
 42
0.00000001
 43
0.00000001
 12
1.0
 22
0.0
 32
0.0
 13
1.0
 23
0.0
 33
0.0
 40
0.0
 40
0.0
 40
0.0
 40
0.0
 40
0.0476909632160477
 40
0.2266307833004339
 40
0.4055921097156671
 40
0.5844803621480638
 40
0.7633286100553126
 40
0.9422561013381029
 40
1.0
 40
1.0
 40
1.0
 40
1.0
 10
106.1995787021371
 20
131.8580030218894
 30
0.0
 10
106.2080744193351
 20
131.8486630902133
 30
0.0
 10
106.2484466599746
 20
131.804279083496
 30
0.0
 10
106.4065466430171
 20
131.7249015510656
 30
0.0
 10
106.671404225944
 20
131.6198518763904
 30
0.0
 10
107.018464063185
 20
131.5147647037828
 30
0.0
 10
107.4399325257092
 20
131.4096441991657
 30
0.0
 10
107.8058103803111
 20
131.3283106417886
 30
0.0
 10
108.0447150752153
 20
131.2819912433524
 30
0.0
 10
108.1030038632924
 20
131.2706900774193
 30
0.0
  0
SPLINE
  5
155
330
1F
100
AcDbEntity
  8
0
  6
Continuous
 62
     7
370
     0
100
AcDbSpline
210
0.0
220
0.0
230
1.0
 70
     8
 71
     3
 72
    10
 73
     6
 74
     0
 42
0.00000001
 43
0.00000001
 12
1.0
 22
0.0
 32
0.0
 13
1.0
 23
0.0
 33
0.0
 40
0.0
 40
0.0
 40
0.0
 40
0.0
 40
0.1428011902693661
 40
0.648494570950109
 40
1.0
 40
1.0
 40
1.0
 40
1.0
 10
115.6030038632924
 20
129.8631590169383
 30
0.0
 10
115.6321361207262
 20
129.8532733552279
 30
0.0
 10
115.7644327125803
 20
129.8083801863585
 30
0.0
 10
115.9072312285025
 20
129.7390961407774
 30
0.0
 10
115.9781041561118
 20
129.6797310251673
 30
0.0
 10
116.0071665142772
 20
129.655387593753
 30
0.0
  0
SPLINE
  5
156
330
1F
100
AcDbEntity
  8
0
  6
Continuous
 62
     7
370
     0
100
AcDbSpline
210
0.0
220
0.0
230
1.0
 70
     8
 71
     3
 72
     9
 73
     5
 74
     0
 42
0.00000001
 43
0.00000001
 12
1.0
 22
0.0
 32
0.0
 13
1.0
 23
0.0
 33
0.0
 40
0.0
 40
0.0
 40
0.0
 40
0.0
 40
0.1586312558092723
 40
1.0
 40
1.0
 40
1.0
 40
1.0
 10
106.4016214845415
 20
141.9266915394324
 30
0.0
 10
106.4080950373584
 20
141.9166935423836
 30
0.0
 10
106.4489038476013
 20
141.8536668897997
 30
0.0
 10
106.4522836081823
 20
141.7741941209485
 30
0.0
 10
106.4551272330979
 20
141.7073282172228
 30
0.0
  0
SPLINE
  5
157
330
1F
100
AcDbEntity
  8
0
  6
Continuous
 62
     7
370
     0
100
AcDbSpline
210
0.0
220
0.0
230
1.0
 70
     8
 71
     3
 72
    19
 73
    15
 74
     0
 42
0.00000001
 43
0.00000001
 12
1.0
 22
0.0
 32
0.0
 13
1.0
 23
0.0
 33
0.0
 40
0.0
 40
0.0
 40
0.0
 40
0.0
 40
0.0833265168677762
 40
0.1666224060360192
 40
0.2499509336991579
 40
0.3333143635986515
 40
0.4166633088379952
 40
0.499973728354995
 40
0.5832992404058543
 40
0.6666595020693167
 40
0.7500116014460427
 40
0.8333245704204787
 40
0.9166431854114543
 40
1.0
 40
1.0
 40
1.0
 40
1.0
 10
111.1030043697914
 20
128.2573281189747
 30
0.0
 10
111.3670442403856
 20
128.2923500151246
 30
0.0
 10
111.8950269304294
 20
128.36238093469
 30
0.0
 10
112.6733714888561
 20
128.4675092124282
 30
0.0
 10
113.4238586700289
 20
128.5725863176964
 30
0.0
 10
114.1343903289089
 20
128.6776308340833
 30
0.0
 10
114.7929550097193
 20
128.7826900036902
 30
0.0
 10
115.3870920372075
 20
128.8878086016531
 30
0.0
 10
115.9049963748567
 20
128.9928997320742
 30
0.0
 10
116.3398678396745
 20
129.0979476929538
 30
0.0
 10
116.6854107216425
 20
129.2030024974242
 30
0.0
 10
116.9319662794218
 20
129.3081137454737
 30
0.0
 10
117.0819593215564
 20
129.4132151270239
 30
0.0
 10
117.0945880456398
 20
129.4832434609027
 30
0.0
 10
117.1009038548419
 20
129.5182656525827
 30
0.0
  0
SPLINE
  5
158
330
1F
100
AcDbEntity
  8
0
  6
Continuous
 62
     7
370
     0
100
AcDbSpline
210
0.0
220
0.0
230
1.0
 70
     8
 71
     3
 72
    32
 73
    28
 74
     0
 42
0.00000001
 43
0.00000001
 12
1.0
 22
0.0
 32
0.0
 13
1.0
 23
0.0
 33
0.0
 40
0.0
 40
0.0
 40
0.0
 40
0.0
 40
0.0408160571539845
 40
0.0816505818991906
 40
0.1224841119729446
 40
0.1632986796659431
 40
0.2041118594757558
 40
0.2449442497820741
 40
0.2857796336631882
 40
0.3265972813898151
 40
0.3674081880683972
 40
0.4082379508485957
 40
0.4490745800923594
 40
0.4898955451638422
 40
0.5307050396232426
 40
0.5715317893917021
 40
0.6123690094247731
 40
0.6531933290480932
 40
0.6940024265220618
 40
0.7348259100148251
 40
0.7756630448006845
 40
0.8164905808669849
 40
0.8573003387288902
 40
0.8981204595607398
 40
0.9389568361478742
 40
0.979787299865244
 40
1.0
 40
1.0
 40
1.0
 40
1.0
 10
105.1277656719772
 20
131.9350625908112
 30
0.0
 10
105.1141601559184
 20
131.9700926519843
 30
0.0
 10
105.0869429678632
 20
132.040168623996
 30
0.0
 10
105.1786684850834
 20
132.1452172809556
 30
0.0
 10
105.3643934547342
 20
132.2502689333296
 30
0.0
 10
105.6516174424513
 20
132.3553729011113
 30
0.0
 10
106.0355357799265
 20
132.4604819485485
 30
0.0
 10
106.5075216490558
 20
132.5655354383652
 30
0.0
 10
107.0583119566697
 20
132.6705836803183
 30
0.0
 10
107.6789998058279
 20
132.77567702252
 30
0.0
 10
108.360682835749
 20
132.8807943722356
 30
0.0
 10
109.0901307972679
 20
132.98585329667
 30
0.0
 10
109.8540928280625
 20
133.0908996169703
 30
0.0
 10
110.6396433790069
 20
133.1959821979532
 30
0.0
 10
111.4334887426452
 20
133.3011047939116
 30
0.0
 10
112.2214095771186
 20
133.4061709251682
 30
0.0
 10
112.9900743746056
 20
133.511216385438
 30
0.0
 10
113.7263798505821
 20
133.6162890359256
 30
0.0
 10
114.41649304009
 20
133.7214131161225
 30
0.0
 10
115.0479904205454
 20
133.8264881434909
 30
0.0
 10
115.6115888559979
 20
133.9315337314761
 30
0.0
 10
116.0979249862085
 20
134.0365978640253
 30
0.0
 10
116.4963236395329
 20
134.1417195555642
 30
0.0
 10
116.8004297053881
 20
134.2468045005607
 30
0.0
 10
117.0007897371254
 20
134.3518522859217
 30
0.0
 10
117.1006296541692
 20
134.4392374852531
 30
0.0
 10
117.0923404182315
 20
134.4916311326058
 30
0.0
 10
117.089595674516
 20
134.5089797924078
 30
0.0
  0
SPLINE
  5
159
330
1F
100
AcDbEntity
  8
0
  6
Continuous
 62
     7
370
     0
100
AcDbSpline
210
0.0
220
0.0
230
1.0
 70
     8
 71
     3
 72
    32
 73
    28
 74
     0
 42
0.00000001
 43
0.00000001
 12
1.0
 22
0.0
 32
0.0
 13
1.0
 23
0.0
 33
0.0
 40
0.0
 40
0.0
 40
0.0
 40
0.0
 40
0.0415454125643271
 40
0.0830716385193531
 40
0.1246047236558696
 40
0.166155855826591
 40
0.2077039419683498
 40
0.2492324808999966
 40
0.2907624320194196
 40
0.332311677889832
 40
0.3738619358834161
 40
0.4153934025978975
 40
0.4569206953255842
 40
0.498467507530581
 40
0.5400193511854717
 40
0.581554099070495
 40
0.6230794877915761
 40
0.6646234156556656
 40
0.7061761992023218
 40
0.7477143658187706
 40
0.78923882096873
 40
0.8307795390719965
 40
0.8723325840687507
 40
0.9138741124673735
 40
0.9553986920069593
 40
0.9969360034048789
 40
1.0
 40
1.0
 40
1.0
 40
1.0
 10
105.1083240396813
 20
136.9788127227666
 30
0.0
 10
105.1086567585785
 20
137.0138342968365
 30
0.0
 10
105.1093220427156
 20
137.0838612712227
 30
0.0
 10
105.2425433824329
 20
137.1889798223472
 30
0.0
 10
105.4727131297986
 20
137.2940728429801
 30
0.0
 10
105.8019865456702
 20
137.3991211698806
 30
0.0
 10
106.2216936017465
 20
137.5041746416928
 30
0.0
 10
106.7263811208881
 20
137.6092836761091
 30
0.0
 10
107.3090926586605
 20
137.7143877138503
 30
0.0
 10
107.9574351688235
 20
137.8194390994297
 30
0.0
 10
108.6597438860703
 20
137.9244887536352
 30
0.0
 10
109.4044046829472
 20
138.0295875457249
 30
0.0
 10
110.1793706491803
 20
138.1347010366715
 30
0.0
 10
110.9702843305473
 20
138.2397570172807
 30
0.0
 10
111.7634537149122
 20
138.3448041613318
 30
0.0
 10
112.545345828665
 20
138.4498920940602
 30
0.0
 10
113.3016619297081
 20
138.5550124932361
 30
0.0
 10
114.0193572429149
 20
138.6600747808115
 30
0.0
 10
114.6869523271538
 20
138.7651205473487
 30
0.0
 10
115.2929982916725
 20
138.8701980422388
 30
0.0
 10
115.8249248118652
 20
138.9753218588249
 30
0.0
 10
116.2738107365041
 20
139.0803922613853
 30
0.0
 10
116.633031819202
 20
139.1854375068602
 30
0.0
 10
116.9003050209159
 20
139.290506286586
 30
0.0
 10
117.0544204814778
 20
139.3956275169693
 30
0.0
 10
117.1169685371902
 20
139.4682577968578
 30
0.0
 10
117.0993972625902
 20
139.5058532998845
 30
0.0
 10
117.098190160647
 20
139.5084360154695
 30
0.0
  0
SPLINE
  5
15A
330
1F
100
AcDbEntity
  8
0
  6
Continuous
 62
     7
370
     0
100
AcDbSpline
210
0.0
220
0.0
230
1.0
 70
    11
 71
     3
 72
    15
 73
    11
 74
     0
 42
0.00000001
 43
0.00000001
 12
1.0
 22
0.0
 32
0.0
 13
1.0
 23
0.0
 33
0.0
 40
0.0
 40
0.0
 40
0.0
 40
0.0
 40
0.1235130068633529
 40
0.2470314941101562
 40
0.3735129670972806
 40
0.4999998778080742
 40
0.6264867878288871
 40
0.752968261475243
 40
0.8764868707968266
 40
1.0
 40
1.0
 40
1.0
 40
1.0
 10
111.1030041165297
 20
128.2573283736442
 30
0.0
 10
111.103004116948
 20
128.3218319978496
 30
0.0
 10
111.1030041177844
 20
128.4508421083446
 30
0.0
 10
111.1030041235405
 20
128.6180323827046
 30
0.0
 10
111.1030041318587
 20
128.7295943104047
 30
0.0
 10
111.1030041417519
 20
128.7711212658096
 30
0.0
 10
111.1030041516451
 20
128.7295944089246
 30
0.0
 10
111.1030041599633
 20
128.6180325291389
 30
0.0
 10
111.1030041657194
 20
128.4508421679263
 30
0.0
 10
111.1030041665559
 20
128.3218319240767
 30
0.0
 10
111.1030041669741
 20
128.2573282331248
 30
0.0
  0
SPLINE
  5
15B
330
1F
100
AcDbEntity
  8
0
  6
Continuous
 62
     7
370
     0
100
AcDbSpline
210
0.0
220
0.0
230
1.0
 70
    24
 71
     3
 72
    11
 73
     7
 74
     0
 42
0.00000001
 43
0.00000001
 12
1.0
 22
0.0
 32
0.0
 13
1.0
 23
0.0
 33
0.0
 40
0.0
 40
0.0
 40
0.0
 40
0.0
 40
0.2497897542280859
 40
0.4996439989636672
 40
0.749728709968934
 40
0.9999999999999999
 40
0.9999999999999999
 40
0.9999999999999999
 40
0.9999999999999999
 10
111.1030038632924
 20
128.7572716643234
 30
0.0
 10
111.1030038632924
 20
128.749421118855
 30
0.0
 10
111.1030038632924
 20
128.7337180010709
 30
0.0
 10
111.1030038632924
 20
128.6193879158247
 30
0.0
 10
111.1030038632924
 20
128.4534756887881
 30
0.0
 10
111.1030038632924
 20
128.322726944036
 30
0.0
 10
111.1030038632924
 20
128.2573281940434
 30
0.0
  0
SPLINE
  5
15C
330
1F
100
AcDbEntity
  8
0
  6
Continuous
 62
     7
370
     0
100
AcDbSpline
210
0.0
220
0.0
230
1.0
 70
    24
 71
     3
 72
    12
 73
     8
 74
     0
 42
0.00000001
 43
0.00000001
 12
1.0
 22
0.0
 32
0.0
 13
1.0
 23
0.0
 33
0.0
 40
0.0
 40
0.0
 40
0.0
 40
0.0
 40
0.2499345505916321
 40
0.4996825287853008
 40
0.7492002205949325
 40
0.9986976601829355
 40
1.0
 40
1.0
 40
1.0
 40
1.0
 10
111.1030038632924
 20
128.2573281940434
 30
0.0
 10
111.1030038632924
 20
128.1921317957253
 30
0.0
 10
111.1030038632924
 20
128.0617876672238
 30
0.0
 10
111.1030038632924
 20
127.8926621172139
 30
0.0
 10
111.1030038632924
 20
127.7903593884221
 30
0.0
 10
111.1030038632924
 20
127.7444952928259
 30
0.0
 10
111.1030038632924
 20
127.7574121453706
 30
0.0
 10
111.1030038632924
 20
127.7574792193186
 30
0.0
  0
SPLINE
  5
15D
330
1F
100
AcDbEntity
  8
0
  6
Continuous
 62
     7
370
     0
100
AcDbSpline
210
0.0
220
0.0
230
1.0
 70
     8
 71
     3
 72
    32
 73
    28
 74
     0
 42
0.00000001
 43
0.00000001
 12
1.0
 22
0.0
 32
0.0
 13
1.0
 23
0.0
 33
0.0
 40
0.0
 40
0.0
 40
0.0
 40
0.0
 40
0.0400010826429544
 40
0.0800094118891589
 40
0.1200344259886836
 40
0.160055521008631
 40
0.2000578277640837
 40
0.240062845429789
 40
0.2800862044437366
 40
0.3201095244058444
 40
0.3601144499786255
 40
0.4001166892120652
 40
0.4401378183220225
 40
0.4801628807185466
 40
0.5201710077030441
 40
0.5601712778779507
 40
0.6001897368888939
 40
0.6402158331856752
 40
0.6802271951085995
 40
0.720226292889195
 40
0.7602417168749938
 40
0.800268234390248
 40
0.8402828778755215
 40
0.8802818558441804
 40
0.9202940415470742
 40
0.9603203072104655
 40
1.0
 40
1.0
 40
1.0
 40
1.0
 10
117.0290165953617
 20
154.6319378996657
 30
0.0
 10
117.0605421680254
 20
154.5969111885825
 30
0.0
 10
117.1235990245311
 20
154.5268514209708
 30
0.0
 10
117.0833199887016
 20
154.4217560237965
 30
0.0
 10
116.9473457973043
 20
154.3167092067826
 30
0.0
 10
116.7090843212797
 20
154.2116540953924
 30
0.0
 10
116.3738387174921
 20
154.106542931125
 30
0.0
 10
115.944469351269
 20
154.0014415212114
 30
0.0
 10
115.4314367156734
 20
153.896391059521
 30
0.0
 10
114.8441276404336
 20
153.7913405583301
 30
0.0
 10
114.1919835672459
 20
153.6862390676819
 30
0.0
 10
113.4847356855246
 20
153.5811277006997
 30
0.0
 10
112.736199801426
 20
153.4760730174993
 30
0.0
 10
111.9596557882836
 20
153.3710253904329
 30
0.0
 10
111.1682303601014
 20
153.2659348170966
 30
0.0
 10
110.3755913319381
 20
153.1608158305134
 30
0.0
 10
109.5958014905606
 20
153.0557552557596
 30
0.0
 10
108.8419154653713
 20
152.9507092377522
 30
0.0
 10
108.1268481305294
 20
152.8456292477749
 30
0.0
 10
107.4644234395145
 20
152.7405059085853
 30
0.0
 10
106.866110303411
 20
152.635437688696
 30
0.0
 10
106.3405647467616
 20
152.5303923132479
 30
0.0
 10
105.896939741651
 20
152.4253218705854
 30
0.0
 10
105.5444241099888
 20
152.3201983444098
 30
0.0
 10
105.2923472226741
 20
152.2151197275894
 30
0.0
 10
105.1329572597368
 20
152.1103739253632
 30
0.0
 10
105.1135956154342
 20
152.0406050762892
 30
0.0
 10
105.1039568868782
 20
152.0058723342048
 30
0.0
  0
SPLINE
  5
15E
330
1F
100
AcDbEntity
  8
0
  6
Continuous
 62
     7
370
     0
100
AcDbSpline
210
0.0
220
0.0
230
1.0
 70
     8
 71
     3
 72
    32
 73
    28
 74
     0
 42
0.00000001
 43
0.00000001
 12
1.0
 22
0.0
 32
0.0
 13
1.0
 23
0.0
 33
0.0
 40
0.0
 40
0.0
 40
0.0
 40
0.0
 40
0.0407097482941524
 40
0.0814099278111295
 40
0.1220923845794769
 40
0.1627851719892663
 40
0.2034941644444873
 40
0.2441972624738723
 40
0.2848813614899743
 40
0.3255708816143518
 40
0.3662784749508964
 40
0.4069840779592828
 40
0.4476706212654165
 40
0.4883571645620811
 40
0.5290627675653343
 40
0.5697703609137962
 40
0.6104598810559233
 40
0.6511439800678227
 40
0.6918470780887185
 40
0.7325560705484232
 40
0.7732488579689505
 40
0.81393131472702
 40
0.8546314942245423
 40
0.8953412425138115
 40
0.93603738210607
 40
0.9767191805426875
 40
1.0
 40
1.0
 40
1.0
 40
1.0
 10
117.0707511365848
 20
149.5881877676197
 30
0.0
 10
117.0873717338455
 20
149.5531627372598
 30
0.0
 10
117.1206090217155
 20
149.4831209091311
 30
0.0
 10
117.0396538385106
 20
149.3780593187969
 30
0.0
 10
116.8619224666201
 20
149.2729370188018
 30
0.0
 10
116.5799875034628
 20
149.167851966519
 30
0.0
 10
116.2042971776753
 20
149.062805219267
 30
0.0
 10
115.7409109399963
 20
148.9577478359811
 30
0.0
 10
115.1966160381156
 20
148.8526323218932
 30
0.0
 10
114.5794046769409
 20
148.7475362456087
 30
0.0
 10
113.9022488143217
 20
148.6424873381039
 30
0.0
 10
113.1770544570593
 20
148.5374349456466
 30
0.0
 10
112.4157660450623
 20
148.4323283623915
 30
0.0
 10
111.6310590615421
 20
148.3272217791198
 30
0.0
 10
110.8373260151698
 20
148.2221693865814
 30
0.0
 10
110.0481597667658
 20
148.1171204793304
 30
0.0
 10
109.2770955029334
 20
148.0120244021927
 30
0.0
 10
108.5385271557018
 20
147.9069088914255
 30
0.0
 10
107.8447929849644
 20
147.8018514956065
 30
0.0
 10
107.206986565602
 20
147.6968047950562
 30
0.0
 10
106.6362270299974
 20
147.5917195686275
 30
0.0
 10
106.1446366660432
 20
147.4865979185745
 30
0.0
 10
105.7404268489633
 20
147.3815339014247
 30
0.0
 10
105.4270077033006
 20
147.2764878100962
 30
0.0
 10
105.2159556278407
 20
147.1714146799418
 30
0.0
 10
105.1087372864666
 20
147.0812823434421
 30
0.0
 10
105.1145647706
 20
147.0262374472749
 30
0.0
 10
105.1166858314706
 20
147.0062024591535
 30
0.0
  0
SPLINE
  5
15F
330
1F
100
AcDbEntity
  8
0
  6
Continuous
 62
     7
370
     0
100
AcDbSpline
210
0.0
220
0.0
230
1.0
 70
     8
 71
     3
 72
    32
 73
    28
 74
     0
 42
0.00000001
 43
0.00000001
 12
1.0
 22
0.0
 32
0.0
 13
1.0
 23
0.0
 33
0.0
 40
0.0
 40
0.0
 40
0.0
 40
0.0
 40
0.0413034612931069
 40
0.0826230989927712
 40
0.1239549979838279
 40
0.1652754416669272
 40
0.2065790266889534
 40
0.2478952758057599
 40
0.289226739836776
 40
0.3305503175209802
 40
0.3718551131705398
 40
0.4131680218409627
 40
0.4544984182436951
 40
0.4958247531006035
 40
0.5371315820282444
 40
0.57844118488366
 40
0.6197697820276672
 40
0.6610984195137353
 40
0.7024081174916033
 40
0.7437150161278836
 40
0.785041315769068
 40
0.8263716623173356
 40
0.8676847798757992
 40
0.9089904144750882
 40
0.9503151502754442
 40
0.991647067645669
 40
1.0
 40
1.0
 40
1.0
 40
1.0
 10
117.0962832789885
 20
144.5444376356643
 30
0.0
 10
117.0985688240935
 20
144.509408768154
 30
0.0
 10
117.1031408094319
 20
144.4393373141573
 30
0.0
 10
116.9758978538475
 20
144.3342637520101
 30
0.0
 10
116.755394925592
 20
144.229219212721
 30
0.0
 10
116.4357555435883
 20
144.1241507688766
 30
0.0
 10
116.0227965068115
 20
144.0190274896897
 30
0.0
 10
115.5225915187228
 20
143.9139474835933
 30
0.0
 10
114.946451614635
 20
143.8089014698924
 30
0.0
 10
114.3043073227155
 20
143.7038408940117
 30
0.0
 10
113.6060764049383
 20
143.5987219077626
 30
0.0
 10
112.8633645132721
 20
143.4936313342956
 30
0.0
 10
112.0904012802556
 20
143.3885837072485
 30
0.0
 10
111.3004788154531
 20
143.2835290240329
 30
0.0
 10
110.5069889714873
 20
143.1784176571942
 30
0.0
 10
109.7241467922799
 20
143.0733161661102
 30
0.0
 10
108.9652890437477
 20
142.9682656663768
 30
0.0
 10
108.2431084847361
 20
142.8632151992097
 30
0.0
 10
107.5703070400454
 20
142.7581138098166
 30
0.0
 10
106.9604730378365
 20
142.6530025690854
 30
0.0
 10
106.4228062796433
 20
142.5479477430507
 30
0.0
 10
105.9652873957404
 20
142.4428998609587
 30
0.0
 10
105.596971480572
 20
142.3378084370114
 30
0.0
 10
105.3241739058483
 20
142.2326909341758
 30
0.0
 10
105.161542897001
 20
142.1276276751264
 30
0.0
 10
105.0921240090204
 20
142.0505237696251
 30
0.0
 10
105.1097059498438
 20
142.0083998224941
 30
0.0
 10
105.1126617958043
 20
142.0013180162124
 30
0.0
  0
SPLINE
  5
160
330
1F
100
AcDbEntity
  8
0
  6
Continuous
 62
     7
370
     0
100
AcDbSpline
210
0.0
220
0.0
230
1.0
 70
     8
 71
     3
 72
    12
 73
     8
 74
     0
 42
0.00000001
 43
0.00000001
 12
1.0
 22
0.0
 32
0.0
 13
1.0
 23
0.0
 33
0.0
 40
0.0
 40
0.0
 40
0.0
 40
0.0
 40
0.1781145674291386
 40
0.3860041831829991
 40
0.5938848617782709
 40
0.7969471527073814
 40
1.0
 40
1.0
 40
1.0
 40
1.0
 10
105.8363801646143
 20
141.2411252951274
 30
0.0
 10
105.8873562515306
 20
141.2253350723846
 30
0.0
 10
105.9978299936617
 20
141.1911150076248
 30
0.0
 10
106.1752457513796
 20
141.2361914203963
 30
0.0
 10
106.3290759069974
 20
141.3462152411112
 30
0.0
 10
106.4338915191426
 20
141.513839773336
 30
0.0
 10
106.4480483564956
 20
141.6428332180929
 30
0.0
 10
106.4551266105734
 20
141.7073284406908
 30
0.0
  0
SPLINE
  5
161
330
1F
100
AcDbEntity
  8
0
  6
Continuous
 62
     7
370
     0
100
AcDbSpline
210
0.0
220
0.0
230
1.0
 70
     8
 71
     3
 72
     9
 73
     5
 74
     0
 42
0.00000001
 43
0.00000001
 12
1.0
 22
0.0
 32
0.0
 13
1.0
 23
0.0
 33
0.0
 40
0.0
 40
0.0
 40
0.0
 40
0.0
 40
0.6933152077171235
 40
1.0
 40
1.0
 40
1.0
 40
1.0
 10
106.4551266105734
 20
141.7073284406908
 30
0.0
 10
106.3777683510962
 20
141.7423500512654
 30
0.0
 10
106.2661910214544
 20
141.792863310148
 30
0.0
 10
106.2159577682617
 20
141.8434042221174
 30
0.0
 10
106.2005519934406
 20
141.8589043512065
 30
0.0
  0
SPLINE
  5
162
330
1F
100
AcDbEntity
  8
0
  6
Continuous
 62
     7
370
     0
100
AcDbSpline
210
0.0
220
0.0
230
1.0
 70
     8
 71
     3
 72
    14
 73
    10
 74
     0
 42
0.00000001
 43
0.00000001
 12
1.0
 22
0.0
 32
0.0
 13
1.0
 23
0.0
 33
0.0
 40
0.0
 40
0.0
 40
0.0
 40
0.0
 40
0.0843980980210526
 40
0.2462898415408014
 40
0.4081473435953525
 40
0.5699331622521425
 40
0.7317551690221035
 40
0.8936432783502903
 40
1.0
 40
1.0
 40
1.0
 40
1.0
 10
116.0615313944396
 20
144.5947170119601
 30
0.0
 10
116.0507036795448
 20
144.6129845916275
 30
0.0
 10
116.0191063302182
 20
144.666292893676
 30
0.0
 10
115.873412888505
 20
144.7545804592986
 30
0.0
 10
115.6343797125095
 20
144.8596450540429
 30
0.0
 10
115.312128365545
 20
144.9647641529712
 30
0.0
 10
114.9141780987864
 20
145.0698537271225
 30
0.0
 10
114.510229539253
 20
145.1628867370473
 30
0.0
 10
114.2186232128731
 20
145.2209336365609
 30
0.0
 10
114.1030038632923
 20
145.2439487228598
 30
0.0
  0
SPLINE
  5
163
330
1F
100
AcDbEntity
  8
0
  6
Continuous
 62
     7
370
     0
100
AcDbSpline
210
0.0
220
0.0
230
1.0
 70
     8
 71
     3
 72
    13
 73
     9
 74
     0
 42
0.00000001
 43
0.00000001
 12
1.0
 22
0.0
 32
0.0
 13
1.0
 23
0.0
 33
0.0
 40
0.0
 40
0.0
 40
0.0
 40
0.0
 40
0.102576745570844
 40
0.2822577147932702
 40
0.4619686730145635
 40
0.6416112183980096
 40
0.8212036664798625
 40
1.0
 40
1.0
 40
1.0
 40
1.0
 10
108.1030038632922
 20
146.2707511267326
 30
0.0
 10
108.001779876167
 20
146.290757618954
 30
0.0
 10
107.7232445109705
 20
146.3458089538743
 30
0.0
 10
107.3297037869094
 20
146.4358528183365
 30
0.0
 10
106.9256548105999
 20
146.5409002031055
 30
0.0
 10
106.5975796110683
 20
146.6459820485208
 30
0.0
 10
106.3430113213963
 20
146.7509362720286
 30
0.0
 10
106.2442237627703
 20
146.820795052417
 30
0.0
 10
106.1949397053821
 20
146.8556468514655
 30
0.0
  0
SPLINE
  5
164
330
1F
100
AcDbEntity
  8
0
  6
Continuous
 62
     7
370
     0
100
AcDbSpline
210
0.0
220
0.0
230
1.0
 70
     8
 71
     3
 72
    14
 73
    10
 74
     0
 42
0.00000001
 43
0.00000001
 12
1.0
 22
0.0
 32
0.0
 13
1.0
 23
0.0
 33
0.0
 40
0.0
 40
0.0
 40
0.0
 40
0.0
 40
0.0645759633903858
 40
0.2429059016873377
 40
0.4213018554092781
 40
0.5997537557209989
 40
0.7781602484439947
 40
0.9564919083801299
 40
1.0
 40
1.0
 40
1.0
 40
1.0
 10
116.0064285540588
 20
149.6552288198247
 30
0.0
 10
115.9944544491096
 20
149.6679070491329
 30
0.0
 10
115.9494132200382
 20
149.7155968792213
 30
0.0
 10
115.7824000133641
 20
149.798369682205
 30
0.0
 10
115.508724904228
 20
149.9034393489855
 30
0.0
 10
115.1547768383508
 20
150.0084866630383
 30
0.0
 10
114.728614256302
 20
150.113549464216
 30
0.0
 10
114.3734422263186
 20
150.192185374317
 30
0.0
 10
114.1473466283784
 20
150.2357428999325
 30
0.0
 10
114.1030038632922
 20
150.244285574552
 30
0.0
  0
SPLINE
  5
165
330
1F
100
AcDbEntity
  8
0
  6
Continuous
 62
     7
370
     0
100
AcDbSpline
210
0.0
220
0.0
230
1.0
 70
     8
 71
     3
 72
    10
 73
     6
 74
     0
 42
0.00000001
 43
0.00000001
 12
1.0
 22
0.0
 32
0.0
 13
1.0
 23
0.0
 33
0.0
 40
0.0
 40
0.0
 40
0.0
 40
0.0
 40
0.1827129931188103
 40
0.6919170696743325
 40
0.9999999999999999
 40
0.9999999999999999
 40
0.9999999999999999
 40
0.9999999999999999
 10
106.6030038632922
 20
151.6520415058975
 30
0.0
 10
106.5667281595599
 20
151.6646115509496
 30
0.0
 10
106.4293554516951
 20
151.7122131395925
 30
0.0
 10
106.2899503885209
 20
151.7809809711416
 30
0.0
 10
106.2252263737061
 20
151.8372271449163
 30
0.0
 10
106.2008281341908
 20
151.8584295938604
 30
0.0
  0
SPLINE
  5
166
330
1F
100
AcDbEntity
  8
0
  6
Continuous
 62
     7
370
     0
100
AcDbSpline
210
0.0
220
0.0
230
1.0
 70
     8
 71
     3
 72
    10
 73
     6
 74
     0
 42
0.00000001
 43
0.00000001
 12
1.0
 22
0.0
 32
0.0
 13
1.0
 23
0.0
 33
0.0
 40
0.0
 40
0.0
 40
0.0
 40
0.0
 40
0.3871662510436771
 40
0.8960717077732177
 40
0.9999999999999999
 40
0.9999999999999999
 40
0.9999999999999999
 40
0.9999999999999999
 10
116.0063338969709
 20
154.6570604928422
 30
0.0
 10
115.9722812500822
 20
154.6837145321222
 30
0.0
 10
115.8934685607801
 20
154.745403613834
 30
0.0
 10
115.7500601580788
 20
154.8142071398455
 30
0.0
 10
115.6243265738994
 20
154.8564055904252
 30
0.0
 10
115.6030038632922
 20
154.8635618753244
 30
0.0
  0
SPLINE
  5
167
330
1F
100
AcDbEntity
  8
0
  6
Continuous
 62
     7
370
     0
100
AcDbSpline
210
0.0
220
0.0
230
1.0
 70
     8
 71
     3
 72
    10
 73
     6
 74
     0
 42
0.00000001
 43
0.00000001
 12
1.0
 22
0.0
 32
0.0
 13
1.0
 23
0.0
 33
0.0
 40
0.0
 40
0.0
 40
0.0
 40
0.0
 40
0.103928291674995
 40
0.6128337484989765
 40
1.0
 40
1.0
 40
1.0
 40
1.0
 10
115.6030038632921
 20
154.8635618752112
 30
0.0
 10
115.6243265737847
 20
154.8564055903539
 30
0.0
 10
115.750060157862
 20
154.8142071398285
 30
0.0
 10
115.8934685605823
 20
154.74540361385
 30
0.0
 10
115.97228124998
 20
154.6837145321266
 30
0.0
 10
116.0063338969292
 20
154.6570604928265
 30
0.0
  0
SPLINE
  5
168
330
1F
100
AcDbEntity
  8
0
  6
Continuous
 62
     7
370
     0
100
AcDbSpline
210
0.0
220
0.0
230
1.0
 70
     8
 71
     3
 72
    10
 73
     6
 74
     0
 42
0.00000001
 43
0.00000001
 12
1.0
 22
0.0
 32
0.0
 13
1.0
 23
0.0
 33
0.0
 40
0.0
 40
0.0
 40
0.0
 40
0.0
 40
0.3080829304275749
 40
0.8172870074330246
 40
1.0
 40
1.0
 40
1.0
 40
1.0
 10
106.2008281343966
 20
151.8584295939342
 30
0.0
 10
106.2252263739243
 20
151.8372271450023
 30
0.0
 10
106.2899503887944
 20
151.7809809712407
 30
0.0
 10
106.429355451916
 20
151.7122131397541
 30
0.0
 10
106.5667281596885
 20
151.6646115511566
 30
0.0
 10
106.6030038632922
 20
151.6520415061526
 30
0.0
  0
SPLINE
  5
169
330
1F
100
AcDbEntity
  8
0
  6
Continuous
 62
     7
370
     0
100
AcDbSpline
210
0.0
220
0.0
230
1.0
 70
     8
 71
     3
 72
    14
 73
    10
 74
     0
 42
0.00000001
 43
0.00000001
 12
1.0
 22
0.0
 32
0.0
 13
1.0
 23
0.0
 33
0.0
 40
0.0
 40
0.0
 40
0.0
 40
0.0
 40
0.0435080914437253
 40
0.2218397513466196
 40
0.4002462440313532
 40
0.5786981443018514
 40
0.7570940979816885
 40
0.9354240362370296
 40
1.0
 40
1.0
 40
1.0
 40
1.0
 10
114.1030038632922
 20
150.244285574563
 30
0.0
 10
114.1473466281974
 20
150.2357428999766
 30
0.0
 10
114.3734422259168
 20
150.1921853743948
 30
0.0
 10
114.7286142556667
 20
150.1135494643279
 30
0.0
 10
115.1547768376564
 20
150.0084866631495
 30
0.0
 10
115.5087249034955
 20
149.9034393490962
 30
0.0
 10
115.7824000126662
 20
149.7983696823152
 30
0.0
 10
115.9494132195009
 20
149.7155968792556
 30
0.0
 10
115.99445444869
 20
149.667907049091
 30
0.0
 10
116.0064285537232
 20
149.6552288197067
 30
0.0
  0
SPLINE
  5
16A
330
1F
100
AcDbEntity
  8
0
  6
Continuous
 62
     7
370
     0
100
AcDbSpline
210
0.0
220
0.0
230
1.0
 70
     8
 71
     3
 72
    13
 73
     9
 74
     0
 42
0.00000001
 43
0.00000001
 12
1.0
 22
0.0
 32
0.0
 13
1.0
 23
0.0
 33
0.0
 40
0.0
 40
0.0
 40
0.0
 40
0.0
 40
0.1787963333532323
 40
0.3583887814403045
 40
0.5380313268386175
 40
0.717742285079119
 40
0.8974232543216126
 40
1.0
 40
1.0
 40
1.0
 40
1.0
 10
106.1949397054239
 20
146.8556468514809
 30
0.0
 10
106.24422376276
 20
146.8207950524636
 30
0.0
 10
106.3430113213295
 20
146.7509362721042
 30
0.0
 10
106.5975796109026
 20
146.6459820486281
 30
0.0
 10
106.9256548103799
 20
146.5409002032146
 30
0.0
 10
107.3297037866441
 20
146.4358528184465
 30
0.0
 10
107.7232445107669
 20
146.3458089539658
 30
0.0
 10
108.0017798760684
 20
146.2907576190268
 30
0.0
 10
108.1030038632922
 20
146.2707511267866
 30
0.0
  0
SPLINE
  5
16B
330
1F
100
AcDbEntity
  8
0
  6
Continuous
 62
     7
370
     0
100
AcDbSpline
210
0.0
220
0.0
230
1.0
 70
     8
 71
     3
 72
    14
 73
    10
 74
     0
 42
0.00000001
 43
0.00000001
 12
1.0
 22
0.0
 32
0.0
 13
1.0
 23
0.0
 33
0.0
 40
0.0
 40
0.0
 40
0.0
 40
0.0
 40
0.1155388996529633
 40
0.2914034217972425
 40
0.4671961345013423
 40
0.6429495348389394
 40
0.8187808072765956
 40
0.9946492773748857
 40
1.0
 40
1.0
 40
1.0
 40
1.0
 10
114.1030038632923
 20
145.2439487229302
 30
0.0
 10
114.218620201417
 20
145.2209336349006
 30
0.0
 10
114.5102189326357
 20
145.1628867310012
 30
0.0
 10
114.9142474508127
 20
145.0698537673937
 30
0.0
 10
115.3118720246725
 20
144.9647640046346
 30
0.0
 10
115.6353357160185
 20
144.8596456077686
 30
0.0
 10
115.8698430943108
 20
144.7545783921596
 30
0.0
 10
115.9986022930944
 20
144.6834884050936
 30
0.0
 10
116.0239675568023
 20
144.6473838791619
 30
0.0
 10
116.0247164978409
 20
144.6463178480155
 30
0.0
  0
SPLINE
  5
16C
330
1F
100
AcDbEntity
  8
0
  6
Continuous
 62
     7
370
     0
100
AcDbSpline
210
0.0
220
0.0
230
1.0
 70
     8
 71
     3
 72
     9
 73
     5
 74
     0
 42
0.00000001
 43
0.00000001
 12
1.0
 22
0.0
 32
0.0
 13
1.0
 23
0.0
 33
0.0
 40
0.0
 40
0.0
 40
0.0
 40
0.0
 40
0.3066847917185013
 40
1.0
 40
1.0
 40
1.0
 40
1.0
 10
106.2005519934857
 20
141.8589043512219
 30
0.0
 10
106.2159577682605
 20
141.8434042221673
 30
0.0
 10
106.2661910213944
 20
141.7928633102176
 30
0.0
 10
106.3777683514963
 20
141.742350051376
 30
0.0
 10
106.4551266113555
 20
141.7073284408012
 30
0.0
  0
LWPOLYLINE
  5
16D
330
1F
100
AcDbEntity
  8
0
  6
Continuous
 62
     7
370
     0
100
AcDbPolyline
 90
       27
 70
   128
 43
0.0
 10
105.1414663879
 20
141.9174844423
 10
105.1053623251
 20
142.0225625701
 10
105.172898585
 20
142.1276406978
 10
105.3425729689
 20
142.2327188256
 10
105.6128671003
 20
142.3377969534
 10
105.9800863858
 20
142.4428750812
 10
106.4361866374
 20
142.5479532089
 10
106.9726063127
 20
142.6530313367
 10
107.5807834902
 20
142.7581094645
 10
108.2512115114
 20
142.8631875922
 10
108.9714031795
 20
142.96826572
 10
109.7282849662
 20
143.0733438477
 10
110.5087833435
 20
143.1784219754
 10
111.2997375469
 20
143.2835001032
 10
112.0875423289
 20
143.3885782309
 10
112.8584512366
 20
143.4936563587
 10
113.5987177587
 20
143.5987344864
 10
114.2948418816
 20
143.7038126142
 10
114.9354012413
 20
143.8088907419
 10
115.5100151714
 20
143.9139688697
 10
116.0083108115
 20
144.0190469974
 10
116.4201462502
 20
144.1241251252
 10
116.7388394551
 20
144.2292032529
 10
116.9603739598
 20
144.3342813807
 10
117.0808019893
 20
144.4393595084
 10
117.0962832786
 20
144.5444376362
 10
117.0962832787
 20
144.5444376361
  0
SPLINE
  5
16E
330
1F
100
AcDbEntity
  8
0
  6
Continuous
 62
     7
370
     0
100
AcDbSpline
210
0.0
220
0.0
230
1.0
 70
     8
 71
     3
 72
    32
 73
    28
 74
     0
 42
0.00000001
 43
0.00000001
 12
1.0
 22
0.0
 32
0.0
 13
1.0
 23
0.0
 33
0.0
 40
0.0
 40
0.0
 40
0.0
 40
0.0
 40
0.0412605283809216
 40
0.0825056719762289
 40
0.1237653553200177
 40
0.1650388358106518
 40
0.2063026150062502
 40
0.2475484260456996
 40
0.2888047108023459
 40
0.3300774249985132
 40
0.3713441631314075
 40
0.4125916391641765
 40
0.4538446113968971
 40
0.4951159071072784
 40
0.5363851849118597
 40
0.5776351390789105
 40
0.6188850932544709
 40
0.6601543710616368
 40
0.7014256667567693
 40
0.7426786389686958
 40
0.7839261150039051
 40
0.8251928531441368
 40
0.866465567334473
 40
0.9077218520787135
 40
0.948967663127072
 40
0.9902314423418012
 40
1.0
 40
1.0
 40
1.0
 40
1.0
 10
105.1143744477276
 20
146.9612345744159
 30
0.0
 10
105.1087546151744
 20
146.9962564738529
 30
0.0
 10
105.0975170455313
 20
147.0662872141345
 30
0.0
 10
105.2141809100986
 20
147.1714136895357
 30
0.0
 10
105.4274834891293
 20
147.2764880762822
 30
0.0
 10
105.7402993756606
 20
147.3815338307739
 30
0.0
 10
106.1446708017074
 20
147.4865979381588
 30
0.0
 10
106.6362178821971
 20
147.5917195640428
 30
0.0
 10
107.206989017763
 20
147.696804796948
 30
0.0
 10
107.8447923276109
 20
147.8018514957619
 30
0.0
 10
108.5385273314629
 20
147.9069088920462
 30
0.0
 10
109.2770954558097
 20
148.0120244026896
 30
0.0
 10
110.0481597787898
 20
148.1171204798617
 30
0.0
 10
110.8373260138404
 20
148.2221693871042
 30
0.0
 10
111.6310590547701
 20
148.3272217796426
 30
0.0
 10
112.4157660736719
 20
148.4323283629171
 30
0.0
 10
113.1770543498148
 20
148.5374349461525
 30
0.0
 10
113.9022492156102
 20
148.642487338681
 30
0.0
 10
114.5794031803127
 20
148.7475362459228
 30
0.0
 10
115.1966216216171
 20
148.852632323195
 30
0.0
 10
115.7408901020682
 20
148.9577478336042
 30
0.0
 10
116.2043749929792
 20
149.0628052306255
 30
0.0
 10
116.579697100792
 20
149.1678519266078
 30
0.0
 10
116.8630056626951
 20
149.2729371701452
 30
0.0
 10
117.0356116433901
 20
149.3780587565001
 30
0.0
 10
117.110228516618
 20
149.4563823494853
 30
0.0
 10
117.0950663904902
 20
149.4996895795071
 30
0.0
 10
117.0921640718354
 20
149.5079794051237
 30
0.0
  0
SPLINE
  5
16F
330
1F
100
AcDbEntity
  8
0
  6
Continuous
 62
     7
370
     0
100
AcDbSpline
210
0.0
220
0.0
230
1.0
 70
     8
 71
     3
 72
    32
 73
    28
 74
     0
 42
0.00000001
 43
0.00000001
 12
1.0
 22
0.0
 32
0.0
 13
1.0
 23
0.0
 33
0.0
 40
0.0
 40
0.0
 40
0.0
 40
0.0
 40
0.0002030553238795
 40
0.041865108514667
 40
0.083536042554729
 40
0.1251923180954192
 40
0.1668348432041737
 40
0.2084936775251547
 40
0.2501648737783033
 40
0.2918245206715016
 40
0.3334671705184648
 40
0.3751225884361415
 40
0.4167933461578436
 40
0.4584561527791607
 40
0.5001000231902893
 40
0.541752073245836
 40
0.5834217545850839
 40
0.6250873410190736
 40
0.66673326139384
 40
0.7083819784847715
 40
0.7500498457829642
 40
0.7917177537375172
 40
0.8333665667051063
 40
0.8750125573757201
 40
0.9166781083179
 40
0.9583477393740482
 40
1.0
 40
1.0
 40
1.0
 40
1.0
 10
105.1037912282149
 20
152.0044723408623
 30
0.0
 10
105.1037028964501
 20
152.004643129543
 30
0.0
 10
105.0854910178082
 20
152.0398556347601
 30
0.0
 10
105.1454105441804
 20
152.1100721098027
 30
0.0
 10
105.288890788888
 20
152.2151213488039
 30
0.0
 10
105.5453497674885
 20
152.3201979109069
 30
0.0
 10
105.8966916408092
 20
152.4253219874454
 30
0.0
 10
106.3406312584343
 20
152.530392282586
 30
0.0
 10
106.8660924843342
 20
152.6354376975737
 30
0.0
 10
107.4644282110153
 20
152.7405059068688
 30
0.0
 10
108.1268468515124
 20
152.8456292488952
 30
0.0
 10
108.8419158081083
 20
152.950709238113
 30
0.0
 10
109.5958013983785
 20
153.0557552563252
 30
0.0
 10
110.3755913573218
 20
153.1608158310251
 30
0.0
 10
111.168230350452
 20
153.2659348176241
 30
0.0
 10
111.9596558016138
 20
153.3710253909544
 30
0.0
 10
112.736199758133
 20
153.4760730180252
 30
0.0
 10
113.4847358458386
 20
153.581127701205
 30
0.0
 10
114.1919829700241
 20
153.6862390682529
 30
0.0
 10
114.8441298698847
 20
153.7913405586511
 30
0.0
 10
115.4314283907049
 20
153.896391060787
 30
0.0
 10
115.9445004132475
 20
154.0014415189654
 30
0.0
 10
116.3737228541227
 20
154.1065429419931
 30
0.0
 10
116.7095167879042
 20
154.2116540573245
 30
0.0
 10
116.9457308928966
 20
154.3167093514215
 30
0.0
 10
117.0893463959748
 20
154.4217554865041
 30
0.0
 10
117.0971967667251
 20
154.4918298799766
 30
0.0
 10
117.101121133802
 20
154.5268597723758
 30
0.0
  0
SPLINE
  5
170
330
1F
100
AcDbEntity
  8
0
  6
Continuous
 62
     7
370
     0
100
AcDbSpline
210
0.0
220
0.0
230
1.0
 70
     8
 71
     3
 72
     9
 73
     5
 74
     0
 42
0.00000001
 43
0.00000001
 12
1.0
 22
0.0
 32
0.0
 13
1.0
 23
0.0
 33
0.0
 40
0.0
 40
0.0
 40
0.0
 40
0.0
 40
0.8411531783922175
 40
1.0
 40
1.0
 40
1.0
 40
1.0
 10
106.4551266113555
 20
141.7073284408012
 30
0.0
 10
106.4522700162889
 20
141.774174584047
 30
0.0
 10
106.4488739700752
 20
141.8536442275829
 30
0.0
 10
106.4080599679337
 20
141.9166679695284
 30
0.0
 10
106.4015767934164
 20
141.9266790906223
 30
0.0
  0
SPLINE
  5
171
330
1F
100
AcDbEntity
  8
0
  6
Continuous
 62
     7
370
     0
100
AcDbSpline
210
0.0
220
0.0
230
1.0
 70
     8
 71
     3
 72
    12
 73
     8
 74
     0
 42
0.00000001
 43
0.00000001
 12
1.0
 22
0.0
 32
0.0
 13
1.0
 23
0.0
 33
0.0
 40
0.0
 40
0.0
 40
0.0
 40
0.0
 40
0.2040501490129542
 40
0.408109352171409
 40
0.6170635874086163
 40
0.8260268061696813
 40
1.0
 40
1.0
 40
1.0
 40
1.0
 10
106.4551272325592
 20
141.7073282206695
 30
0.0
 10
106.4480406782822
 20
141.642852417366
 30
0.0
 10
106.4338672552825
 20
141.5138979498285
 30
0.0
 10
106.3290626340289
 20
141.346286995723
 30
0.0
 10
106.1752517243341
 20
141.2363607238931
 30
0.0
 10
105.9993162951825
 20
141.1913520072852
 30
0.0
 10
105.8902730266896
 20
141.2249867146604
 30
0.0
 10
105.8407331943268
 20
141.240267417339
 30
0.0
  0
LWPOLYLINE
  5
172
330
1F
100
AcDbEntity
  8
0
  6
Continuous
 62
     7
370
     0
100
AcDbPolyline
 90
       27
 70
   128
 43
0.0
 10
117.0556627651
 20
139.6057659162
 10
117.1015756763
 20
139.5006877885
 10
117.0438049707
 20
139.3956096607
 10
116.8814803217
 20
139.290531533
 10
116.6177410799
 20
139.1854534052
 10
116.258815738
 20
139.0803752775
 10
115.8110123965
 20
138.9752971497
 10
115.2807183704
 20
138.870219022
 10
114.6767844871
 20
138.7651408942
 10
114.0109450391
 20
138.6600627665
 10
113.2950981775
 20
138.5549846387
 10
112.5411496776
 20
138.449906511
 10
111.7617046597
 20
138.3448283832
 10
110.970620463
 20
138.2397502555
 10
110.1818845295
 20
138.1346721277
 10
109.409483721
 20
138.029594
 10
108.666933049
 20
137.9245158722
 10
107.966424058
 20
137.8194377445
 10
107.3199179913
 20
137.7143596168
 10
106.7393760925
 20
137.609281489
 10
106.235942353
 20
137.5042033613
 10
105.8170725223
 20
137.3991252335
 10
105.4891823798
 20
137.2940471058
 10
105.2586876448
 20
137.188968978
 10
105.1313700999
 20
137.0838908503
 10
105.1083240393
 20
136.9788127225
 10
105.1083240394
 20
136.9788127231
  0
SPLINE
  5
173
330
1F
100
AcDbEntity
  8
0
  6
Continuous
 62
     7
370
     0
100
AcDbSpline
210
0.0
220
0.0
230
1.0
 70
     8
 71
     3
 72
    32
 73
    28
 74
     0
 42
0.00000001
 43
0.00000001
 12
1.0
 22
0.0
 32
0.0
 13
1.0
 23
0.0
 33
0.0
 40
0.0
 40
0.0
 40
0.0
 40
0.0
 40
0.0410658545092474
 40
0.0821508863096232
 40
0.1232418678462216
 40
0.1643164922775456
 40
0.2053806891279323
 40
0.2464627750242236
 40
0.2875545194839669
 40
0.3286325275358835
 40
0.3696960598731328
 40
0.4107749092639986
 40
0.4518667394945431
 40
0.4929480341812882
 40
0.5340119659781536
 40
0.5750874399061251
 40
0.6161786756706472
 40
0.657263002162062
 40
0.698328354989096
 40
0.7394004908928442
 40
0.7804904735311778
 40
0.8215774439297523
 40
0.8626450840582954
 40
0.9037141207228893
 40
0.9448022379947874
 40
0.9858913561407565
 40
1.0
 40
1.0
 40
1.0
 40
1.0
 10
117.0888145162033
 20
134.5620157842797
 30
0.0
 10
117.0967341513482
 20
134.5269859308354
 30
0.0
 10
117.1125771200183
 20
134.4569098654002
 30
0.0
 10
117.0029981534351
 20
134.3518511489436
 30
0.0
 10
116.7998381834252
 20
134.24680480477
 30
0.0
 10
116.4964820630624
 20
134.141719473762
 30
0.0
 10
116.0978825203857
 20
134.0365978856263
 30
0.0
 10
115.6116002391503
 20
133.9315337253605
 30
0.0
 10
115.0479873704583
 20
133.8264881448049
 30
0.0
 10
114.4164938561415
 20
133.721413115447
 30
0.0
 10
113.7263796312113
 20
133.6162890357826
 30
0.0
 10
112.990074432744
 20
133.5112163851508
 30
0.0
 10
112.2214095615251
 20
133.4061709249171
 30
0.0
 10
111.4334887449949
 20
133.3011047936495
 30
0.0
 10
110.639643383846
 20
133.1959821976886
 30
0.0
 10
109.8540928053604
 20
133.0908996167217
 30
0.0
 10
109.0901308824171
 20
132.9858532963634
 30
0.0
 10
108.3606825170795
 20
132.8807943721504
 30
0.0
 10
107.6790009937694
 20
132.775677021613
 30
0.0
 10
107.0583075203981
 20
132.6705836824826
 30
0.0
 10
106.5075382116284
 20
132.5655354290647
 30
0.0
 10
106.0354739845118
 20
132.4604819820301
 30
0.0
 10
105.6518479477327
 20
132.3553727750013
 30
0.0
 10
105.3635329813763
 20
132.2502694028737
 30
0.0
 10
105.1818815091429
 20
132.1452155264401
 30
0.0
 10
105.0983456056501
 20
132.0631539763112
 30
0.0
 10
105.1119809058367
 20
132.0160769979944
 30
0.0
 10
105.115466112252
 20
132.0040440405536
 30
0.0
  0
SPLINE
  5
174
330
1F
100
AcDbEntity
  8
0
  6
Continuous
 62
     7
370
     0
100
AcDbSpline
210
0.0
220
0.0
230
1.0
 70
     8
 71
     3
 72
    19
 73
    15
 74
     0
 42
0.00000001
 43
0.00000001
 12
1.0
 22
0.0
 32
0.0
 13
1.0
 23
0.0
 33
0.0
 40
0.0
 40
0.0
 40
0.0
 40
0.0
 40
0.0833568145940532
 40
0.1666754295903811
 40
0.2499883985674098
 40
0.3333404979434633
 40
0.4167007596039671
 40
0.500026271651454
 40
0.5833366911668666
 40
0.6666856364056782
 40
0.7500490663040706
 40
0.8333775939651675
 40
0.9166734831325175
 40
1.0
 40
1.0
 40
1.0
 40
1.0
 10
117.1009038543365
 20
129.5182656523243
 30
0.0
 10
117.0945880451388
 20
129.4832434606442
 30
0.0
 10
117.0819593210644
 20
129.4132151267653
 30
0.0
 10
116.9319662790065
 20
129.3081137452172
 30
0.0
 10
116.6854107213477
 20
129.2030024971679
 30
0.0
 10
116.3398678395224
 20
129.0979476926968
 30
0.0
 10
115.904996374842
 20
128.9928997318159
 30
0.0
 10
115.3870920373005
 20
128.8878086013935
 30
0.0
 10
114.7929550098769
 20
128.78269000343
 30
0.0
 10
114.1343903290862
 20
128.6776308338285
 30
0.0
 10
113.4238586701893
 20
128.5725863174252
 30
0.0
 10
112.6733714889617
 20
128.4675092122174
 30
0.0
 10
111.8950269304962
 20
128.3623809342477
 30
0.0
 10
111.3670442404053
 20
128.2923500154707
 30
0.0
 10
111.1030043697866
 20
128.2573281197151
 30
0.0
  0
SPLINE
  5
175
330
1F
100
AcDbEntity
  8
0
  6
Continuous
 62
     7
370
     0
100
AcDbSpline
210
0.0
220
0.0
230
1.0
 70
    11
 71
     3
 72
    15
 73
    11
 74
     0
 42
0.00000001
 43
0.00000001
 12
1.0
 22
0.0
 32
0.0
 13
1.0
 23
0.0
 33
0.0
 40
0.0
 40
0.0
 40
0.0
 40
0.0
 40
0.1235286662326115
 40
0.2470630762798948
 40
0.3735288024511005
 40
0.4999999644048744
 40
0.6264711270487034
 40
0.7529368525125528
 40
0.8764712989253142
 40
0.9999999999999999
 40
0.9999999999999999
 40
0.9999999999999999
 40
0.9999999999999999
 10
111.1030041669693
 20
128.2573281197151
 30
0.0
 10
111.1030041665516
 20
128.1928065805413
 30
0.0
 10
111.103004165716
 20
128.0637605020822
 30
0.0
 10
111.1030041599593
 20
127.896533986341
 30
0.0
 10
111.1030041516405
 20
127.7849632064721
 30
0.0
 10
111.1030041417475
 20
127.7434362228837
 30
0.0
 10
111.1030041318545
 20
127.7849633064461
 30
0.0
 10
111.1030041235357
 20
127.8965341804027
 30
0.0
 10
111.103004117779
 20
128.0637607936253
 30
0.0
 10
111.1030041169435
 20
128.1928069208254
 30
0.0
 10
111.1030041165257
 20
128.2573284839718
 30
0.0
  0
SPLINE
  5
176
330
1F
100
AcDbEntity
  8
0
  6
Continuous
 62
     7
370
     0
100
AcDbSpline
210
0.0
220
0.0
230
1.0
 70
     8
 71
     3
 72
    10
 73
     6
 74
     0
 42
0.00000001
 43
0.00000001
 12
1.0
 22
0.0
 32
0.0
 13
1.0
 23
0.0
 33
0.0
 40
0.0
 40
0.0
 40
0.0
 40
0.0
 40
0.3515054294629297
 40
0.8571988096088358
 40
1.0
 40
1.0
 40
1.0
 40
1.0
 10
116.0071665146504
 20
129.6553875938955
 30
0.0
 10
115.97810415644
 20
129.6797310253669
 30
0.0
 10
115.9072312288142
 20
129.739096141038
 30
0.0
 10
115.7644327127244
 20
129.8083801866923
 30
0.0
 10
115.6321361207878
 20
129.8532733555768
 30
0.0
 10
115.6030038632924
 20
129.8631590173054
 30
0.0
  0
SPLINE
  5
177
330
1F
100
AcDbEntity
  8
0
  6
Continuous
 62
     7
370
     0
100
AcDbSpline
210
0.0
220
0.0
230
1.0
 70
     8
 71
     3
 72
    14
 73
    10
 74
     0
 42
0.00000001
 43
0.00000001
 12
1.0
 22
0.0
 32
0.0
 13
1.0
 23
0.0
 33
0.0
 40
0.0
 40
0.0
 40
0.0
 40
0.0
 40
0.0577438987477853
 40
0.2366713901135362
 40
0.4155196380822505
 40
0.5944078905553957
 40
0.7733692170047718
 40
0.9523090371293621
 40
1.0
 40
1.0
 40
1.0
 40
1.0
 10
108.1030038632924
 20
131.2706900776997
 30
0.0
 10
108.0447150751446
 20
131.2819912436435
 30
0.0
 10
107.8058103801358
 20
131.3283106420875
 30
0.0
 10
107.4399325254361
 20
131.4096441994722
 30
0.0
 10
107.0184640629144
 20
131.5147647040889
 30
0.0
 10
106.6714042257506
 20
131.6198518767013
 30
0.0
 10
106.4065466429609
 20
131.7249015513795
 30
0.0
 10
106.2484466601138
 20
131.8042790837414
 30
0.0
 10
106.2080744195374
 20
131.8486630903849
 30
0.0
 10
106.1995787024027
 20
131.8580030219905
 30
0.0
  0
SPLINE
  5
178
330
1F
100
AcDbEntity
  8
0
  6
Continuous
 62
     7
370
     0
100
AcDbSpline
210
0.0
220
0.0
230
1.0
 70
     8
 71
     3
 72
    14
 73
    10
 74
     0
 42
0.00000001
 43
0.00000001
 12
1.0
 22
0.0
 32
0.0
 13
1.0
 23
0.0
 33
0.0
 40
0.0
 40
0.0
 40
0.0
 40
0.0
 40
0.020677583549724
 40
0.1991506752216322
 40
0.3776151067056178
 40
0.5559966069811207
 40
0.7343781072164611
 40
0.9128425386808853
 40
1.0
 40
1.0
 40
1.0
 40
1.0
 10
116.0121697393275
 20
134.6549143881456
 30
0.0
 10
116.0088708863828
 20
134.6589743347463
 30
0.0
 10
115.9770988570352
 20
134.6980766362771
 30
0.0
 10
115.8355849993872
 20
134.7721661815025
 30
0.0
 10
115.5860816882389
 20
134.8772228445672
 30
0.0
 10
115.2508090998402
 20
134.9823278086971
 30
0.0
 10
114.8411115021056
 20
135.0874356948052
 30
0.0
 10
114.4556360565471
 20
135.1745643394057
 30
0.0
 10
114.1901249671383
 20
135.2266943164643
 30
0.0
 10
114.1030038632924
 20
135.2437995196966
 30
0.0
  0
SPLINE
  5
179
330
1F
100
AcDbEntity
  8
0
  6
Continuous
 62
     7
370
     0
100
AcDbSpline
210
0.0
220
0.0
230
1.0
 70
     8
 71
     3
 72
    13
 73
     9
 74
     0
 42
0.00000001
 43
0.00000001
 12
1.0
 22
0.0
 32
0.0
 13
1.0
 23
0.0
 33
0.0
 40
0.0
 40
0.0
 40
0.0
 40
0.0
 40
0.1327101431096821
 40
0.311783895697677
 40
0.4909138075206301
 40
0.6699981393206436
 40
0.8490073539385374
 40
1.0
 40
1.0
 40
1.0
 40
1.0
 10
108.1030038632923
 20
136.2704425101481
 30
0.0
 10
107.9733483283142
 20
136.2964113022655
 30
0.0
 10
107.6687408066355
 20
136.3574213425172
 30
0.0
 10
107.2571863608664
 20
136.4534403260529
 30
0.0
 10
106.8655204842969
 20
136.55848585467
 30
0.0
 10
106.5507531515119
 20
136.6635510691567
 30
0.0
 10
106.3194408356449
 20
136.7631846018752
 30
0.0
 10
106.2362041335738
 20
136.8277309062515
 30
0.0
 10
106.1981191062068
 20
136.8572641254618
 30
0.0
  0
SPLINE
  5
17A
330
1F
100
AcDbEntity
  8
0
  6
Continuous
 62
     7
370
     0
100
AcDbSpline
210
0.0
220
0.0
230
1.0
 70
     8
 71
     3
 72
    14
 73
    10
 74
     0
 42
0.00000001
 43
0.00000001
 12
1.0
 22
0.0
 32
0.0
 13
1.0
 23
0.0
 33
0.0
 40
0.0
 40
0.0
 40
0.0
 40
0.0
 40
0.1027120821249553
 40
0.2792308539734129
 40
0.4557840350602254
 40
0.6324113859006849
 40
0.8090215107045804
 40
0.9855489061562173
 40
1.0
 40
1.0
 40
1.0
 40
1.0
 10
116.0117921073357
 20
139.6497289803537
 30
0.0
 10
115.9904163257544
 20
139.670098667729
 30
0.0
 10
115.932304586397
 20
139.7254752610496
 30
0.0
 10
115.743024095308
 20
139.8159358351344
 30
0.0
 10
115.4545683150437
 20
139.9210244407277
 30
0.0
 10
115.0886973592096
 20
140.0260734681707
 30
0.0
 10
114.6500623062509
 20
140.1311255006155
 30
0.0
 10
114.3165921555669
 20
140.2040782443982
 30
0.0
 10
114.1180288874803
 20
140.2419688108975
 30
0.0
 10
114.1030038632923
 20
140.2448359407732
 30
0.0
  0
SPLINE
  5
17B
330
1F
100
AcDbEntity
  8
0
  6
Continuous
 62
     7
370
     0
100
AcDbSpline
210
0.0
220
0.0
230
1.0
 70
     8
 71
     3
 72
    12
 73
     8
 74
     0
 42
0.00000001
 43
0.00000001
 12
1.0
 22
0.0
 32
0.0
 13
1.0
 23
0.0
 33
0.0
 40
0.0
 40
0.0
 40
0.0
 40
0.0
 40
0.0385065832411723
 40
0.278979675612712
 40
0.5193528487722345
 40
0.7596325835614475
 40
1.0
 40
1.0
 40
1.0
 40
1.0
 10
108.1030038632923
 20
141.2701868232827
 30
0.0
 10
108.0737826373126
 20
141.2757965654456
 30
0.0
 10
107.8620752496751
 20
141.3164390716654
 30
0.0
 10
107.5171900482759
 20
141.3920677769454
 30
0.0
 10
107.0840100308666
 20
141.4971479690111
 30
0.0
 10
106.7208671530939
 20
141.6022750526531
 30
0.0
 10
106.5437179781666
 20
141.6723062374478
 30
0.0
 10
106.4551272325588
 20
141.707328217535
 30
0.0
  0
SPLINE
  5
17C
330
1F
100
AcDbEntity
  8
0
  6
Continuous
 62
     7
370
     0
100
AcDbSpline
210
0.0
220
0.0
230
1.0
 70
    24
 71
     3
 72
    13
 73
     9
 74
     0
 42
0.00000001
 43
0.00000001
 12
1.0
 22
0.0
 32
0.0
 13
1.0
 23
0.0
 33
0.0
 40
0.0
 40
0.0
 40
0.0
 40
0.0
 40
0.1874814482986779
 40
0.3749628965802377
 40
0.5624443461396151
 40
0.7499257938638038
 40
0.9374072415879926
 40
1.0
 40
1.0
 40
1.0
 40
1.0
 10
114.1030038618045
 20
123.1802235166261
 30
0.0
 10
114.4319829638932
 20
123.1802235166261
 30
0.0
 10
115.0899411680405
 20
123.1802235166261
 30
0.0
 10
115.8917040003687
 20
123.1802235166261
 30
0.0
 10
116.5219862789697
 20
123.1802235166261
 30
0.0
 10
116.9257927426838
 20
123.1802235166261
 30
0.0
 10
117.1128150996476
 20
123.1802235166261
 30
0.0
 10
117.0844169358344
 20
123.1802235166261
 30
0.0
 10
117.0773089680261
 20
123.1802235166261
 30
0.0
  0
SPLINE
  5
17D
330
1F
100
AcDbEntity
  8
0
  6
Continuous
 62
     7
370
     0
100
AcDbSpline
210
0.0
220
0.0
230
1.0
 70
    24
 71
     3
 72
    18
 73
    14
 74
     0
 42
0.00000001
 43
0.00000001
 12
1.0
 22
0.0
 32
0.0
 13
1.0
 23
0.0
 33
0.0
 40
0.0
 40
0.0
 40
0.0
 40
0.0
 40
0.062453614456564
 40
0.1562082529362844
 40
0.2499628914245649
 40
0.3437175299128453
 40
0.4374721683925654
 40
0.5312268075112891
 40
0.6249814457122825
 40
0.7187360839132757
 40
0.8124907230319993
 40
0.9062453615117196
 40
1.0
 40
1.0
 40
1.0
 40
1.0
 10
105.1286987585588
 20
123.180223516626
 30
0.0
 10
105.1284732684599
 20
123.180223516626
 30
0.0
 10
105.1279092752512
 20
123.180223516626
 30
0.0
 10
105.3904123011623
 20
123.180223516626
 30
0.0
 10
105.871851353794
 20
123.180223516626
 30
0.0
 10
106.5632909426341
 20
123.180223516626
 30
0.0
 10
107.4267749688992
 20
123.180223516626
 30
0.0
 10
108.4322209019705
 20
123.180223516626
 30
0.0
 10
109.5399717651849
 20
123.180223516626
 30
0.0
 10
110.708429590845
 20
123.1802235166261
 30
0.0
 10
111.8898203982038
 20
123.1802235166261
 30
0.0
 10
113.0492549200278
 20
123.1802235166261
 30
0.0
 10
113.7517542145349
 20
123.1802235166261
 30
0.0
 10
114.1030038618045
 20
123.1802235166261
 30
0.0
  0
LINE
  5
17E
330
1F
100
AcDbEntity
  8
0
  6
Continuous
 62
     7
370
     0
100
AcDbLine
 10
117.1030038633
 20
110.6802235166
 30
0.0
 11
114.1030038642
 21
110.6802235166
 31
0.0
  0
LINE
  5
17F
330
1F
100
AcDbEntity
  8
0
  6
Continuous
 62
     7
370
     0
100
AcDbLine
 10
114.1030038642
 20
110.6802235166
 30
0.0
 11
114.1030038642
 21
111.797942406
 31
0.0
  0
LINE
  5
180
330
1F
100
AcDbEntity
  8
0
  6
Continuous
 62
     7
370
     0
100
AcDbLine
 10
114.1030038642
 20
117.797942406
 30
0.0
 11
114.1030038642
 21
123.1802235166
 31
0.0
  0
LINE
  5
181
330
1F
100
AcDbEntity
  8
0
  6
Continuous
 62
     7
370
     0
100
AcDbLine
 10
114.1030038642
 20
123.1802235166
 30
0.0
 11
117.1030038633
 21
123.1802235166
 31
0.0
  0
SPLINE
  5
182
330
1F
100
AcDbEntity
  8
0
  6
Continuous
 62
     7
370
     0
100
AcDbSpline
210
0.0
220
0.0
230
1.0
 70
    24
 71
     3
 72
    13
 73
     9
 74
     0
 42
0.00000001
 43
0.00000001
 12
1.0
 22
0.0
 32
0.0
 13
1.0
 23
0.0
 33
0.0
 40
0.0
 40
0.0
 40
0.0
 40
0.0
 40
0.1874810893304982
 40
0.3749621786438788
 40
0.562443269235074
 40
0.7499243579910845
 40
0.937405446747095
 40
1.0
 40
1.0
 40
1.0
 40
1.0
 10
113.6030038620526
 20
109.6802235166261
 30
0.0
 10
113.877153112933
 20
109.6802235166261
 30
0.0
 10
114.4254516146688
 20
109.6802235166261
 30
0.0
 10
115.093587321178
 20
109.6802235166261
 30
0.0
 10
115.6188225043165
 20
109.6802235166261
 30
0.0
 10
115.9553280739588
 20
109.6802235166261
 30
0.0
 10
116.1111801880969
 20
109.6802235166261
 30
0.0
 10
116.0875146627253
 20
109.6802235166261
 30
0.0
 10
116.0815911230466
 20
109.6802235166261
 30
0.0
  0
SPLINE
  5
183
330
1F
100
AcDbEntity
  8
0
  6
Continuous
 62
     7
370
     0
100
AcDbSpline
210
0.0
220
0.0
230
1.0
 70
    24
 71
     3
 72
    18
 73
    14
 74
     0
 42
0.00000001
 43
0.00000001
 12
1.0
 22
0.0
 32
0.0
 13
1.0
 23
0.0
 33
0.0
 40
0.0
 40
0.0
 40
0.0
 40
0.0
 40
0.062452716766945
 40
0.156207445015627
 40
0.2499621732728693
 40
0.3437169015301115
 40
0.4374716297787936
 40
0.5312263586664797
 40
0.6249810866364345
 40
0.7187358146063894
 40
0.8124905434940755
 40
0.9062452717427576
 40
1.0
 40
1.0
 40
1.0
 40
1.0
 10
106.1244166035387
 20
109.680223516626
 30
0.0
 10
106.1242287613404
 20
109.680223516626
 30
0.0
 10
106.1237589282991
 20
109.680223516626
 30
0.0
 10
106.3425109831059
 20
109.680223516626
 30
0.0
 10
106.7437100817294
 20
109.680223516626
 30
0.0
 10
107.3199097690804
 20
109.680223516626
 30
0.0
 10
108.0394797829337
 20
109.680223516626
 30
0.0
 10
108.8773513959792
 20
109.680223516626
 30
0.0
 10
109.8004771147477
 20
109.680223516626
 30
0.0
 10
110.774191969619
 20
109.6802235166261
 30
0.0
 10
111.7586843090433
 20
109.680223516626
 30
0.0
 10
112.7248797439075
 20
109.6802235166261
 30
0.0
 10
113.310295822662
 20
109.6802235166261
 30
0.0
 10
113.6030038620526
 20
109.6802235166261
 30
0.0
  0
LINE
  5
184
330
1F
100
AcDbEntity
  8
0
  6
Continuous
 62
     7
370
     0
100
AcDbLine
 10
113.8530038641
 20
123.1802235166
 30
0.0
 11
113.8530038641
 21
124.6802235166
 31
0.0
  0
LINE
  5
185
330
1F
100
AcDbEntity
  8
0
  6
Continuous
 62
     7
370
     0
100
AcDbLine
 10
101.2880492883
 20
124.6802235166
 30
0.0
 11
106.1955265739
 21
124.6802235166
 31
0.0
  0
LINE
  5
186
330
1F
100
AcDbEntity
  8
0
  6
Continuous
 62
     7
370
     0
100
AcDbLine
 10
106.1955265739
 20
124.6802235166
 30
0.0
 11
116.0104811489
 21
124.6802235166
 31
0.0
  0
LINE
  5
187
330
1F
100
AcDbEntity
  8
0
  6
Continuous
 62
     7
370
     0
100
AcDbLine
 10
116.0104811489
 20
124.6802235166
 30
0.0
 11
120.9179584383
 21
124.6802235166
 31
0.0
  0
LINE
  5
188
330
1F
100
AcDbEntity
  8
0
  6
Continuous
 62
     7
370
     0
100
AcDbLine
 10
120.9179584395
 20
124.6802235166
 30
0.0
 11
120.9179584395
 21
127.6802235166
 31
0.0
  0
LINE
  5
189
330
1F
100
AcDbEntity
  8
0
  6
Continuous
 62
     7
370
     0
100
AcDbLine
 10
101.2880492871
 20
127.6802235166
 30
0.0
 11
101.2880492871
 21
124.6802235166
 31
0.0
  0
LINE
  5
18A
330
1F
100
AcDbEntity
  8
0
  6
Continuous
 62
     7
370
     0
100
AcDbLine
 10
101.2880492871
 20
127.6802235166
 30
0.0
 11
106.1955265751
 21
127.6802235166
 31
0.0
  0
LINE
  5
18B
330
1F
100
AcDbEntity
  8
0
  6
Continuous
 62
     7
370
     0
100
AcDbLine
 10
106.1955265751
 20
127.6802235166
 30
0.0
 11
106.1955265751
 21
124.6802235166
 31
0.0
  0
LINE
  5
18C
330
1F
100
AcDbEntity
  8
0
  6
Continuous
 62
     7
370
     0
100
AcDbLine
 10
106.1955265751
 20
127.6802235166
 30
0.0
 11
116.0104811513
 21
127.6802235166
 31
0.0
  0
LINE
  5
18D
330
1F
100
AcDbEntity
  8
0
  6
Continuous
 62
     7
370
     0
100
AcDbLine
 10
116.0104811513
 20
124.6802235166
 30
0.0
 11
106.1955265751
 21
124.6802235166
 31
0.0
  0
LINE
  5
18E
330
1F
100
AcDbEntity
  8
0
  6
Continuous
 62
     7
370
     0
100
AcDbLine
 10
116.0104811513
 20
127.6802235166
 30
0.0
 11
116.0104811513
 21
124.6802235166
 31
0.0
  0
LINE
  5
18F
330
1F
100
AcDbEntity
  8
0
  6
Continuous
 62
     7
370
     0
100
AcDbLine
 10
113.3530038633
 20
130.1802235166
 30
0.0
 11
113.3530038633
 21
129.0942809949
 31
0.0
  0
LINE
  5
190
330
1F
100
AcDbEntity
  8
0
  6
Continuous
 62
     7
370
     0
100
AcDbLine
 10
113.3530038633
 20
128.0928711728
 30
0.0
 11
113.3530038633
 21
127.6802235166
 31
0.0
  0
LINE
  5
191
330
1F
100
AcDbEntity
  8
0
  6
Continuous
 62
     7
370
     0
100
AcDbLine
 10
106.6030038633
 20
130.1802235166
 30
0.0
 11
113.3530038633
 21
130.1802235166
 31
0.0
  0
LINE
  5
192
330
1F
100
AcDbEntity
  8
0
  6
Continuous
 62
     7
370
     0
100
AcDbLine
 10
116.0104811513
 20
127.6802235166
 30
0.0
 11
120.9179584395
 21
127.6802235166
 31
0.0
  0
LINE
  5
193
330
1F
100
AcDbEntity
  8
0
  6
Continuous
 62
     7
370
     0
100
AcDbLine
 10
120.9179584395
 20
124.6802235166
 30
0.0
 11
116.0104811513
 21
124.6802235166
 31
0.0
  0
LINE
  5
194
330
1F
100
AcDbEntity
  8
0
  6
Continuous
 62
     7
370
     0
100
AcDbLine
 10
113.353003864
 20
130.1802235166
 30
0.0
 11
115.6030038633
 21
130.1802235166
 31
0.0
  0
SPLINE
  5
195
330
1F
100
AcDbEntity
  8
0
  6
Continuous
 62
     7
370
     0
100
AcDbSpline
210
0.0
220
0.0
230
1.0
 70
    24
 71
     3
 72
    21
 73
    17
 74
     0
 42
0.00000001
 43
0.00000001
 12
1.0
 22
0.0
 32
0.0
 13
1.0
 23
0.0
 33
0.0
 40
0.0
 40
0.0
 40
0.0
 40
0.0
 40
0.0076183006592689
 40
0.0839553541759182
 40
0.1602924076925674
 40
0.2366294619564525
 40
0.3129665157000474
 40
0.3893035694506121
 40
0.4656406232011768
 40
0.5419776769447715
 40
0.6183147312086567
 40
0.6946517847253059
 40
0.7709888382419553
 40
0.8473258925058405
 40
0.9236629462494352
 40
1.0
 40
1.0
 40
1.0
 40
1.0
 10
107.5568370975344
 20
130.680223516626
 30
0.0
 10
107.542878873021
 20
130.680223516626
 30
0.0
 10
107.3890561591241
 20
130.6802235166261
 30
0.0
 10
107.2230074821285
 20
130.680223516626
 30
0.0
 10
107.083530738288
 20
130.680223516626
 30
0.0
 10
107.1122785993117
 20
130.680223516626
 30
0.0
 10
107.2907013556076
 20
130.680223516626
 30
0.0
 10
107.6166160380223
 20
130.680223516626
 30
0.0
 10
108.0762479915362
 20
130.680223516626
 30
0.0
 10
108.6522597845715
 20
130.680223516626
 30
0.0
 10
109.3224617435658
 20
130.6802235166261
 30
0.0
 10
110.0609878623945
 20
130.6802235166261
 30
0.0
 10
110.8399529024772
 20
130.6802235166261
 30
0.0
 10
111.6275486054599
 20
130.6802235166261
 30
0.0
 10
112.4005044713926
 20
130.6802235166261
 30
0.0
 10
112.8688373986573
 20
130.6802235166261
 30
0.0
 10
113.1030038623004
 20
130.6802235166261
 30
0.0
  0
SPLINE
  5
196
330
1F
100
AcDbEntity
  8
0
  6
Continuous
 62
     7
370
     0
100
AcDbSpline
210
0.0
220
0.0
230
1.0
 70
    24
 71
     3
 72
    13
 73
     9
 74
     0
 42
0.00000001
 43
0.00000001
 12
1.0
 22
0.0
 32
0.0
 13
1.0
 23
0.0
 33
0.0
 40
0.0
 40
0.0
 40
0.0
 40
0.0
 40
0.1874805517121259
 40
0.374961103407134
 40
0.5624416563799531
 40
0.7499222075175929
 40
0.9374027586552326
 40
1.0
 40
1.0
 40
1.0
 40
1.0
 10
113.1030038623004
 20
130.6802235166261
 30
0.0
 10
113.3223232619741
 20
130.6802235166261
 30
0.0
 10
113.7609620613016
 20
130.6802235166261
 30
0.0
 10
114.2954706419676
 20
130.6802235166261
 30
0.0
 10
114.7156587297356
 20
130.6802235166261
 30
0.0
 10
114.9848634049619
 20
130.6802235166261
 30
0.0
 10
115.1095452760031
 20
130.6802235166261
 30
0.0
 10
115.0906123897941
 20
130.6802235166261
 30
0.0
 10
115.0858732786734
 20
130.6802235166261
 30
0.0
  0
LINE
  5
197
330
1F
100
AcDbEntity
  8
0
  6
Continuous
 62
     7
370
     0
100
AcDbLine
 10
113.6030038651
 20
109.6802235166
 30
0.0
 11
114.1030038654
 21
110.6802235166
 31
0.0
  0
LINE
  5
198
330
1F
100
AcDbEntity
  8
0
  6
Continuous
 62
     7
370
     0
100
AcDbLine
 10
116.1030038633
 20
109.6802235166
 30
0.0
 11
113.6030038651
 21
109.6802235166
 31
0.0
  0
LINE
  5
199
330
1F
100
AcDbEntity
  8
0
  6
Continuous
 62
     7
370
     0
100
AcDbLine
 10
113.353003864
 20
130.1802235166
 30
0.0
 11
113.1030038639
 21
130.6802235166
 31
0.0
  0
LINE
  5
19A
330
1F
100
AcDbEntity
  8
0
  6
Continuous
 62
     7
370
     0
100
AcDbLine
 10
113.1030038639
 20
130.6802235166
 30
0.0
 11
115.1030038633
 21
130.6802235166
 31
0.0
  0
LINE
  5
19B
330
1F
100
AcDbEntity
  8
0
  6
Continuous
 62
     7
370
     0
100
AcDbLine
 10
107.1030038633
 20
130.6802235166
 30
0.0
 11
113.1030038633
 21
130.6802235166
 31
0.0
  0
LINE
  5
19C
330
1F
100
AcDbEntity
  8
0
  6
Continuous
 62
     7
370
     0
100
AcDbLine
 10
116.0104811489
 20
127.6802235166
 30
0.0
 11
120.9179584383
 21
127.6802235166
 31
0.0
  0
LINE
  5
19D
330
1F
100
AcDbEntity
  8
0
  6
Continuous
 62
     7
370
     0
100
AcDbLine
 10
106.1955265739
 20
127.6802235166
 30
0.0
 11
116.0104811489
 21
127.6802235166
 31
0.0
  0
LINE
  5
19E
330
1F
100
AcDbEntity
  8
0
  6
Continuous
 62
     7
370
     0
100
AcDbLine
 10
105.1030038633
 20
110.6802235166
 30
0.0
 11
114.1030038654
 21
110.6802235166
 31
0.0
  0
LINE
  5
19F
330
1F
100
AcDbEntity
  8
0
  6
Continuous
 62
     7
370
     0
100
AcDbLine
 10
113.6030038651
 20
109.6802235166
 30
0.0
 11
106.1030038633
 21
109.6802235166
 31
0.0
  0
LINE
  5
1A0
330
1F
100
AcDbEntity
  8
0
  6
Continuous
 62
     7
370
     0
100
AcDbLine
 10
105.1030038633
 20
123.1802235166
 30
0.0
 11
114.1030038633
 21
123.1802235166
 31
0.0
  0
LINE
  5
1A1
330
1F
100
AcDbEntity
  8
0
  6
Continuous
 62
     7
370
     0
100
AcDbLine
 10
114.1030038633
 20
108.1802235166
 30
0.0
 11
111.1030038633
 21
108.1802235166
 31
0.0
  0
LINE
  5
1A2
330
1F
100
AcDbEntity
  8
0
  6
Continuous
 62
     7
370
     0
100
AcDbLine
 10
111.1030038633
 20
108.1802235166
 30
0.0
 11
111.1030038633
 21
108.9802235166
 31
0.0
  0
SPLINE
  5
1A3
330
1F
100
AcDbEntity
  8
0
  6
Continuous
 62
     7
370
     0
100
AcDbSpline
210
0.0
220
0.0
230
1.0
 70
    24
 71
     3
 72
    15
 73
    11
 74
     0
 42
0.00000001
 43
0.00000001
 12
1.0
 22
0.0
 32
0.0
 13
1.0
 23
0.0
 33
0.0
 40
0.0
 40
0.0
 40
0.0
 40
0.0
 40
0.1248985663205031
 40
0.2499130567072575
 40
0.3749275479460731
 40
0.4999420379611669
 40
0.6249565279762609
 40
0.7499710192150766
 40
0.8749855096018311
 40
1.0
 40
1.0
 40
1.0
 40
1.0
 10
114.1029504092365
 20
109.6802235166261
 30
0.0
 10
114.0917921658334
 20
109.6802235166261
 30
0.0
 10
114.0694653225515
 20
109.6802235166261
 30
0.0
 10
113.8911173189318
 20
109.6802235166261
 30
0.0
 10
113.6138650342755
 20
109.6802235166261
 30
0.0
 10
113.2378987367597
 20
109.6802235166261
 30
0.0
 10
112.7804852632316
 20
109.6802235166261
 30
0.0
 10
112.2584475799743
 20
109.6802235166261
 30
0.0
 10
111.6920493833051
 20
109.6802235166261
 30
0.0
 10
111.2993523699694
 20
109.6802235166261
 30
0.0
 10
111.1030038632926
 20
109.6802235166261
 30
0.0
  0
SPLINE
  5
1A4
330
1F
100
AcDbEntity
  8
0
  6
Continuous
 62
     7
370
     0
100
AcDbSpline
210
0.0
220
0.0
230
1.0
 70
    24
 71
     3
 72
    20
 73
    16
 74
     0
 42
0.00000001
 43
0.00000001
 12
1.0
 22
0.0
 32
0.0
 13
1.0
 23
0.0
 33
0.0
 40
0.0
 40
0.0
 40
0.0
 40
0.0
 40
0.01289056740555
 40
0.0951496864629662
 40
0.1774088063255872
 40
0.2596679256275549
 40
0.3419270449370333
 40
0.4241861642465116
 40
0.5064452835484792
 40
0.5887044034111003
 40
0.6709635224685165
 40
0.7532226415259329
 40
0.835481761388554
 40
0.9177408806905217
 40
1.0
 40
1.0
 40
1.0
 40
1.0
 10
114.1781237117879
 20
150.6802235166261
 30
0.0
 10
114.2141147734193
 20
150.6802235166261
 30
0.0
 10
114.4797771078965
 20
150.6802235166261
 30
0.0
 10
114.8620933538604
 20
150.6802235166261
 30
0.0
 10
115.2890415094363
 20
150.6802235166261
 30
0.0
 10
115.5445111826821
 20
150.6802235166261
 30
0.0
 10
115.6321395258287
 20
150.6802235166261
 30
0.0
 10
115.5449538803697
 20
150.6802235166261
 30
0.0
 10
115.2872707186811
 20
150.6802235166261
 30
0.0
 10
114.8687338192154
 20
150.6802235166261
 30
0.0
 10
114.3054967037834
 20
150.6802235166261
 30
0.0
 10
113.6191856425866
 20
150.6802235166261
 30
0.0
 10
112.8361801904784
 20
150.6802235166261
 30
0.0
 10
111.98656945527
 20
150.6802235166261
 30
0.0
 10
111.3975257272938
 20
150.6802235166261
 30
0.0
 10
111.1030038632922
 20
150.6802235166261
 30
0.0
  0
SPLINE
  5
1A5
330
1F
100
AcDbEntity
  8
0
  6
Continuous
 62
     7
370
     0
100
AcDbSpline
210
0.0
220
0.0
230
1.0
 70
    24
 71
     3
 72
    16
 73
    12
 74
     0
 42
0.00000001
 43
0.00000001
 12
1.0
 22
0.0
 32
0.0
 13
1.0
 23
0.0
 33
0.0
 40
0.0
 40
0.0
 40
0.0
 40
0.0
 40
0.1249903295559037
 40
0.2499806591003952
 40
0.3749709894967834
 40
0.4999613186696862
 40
0.624951647842589
 40
0.7499419782389772
 40
0.8749323077834688
 40
0.9999226373393725
 40
1.0
 40
1.0
 40
1.0
 40
1.0
 10
111.1030038632922
 20
150.6802235166261
 30
0.0
 10
110.8084835253441
 20
150.6802235166261
 30
0.0
 10
110.2194428494749
 20
150.6802235166261
 30
0.0
 10
109.3698092234635
 20
150.6802235166261
 30
0.0
 10
108.5868907564071
 20
150.680223516626
 30
0.0
 10
107.9002546458089
 20
150.680223516626
 30
0.0
 10
107.3382307429332
 20
150.6802235166261
 30
0.0
 10
106.9151660426108
 20
150.6802235166259
 30
0.0
 10
106.6743808717077
 20
150.6802235166266
 30
0.0
 10
106.5741833342614
 20
150.6802235166247
 30
0.0
 10
106.6030395342544
 20
150.680223516626
 30
0.0
 10
106.6030573837275
 20
150.680223516626
 30
0.0
  0
LINE
  5
1A6
330
1F
100
AcDbEntity
  8
0
  6
Continuous
 62
     7
370
     0
100
AcDbLine
 10
117.1030038633
 20
155.6802235166
 30
0.0
 11
111.1030038633
 21
155.6802235166
 31
0.0
  0
LINE
  5
1A7
330
1F
100
AcDbEntity
  8
0
  6
Continuous
 62
     7
370
     0
100
AcDbLine
 10
111.1030038633
 20
155.6802235166
 30
0.0
 11
105.1030038633
 21
155.6802235166
 31
0.0
  0
SPLINE
  5
1A8
330
1F
100
AcDbEntity
  8
0
  6
Continuous
 62
     7
370
     0
100
AcDbSpline
210
0.0
220
0.0
230
1.0
 70
    24
 71
     3
 72
    16
 73
    12
 74
     0
 42
0.00000001
 43
0.00000001
 12
1.0
 22
0.0
 32
0.0
 13
1.0
 23
0.0
 33
0.0
 40
0.0
 40
0.0
 40
0.0
 40
0.0
 40
0.1249920841542129
 40
0.2499841682970134
 40
0.3749762532917225
 40
0.4999683370629293
 40
0.6249604208341359
 40
0.7499525058288451
 40
0.8749445899716457
 40
0.9999366741258585
 40
1.0
 40
1.0
 40
1.0
 40
1.0
 10
111.103003863292
 20
170.6802235166261
 30
0.0
 10
110.7430345617388
 20
170.6802235166261
 30
0.0
 10
110.0230959586654
 20
170.680223516626
 30
0.0
 10
108.9846548544567
 20
170.680223516626
 30
0.0
 10
108.0277545276834
 20
170.680223516626
 30
0.0
 10
107.1885325330754
 20
170.680223516626
 30
0.0
 10
106.5016147343276
 20
170.680223516626
 30
0.0
 10
105.9845345187428
 20
170.680223516626
 30
0.0
 10
105.6902457769685
 20
170.6802235166261
 30
0.0
 10
105.5677784308212
 20
170.6802235166257
 30
0.0
 10
105.6030395525041
 20
170.680223516626
 30
0.0
 10
105.6030574081199
 20
170.680223516626
 30
0.0
  0
SPLINE
  5
1A9
330
1F
100
AcDbEntity
  8
0
  6
Continuous
 62
     7
370
     0
100
AcDbSpline
210
0.0
220
0.0
230
1.0
 70
    24
 71
     3
 72
    15
 73
    11
 74
     0
 42
0.00000001
 43
0.00000001
 12
1.0
 22
0.0
 32
0.0
 13
1.0
 23
0.0
 33
0.0
 40
0.0
 40
0.0
 40
0.0
 40
0.0
 40
0.1249445827299086
 40
0.2499524993438981
 40
0.3749604168099042
 40
0.4999683330522527
 40
0.624976249294601
 40
0.749984166760607
 40
0.8749920833745967
 40
1.0
 40
1.0
 40
1.0
 40
1.0
 10
116.6029503184641
 20
170.6802235166261
 30
0.0
 10
116.582487807606
 20
170.6802235166261
 30
0.0
 10
116.5415524135291
 20
170.6802235166261
 30
0.0
 10
116.2145478748493
 20
170.6802235166261
 30
0.0
 10
115.7062486263379
 20
170.6802235166261
 30
0.0
 10
115.0169779901205
 20
170.6802235166261
 30
0.0
 10
114.178386378381
 20
170.6802235166261
 30
0.0
 10
113.2213173575993
 20
170.6802235166261
 30
0.0
 10
112.1829206465505
 20
170.6802235166261
 30
0.0
 10
111.4629761243891
 20
170.6802235166261
 30
0.0
 10
111.103003863292
 20
170.6802235166261
 30
0.0
  0
LINE
  5
1AA
330
1F
100
AcDbEntity
  8
0
  6
Continuous
 62
     7
370
     0
100
AcDbLine
 10
105.6030038633
 20
172.6802235166
 30
0.0
 11
111.1030038623
 21
172.6802235166
 31
0.0
  0
LINE
  5
1AB
330
1F
100
AcDbEntity
  8
0
  6
Continuous
 62
     7
370
     0
100
AcDbLine
 10
111.1030038623
 20
172.6802235166
 30
0.0
 11
111.1030038623
 21
170.6802235166
 31
0.0
  0
LINE
  5
1AC
330
1F
100
AcDbEntity
  8
0
  6
Continuous
 62
     7
370
     0
100
AcDbLine
 10
111.1030038623
 20
170.6802235166
 30
0.0
 11
105.6030038633
 21
170.6802235166
 31
0.0
  0
SPLINE
  5
1AD
330
1F
100
AcDbEntity
  8
0
  6
Continuous
 62
     7
370
     0
100
AcDbSpline
210
0.0
220
0.0
230
1.0
 70
    24
 71
     3
 72
    15
 73
    11
 74
     0
 42
0.00000001
 43
0.00000001
 12
1.0
 22
0.0
 32
0.0
 13
1.0
 23
0.0
 33
0.0
 40
0.0
 40
0.0
 40
0.0
 40
0.0
 40
0.1249445827299086
 40
0.2499524993438981
 40
0.3749604168099042
 40
0.4999683330522527
 40
0.624976249294601
 40
0.749984166760607
 40
0.8749920833745967
 40
1.0
 40
1.0
 40
1.0
 40
1.0
 10
116.6029503184641
 20
172.6802235166261
 30
0.0
 10
116.582487807606
 20
172.6802235166261
 30
0.0
 10
116.5415524135291
 20
172.6802235166261
 30
0.0
 10
116.2145478748493
 20
172.6802235166261
 30
0.0
 10
115.7062486263379
 20
172.6802235166261
 30
0.0
 10
115.0169779901204
 20
172.6802235166261
 30
0.0
 10
114.178386378381
 20
172.6802235166261
 30
0.0
 10
113.2213173575993
 20
172.6802235166261
 30
0.0
 10
112.1829206465505
 20
172.6802235166261
 30
0.0
 10
111.4629761243891
 20
172.6802235166261
 30
0.0
 10
111.103003863292
 20
172.6802235166261
 30
0.0
  0
SPLINE
  5
1AE
330
1F
100
AcDbEntity
  8
0
  6
Continuous
 62
     7
370
     0
100
AcDbSpline
210
0.0
220
0.0
230
1.0
 70
    24
 71
     3
 72
    16
 73
    12
 74
     0
 42
0.00000001
 43
0.00000001
 12
1.0
 22
0.0
 32
0.0
 13
1.0
 23
0.0
 33
0.0
 40
0.0
 40
0.0
 40
0.0
 40
0.0
 40
0.1249920841542129
 40
0.2499841682970134
 40
0.3749762532917225
 40
0.4999683370629293
 40
0.6249604208341359
 40
0.7499525058288451
 40
0.8749445899716457
 40
0.9999366741258585
 40
1.0
 40
1.0
 40
1.0
 40
1.0
 10
111.103003863292
 20
172.6802235166261
 30
0.0
 10
110.7430345617388
 20
172.680223516626
 30
0.0
 10
110.0230959586654
 20
172.680223516626
 30
0.0
 10
108.9846548544567
 20
172.680223516626
 30
0.0
 10
108.0277545276834
 20
172.680223516626
 30
0.0
 10
107.1885325330754
 20
172.680223516626
 30
0.0
 10
106.5016147343276
 20
172.680223516626
 30
0.0
 10
105.9845345187428
 20
172.680223516626
 30
0.0
 10
105.6902457769684
 20
172.680223516626
 30
0.0
 10
105.5677784308211
 20
172.680223516626
 30
0.0
 10
105.6030395525041
 20
172.680223516626
 30
0.0
 10
105.6030574081198
 20
172.680223516626
 30
0.0
  0
LINE
  5
1AF
330
1F
100
AcDbEntity
  8
0
  6
Continuous
 62
     7
370
     0
100
AcDbLine
 10
111.1030038626
 20
170.6802235166
 30
0.0
 11
111.1030038626
 21
163.6802235166
 31
0.0
  0
LINE
  5
1B0
330
1F
100
AcDbEntity
  8
0
  6
Continuous
 62
     7
370
     0
100
AcDbLine
 10
117.1030038633
 20
163.6802235166
 30
0.0
 11
111.1030038633
 21
163.6802235166
 31
0.0
  0
LINE
  5
1B1
330
1F
100
AcDbEntity
  8
0
  6
Continuous
 62
     7
370
     0
100
AcDbLine
 10
111.1030038633
 20
163.6802235166
 30
0.0
 11
105.1030038633
 21
163.6802235166
 31
0.0
  0
LINE
  5
1B2
330
1F
100
AcDbEntity
  8
0
  6
Continuous
 62
     7
370
     0
100
AcDbLine
 10
105.1030038633
 20
163.6802235166
 30
0.0
 11
105.1030038633
 21
161.6802235166
 31
0.0
  0
LINE
  5
1B3
330
1F
100
AcDbEntity
  8
0
  6
Continuous
 62
     7
370
     0
100
AcDbLine
 10
105.1030038633
 20
157.6802235166
 30
0.0
 11
105.1030038633
 21
155.6802235166
 31
0.0
  0
LINE
  5
1B4
330
1F
100
AcDbEntity
  8
0
  6
Continuous
 62
     7
370
     0
100
AcDbLine
 10
111.1030038633
 20
150.6802235166
 30
0.0
 11
111.1030038633
 21
152.7573253985
 31
0.0
  0
LINE
  5
1B5
330
1F
100
AcDbEntity
  8
0
  6
Continuous
 62
     7
370
     0
100
AcDbLine
 10
111.1030038633
 20
153.757349824
 30
0.0
 11
111.1030038633
 21
155.6802235166
 31
0.0
  0
LINE
  5
1B6
330
1F
100
AcDbEntity
  8
0
  6
Continuous
 62
     7
370
     0
100
AcDbLine
 10
115.6030038633
 20
150.6802235166
 30
0.0
 11
111.1030038633
 21
150.6802235166
 31
0.0
  0
LINE
  5
1B7
330
1F
100
AcDbEntity
  8
0
  6
Continuous
 62
     7
370
     0
100
AcDbLine
 10
111.1030038633
 20
130.6802235166
 30
0.0
 11
111.1030038633
 21
132.7573569837
 31
0.0
  0
LINE
  5
1B8
330
1F
100
AcDbEntity
  8
0
  6
Continuous
 62
     7
370
     0
100
AcDbLine
 10
111.1030038633
 20
133.7573930992
 30
0.0
 11
111.1030038633
 21
137.7573034181
 31
0.0
  0
LINE
  5
1B9
330
1F
100
AcDbEntity
  8
0
  6
Continuous
 62
     7
370
     0
100
AcDbLine
 10
111.1030038633
 20
138.7573545272
 30
0.0
 11
111.1030038633
 21
142.757363072
 31
0.0
  0
LINE
  5
1BA
330
1F
100
AcDbEntity
  8
0
  6
Continuous
 62
     7
370
     0
100
AcDbLine
 10
111.1030038633
 20
143.7573036033
 30
0.0
 11
111.1030038633
 21
147.7573138762
 31
0.0
  0
LINE
  5
1BB
330
1F
100
AcDbEntity
  8
0
  6
Continuous
 62
     7
370
     0
100
AcDbLine
 10
111.1030038633
 20
148.7573077424
 30
0.0
 11
111.1030038633
 21
150.6802235166
 31
0.0
  0
LINE
  5
1BC
330
1F
100
AcDbEntity
  8
0
  6
Continuous
 62
     7
370
     0
100
AcDbLine
 10
111.1030038633
 20
107.6802235166
 30
0.0
 11
111.1030038633
 21
108.1802235166
 31
0.0
  0
LINE
  5
1BD
330
1F
100
AcDbEntity
  8
0
  6
Continuous
 62
     7
370
     0
100
AcDbLine
 10
113.6030038633
 20
107.6802235166
 30
0.0
 11
111.1030038633
 21
107.6802235166
 31
0.0
  0
LINE
  5
1BE
330
1F
100
AcDbEntity
  8
0
  6
Continuous
 62
     7
370
     0
100
AcDbLine
 10
117.1030038633
 20
155.6802235166
 30
0.0
 11
117.1030038633
 21
159.6423971567
 31
0.0
  0
LINE
  5
1BF
330
1F
100
AcDbEntity
  8
0
  6
Continuous
 62
     7
370
     0
100
AcDbLine
 10
117.1030038633
 20
159.7180498772
 30
0.0
 11
117.1030038633
 21
163.6802235166
 31
0.0
  0
LINE
  5
1C0
330
1F
100
AcDbEntity
  8
0
  6
Continuous
 62
     7
370
     0
100
AcDbLine
 10
117.1030038633
 20
155.6802235166
 30
0.0
 11
111.1030038633
 21
155.6802235166
 31
0.0
  0
LINE
  5
1C1
330
1F
100
AcDbEntity
  8
0
  6
Continuous
 62
     7
370
     0
100
AcDbLine
 10
117.1030038633
 20
163.6802235166
 30
0.0
 11
117.1030038633
 21
155.6802235166
 31
0.0
  0
LINE
  5
1C2
330
1F
100
AcDbEntity
  8
0
  6
Continuous
 62
     7
370
     0
100
AcDbLine
 10
111.1030038633
 20
163.6802235166
 30
0.0
 11
117.1030038633
 21
163.6802235166
 31
0.0
  0
LINE
  5
1C3
330
1F
100
AcDbEntity
  8
0
  6
Continuous
 62
     7
370
     0
100
AcDbLine
 10
111.1030038633
 20
155.6802235166
 30
0.0
 11
111.1030038633
 21
163.6802235166
 31
0.0
  0
LINE
  5
1C4
330
1F
100
AcDbEntity
  8
0
  6
Continuous
 62
     7
370
     0
100
AcDbLine
 10
111.1030038633
 20
155.6802235166
 30
0.0
 11
105.1030038633
 21
155.6802235166
 31
0.0
  0
LINE
  5
1C5
330
1F
100
AcDbEntity
  8
0
  6
Continuous
 62
     7
370
     0
100
AcDbLine
 10
105.1030038633
 20
155.6802235166
 30
0.0
 11
105.1030038633
 21
163.6802235166
 31
0.0
  0
LINE
  5
1C6
330
1F
100
AcDbEntity
  8
0
  6
Continuous
 62
     7
370
     0
100
AcDbLine
 10
105.1030038633
 20
163.6802235166
 30
0.0
 11
111.1030038633
 21
163.6802235166
 31
0.0
  0
LINE
  5
1C7
330
1F
100
AcDbEntity
  8
0
  6
Continuous
 62
     7
370
     0
100
AcDbLine
 10
111.1030038625
 20
150.6802235166
 30
0.0
 11
106.6030038633
 21
150.6802235166
 31
0.0
  0
LINE
  5
1C8
330
1F
100
AcDbEntity
  8
0
  6
Continuous
 62
     7
370
     0
100
AcDbLine
 10
111.1030038629
 20
109.6802235166
 30
0.0
 11
111.1030038629
 21
109.5802235166
 31
0.0
  0
SPLINE
  5
1C9
330
1F
100
AcDbEntity
  8
0
  6
Continuous
 62
     7
370
     0
100
AcDbSpline
210
0.0
220
0.0
230
1.0
 70
    24
 71
     3
 72
    15
 73
    11
 74
     0
 42
0.00000001
 43
0.00000001
 12
1.0
 22
0.0
 32
0.0
 13
1.0
 23
0.0
 33
0.0
 40
0.0
 40
0.0
 40
0.0
 40
0.0
 40
0.1248985663205031
 40
0.2499130567072575
 40
0.3749275479460731
 40
0.4999420379611669
 40
0.6249565279762609
 40
0.7499710192150766
 40
0.8749855096018311
 40
1.0
 40
1.0
 40
1.0
 40
1.0
 10
114.1029504092365
 20
108.9802235166261
 30
0.0
 10
114.0917921658334
 20
108.9802235166261
 30
0.0
 10
114.0694653225515
 20
108.9802235166261
 30
0.0
 10
113.8911173189318
 20
108.9802235166261
 30
0.0
 10
113.6138650342755
 20
108.9802235166261
 30
0.0
 10
113.2378987367597
 20
108.9802235166261
 30
0.0
 10
112.7804852632316
 20
108.9802235166261
 30
0.0
 10
112.2584475799743
 20
108.9802235166261
 30
0.0
 10
111.6920493833051
 20
108.980223516626
 30
0.0
 10
111.2993523699694
 20
108.9802235166261
 30
0.0
 10
111.1030038632926
 20
108.9802235166261
 30
0.0
  0
LINE
  5
1CA
330
1F
100
AcDbEntity
  8
0
  6
Continuous
 62
     7
370
     0
100
AcDbLine
 10
111.1030038628
 20
108.1802235166
 30
0.0
 11
108.1030038633
 21
108.1802235166
 31
0.0
  0
SPLINE
  5
1CB
330
1F
100
AcDbEntity
  8
0
  6
Continuous
 62
     7
370
     0
100
AcDbSpline
210
0.0
220
0.0
230
1.0
 70
    27
 71
     3
 72
    27
 73
    23
 74
     0
 42
0.00000001
 43
0.00000001
 12
1.0
 22
0.0
 32
0.0
 13
1.0
 23
0.0
 33
0.0
 40
0.0
 40
0.0
 40
0.0
 40
0.0
 40
0.0156822371559267
 40
0.0312917358550121
 40
0.062574161667127
 40
0.1250632870923326
 40
0.1875524129434452
 40
0.2500415381828743
 40
0.3125306634223033
 40
0.375019789273416
 40
0.4375089146986216
 40
0.4999980401295326
 40
0.5624871655604436
 40
0.6249762909856493
 40
0.687465416836762
 40
0.749954542076191
 40
0.8124436673156202
 40
0.8749327931667329
 40
0.9374219185919385
 40
0.9624611754745818
 40
0.9811563741088406
 40
1.0
 40
1.0
 40
1.0
 40
1.0
 10
111.1030038632926
 20
107.6802235166261
 30
0.0
 10
111.1440050661975
 20
107.6802235166261
 30
0.0
 10
111.2258172973402
 20
107.6802235166261
 30
0.0
 10
111.3890251050902
 20
107.680223516626
 30
0.0
 10
111.6722754935057
 20
107.6802235166261
 30
0.0
 10
112.0659374731573
 20
107.6802235166261
 30
0.0
 10
112.5008672136555
 20
107.6802235166261
 30
0.0
 10
112.8821703435632
 20
107.6802235166261
 30
0.0
 10
113.1950763125042
 20
107.6802235166261
 30
0.0
 10
113.4275917637163
 20
107.6802235166261
 30
0.0
 10
113.5707728093621
 20
107.6802235166261
 30
0.0
 10
113.6191193931664
 20
107.6802235166261
 30
0.0
 10
113.570772790291
 20
107.6802235166261
 30
0.0
 10
113.4275918400004
 20
107.6802235166261
 30
0.0
 10
113.1950760264388
 20
107.6802235166261
 30
0.0
 10
112.8821714115406
 20
107.6802235166261
 30
0.0
 10
112.5008632278114
 20
107.6802235166261
 30
0.0
 10
112.0659523485563
 20
107.6802235166261
 30
0.0
 10
111.6879622335867
 20
107.680223516626
 30
0.0
 10
111.4134778921895
 20
107.6802235166261
 30
0.0
 10
111.2504220318395
 20
107.6802235166261
 30
0.0
 10
111.1522726126487
 20
107.6802235166261
 30
0.0
 10
111.1030038632926
 20
107.6802235166261
 30
0.0
  0
SPLINE
  5
1CC
330
1F
100
AcDbEntity
  8
0
  6
Continuous
 62
     7
370
     0
100
AcDbSpline
210
0.0
220
0.0
230
1.0
 70
    24
 71
     3
 72
    16
 73
    12
 74
     0
 42
0.00000001
 43
0.00000001
 12
1.0
 22
0.0
 32
0.0
 13
1.0
 23
0.0
 33
0.0
 40
0.0
 40
0.0
 40
0.0
 40
0.0
 40
0.124982628497542
 40
0.2499652569836726
 40
0.3749478863216473
 40
0.4999305144362121
 40
0.6249131425507769
 40
0.7498957718887517
 40
0.8748784003748824
 40
0.9998610288724245
 40
1.0
 40
1.0
 40
1.0
 40
1.0
 10
111.1030038632926
 20
107.6802235166261
 30
0.0
 10
110.9393814525572
 20
107.6802235166261
 30
0.0
 10
110.6121366311012
 20
107.6802235166261
 30
0.0
 10
110.1401179614487
 20
107.6802235166261
 30
0.0
 10
109.7051632139617
 20
107.680223516626
 30
0.0
 10
109.3236988708758
 20
107.6802235166261
 30
0.0
 10
109.0114627616368
 20
107.6802235166259
 30
0.0
 10
108.7764290847768
 20
107.6802235166265
 30
0.0
 10
108.6426510819737
 20
107.6802235166245
 30
0.0
 10
108.5869931358191
 20
107.6802235166294
 30
0.0
 10
108.6030394553143
 20
107.680223516626
 30
0.0
 10
108.6030572777775
 20
107.680223516626
 30
0.0
  0
LINE
  5
1CD
330
1F
100
AcDbEntity
  8
0
  6
Continuous
 62
     7
370
     0
100
AcDbLine
 10
111.1030038628
 20
107.6802235166
 30
0.0
 11
108.6030038633
 21
107.6802235166
 31
0.0
  0
LINE
  5
1CE
330
1F
100
AcDbEntity
  8
0
  6
Continuous
 62
     7
370
     0
100
AcDbLine
 10
116.6030038633
 20
170.6802235166
 30
0.0
 11
111.1030038633
 21
170.6802235166
 31
0.0
  0
LINE
  5
1CF
330
1F
100
AcDbEntity
  8
0
  6
Continuous
 62
     7
370
     0
100
AcDbLine
 10
111.1030038633
 20
172.6802235166
 30
0.0
 11
116.6030038633
 21
172.6802235166
 31
0.0
  0
DIMENSION
  5
1D0
330
1F
100
AcDbEntity
  8
0
  6
Continuous
 62
     7
370
     0
100
AcDbDimension
  2
_D
 10
105.6030038633
 20
184.2923814433
 30
0.0
 11
111.1030038633
 21
184.2923814433
 31
0.0
 70
   160
  1
%%c<>
 71
     2
 42
-1.0
  3
SLDDIMSTYLE0
100
AcDbAlignedDimension
 13
116.6030038633
 23
172.6802235166
 33
0.0
 14
105.6030038633
 24
172.6802235166
 34
0.0
 50
0.0
100
AcDbRotatedDimension
  0
DIMENSION
  5
1DE
330
1F
100
AcDbEntity
  8
0
  6
Continuous
 62
     7
370
     0
100
AcDbDimension
  2
_D_1
 10
130.6988089848
 20
172.6802235166
 30
0.0
 11
130.6988089848
 21
168.1802235166
 31
0.0
 70
   160
  1
<>
 71
     2
 42
-1.0
  3
SLDDIMSTYLE1
100
AcDbAlignedDimension
 13
117.1030038633
 23
163.6802235166
 33
0.0
 14
116.6030038877
 24
172.6802235166
 34
0.0
 50
90.0
100
AcDbRotatedDimension
  0
DIMENSION
  5
1E9
330
1F
100
AcDbEntity
  8
0
  6
Continuous
 62
     7
370
     0
100
AcDbDimension
  2
_D_2
 10
85.9321626748
 20
130.6802235166
 30
0.0
 11
85.9321626748
 21
140.6802235166
 31
0.0
 70
   160
  1
<>st
 71
     2
 42
-1.0
  3
SLDDIMSTYLE1
100
AcDbAlignedDimension
 13
106.6030038633
 23
150.6802235166
 33
0.0
 14
107.1030038633
 24
130.6802235166
 34
0.0
 50
90.0
100
AcDbRotatedDimension
  0
DIMENSION
  5
1F6
330
1F
100
AcDbEntity
  8
0
  6
Continuous
 62
     7
370
     0
100
AcDbDimension
  2
_D_3
 10
94.7218276015
 20
127.6802235166
 30
0.0
 11
94.7218276015
 21
119.3363072389
 31
0.0
 70
   160
  1
<>
 71
     2
 42
-1.0
  3
SLDDIMSTYLE0
100
AcDbAlignedDimension
 13
101.2880492871
 23
124.6802235166
 33
0.0
 14
101.2880492883
 24
127.6802235166
 34
0.0
 50
90.0
100
AcDbRotatedDimension
  0
DIMENSION
  5
202
330
1F
100
AcDbEntity
  8
0
  6
Continuous
 62
     7
370
     0
100
AcDbDimension
  2
_D_4
 10
130.6988089848
 20
124.6802235166
 30
0.0
 11
130.6988089848
 21
127.6802235166
 31
0.0
 70
   160
  1
<>
 71
     2
 42
-1.0
  3
SLDDIMSTYLE0
100
AcDbAlignedDimension
 13
115.1030038633
 23
130.6802235166
 33
0.0
 14
120.9179584395
 24
124.6802235166
 34
0.0
 50
90.0
100
AcDbRotatedDimension
  0
DIMENSION
  5
20E
330
1F
100
AcDbEntity
  8
0
  6
Continuous
 62
     7
370
     0
100
AcDbDimension
  2
_D_5
 10
130.6988089848
 20
109.6802235166
 30
0.0
 11
130.6988089848
 21
117.1802235166
 31
0.0
 70
   160
  1
<>
 71
     2
 42
-1.0
  3
SLDDIMSTYLE1
100
AcDbAlignedDimension
 13
120.9179584395
 23
124.6802235166
 33
0.0
 14
116.1030038633
 24
109.6802235166
 34
0.0
 50
90.0
100
AcDbRotatedDimension
  0
DIMENSION
  5
21A
330
1F
100
AcDbEntity
  8
0
  6
Continuous
 62
     7
370
     0
100
AcDbDimension
  2
_D_6
 10
139.3718336836
 20
107.6802235166
 30
0.0
 11
139.3718336836
 21
116.1802235166
 31
0.0
 70
   160
  1
<>
 71
     2
 42
-1.0
  3
SLDDIMSTYLE1
100
AcDbAlignedDimension
 13
120.9179584395
 23
124.6802235166
 33
0.0
 14
113.6030038633
 24
107.6802235166
 34
0.0
 50
90.0
100
AcDbRotatedDimension
  0
DIMENSION
  5
224
330
1F
100
AcDbEntity
  8
0
  6
Continuous
 62
     7
370
     0
100
AcDbDimension
  2
_D_7
 10
148.2311538534
 20
172.6802235166
 30
0.0
 11
148.2311538534
 21
140.1802235166
 31
0.0
 70
   160
  1
<>
 71
     2
 42
-1.0
  3
SLDDIMSTYLE1
100
AcDbAlignedDimension
 13
113.6030038633
 23
107.6802235166
 33
0.0
 14
116.6030038877
 24
172.6802235166
 34
0.0
 50
90.0
100
AcDbRotatedDimension
  0
DIMENSION
  5
22E
330
1F
100
AcDbEntity
  8
0
  6
Continuous
 62
     7
370
     0
100
AcDbDimension
  2
_D_8
 10
114.1030038633
 20
96.8155908625
 30
0.0
 11
124.5717857531
 21
96.8155908625
 31
0.0
 70
   160
  1
%%c<>
 71
     2
 42
-1.0
  3
SLDDIMSTYLE0
100
AcDbAlignedDimension
 13
108.1030038633
 23
108.1802235166
 33
0.0
 14
114.1030038633
 24
108.1802235166
 34
0.0
 50
0.0
100
AcDbRotatedDimension
  0
DIMENSION
  5
23B
330
1F
100
AcDbEntity
  8
0
  6
Continuous
 62
     7
370
     0
100
AcDbDimension
  2
_D_9
 10
120.9179584393
 20
88.8027038511
 30
0.0
 11
111.1030038633
 21
88.8027038511
 31
0.0
 70
   160
  1
<>
 71
     2
 42
-1.0
  3
SLDDIMSTYLE1
100
AcDbAlignedDimension
 13
101.2880492873
 23
112.355059191
 33
0.0
 14
120.9179584393
 24
112.355059191
 34
0.0
 50
0.0
100
AcDbRotatedDimension
  0
INSERT
  5
251
330
1F
100
AcDbEntity
  8
0
  6
Continuous
 62
     7
370
     0
100
AcDbBlockReference
  2
SW_NOTE_0
 10
128.6620034873
 20
180.7605144174
 30
0.0
  0
INSERT
  5
25C
330
1F
100
AcDbEntity
  8
0
  6
Continuous
 62
     7
370
     0
100
AcDbBlockReference
  2
SW_NOTE_1
 10
71.8618784223
 20
174.1775176491
 30
0.0
  0
INSERT
  5
267
330
1F
100
AcDbEntity
  8
0
  6
Continuous
 62
     7
370
     0
100
AcDbBlockReference
  2
SW_NOTE_2
 10
69.7427990209
 20
107.651936702
 30
0.0
  0
INSERT
  5
26E
330
1F
100
AcDbEntity
  8
0
  6
Continuous
 62
     7
370
     0
100
AcDbBlockReference
  2
_OPEN30
 10
95.4651525263
 20
159.3557539741
 30
2.1382222339
 41
3.0
 42
3.0
 50
316.4789381282
  0
LINE
  5
26F
330
1F
100
AcDbEntity
  8
0
  6
Continuous
 62
     7
370
     0
100
AcDbLine
 10
95.4651525263
 20
159.3557539741
 30
0.0
 11
79.8932384342
 21
174.143831554
 31
0.0
  0
INSERT
  5
270
330
1F
100
AcDbEntity
  8
0
  6
Continuous
 62
     7
370
     0
100
AcDbBlockReference
  2
_OPEN30
 10
105.1030038633
 20
120.8371260408
 30
0.0
 41
3.0
 42
3.0
 50
37.6821303253
  0
LINE
  5
271
330
1F
100
AcDbEntity
  8
0
  6
Continuous
 62
     7
370
     0
100
AcDbLine
 10
105.1030038633
 20
120.8371260408
 30
0.0
 11
87.9596678529
 21
107.5957888493
 31
0.0
  0
INSERT
  5
272
330
1F
100
AcDbEntity
  8
0
  6
Continuous
 62
     7
370
     0
100
AcDbBlockReference
  2
_OPEN30
 10
119.3243081064
 20
163.1876264016
 30
2.025
 41
3.0
 42
3.0
 50
241.9264078956
  0
LINE
  5
273
330
1F
100
AcDbEntity
  8
0
  6
Continuous
 62
     7
370
     0
100
AcDbLine
 10
119.3243081064
 20
163.1876264016
 30
0.0
 11
128.6476868327
 21
180.6681494662
 31
0.0
  0
LINE
  5
274
330
1F
100
AcDbEntity
  8
0
  6
CENTERX2
 62
     7
370
     0
100
AcDbLine
 10
111.1030038633
 20
100.7502391432
 30
0.0
 11
111.1030038633
 21
174.6802235166
 31
0.0
  0
LINE
  5
275
330
1F
100
AcDbEntity
  8
0
  6
Continuous
 62
     7
370
     0
100
AcDbLine
 10
105.1030038633
 20
220.6082553141
 30
0.0
 11
104.3030038633
 21
220.6082553141
 31
0.0
  0
LINE
  5
276
330
1F
100
AcDbEntity
  8
0
  6
Continuous
 62
     7
370
     0
100
AcDbLine
 10
104.3030038633
 20
212.6082553141
 30
0.0
 11
105.1030038633
 21
212.6082553141
 31
0.0
  0
LINE
  5
277
330
1F
100
AcDbEntity
  8
0
  6
Continuous
 62
     7
370
     0
100
AcDbLine
 10
101.8030038633
 20
218.7082553141
 30
0.0
 11
99.3030038633
 21
218.7082553141
 31
0.0
  0
LINE
  5
278
330
1F
100
AcDbEntity
  8
0
  6
Continuous
 62
     7
370
     0
100
AcDbLine
 10
99.3030038633
 20
214.5082553141
 30
0.0
 11
101.8030038633
 21
214.5082553141
 31
0.0
  0
LINE
  5
279
330
1F
100
AcDbEntity
  8
0
  6
Continuous
 62
     7
370
     0
100
AcDbLine
 10
94.3030038633
 20
214.6082553141
 30
0.0
 11
96.8030038633
 21
214.2582553141
 31
0.0
  0
LINE
  5
27A
330
1F
100
AcDbEntity
  8
0
  6
Continuous
 62
     7
370
     0
100
AcDbLine
 10
96.8030038633
 20
214.6082553141
 30
0.0
 11
99.3030038633
 21
214.2582553141
 31
0.0
  0
LINE
  5
27B
330
1F
100
AcDbEntity
  8
0
  6
Continuous
 62
     7
370
     0
100
AcDbLine
 10
96.8030038633
 20
218.9582553141
 30
0.0
 11
94.3030038633
 21
218.6082553141
 31
0.0
  0
LINE
  5
27C
330
1F
100
AcDbEntity
  8
0
  6
Continuous
 62
     7
370
     0
100
AcDbLine
 10
99.3030038633
 20
218.9582553141
 30
0.0
 11
96.8030038633
 21
218.6082553141
 31
0.0
  0
SPLINE
  5
27D
330
1F
100
AcDbEntity
  8
0
  6
Continuous
 62
     7
370
     0
100
AcDbSpline
210
0.0
220
0.0
230
1.0
 70
    24
 71
     3
 72
    10
 73
     6
 74
     0
 42
0.00000001
 43
0.00000001
 12
1.0
 22
0.0
 32
0.0
 13
1.0
 23
0.0
 33
0.0
 40
0.0
 40
0.0
 40
0.0
 40
0.0
 40
0.3115760708398508
 40
0.7055828701952417
 40
1.0
 40
1.0
 40
1.0
 40
1.0
 10
105.1030038632921
 20
220.1101832897077
 30
0.0
 10
105.1030038632921
 20
220.2048753730328
 30
0.0
 10
105.1030038632921
 20
220.4193113268506
 30
0.0
 10
105.1030038632921
 20
220.5835929521032
 30
0.0
 10
105.1030038632921
 20
220.5906809808353
 30
0.0
 10
105.1030038632921
 20
220.5937123064283
 30
0.0
  0
SPLINE
  5
27E
330
1F
100
AcDbEntity
  8
0
  6
Continuous
 62
     7
370
     0
100
AcDbSpline
210
0.0
220
0.0
230
1.0
 70
    24
 71
     3
 72
    11
 73
     7
 74
     0
 42
0.00000001
 43
0.00000001
 12
1.0
 22
0.0
 32
0.0
 13
1.0
 23
0.0
 33
0.0
 40
0.0
 40
0.0
 40
0.0
 40
0.0
 40
0.0962083981788074
 40
0.4768378781778267
 40
0.8574673619026906
 40
1.0
 40
1.0
 40
1.0
 40
1.0
 10
105.1030038632921
 20
212.6227983217549
 30
0.0
 10
105.1030038632921
 20
212.6183797289133
 30
0.0
 10
105.1030038632921
 20
212.5964798482899
 30
0.0
 10
105.1030038632921
 20
212.7170595932868
 30
0.0
 10
105.1030038632921
 20
212.8988420063958
 30
0.0
 10
105.1030038632921
 20
213.0916297424357
 30
0.0
 10
105.1030038632921
 20
213.1441536990916
 30
0.0
  0
SPLINE
  5
27F
330
1F
100
AcDbEntity
  8
0
  6
Continuous
 62
     7
370
     0
100
AcDbSpline
210
0.0
220
0.0
230
1.0
 70
    24
 71
     3
 72
    11
 73
     7
 74
     0
 42
0.00000001
 43
0.00000001
 12
1.0
 22
0.0
 32
0.0
 13
1.0
 23
0.0
 33
0.0
 40
0.0
 40
0.0
 40
0.0
 40
0.0
 40
0.0540258448195532
 40
0.375582056693932
 40
0.6971382685389512
 40
1.0
 40
1.0
 40
1.0
 40
1.0
 10
105.1030038632921
 20
213.8348565180874
 30
0.0
 10
105.1030038632921
 20
213.8639735936625
 30
0.0
 10
105.1030038632921
 20
214.0663924760687
 30
0.0
 10
105.1030038632921
 20
214.5469337513899
 30
0.0
 10
105.1030038632921
 20
215.2371316655164
 30
0.0
 10
105.1030038632921
 20
215.7366406427879
 30
0.0
 10
105.1030038632921
 20
215.9789177191573
 30
0.0
  0
SPLINE
  5
280
330
1F
100
AcDbEntity
  8
0
  6
Continuous
 62
     7
370
     0
100
AcDbSpline
210
0.0
220
0.0
230
1.0
 70
    24
 71
     3
 72
    23
 73
    19
 74
     0
 42
0.00000001
 43
0.00000001
 12
1.0
 22
0.0
 32
0.0
 13
1.0
 23
0.0
 33
0.0
 40
0.0
 40
0.0
 40
0.0
 40
0.0
 40
0.0562830532649227
 40
0.1196702735000456
 40
0.1830574941671969
 40
0.2464447142138735
 40
0.3098319342605501
 40
0.3732191549277013
 40
0.4366063751628242
 40
0.4999935954037348
 40
0.5633808156446454
 40
0.6267680358797684
 40
0.6901552565469196
 40
0.7535424765935962
 40
0.8169296966402727
 40
0.8803169173074239
 40
0.9437041375425469
 40
1.0
 40
1.0
 40
1.0
 40
1.0
 10
117.9030038632921
 20
212.6168693280601
 30
0.0
 10
117.9030038632921
 20
212.630615086965
 30
0.0
 10
117.9030038632921
 20
212.6598416237675
 30
0.0
 10
117.9030038632921
 20
212.891317707235
 30
0.0
 10
117.9030038632921
 20
213.2602938513222
 30
0.0
 10
117.9030038632921
 20
213.7617680879794
 30
0.0
 10
117.9030038632921
 20
214.3716029282553
 30
0.0
 10
117.9030038632921
 20
215.067666497009
 30
0.0
 10
117.9030038632921
 20
215.8228605860205
 30
0.0
 10
117.9030038632921
 20
216.6082553144829
 30
0.0
 10
117.9030038632921
 20
217.3936500405973
 30
0.0
 10
117.9030038632921
 20
218.1488441366529
 30
0.0
 10
117.9030038632921
 20
218.8449076795782
 30
0.0
 10
117.9030038632921
 20
219.4547426161237
 30
0.0
 10
117.9030038632921
 20
219.956216493531
 30
0.0
 10
117.9030038632921
 20
220.3251939783481
 30
0.0
 10
117.9030038632921
 20
220.5566814419547
 30
0.0
 10
117.9030038632921
 20
220.5859089561546
 30
0.0
 10
117.9030038632921
 20
220.5996568316468
 30
0.0
  0
LINE
  5
281
330
1F
100
AcDbEntity
  8
0
  6
Continuous
 62
     7
370
     0
100
AcDbLine
 10
104.3030038633
 20
219.5732889277
 30
0.0
 11
104.3030038633
 21
220.6082553141
 31
0.0
  0
LINE
  5
282
330
1F
100
AcDbEntity
  8
0
  6
Continuous
 62
     7
370
     0
100
AcDbLine
 10
105.1030038633
 20
220.6082553141
 30
0.0
 11
105.1030038633
 21
220.1047610415
 31
0.0
  0
LINE
  5
283
330
1F
100
AcDbEntity
  8
0
  6
Continuous
 62
     7
370
     0
100
AcDbLine
 10
105.1030038633
 20
219.5732889277
 30
0.0
 11
104.3030038633
 21
219.5732889277
 31
0.0
  0
LINE
  5
284
330
1F
100
AcDbEntity
  8
0
  6
Continuous
 62
     7
370
     0
100
AcDbLine
 10
117.1030038633
 20
212.6082553141
 30
0.0
 11
117.9030038633
 21
212.6082553141
 31
0.0
  0
LINE
  5
285
330
1F
100
AcDbEntity
  8
0
  6
Continuous
 62
     7
370
     0
100
AcDbLine
 10
117.9030038633
 20
220.6082553141
 30
0.0
 11
117.1030038633
 21
220.6082553141
 31
0.0
  0
SPLINE
  5
286
330
1F
100
AcDbEntity
  8
0
  6
Continuous
 62
     7
370
     0
100
AcDbSpline
210
0.0
220
0.0
230
1.0
 70
    24
 71
     3
 72
    10
 73
     6
 74
     0
 42
0.00000001
 43
0.00000001
 12
1.0
 22
0.0
 32
0.0
 13
1.0
 23
0.0
 33
0.0
 40
0.0
 40
0.0
 40
0.0
 40
0.0
 40
0.38079865124756
 40
0.7615973024603501
 40
1.0
 40
1.0
 40
1.0
 40
1.0
 10
117.1030038632921
 20
212.6082553160756
 30
0.0
 10
117.1030038632921
 20
212.6242071535969
 30
0.0
 10
117.1030038632921
 20
212.656110828638
 30
0.0
 10
117.1030038632921
 20
212.8503304253844
 30
0.0
 10
117.1030038632921
 20
213.0624746755905
 30
0.0
 10
117.1030038632921
 20
213.1441536990916
 30
0.0
  0
LINE
  5
287
330
1F
100
AcDbEntity
  8
0
  6
Continuous
 62
     7
370
     0
100
AcDbLine
 10
117.1030038633
 20
216.6082553141
 30
0.0
 11
117.1030038633
 21
217.388616602
 31
0.0
  0
SPLINE
  5
288
330
1F
100
AcDbEntity
  8
0
  6
Continuous
 62
     7
370
     0
100
AcDbSpline
210
0.0
220
0.0
230
1.0
 70
    24
 71
     3
 72
    10
 73
     6
 74
     0
 42
0.00000001
 43
0.00000001
 12
1.0
 22
0.0
 32
0.0
 13
1.0
 23
0.0
 33
0.0
 40
0.0
 40
0.0
 40
0.0
 40
0.0
 40
0.2384026975396584
 40
0.6192013487524451
 40
1.0
 40
1.0
 40
1.0
 40
1.0
 10
117.1030038632921
 20
220.0723569290915
 30
0.0
 10
117.1030038632921
 20
220.1540359525927
 30
0.0
 10
117.1030038632921
 20
220.3661802027988
 30
0.0
 10
117.1030038632921
 20
220.5603997995451
 30
0.0
 10
117.1030038632921
 20
220.5923034745863
 30
0.0
 10
117.1030038632921
 20
220.6082553121076
 30
0.0
  0
SPLINE
  5
289
330
1F
100
AcDbEntity
  8
0
  6
Continuous
 62
     7
370
     0
100
AcDbSpline
210
0.0
220
0.0
230
1.0
 70
    24
 71
     3
 72
    13
 73
     9
 74
     0
 42
0.00000001
 43
0.00000001
 12
1.0
 22
0.0
 32
0.0
 13
1.0
 23
0.0
 33
0.0
 40
0.0
 40
0.0
 40
0.0
 40
0.0
 40
0.0272029719670965
 40
0.2222568447953249
 40
0.417310719532865
 40
0.6123645929409767
 40
0.8074184663668978
 40
1.0
 40
1.0
 40
1.0
 40
1.0
 10
104.3030038632921
 20
212.618479726743
 30
0.0
 10
104.3030038632921
 20
212.6163154166555
 30
0.0
 10
104.3030038632921
 20
212.5986323218892
 30
0.0
 10
104.3030038632921
 20
212.7129452692551
 30
0.0
 10
104.3030038632921
 20
212.9670188078834
 30
0.0
 10
104.3030038632921
 20
213.3774669604321
 30
0.0
 10
104.3030038632921
 20
213.8999927058291
 30
0.0
 10
104.3030038632921
 20
214.331200285529
 30
0.0
 10
104.303003863292
 20
214.5454289537585
 30
0.0
  0
SPLINE
  5
28A
330
1F
100
AcDbEntity
  8
0
  6
Continuous
 62
     7
370
     0
100
AcDbSpline
210
0.0
220
0.0
230
1.0
 70
    24
 71
     3
 72
    13
 73
     9
 74
     0
 42
0.00000001
 43
0.00000001
 12
1.0
 22
0.0
 32
0.0
 13
1.0
 23
0.0
 33
0.0
 40
0.0
 40
0.0
 40
0.0
 40
0.0
 40
0.1766192437078731
 40
0.3609986271057584
 40
0.5453780086988207
 40
0.7297573902918829
 40
0.9141367736897685
 40
1.0
 40
1.0
 40
1.0
 40
1.0
 10
104.303003863292
 20
214.5832553143746
 30
0.0
 10
104.303003863292
 20
214.8058333055003
 30
0.0
 10
104.303003863292
 20
215.260768722126
 30
0.0
 10
104.303003863292
 20
216.0202038594337
 30
0.0
 10
104.303003863292
 20
216.8080879681782
 30
0.0
 10
104.303003863292
 20
217.5855711886888
 30
0.0
 10
104.303003863292
 20
218.2067327619715
 30
0.0
 10
104.303003863292
 20
218.5304134094807
 30
0.0
 10
104.3030038632921
 20
218.6332553140914
 30
0.0
  0
SPLINE
  5
28B
330
1F
100
AcDbEntity
  8
0
  6
Continuous
 62
     7
370
     0
100
AcDbSpline
210
0.0
220
0.0
230
1.0
 70
    24
 71
     3
 72
     9
 73
     5
 74
     0
 42
0.00000001
 43
0.00000001
 12
1.0
 22
0.0
 32
0.0
 13
1.0
 23
0.0
 33
0.0
 40
0.0
 40
0.0
 40
0.0
 40
0.0
 40
0.3234355680345936
 40
1.0
 40
1.0
 40
1.0
 40
1.0
 10
104.3030038632921
 20
218.6710816747074
 30
0.0
 10
104.3030038632921
 20
218.7805898964266
 30
0.0
 10
104.3030038632921
 20
219.1191680632765
 30
0.0
 10
104.3030038632921
 20
219.3900320130257
 30
0.0
 10
104.3030038632921
 20
219.5732889273278
 30
0.0
  0
SPLINE
  5
28C
330
1F
100
AcDbEntity
  8
0
  6
Continuous
 62
     7
370
     0
100
AcDbSpline
210
0.0
220
0.0
230
1.0
 70
    24
 71
     3
 72
    11
 73
     7
 74
     0
 42
0.00000001
 43
0.00000001
 12
1.0
 22
0.0
 32
0.0
 13
1.0
 23
0.0
 33
0.0
 40
0.0
 40
0.0
 40
0.0
 40
0.0
 40
0.2750389873734957
 40
0.5500779747218784
 40
0.8251169639448442
 40
1.0
 40
1.0
 40
1.0
 40
1.0
 10
104.3030038632921
 20
219.5732889273278
 30
0.0
 10
104.3030038632921
 20
219.7383064697153
 30
0.0
 10
104.3030038632921
 20
220.0683415544752
 30
0.0
 10
104.3030038632921
 20
220.3940082444795
 30
0.0
 10
104.3030038632921
 20
220.5801911935893
 30
0.0
 10
104.3030038632921
 20
220.5868702651904
 30
0.0
 10
104.3030038632921
 20
220.5894663957509
 30
0.0
  0
LINE
  5
28D
330
1F
100
AcDbEntity
  8
0
  6
Continuous
 62
     7
370
     0
100
AcDbLine
 10
105.1030038633
 20
213.1441536991
 30
0.0
 11
105.1030038633
 21
212.6082553141
 31
0.0
  0
LINE
  5
28E
330
1F
100
AcDbEntity
  8
0
  6
Continuous
 62
     7
370
     0
100
AcDbLine
 10
104.3030038633
 20
218.6332553141
 30
0.0
 11
104.3030038633
 21
219.5732889277
 31
0.0
  0
LINE
  5
28F
330
1F
100
AcDbEntity
  8
0
  6
Continuous
 62
     7
370
     0
100
AcDbLine
 10
117.1030038633
 20
212.6082553141
 30
0.0
 11
117.1030038633
 21
213.1441536991
 31
0.0
  0
LINE
  5
290
330
1F
100
AcDbEntity
  8
0
  6
Continuous
 62
     7
370
     0
100
AcDbLine
 10
117.1030038633
 20
220.1045019489
 30
0.0
 11
117.1030038633
 21
220.6082553141
 31
0.0
  0
LINE
  5
291
330
1F
100
AcDbEntity
  8
0
  6
Continuous
 62
     7
370
     0
100
AcDbLine
 10
101.8030038633
 20
217.6582553141
 30
0.0
 11
99.3030038633
 21
217.6582553141
 31
0.0
  0
LINE
  5
292
330
1F
100
AcDbEntity
  8
0
  6
Continuous
 62
     7
370
     0
100
AcDbLine
 10
104.3030038633
 20
214.5832553139
 30
0.0
 11
104.3030038633
 21
214.6852043508
 31
0.0
  0
LINE
  5
293
330
1F
100
AcDbEntity
  8
0
  6
Continuous
 62
     7
370
     0
100
AcDbLine
 10
104.3030038633
 20
218.5313062786
 30
0.0
 11
104.3030038633
 21
218.6332553131
 31
0.0
  0
LINE
  5
294
330
1F
100
AcDbEntity
  8
0
  6
Continuous
 62
     7
370
     0
100
AcDbLine
 10
104.3030038633
 20
220.6082553141
 30
0.0
 11
104.3030038633
 21
220.6582553133
 31
0.0
  0
LINE
  5
295
330
1F
100
AcDbEntity
  8
0
  6
Continuous
 62
     7
370
     0
100
AcDbLine
 10
104.3030038633
 20
212.5582553149
 30
0.0
 11
104.3030038633
 21
212.6092298334
 31
0.0
  0
LINE
  5
296
330
1F
100
AcDbEntity
  8
0
  6
Continuous
 62
     7
370
     0
100
AcDbLine
 10
104.3030038633
 20
214.5322807954
 30
0.0
 11
104.3030038633
 21
214.5832553139
 31
0.0
  0
LINE
  5
297
330
1F
100
AcDbEntity
  8
0
  6
Continuous
 62
     7
370
     0
100
AcDbLine
 10
104.3030038633
 20
212.5582553144
 30
0.0
 11
101.8030038633
 21
212.5582553144
 31
0.0
  0
LINE
  5
298
330
1F
100
AcDbEntity
  8
0
  6
Continuous
 62
     7
370
     0
100
AcDbLine
 10
101.8030038633
 20
212.5582553144
 30
0.0
 11
101.8030038633
 21
214.5832553144
 31
0.0
  0
LINE
  5
299
330
1F
100
AcDbEntity
  8
0
  6
Continuous
 62
     7
370
     0
100
AcDbLine
 10
101.8030038633
 20
214.5832553144
 30
0.0
 11
104.3030038633
 21
214.5832553144
 31
0.0
  0
LINE
  5
29A
330
1F
100
AcDbEntity
  8
0
  6
Continuous
 62
     7
370
     0
100
AcDbLine
 10
104.3030038633
 20
214.5832553144
 30
0.0
 11
104.3030038633
 21
212.5582553144
 31
0.0
  0
LINE
  5
29B
330
1F
100
AcDbEntity
  8
0
  6
Continuous
 62
     7
370
     0
100
AcDbLine
 10
104.3030038633
 20
220.6582553138
 30
0.0
 11
101.8030038633
 21
220.6582553138
 31
0.0
  0
LINE
  5
29C
330
1F
100
AcDbEntity
  8
0
  6
Continuous
 62
     7
370
     0
100
AcDbLine
 10
101.8030038633
 20
218.6332553141
 30
0.0
 11
101.8030038633
 21
220.6582553138
 31
0.0
  0
LINE
  5
29D
330
1F
100
AcDbEntity
  8
0
  6
Continuous
 62
     7
370
     0
100
AcDbLine
 10
104.3030038633
 20
218.6332553141
 30
0.0
 11
101.8030038633
 21
218.6332553141
 31
0.0
  0
LINE
  5
29E
330
1F
100
AcDbEntity
  8
0
  6
Continuous
 62
     7
370
     0
100
AcDbLine
 10
104.3030038633
 20
220.6582553138
 30
0.0
 11
104.3030038633
 21
220.631538667
 31
0.0
  0
SPLINE
  5
29F
330
1F
100
AcDbEntity
  8
0
  6
Continuous
 62
     7
370
     0
100
AcDbSpline
210
0.0
220
0.0
230
1.0
 70
     8
 71
     3
 72
    11
 73
     7
 74
     0
 42
0.00000001
 43
0.00000001
 12
1.0
 22
0.0
 32
0.0
 13
1.0
 23
0.0
 33
0.0
 40
0.0
 40
0.0
 40
0.0
 40
0.0
 40
0.2275490266133803
 40
0.6043266591775115
 40
0.9911375430119475
 40
1.0
 40
1.0
 40
1.0
 40
1.0
 10
106.3131353746662
 20
214.751962176007
 30
0.0
 10
106.3097841177467
 20
214.7087586356065
 30
0.0
 10
106.3008838208378
 20
214.5940183019587
 30
0.0
 10
106.2872249209225
 20
214.4386257136049
 30
0.0
 10
106.2765188635545
 20
214.329855090473
 30
0.0
 10
106.2707244077451
 20
214.2933502557746
 30
0.0
 10
106.2705946211002
 20
214.2925326052179
 30
0.0
  0
LINE
  5
2A0
330
1F
100
AcDbEntity
  8
0
  6
Continuous
 62
     7
370
     0
100
AcDbLine
 10
101.8030038633
 20
214.5832553144
 30
0.0
 11
101.8030038633
 21
218.6332553141
 31
0.0
  0
LINE
  5
2A1
330
1F
100
AcDbEntity
  8
0
  6
Continuous
 62
     7
370
     0
100
AcDbLine
 10
104.3030038633
 20
218.6332553141
 30
0.0
 11
104.3030038633
 21
214.5832553144
 31
0.0
  0
LINE
  5
2A2
330
1F
100
AcDbEntity
  8
0
  6
Continuous
 62
     7
370
     0
100
AcDbLine
 10
101.8030038633
 20
214.5832553139
 30
0.0
 11
101.8030038633
 21
218.6332553131
 31
0.0
  0
LINE
  5
2A3
330
1F
100
AcDbEntity
  8
0
  6
Continuous
 62
     7
370
     0
100
AcDbLine
 10
101.8030038633
 20
218.6332553131
 30
0.0
 11
101.8030038633
 21
220.6582553133
 31
0.0
  0
SPLINE
  5
2A4
330
1F
100
AcDbEntity
  8
0
  6
Continuous
 62
     7
370
     0
100
AcDbSpline
210
0.0
220
0.0
230
1.0
 70
    24
 71
     3
 72
    18
 73
    14
 74
     0
 42
0.00000001
 43
0.00000001
 12
1.0
 22
0.0
 32
0.0
 13
1.0
 23
0.0
 33
0.0
 40
0.0
 40
0.0
 40
0.0
 40
0.0
 40
0.0624466721075428
 40
0.1562020048221646
 40
0.2499573375453466
 40
0.3437126702685285
 40
0.4374680029831504
 40
0.5312233363367804
 40
0.6249786687726733
 40
0.718734001208566
 40
0.8124893345621961
 40
0.906244667276818
 40
1.0
 40
1.0
 40
1.0
 40
1.0
 10
99.30300386329209
 20
214.2683203385414
 30
0.0
 10
99.30300386329209
 20
214.2682322622569
 30
0.0
 10
99.30300386329209
 20
214.2680119512021
 30
0.0
 10
99.30300386329209
 20
214.3708239397241
 30
0.0
 10
99.30300386329208
 20
214.5593871619131
 30
0.0
 10
99.30300386329208
 20
214.830201109866
 30
0.0
 10
99.30300386329208
 20
215.1683989909492
 30
0.0
 10
99.30300386329208
 20
215.562198655894
 30
0.0
 10
99.30300386329208
 20
215.9960677418896
 30
0.0
 10
99.30300386329208
 20
216.4537137241682
 30
0.0
 10
99.30300386329206
 20
216.9164251235667
 30
0.0
 10
99.30300386329208
 20
217.3705369779873
 30
0.0
 10
99.30300386329208
 20
217.6456825349973
 30
0.0
 10
99.30300386329208
 20
217.7832553135087
 30
0.0
  0
SPLINE
  5
2A5
330
1F
100
AcDbEntity
  8
0
  6
Continuous
 62
     7
370
     0
100
AcDbSpline
210
0.0
220
0.0
230
1.0
 70
    24
 71
     3
 72
    13
 73
     9
 74
     0
 42
0.00000001
 43
0.00000001
 12
1.0
 22
0.0
 32
0.0
 13
1.0
 23
0.0
 33
0.0
 40
0.0
 40
0.0
 40
0.0
 40
0.0
 40
0.187478672244965
 40
0.3749573444728121
 40
0.5624360179784577
 40
0.7499146896489418
 40
0.9373933613194263
 40
1.0
 40
1.0
 40
1.0
 40
1.0
 10
99.30300386329208
 20
217.7832553135087
 30
0.0
 10
99.30300386329208
 20
217.9121054587005
 30
0.0
 10
99.30300386329208
 20
218.1698057490723
 30
0.0
 10
99.30300386329208
 20
218.4838295719618
 30
0.0
 10
99.30300386329208
 20
218.7306899528821
 30
0.0
 10
99.30300386329209
 20
218.8888481504031
 30
0.0
 10
99.30300386329209
 20
218.9620991188206
 30
0.0
 10
99.30300386329209
 20
218.9509750912511
 30
0.0
 10
99.30300386329209
 20
218.9481902896418
 30
0.0
  0
SPLINE
  5
2A6
330
1F
100
AcDbEntity
  8
0
  6
Continuous
 62
     7
370
     0
100
AcDbSpline
210
0.0
220
0.0
230
1.0
 70
    24
 71
     3
 72
    18
 73
    14
 74
     0
 42
0.00000001
 43
0.00000001
 12
1.0
 22
0.0
 32
0.0
 13
1.0
 23
0.0
 33
0.0
 40
0.0
 40
0.0
 40
0.0
 40
0.0
 40
0.0937528854689162
 40
0.1875057719175821
 40
0.2812586579693215
 40
0.3750115435876977
 40
0.4687644292060739
 40
0.5625173152578132
 40
0.6562702017064795
 40
0.7500230871753952
 40
0.8437759726443113
 40
0.9375288590929777
 40
1.0
 40
1.0
 40
1.0
 40
1.0
 10
99.30300386329208
 20
217.6582553140767
 30
0.0
 10
99.30300386329208
 20
217.5353179378194
 30
0.0
 10
99.30300386329208
 20
217.28944318402
 30
0.0
 10
99.30300386329208
 20
216.883641101427
 30
0.0
 10
99.30300386329208
 20
216.4701543183045
 30
0.0
 10
99.30300386329208
 20
216.0611940806133
 30
0.0
 10
99.30300386329208
 20
215.6734812745844
 30
0.0
 10
99.30300386329208
 20
215.321575215734
 30
0.0
 10
99.30300386329208
 20
215.0193557401817
 30
0.0
 10
99.30300386329208
 20
214.7773521282234
 30
0.0
 10
99.30300386329209
 20
214.6088475441999
 30
0.0
 10
99.30300386329209
 20
214.5169676582165
 30
0.0
 10
99.30300386329209
 20
214.5171663781158
 30
0.0
 10
99.30300386329209
 20
214.5172458425814
 30
0.0
  0
SPLINE
  5
2A7
330
1F
100
AcDbEntity
  8
0
  6
Continuous
 62
     7
370
     0
100
AcDbSpline
210
0.0
220
0.0
230
1.0
 70
    24
 71
     3
 72
    18
 73
    14
 74
     0
 42
0.00000001
 43
0.00000001
 12
1.0
 22
0.0
 32
0.0
 13
1.0
 23
0.0
 33
0.0
 40
0.0
 40
0.0
 40
0.0
 40
0.0
 40
0.0624446873408791
 40
0.1562002185321674
 40
0.2499557497320157
 40
0.3437112809318641
 40
0.437466812123152
 40
0.5312223439534495
 40
0.6249778748660079
 40
0.7187334057785663
 40
0.8124889376088636
 40
0.9062444688001517
 40
1.0
 40
1.0
 40
1.0
 40
1.0
 10
94.3030038632921
 20
214.6168215820008
 30
0.0
 10
94.3030038632921
 20
214.6167466820138
 30
0.0
 10
94.30300386329209
 20
214.6165593258939
 30
0.0
 10
94.30300386329209
 20
214.7040584777956
 30
0.0
 10
94.30300386329209
 20
214.8645377168536
 30
0.0
 10
94.30300386329209
 20
215.0950176990785
 30
0.0
 10
94.30300386329209
 20
215.382845675873
 30
0.0
 10
94.30300386329208
 20
215.7179943287939
 30
0.0
 10
94.30300386329208
 20
216.0872446142374
 30
0.0
 10
94.30300386329208
 20
216.4767305567389
 30
0.0
 10
94.30300386329208
 20
216.8705274923606
 30
0.0
 10
94.30300386329208
 20
217.2570056663452
 30
0.0
 10
94.30300386329208
 20
217.4911720978418
 30
0.0
 10
94.30300386329208
 20
217.6082553135955
 30
0.0
  0
SPLINE
  5
2A8
330
1F
100
AcDbEntity
  8
0
  6
Continuous
 62
     7
370
     0
100
AcDbSpline
210
0.0
220
0.0
230
1.0
 70
    24
 71
     3
 72
    13
 73
     9
 74
     0
 42
0.00000001
 43
0.00000001
 12
1.0
 22
0.0
 32
0.0
 13
1.0
 23
0.0
 33
0.0
 40
0.0
 40
0.0
 40
0.0
 40
0.0
 40
0.1874778786142131
 40
0.3749557572113082
 40
0.5624336370861963
 40
0.7499115151259307
 40
0.9373893931656655
 40
1.0
 40
1.0
 40
1.0
 40
1.0
 10
94.30300386329208
 20
217.6082553135955
 30
0.0
 10
94.30300386329208
 20
217.7179150108705
 30
0.0
 10
94.30300386329208
 20
217.9372344054104
 30
0.0
 10
94.30300386329209
 20
218.2044887341721
 30
0.0
 10
94.30300386329209
 20
218.414582632027
 30
0.0
 10
94.30300386329209
 20
218.5491855153281
 30
0.0
 10
94.3030038632921
 20
218.6115268977352
 30
0.0
 10
94.3030038632921
 20
218.6020592963334
 30
0.0
 10
94.3030038632921
 20
218.5996890461824
 30
0.0
  0
LINE
  5
2A9
330
1F
100
AcDbEntity
  8
0
  6
Continuous
 62
     7
370
     0
100
AcDbLine
 10
94.3030038633
 20
217.6082553134
 30
0.0
 11
96.8030038633
 21
217.7832553133
 31
0.0
  0
LINE
  5
2AA
330
1F
100
AcDbEntity
  8
0
  6
Continuous
 62
     7
370
     0
100
AcDbLine
 10
96.8030038633
 20
217.7832553133
 30
0.0
 11
96.8030038633
 21
214.2582553141
 31
0.0
  0
LINE
  5
2AB
330
1F
100
AcDbEntity
  8
0
  6
Continuous
 62
     7
370
     0
100
AcDbLine
 10
94.3030038633
 20
214.6082553141
 30
0.0
 11
94.3030038633
 21
217.6082553134
 31
0.0
  0
SPLINE
  5
2AC
330
1F
100
AcDbEntity
  8
0
  6
Continuous
 62
     7
370
     0
100
AcDbSpline
210
0.0
220
0.0
230
1.0
 70
    24
 71
     3
 72
    13
 73
     9
 74
     0
 42
0.00000001
 43
0.00000001
 12
1.0
 22
0.0
 32
0.0
 13
1.0
 23
0.0
 33
0.0
 40
0.0
 40
0.0
 40
0.0
 40
0.0
 40
0.187478672244965
 40
0.3749573444728121
 40
0.5624360179784577
 40
0.7499146896489418
 40
0.9373933613194263
 40
1.0
 40
1.0
 40
1.0
 40
1.0
 10
96.80300386329208
 20
217.7832553135087
 30
0.0
 10
96.80300386329208
 20
217.9121054587005
 30
0.0
 10
96.80300386329208
 20
218.1698057490723
 30
0.0
 10
96.80300386329209
 20
218.4838295719618
 30
0.0
 10
96.80300386329209
 20
218.7306899528821
 30
0.0
 10
96.80300386329209
 20
218.8888481504031
 30
0.0
 10
96.80300386329209
 20
218.9620991188206
 30
0.0
 10
96.8030038632921
 20
218.9509750912511
 30
0.0
 10
96.8030038632921
 20
218.9481902896418
 30
0.0
  0
SPLINE
  5
2AD
330
1F
100
AcDbEntity
  8
0
  6
Continuous
 62
     7
370
     0
100
AcDbSpline
210
0.0
220
0.0
230
1.0
 70
    24
 71
     3
 72
    18
 73
    14
 74
     0
 42
0.00000001
 43
0.00000001
 12
1.0
 22
0.0
 32
0.0
 13
1.0
 23
0.0
 33
0.0
 40
0.0
 40
0.0
 40
0.0
 40
0.0
 40
0.0624466721075428
 40
0.1562020048221646
 40
0.2499573375453466
 40
0.3437126702685285
 40
0.4374680029831504
 40
0.5312233363367804
 40
0.6249786687726733
 40
0.718734001208566
 40
0.8124893345621961
 40
0.906244667276818
 40
1.0
 40
1.0
 40
1.0
 40
1.0
 10
96.8030038632921
 20
214.2683203385414
 30
0.0
 10
96.8030038632921
 20
214.2682322622569
 30
0.0
 10
96.80300386329209
 20
214.2680119512021
 30
0.0
 10
96.80300386329209
 20
214.3708239397241
 30
0.0
 10
96.80300386329209
 20
214.5593871619131
 30
0.0
 10
96.80300386329208
 20
214.830201109866
 30
0.0
 10
96.80300386329208
 20
215.1683989909492
 30
0.0
 10
96.80300386329208
 20
215.562198655894
 30
0.0
 10
96.80300386329208
 20
215.9960677418896
 30
0.0
 10
96.80300386329208
 20
216.4537137241682
 30
0.0
 10
96.80300386329208
 20
216.9164251235667
 30
0.0
 10
96.80300386329208
 20
217.3705369779873
 30
0.0
 10
96.80300386329208
 20
217.6456825349973
 30
0.0
 10
96.80300386329208
 20
217.7832553135087
 30
0.0
  0
LINE
  5
2AE
330
1F
100
AcDbEntity
  8
0
  6
Continuous
 62
     7
370
     0
100
AcDbLine
 10
96.8030038633
 20
217.6082553134
 30
0.0
 11
99.3030038633
 21
217.7832553133
 31
0.0
  0
LINE
  5
2AF
330
1F
100
AcDbEntity
  8
0
  6
Continuous
 62
     7
370
     0
100
AcDbLine
 10
99.3030038633
 20
217.7832553133
 30
0.0
 11
99.3030038633
 21
214.2582553141
 31
0.0
  0
SPLINE
  5
2B0
330
1F
100
AcDbEntity
  8
0
  6
Continuous
 62
     7
370
     0
100
AcDbSpline
210
0.0
220
0.0
230
1.0
 70
     8
 71
     3
 72
    12
 73
     8
 74
     0
 42
0.00000001
 43
0.00000001
 12
1.0
 22
0.0
 32
0.0
 13
1.0
 23
0.0
 33
0.0
 40
0.0
 40
0.0
 40
0.0
 40
0.0
 40
0.1580998866803812
 40
0.4512792330670771
 40
0.7412956231138853
 40
0.9296442634489913
 40
0.9999999999999999
 40
0.9999999999999999
 40
0.9999999999999999
 40
0.9999999999999999
 10
106.2728741279059
 20
214.3131641299225
 30
0.0
 10
106.2750625539511
 20
214.3301497593042
 30
0.0
 10
106.2813091822568
 20
214.3786334234073
 30
0.0
 10
106.2913406063744
 20
214.4824520153916
 30
0.0
 10
106.3017183570091
 20
214.6063045223922
 30
0.0
 10
106.3093388433591
 20
214.702381412531
 30
0.0
 10
106.313169136379
 20
214.7528970738346
 30
0.0
 10
106.3142108005744
 20
214.7666350190567
 30
0.0
  0
LINE
  5
2B1
330
1F
100
AcDbEntity
  8
0
  6
Continuous
 62
     7
370
     0
100
AcDbLine
 10
96.8030038633
 20
218.9582553141
 30
0.0
 11
96.8030038633
 21
217.7832553133
 31
0.0
  0
LINE
  5
2B2
330
1F
100
AcDbEntity
  8
0
  6
Continuous
 62
     7
370
     0
100
AcDbLine
 10
94.3030038633
 20
217.6082553134
 30
0.0
 11
94.3030038633
 21
218.6082553141
 31
0.0
  0
LINE
  5
2B3
330
1F
100
AcDbEntity
  8
0
  6
Continuous
 62
     7
370
     0
100
AcDbLine
 10
99.3030038633
 20
218.9582553141
 30
0.0
 11
99.3030038633
 21
217.7832553133
 31
0.0
  0
LINE
  5
2B4
330
1F
100
AcDbEntity
  8
0
  6
Continuous
 62
     7
370
     0
100
AcDbLine
 10
120.4030038633
 20
218.6332553141
 30
0.0
 11
120.4030038633
 21
220.6582553141
 31
0.0
  0
LINE
  5
2B5
330
1F
100
AcDbEntity
  8
0
  6
Continuous
 62
     7
370
     0
100
AcDbLine
 10
120.4030038633
 20
214.5832553141
 30
0.0
 11
120.4030038633
 21
218.6332553141
 31
0.0
  0
LINE
  5
2B6
330
1F
100
AcDbEntity
  8
0
  6
Continuous
 62
     7
370
     0
100
AcDbLine
 10
120.4030038633
 20
212.5582553141
 30
0.0
 11
120.4030038633
 21
214.5832553141
 31
0.0
  0
LINE
  5
2B7
330
1F
100
AcDbEntity
  8
0
  6
Continuous
 62
     7
370
     0
100
AcDbLine
 10
120.4030038633
 20
220.6582553141
 30
0.0
 11
117.9030038633
 21
220.6582553141
 31
0.0
  0
LINE
  5
2B8
330
1F
100
AcDbEntity
  8
0
  6
Continuous
 62
     7
370
     0
100
AcDbLine
 10
117.9030038633
 20
218.6332553141
 30
0.0
 11
117.9030038633
 21
220.6582553141
 31
0.0
  0
LINE
  5
2B9
330
1F
100
AcDbEntity
  8
0
  6
Continuous
 62
     7
370
     0
100
AcDbLine
 10
120.4030038633
 20
218.6332553141
 30
0.0
 11
117.9030038633
 21
218.6332553141
 31
0.0
  0
LINE
  5
2BA
330
1F
100
AcDbEntity
  8
0
  6
Continuous
 62
     7
370
     0
100
AcDbLine
 10
120.4030038633
 20
220.6582553141
 30
0.0
 11
120.4030038633
 21
218.6332553141
 31
0.0
  0
LINE
  5
2BB
330
1F
100
AcDbEntity
  8
0
  6
Continuous
 62
     7
370
     0
100
AcDbLine
 10
117.9030038633
 20
214.5832553141
 30
0.0
 11
117.9030038633
 21
218.6332553141
 31
0.0
  0
LINE
  5
2BC
330
1F
100
AcDbEntity
  8
0
  6
Continuous
 62
     7
370
     0
100
AcDbLine
 10
120.4030038633
 20
214.5832553141
 30
0.0
 11
117.9030038633
 21
214.5832553141
 31
0.0
  0
LINE
  5
2BD
330
1F
100
AcDbEntity
  8
0
  6
Continuous
 62
     7
370
     0
100
AcDbLine
 10
120.4030038633
 20
212.5582553141
 30
0.0
 11
117.9030038633
 21
212.5582553141
 31
0.0
  0
LINE
  5
2BE
330
1F
100
AcDbEntity
  8
0
  6
Continuous
 62
     7
370
     0
100
AcDbLine
 10
117.9030038633
 20
212.5582553141
 30
0.0
 11
117.9030038633
 21
214.5832553141
 31
0.0
  0
LINE
  5
2BF
330
1F
100
AcDbEntity
  8
0
  6
Continuous
 62
     7
370
     0
100
AcDbLine
 10
120.4030038633
 20
214.5832553141
 30
0.0
 11
120.4030038633
 21
212.5582553141
 31
0.0
  0
LINE
  5
2C0
330
1F
100
AcDbEntity
  8
0
  6
Continuous
 62
     7
370
     0
100
AcDbLine
 10
117.9030038633
 20
212.5582553161
 30
0.0
 11
117.9030038633
 21
212.6082553141
 31
0.0
  0
LINE
  5
2C1
330
1F
100
AcDbEntity
  8
0
  6
Continuous
 62
     7
370
     0
100
AcDbLine
 10
117.9030038633
 20
214.5322807966
 30
0.0
 11
117.9030038633
 21
214.5832553151
 31
0.0
  0
LINE
  5
2C2
330
1F
100
AcDbEntity
  8
0
  6
Continuous
 62
     7
370
     0
100
AcDbLine
 10
117.9030038633
 20
218.6332553131
 30
0.0
 11
117.9030038633
 21
218.6842298315
 31
0.0
  0
LINE
  5
2C3
330
1F
100
AcDbEntity
  8
0
  6
Continuous
 62
     7
370
     0
100
AcDbLine
 10
117.9030038633
 20
220.6082553141
 30
0.0
 11
117.9030038633
 21
220.6582553121
 31
0.0
  0
LINE
  5
2C4
330
1F
100
AcDbEntity
  8
0
  6
Continuous
 62
     7
370
     0
100
AcDbLine
 10
114.1278336243
 20
221.7821768937
 30
0.0
 11
114.043252867
 21
221.8260462392
 31
0.0
  0
LINE
  5
2C5
330
1F
100
AcDbEntity
  8
0
  6
Continuous
 62
     7
370
     0
100
AcDbLine
 10
108.1230292316
 20
221.8111779655
 30
0.0
 11
108.0339229007
 21
221.7530061338
 31
0.0
  0
LINE
  5
2C6
330
1F
100
AcDbEntity
  8
0
  6
Continuous
 62
     7
370
     0
100
AcDbLine
 10
114.0307340233
 20
211.3813548742
 30
0.0
 11
114.1196189851
 21
211.4267433602
 31
0.0
  0
LINE
  5
2C7
330
1F
100
AcDbEntity
  8
0
  6
Continuous
 62
     7
370
     0
100
AcDbLine
 10
120.9179584395
 20
216.6082553142
 30
0.0
 11
120.4030038633
 21
217.5001828037
 31
0.0
  0
LINE
  5
2C8
330
1F
100
AcDbEntity
  8
0
  6
Continuous
 62
     7
370
     0
100
AcDbLine
 10
118.5796898493
 20
220.6582553141
 30
0.0
 11
116.0104811515
 21
225.108255314
 31
0.0
  0
LINE
  5
2C9
330
1F
100
AcDbEntity
  8
0
  6
Continuous
 62
     7
370
     0
100
AcDbLine
 10
116.0104811515
 20
225.108255314
 30
0.0
 11
106.1955265753
 21
225.1082553139
 31
0.0
  0
LINE
  5
2CA
330
1F
100
AcDbEntity
  8
0
  6
Continuous
 62
     7
370
     0
100
AcDbLine
 10
106.1955265753
 20
225.1082553139
 30
0.0
 11
103.6263178773
 21
220.6582553138
 31
0.0
  0
LINE
  5
2CB
330
1F
100
AcDbEntity
  8
0
  6
Continuous
 62
     7
370
     0
100
AcDbLine
 10
103.6263178771
 20
212.5582553144
 30
0.0
 11
106.1955265751
 21
208.1082553142
 31
0.0
  0
LINE
  5
2CC
330
1F
100
AcDbEntity
  8
0
  6
Continuous
 62
     7
370
     0
100
AcDbLine
 10
106.1955265751
 20
208.1082553142
 30
0.0
 11
116.0104811513
 21
208.1082553143
 31
0.0
  0
LINE
  5
2CD
330
1F
100
AcDbEntity
  8
0
  6
Continuous
 62
     7
370
     0
100
AcDbLine
 10
116.0104811513
 20
208.1082553143
 30
0.0
 11
118.5796898491
 21
212.5582553141
 31
0.0
  0
LINE
  5
2CE
330
1F
100
AcDbEntity
  8
0
  6
Continuous
 62
     7
370
     0
100
AcDbLine
 10
120.4030038633
 20
215.7163278247
 30
0.0
 11
120.9179584395
 21
216.6082553142
 31
0.0
  0
LINE
  5
2CF
330
1F
100
AcDbEntity
  8
0
  6
Continuous
 62
     7
370
     0
100
AcDbLine
 10
116.0104811527
 20
225.1082553119
 30
0.0
 11
106.1955265777
 21
225.1082553098
 31
0.0
  0
LINE
  5
2D0
330
1F
100
AcDbEntity
  8
0
  6
Continuous
 62
     7
370
     0
100
AcDbLine
 10
106.1955265777
 20
225.1082553098
 30
0.0
 11
103.6263178808
 21
220.6582553138
 31
0.0
  0
LINE
  5
2D1
330
1F
100
AcDbEntity
  8
0
  6
Continuous
 62
     7
370
     0
100
AcDbLine
 10
106.1955265739
 20
208.1082553163
 30
0.0
 11
116.0104811489
 21
208.1082553184
 31
0.0
  0
LINE
  5
2D2
330
1F
100
AcDbEntity
  8
0
  6
Continuous
 62
     7
370
     0
100
AcDbLine
 10
116.0104811489
 20
208.1082553184
 30
0.0
 11
118.5796898456
 21
212.5582553141
 31
0.0
  0
LINE
  5
2D3
330
1F
100
AcDbEntity
  8
0
  6
Continuous
 62
     7
370
     0
100
AcDbLine
 10
120.4030038633
 20
215.7163278293
 30
0.0
 11
120.9179584383
 21
216.6082553163
 31
0.0
  0
ARC
  5
2D4
330
1F
100
AcDbEntity
  8
0
  6
Continuous
 62
     7
370
     0
100
AcDbCircle
 10
111.1030038633
 20
216.6082553141
 30
0.0
 40
5.5
100
AcDbArc
 50
90.0000000235
 51
269.9999999897
  0
SPLINE
  5
2D5
330
1F
100
AcDbEntity
  8
0
  6
Continuous
 62
     7
370
     0
100
AcDbSpline
210
0.0
220
0.0
230
1.0
 70
     8
 71
     3
 72
    32
 73
    28
 74
     0
 42
0.00000001
 43
0.00000001
 12
1.0
 22
0.0
 32
0.0
 13
1.0
 23
0.0
 33
0.0
 40
0.0
 40
0.0
 40
0.0
 40
0.0
 40
0.0104551142758707
 40
0.0208808428244667
 40
0.0312882976539838
 40
0.0468968228739875
 40
0.0625749171376261
 40
0.0938362609830207
 40
0.1251292879641926
 40
0.1876079455135399
 40
0.2500866024513062
 40
0.3125652593890724
 40
0.3750439169384197
 40
0.4375225740619313
 40
0.5000012311911476
 40
0.5624798883203638
 40
0.6249585454438753
 40
0.6874372029932226
 40
0.7499158599309889
 40
0.8123945168687551
 40
0.8748731744181024
 40
0.906134518529399
 40
0.9374275452437698
 40
0.9499461201128341
 40
0.9624674303102346
 40
0.9811881246206019
 40
1.0
 40
1.0
 40
1.0
 40
1.0
 10
111.103003863292
 20
222.1082553113636
 30
0.0
 10
111.1631473664487
 20
222.1076826608483
 30
0.0
 10
111.2832653300779
 20
222.1065389693411
 30
0.0
 10
111.4630624498737
 20
222.0974049832347
 30
0.0
 10
111.6720214122581
 20
222.0804068481228
 30
0.0
 10
111.9101589848874
 20
222.0509663836151
 30
0.0
 10
112.2647569055033
 20
221.9894064105118
 30
0.0
 10
112.7021265876631
 20
221.8800034679413
 30
0.0
 10
113.3801472749571
 20
221.6372863864809
 30
0.0
 10
114.1784766430985
 20
221.2108012100127
 30
0.0
 10
115.0171236538748
 20
220.5224166971938
 30
0.0
 10
115.7055757066
 20
219.6835876712066
 30
0.0
 10
116.2170938900664
 20
218.726582184019
 30
0.0
 10
116.5320965062324
 20
217.6881687528437
 30
0.0
 10
116.6384575368209
 20
216.6082553164974
 30
0.0
 10
116.5320965098743
 20
215.5283418657163
 30
0.0
 10
116.2170938754989
 20
214.4899284778454
 30
0.0
 10
115.7055757612282
 20
213.5329228318751
 30
0.0
 10
115.0171234499298
 20
212.6940943977141
 30
0.0
 10
114.1784774042503
 20
212.0057076763729
 30
0.0
 10
113.3803069113596
 20
211.5793158477921
 30
0.0
 10
112.7023055917259
 20
211.3365514458418
 30
0.0
 10
112.2825916020593
 20
211.2315807461712
 30
0.0
 10
111.9635460525601
 20
211.1745054245473
 30
0.0
 10
111.7141380700619
 20
211.1401379801441
 30
0.0
 10
111.4271597996469
 20
211.1137324989978
 30
0.0
 10
111.2112307003957
 20
211.1100839987498
 30
0.0
 10
111.103003863292
 20
211.1082553168196
 30
0.0
  0
SPLINE
  5
2D6
330
1F
100
AcDbEntity
  8
0
  6
Continuous
 62
     7
370
     0
100
AcDbSpline
210
0.0
220
0.0
230
1.0
 70
     8
 71
     3
 72
    32
 73
    28
 74
     0
 42
0.00000001
 43
0.00000001
 12
1.0
 22
0.0
 32
0.0
 13
1.0
 23
0.0
 33
0.0
 40
0.0
 40
0.0
 40
0.0
 40
0.0
 40
0.0104551142757641
 40
0.0208808428243602
 40
0.0312882976539833
 40
0.0468968228737568
 40
0.0625749171376254
 40
0.0938362609830745
 40
0.1251292879641943
 40
0.1876079455135414
 40
0.2500866024513075
 40
0.3125652593890735
 40
0.3750439169384207
 40
0.437522574061932
 40
0.5000012311911479
 40
0.5624798883203639
 40
0.6249585454438753
 40
0.6874372029932223
 40
0.7499158599309884
 40
0.8123945168687544
 40
0.8748731744181015
 40
0.9061345185294047
 40
0.93742754524377
 40
0.9499461201129837
 40
0.9624674303102347
 40
0.9811881246206646
 40
1.0
 40
1.0
 40
1.0
 40
1.0
 10
111.103003863292
 20
211.1082553168196
 30
0.0
 10
111.0428603601358
 20
211.1088279673349
 30
0.0
 10
110.9227423965072
 20
211.1099716588421
 30
0.0
 10
110.7429452767115
 20
211.1191056449486
 30
0.0
 10
110.5339863143277
 20
211.1361037800602
 30
0.0
 10
110.2958487416978
 20
211.1655442445679
 30
0.0
 10
109.9412508210816
 20
211.2271042176711
 30
0.0
 10
109.5038811389203
 20
211.3365071602411
 30
0.0
 10
108.8258604516267
 20
211.5792242417029
 30
0.0
 10
108.0275310834853
 20
212.0057094181703
 30
0.0
 10
107.1888840727092
 20
212.6940939309894
 30
0.0
 10
106.5004320199839
 20
213.5329229569766
 30
0.0
 10
105.9889138365175
 20
214.4899284441642
 30
0.0
 10
105.6739112203515
 20
215.5283418753395
 30
0.0
 10
105.5675501897631
 20
216.6082553116858
 30
0.0
 10
105.6739112167096
 20
217.6881687624669
 30
0.0
 10
105.988913851085
 20
218.7265821503378
 30
0.0
 10
106.5004319653558
 20
219.6835877963081
 30
0.0
 10
107.1888842766541
 20
220.522416230469
 30
0.0
 10
108.0275303223336
 20
221.2108029518103
 30
0.0
 10
108.8257008152244
 20
221.6371947803909
 30
0.0
 10
109.5037021348579
 20
221.8799591823418
 30
0.0
 10
109.9234161245255
 20
221.9849298820121
 30
0.0
 10
110.2424616740246
 20
222.042005203636
 30
0.0
 10
110.4918696565233
 20
222.0763726480393
 30
0.0
 10
110.7788479269374
 20
222.1027781291853
 30
0.0
 10
110.9947770261886
 20
222.1064266294333
 30
0.0
 10
111.103003863292
 20
222.1082553113636
 30
0.0
  0
SPLINE
  5
2D7
330
1F
100
AcDbEntity
  8
0
  6
Continuous
 62
     7
370
     0
100
AcDbSpline
210
0.0
220
0.0
230
1.0
 70
     8
 71
     3
 72
    27
 73
    23
 74
     0
 42
0.00000001
 43
0.00000001
 12
1.0
 22
0.0
 32
0.0
 13
1.0
 23
0.0
 33
0.0
 40
0.0
 40
0.0
 40
0.0
 40
0.0
 40
0.0156855772767859
 40
0.0312917127985095
 40
0.0625741394334714
 40
0.1250632679671732
 40
0.1875523954785948
 40
0.250041523225273
 40
0.3125306509719508
 40
0.3750197784833726
 40
0.4375089070170746
 40
0.4999980341110713
 40
0.562487161205068
 40
0.6249762897387698
 40
0.6874654172501914
 40
0.7499545449968695
 40
0.8124436727435476
 40
0.8749328002549692
 40
0.9374219287886709
 40
0.9624611863316551
 40
0.9811463731701089
 40
0.9999999999999999
 40
0.9999999999999999
 40
0.9999999999999999
 40
0.9999999999999999
 10
111.103003863292
 20
218.7082553168956
 30
0.0
 10
111.0685555743601
 20
218.7077581490374
 30
0.0
 10
110.9998334645751
 20
218.7067663312957
 30
0.0
 10
110.8627385205637
 20
218.6963684196888
 30
0.0
 10
110.6248158306024
 20
218.6612261141831
 30
0.0
 10
110.2941395836397
 20
218.560886514016
 30
0.0
 10
109.9287986656966
 20
218.3656031003711
 30
0.0
 10
109.6085040130184
 20
218.1027500615176
 30
0.0
 10
109.3456630139414
 20
217.782473986148
 30
0.0
 10
109.1503500184989
 20
217.417070798747
 30
0.0
 10
109.0300779615602
 20
217.0205859539835
 30
0.0
 10
108.9894668061126
 20
216.6082553171986
 30
0.0
 10
109.0300779775408
 20
216.1959246617716
 30
0.0
 10
109.1503499545765
 20
215.7994398729344
 30
0.0
 10
109.3456632536504
 20
215.4340364804703
 30
0.0
 10
109.6085031181048
 20
215.1137611694268
 30
0.0
 10
109.9288020056419
 20
214.8509052783319
 30
0.0
 10
110.2941271187722
 20
214.6556325093266
 30
0.0
 10
110.611638876805
 20
214.5592700421572
 30
0.0
 10
110.8421838988462
 20
214.5229276238838
 30
0.0
 10
110.9791507225155
 20
214.5103669135484
 30
0.0
 10
111.0615961696848
 20
214.5089612811071
 30
0.0
 10
111.103003863292
 20
214.5082553112876
 30
0.0
  0
SPLINE
  5
2D8
330
1F
100
AcDbEntity
  8
0
  6
Continuous
 62
     7
370
     0
100
AcDbSpline
210
0.0
220
0.0
230
1.0
 70
     8
 71
     3
 72
    27
 73
    23
 74
     0
 42
0.00000001
 43
0.00000001
 12
1.0
 22
0.0
 32
0.0
 13
1.0
 23
0.0
 33
0.0
 40
0.0
 40
0.0
 40
0.0
 40
0.0
 40
0.0156855772768742
 40
0.0312917127985097
 40
0.0625741394334714
 40
0.1250632679671733
 40
0.1875523954785951
 40
0.250041523225273
 40
0.312530650971951
 40
0.3750197784833726
 40
0.4375089070170743
 40
0.4999980341110711
 40
0.5624871612050677
 40
0.6249762897387696
 40
0.6874654172501916
 40
0.7499545449968695
 40
0.8124436727435475
 40
0.8749328002549693
 40
0.9374219287886714
 40
0.9624611863316554
 40
0.9811463731701726
 40
1.0
 40
1.0
 40
1.0
 40
1.0
 10
111.103003863292
 20
214.5082553112876
 30
0.0
 10
111.137452152224
 20
214.5087524791458
 30
0.0
 10
111.2061742620091
 20
214.5097442968874
 30
0.0
 10
111.3432692060205
 20
214.5201422084945
 30
0.0
 10
111.5811918959816
 20
214.555284514
 30
0.0
 10
111.9118681429442
 20
214.6556241141671
 30
0.0
 10
112.2772090608873
 20
214.850907527812
 30
0.0
 10
112.5975037135655
 20
215.1137605666656
 30
0.0
 10
112.8603447126425
 20
215.4340366420352
 30
0.0
 10
113.055657708085
 20
215.7994398294362
 30
0.0
 10
113.1759297650237
 20
216.1959246741997
 30
0.0
 10
113.2165409204713
 20
216.6082553109846
 30
0.0
 10
113.1759297490431
 20
217.0205859664116
 30
0.0
 10
113.0556577720074
 20
217.4170707552488
 30
0.0
 10
112.8603444729335
 20
217.7824741477128
 30
0.0
 10
112.5975046084791
 20
218.1027494587564
 30
0.0
 10
112.277205720942
 20
218.3656053498513
 30
0.0
 10
111.9118806078118
 20
218.5608781188566
 30
0.0
 10
111.5943688497789
 20
218.6572405860259
 30
0.0
 10
111.3638238277375
 20
218.6935830042994
 30
0.0
 10
111.2268570040683
 20
218.7061437146347
 30
0.0
 10
111.144411556899
 20
218.7075493470761
 30
0.0
 10
111.103003863292
 20
218.7082553168956
 30
0.0
  0
LINE
  5
2D9
330
1F
100
AcDbEntity
  8
0
  6
Continuous
 62
     7
370
     0
100
AcDbLine
 10
105.1030038633
 20
220.0723569275
 30
0.0
 11
111.1030038633
 21
223.5364585409
 31
0.0
  0
LINE
  5
2DA
330
1F
100
AcDbEntity
  8
0
  6
Continuous
 62
     7
370
     0
100
AcDbLine
 10
111.1030038633
 20
223.5364585409
 30
0.0
 11
117.1030038633
 21
220.0723569275
 31
0.0
  0
LINE
  5
2DB
330
1F
100
AcDbEntity
  8
0
  6
Continuous
 62
     7
370
     0
100
AcDbLine
 10
117.1030038633
 20
220.0723569275
 30
0.0
 11
117.1030038633
 21
213.1441537007
 31
0.0
  0
LINE
  5
2DC
330
1F
100
AcDbEntity
  8
0
  6
Continuous
 62
     7
370
     0
100
AcDbLine
 10
117.1030038633
 20
213.1441537007
 30
0.0
 11
111.1030038633
 21
209.6800520873
 31
0.0
  0
LINE
  5
2DD
330
1F
100
AcDbEntity
  8
0
  6
Continuous
 62
     7
370
     0
100
AcDbLine
 10
111.1030038633
 20
209.6800520873
 30
0.0
 11
105.1030038633
 21
213.1441537007
 31
0.0
  0
LINE
  5
2DE
330
1F
100
AcDbEntity
  8
0
  6
Continuous
 62
     7
370
     0
100
AcDbLine
 10
105.1030038633
 20
213.1441537007
 30
0.0
 11
105.1030038633
 21
220.0723569275
 31
0.0
  0
LINE
  5
2DF
330
1F
100
AcDbEntity
  8
0
  6
Continuous
 62
     7
370
     0
100
AcDbLine
 10
111.1030038633
 20
223.5364585441
 30
0.0
 11
105.1030038633
 21
220.0723569291
 31
0.0
  0
LINE
  5
2E0
330
1F
100
AcDbEntity
  8
0
  6
Continuous
 62
     7
370
     0
100
AcDbLine
 10
113.2030038632
 20
216.6082553137
 30
0.0
 11
109.0030038633
 21
216.6082553137
 31
0.0
  0
LINE
  5
2E1
330
1F
100
AcDbEntity
  8
0
  6
Continuous
 62
     7
370
     0
100
AcDbLine
 10
117.1030038633
 20
220.0723569291
 30
0.0
 11
111.1030038633
 21
223.5364585441
 31
0.0
  0
LINE
  5
2E2
330
1F
100
AcDbEntity
  8
0
  6
Continuous
 62
     7
370
     0
100
AcDbLine
 10
111.1030038633
 20
209.6800520841
 30
0.0
 11
117.1030038633
 21
213.1441536991
 31
0.0
  0
LINE
  5
2E3
330
1F
100
AcDbEntity
  8
0
  6
Continuous
 62
     7
370
     0
100
AcDbLine
 10
105.1030038633
 20
213.1441536991
 30
0.0
 11
111.1030038633
 21
209.6800520841
 31
0.0
  0
ARC
  5
2E4
330
1F
100
AcDbEntity
  8
0
  6
Continuous
 62
     7
370
     0
100
AcDbCircle
 10
111.1030038633
 20
216.6082553141
 30
0.0
 40
2.099999999999994
100
AcDbArc
 50
90.0000000235
 51
269.9999999897
  0
ARC
  5
2E5
330
1F
100
AcDbEntity
  8
0
  6
Continuous
 62
     7
370
     0
100
AcDbCircle
 10
111.1030038633
 20
216.6082553141
 30
0.0
 40
2.099999999999994
100
AcDbArc
 50
270.0
 51
90.0000000235
  0
ARC
  5
2E6
330
1F
100
AcDbEntity
  8
0
  6
Continuous
 62
     7
370
     0
100
AcDbCircle
 10
111.1030038633
 20
216.6082553141
 30
0.0
 40
5.5
100
AcDbArc
 50
270.0
 51
90.0000000235
  0
INSERT
  5
2F1
330
1F
100
AcDbEntity
  8
0
  6
Continuous
 62
     7
370
     0
100
AcDbBlockReference
  2
SW_NOTE_3
 10
85.7693508019
 20
199.4076872517
 30
0.0
  0
INSERT
  5
2FD
330
1F
100
AcDbEntity
  8
0
  6
Continuous
 62
     7
370
     0
100
AcDbBlockReference
  2
SW_CENTERMARKSYMBOL_0
 10
111.1030038633
 20
216.6082553141
 30
0.0
  0
INSERT
  5
2FE
330
1F
100
AcDbEntity
  8
0
  6
Continuous
 62
     7
370
     0
100
AcDbBlockReference
  2
_OPEN30
 10
109.9365268875
 20
214.862021806
 30
32.5
 41
3.0
 42
3.0
 50
37.4232433391
  0
LINE
  5
2FF
330
1F
100
AcDbEntity
  8
0
  6
Continuous
 62
     7
370
     0
100
AcDbLine
 10
109.9365268875
 20
214.862021806
 30
0.0
 11
89.7390272835
 21
199.4068801898
 31
0.0
  0
ENDSEC
  0
SECTION
  2
OBJECTS
  0
DICTIONARY
  5
C
330
0
100
AcDbDictionary
281
     1
  3
ACAD_GROUP
350
D
  3
ACAD_LAYOUT
350
1A
  3
ACAD_MLINESTYLE
350
17
  3
ACAD_PLOTSETTINGS
350
19
  3
ACAD_PLOTSTYLENAME
350
E
  0
DICTIONARY
  5
D
102
{ACAD_REACTORS
330
C
102
}
330
C
100
AcDbDictionary
281
     1
  0
DICTIONARY
  5
1A
102
{ACAD_REACTORS
330
C
102
}
330
C
100
AcDbDictionary
281
     1
  3
Layout1
350
1E
  3
Layout2
350
26
  3
Model
350
22
  0
DICTIONARY
  5
17
102
{ACAD_REACTORS
330
C
102
}
330
C
100
AcDbDictionary
281
     1
  3
Standard
350
18
  0
DICTIONARY
  5
19
102
{ACAD_REACTORS
330
C
102
}
330
C
100
AcDbDictionary
281
     1
  0
ACDBDICTIONARYWDFLT
  5
E
102
{ACAD_REACTORS
330
C
102
}
330
C
100
AcDbDictionary
281
     1
  3
Normal
350
F
100
AcDbDictionaryWithDefault
340
F
  0
LAYOUT
  5
1E
102
{ACAD_REACTORS
330
1A
102
}
330
1A
100
AcDbPlotSettings
  1

  2
none_device
  4

  6

 40
0.0
 41
0.0
 42
0.0
 43
0.0
 44
0.0
 45
0.0
 46
0.0
 47
0.0
 48
0.0
 49
0.0
140
0.0
141
0.0
142
1.0
143
1.0
 70
   688
 72
     0
 73
     0
 74
     5
  7

 75
    16
147
1.0
148
0.0
149
0.0
100
AcDbLayout
  1
Layout1
 70
     1
 71
     1
 10
0.0
 20
0.0
 11
420.0
 21
297.0
 12
0.0
 22
0.0
 32
0.0
 14
1.0000000000E+20
 24
1.0000000000E+20
 34
1.0000000000E+20
 15
-1.0000000000E+20
 25
-1.0000000000E+20
 35
-1.0000000000E+20
146
0.0
 13
0.0
 23
0.0
 33
0.0
 16
1.0
 26
0.0
 36
0.0
 17
0.0
 27
1.0
 37
0.0
 76
     0
330
1B
  0
LAYOUT
  5
26
102
{ACAD_REACTORS
330
1A
102
}
330
1A
100
AcDbPlotSettings
  1

  2
none_device
  4

  6

 40
0.0
 41
0.0
 42
0.0
 43
0.0
 44
0.0
 45
0.0
 46
0.0
 47
0.0
 48
0.0
 49
0.0
140
0.0
141
0.0
142
1.0
143
1.0
 70
   688
 72
     0
 73
     0
 74
     5
  7

 75
    16
147
1.0
148
0.0
149
0.0
100
AcDbLayout
  1
Layout2
 70
     1
 71
     2
 10
0.0
 20
0.0
 11
0.0
 21
0.0
 12
0.0
 22
0.0
 32
0.0
 14
0.0
 24
0.0
 34
0.0
 15
0.0
 25
0.0
 35
0.0
146
0.0
 13
0.0
 23
0.0
 33
0.0
 16
1.0
 26
0.0
 36
0.0
 17
0.0
 27
1.0
 37
0.0
 76
     0
330
23
  0
LAYOUT
  5
22
102
{ACAD_REACTORS
330
1A
102
}
330
1A
100
AcDbPlotSettings
  1

  2
none_device
  4

  6

 40
0.0
 41
0.0
 42
0.0
 43
0.0
 44
0.0
 45
0.0
 46
0.0
 47
0.0
 48
0.0
 49
0.0
140
0.0
141
0.0
142
1.0
143
1.0
 70
  1712
 72
     0
 73
     0
 74
     0
  7

 75
     0
147
1.0
148
0.0
149
0.0
100
AcDbLayout
  1
Model
 70
     1
 71
     0
 10
0.0
 20
0.0
 11
210.0
 21
297.0
 12
0.0
 22
0.0
 32
0.0
 14
0.0
 24
0.0
 34
0.0
 15
210.0
 25
297.0
 35
0.0
146
0.0
 13
0.0
 23
0.0
 33
0.0
 16
1.0
 26
0.0
 36
0.0
 17
0.0
 27
1.0
 37
0.0
 76
     0
330
1F
331
29
  0
MLINESTYLE
  5
18
102
{ACAD_REACTORS
330
17
102
}
330
17
100
AcDbMlineStyle
  2
Standard
 70
     0
  3

 62
   256
 51
90.0
 52
90.0
 71
     2
 49
0.5
 62
   256
  6
BYLAYER
 49
-0.5
 62
   256
  6
BYLAYER
  0
ACDBPLACEHOLDER
  5
F
102
{ACAD_REACTORS
330
E
102
}
330
E
  0
ENDSEC
  0
EOF
