  0
SECTION
  2
HEADER
  9
$ACADVER
  1
AC1015
  9
$ACADMAINTVER
 70
     6
  9
$DWGCODEPAGE
  3
DOS932
  9
$INSBASE
 10
0.0
 20
0.0
 30
0.0
  9
$EXTMIN
 10
0.0
 20
0.0
 30
0.0
  9
$EXTMAX
 10
210.0
 20
297.0
 30
0.0
  9
$LIMMIN
 10
0.0
 20
0.0
  9
$LIMMAX
 10
210.0
 20
297.0
  9
$ORTHOMODE
 70
     0
  9
$REGENMODE
 70
     1
  9
$FILLMODE
 70
     1
  9
$QTEXTMODE
 70
     0
  9
$MIRRTEXT
 70
     1
  9
$LTSCALE
 40
1.0
  9
$ATTMODE
 70
     1
  9
$TEXTSIZE
 40
3.5
  9
$TRACEWID
 40
1.0
  9
$TEXTSTYLE
  7
Standard
  9
$CLAYER
  8
0
  9
$CELTYPE
  6
ByLayer
  9
$CECOLOR
 62
   256
  9
$CELTSCALE
 40
1.0
  9
$DISPSILH
 70
     0
  9
$DIMSCALE
 40
1.0
  9
$DIMASZ
 40
3.302
  9
$DIMEXO
 40
1.0
  9
$DIMDLI
 40
3.75
  9
$DIMRND
 40
0.0
  9
$DIMDLE
 40
0.0
  9
$DIMEXE
 40
1.0
  9
$DIMTP
 40
0.0
  9
$DIMTM
 40
0.0
  9
$DIMTXT
 40
3.5
  9
$DIMCEN
 40
2.5
  9
$DIMTSZ
 40
0.0
  9
$DIMTOL
 70
     0
  9
$DIMLIM
 70
     0
  9
$DIMTIH
 70
     1
  9
$DIMTOH
 70
     1
  9
$DIMSE1
 70
     0
  9
$DIMSE2
 70
     0
  9
$DIMTAD
 70
     1
  9
$DIMZIN
 70
     0
  9
$DIMBLK
  1

  9
$DIMASO
 70
     1
  9
$DIMSHO
 70
     1
  9
$DIMPOST
  1

  9
$DIMAPOST
  1

  9
$DIMALT
 70
     0
  9
$DIMALTD
 70
     3
  9
$DIMALTF
 40
0.0393700787
  9
$DIMLFAC
 40
1.0
  9
$DIMTOFL
 70
     1
  9
$DIMTVP
 40
0.0
  9
$DIMTIX
 70
     0
  9
$DIMSOXD
 70
     0
  9
$DIMSAH
 70
     0
  9
$DIMBLK1
  1

  9
$DIMBLK2
  1

  9
$DIMSTYLE
  2
ISO-25
  9
$DIMCLRD
 70
     0
  9
$DIMCLRE
 70
     0
  9
$DIMCLRT
 70
     0
  9
$DIMTFAC
 40
1.0
  9
$DIMGAP
 40
1.524
  9
$DIMJUST
 70
     0
  9
$DIMSD1
 70
     0
  9
$DIMSD2
 70
     0
  9
$DIMTOLJ
 70
     0
  9
$DIMTZIN
 70
     0
  9
$DIMALTZ
 70
     0
  9
$DIMALTTZ
 70
     0
  9
$DIMUPT
 70
     0
  9
$DIMDEC
 70
     2
  9
$DIMTDEC
 70
     2
  9
$DIMALTU
 70
     2
  9
$DIMALTTD
 70
     3
  9
$DIMTXSTY
  7
Standard
  9
$DIMAUNIT
 70
     0
  9
$DIMADEC
 70
     2
  9
$DIMALTRND
 40
0.0
  9
$DIMAZIN
 70
     0
  9
$DIMDSEP
 70
    44
  9
$DIMATFIT
 70
     3
  9
$DIMFRAC
 70
     0
  9
$DIMLDRBLK
  1

  9
$DIMLUNIT
 70
     2
  9
$DIMLWD
 70
    -2
  9
$DIMLWE
 70
    -2
  9
$DIMTMOVE
 70
     0
  9
$LUNITS
 70
     2
  9
$LUPREC
 70
     2
  9
$SKETCHINC
 40
1.0
  9
$FILLETRAD
 40
10.0
  9
$AUNITS
 70
     0
  9
$AUPREC
 70
     2
  9
$MENU
  1
.
  9
$ELEVATION
 40
0.0
  9
$PELEVATION
 40
0.0
  9
$THICKNESS
 40
0.0
  9
$LIMCHECK
 70
     0
  9
$CHAMFERA
 40
10.0
  9
$CHAMFERB
 40
10.0
  9
$CHAMFERC
 40
20.0
  9
$CHAMFERD
 40
0.0
  9
$SKPOLY
 70
     0
  9
$TDCREATE
 40
2456751.41043463
  9
$TDUCREATE
 40
2456751.03543463
  9
$TDUPDATE
 40
2456751.410436435
  9
$TDUUPDATE
 40
2456751.035436435
  9
$TDINDWG
 40
0.0000000116
  9
$TDUSRTIMER
 40
0.0000000116
  9
$USRTIMER
 70
     1
  9
$ANGBASE
 50
0.0
  9
$ANGDIR
 70
     0
  9
$PDMODE
 70
     0
  9
$PDSIZE
 40
-1.0
  9
$PLINEWID
 40
0.0
  9
$SPLFRAME
 70
     0
  9
$SPLINETYPE
 70
     6
  9
$SPLINESEGS
 70
     8
  9
$HANDSEED
  5
1B5
  9
$SURFTAB1
 70
     6
  9
$SURFTAB2
 70
     6
  9
$SURFTYPE
 70
     6
  9
$SURFU
 70
     6
  9
$SURFV
 70
     6
  9
$UCSBASE
  2

  9
$UCSNAME
  2

  9
$UCSORG
 10
0.0
 20
0.0
 30
0.0
  9
$UCSXDIR
 10
1.0
 20
0.0
 30
0.0
  9
$UCSYDIR
 10
0.0
 20
1.0
 30
0.0
  9
$UCSORTHOREF
  2

  9
$UCSORTHOVIEW
 70
     0
  9
$UCSORGTOP
 10
0.0
 20
0.0
 30
0.0
  9
$UCSORGBOTTOM
 10
0.0
 20
0.0
 30
0.0
  9
$UCSORGLEFT
 10
0.0
 20
0.0
 30
0.0
  9
$UCSORGRIGHT
 10
0.0
 20
0.0
 30
0.0
  9
$UCSORGFRONT
 10
0.0
 20
0.0
 30
0.0
  9
$UCSORGBACK
 10
0.0
 20
0.0
 30
0.0
  9
$PUCSBASE
  2

  9
$PUCSNAME
  2

  9
$PUCSORG
 10
0.0
 20
0.0
 30
0.0
  9
$PUCSXDIR
 10
1.0
 20
0.0
 30
0.0
  9
$PUCSYDIR
 10
0.0
 20
1.0
 30
0.0
  9
$PUCSORTHOREF
  2

  9
$PUCSORTHOVIEW
 70
     0
  9
$PUCSORGTOP
 10
0.0
 20
0.0
 30
0.0
  9
$PUCSORGBOTTOM
 10
0.0
 20
0.0
 30
0.0
  9
$PUCSORGLEFT
 10
0.0
 20
0.0
 30
0.0
  9
$PUCSORGRIGHT
 10
0.0
 20
0.0
 30
0.0
  9
$PUCSORGFRONT
 10
0.0
 20
0.0
 30
0.0
  9
$PUCSORGBACK
 10
0.0
 20
0.0
 30
0.0
  9
$USERI1
 70
     0
  9
$USERI2
 70
     0
  9
$USERI3
 70
     0
  9
$USERI4
 70
     0
  9
$USERI5
 70
     0
  9
$USERR1
 40
0.0
  9
$USERR2
 40
0.0
  9
$USERR3
 40
0.0
  9
$USERR4
 40
0.0
  9
$USERR5
 40
0.0
  9
$WORLDVIEW
 70
     1
  9
$SHADEDGE
 70
     3
  9
$SHADEDIF
 70
    70
  9
$TILEMODE
 70
     1
  9
$MAXACTVP
 70
    64
  9
$PINSBASE
 10
0.0
 20
0.0
 30
0.0
  9
$PLIMCHECK
 70
     0
  9
$PEXTMIN
 10
1.0000000000E+20
 20
1.0000000000E+20
 30
1.0000000000E+20
  9
$PEXTMAX
 10
-1.0000000000E+20
 20
-1.0000000000E+20
 30
-1.0000000000E+20
  9
$PLIMMIN
 10
0.0
 20
0.0
  9
$PLIMMAX
 10
420.0
 20
297.0
  9
$UNITMODE
 70
     0
  9
$VISRETAIN
 70
     1
  9
$PLINEGEN
 70
     0
  9
$PSLTSCALE
 70
     1
  9
$TREEDEPTH
 70
  3020
  9
$CMLSTYLE
  2
Standard
  9
$CMLJUST
 70
     0
  9
$CMLSCALE
 40
20.0
  9
$PROXYGRAPHICS
 70
     1
  9
$MEASUREMENT
 70
     1
  9
$CELWEIGHT
370
    -1
  9
$ENDCAPS
280
     0
  9
$JOINSTYLE
280
     0
  9
$LWDISPLAY
290
     1
  9
$INSUNITS
 70
     4
  9
$HYPERLINKBASE
  1

  9
$STYLESHEET
  1

  9
$XEDIT
290
     1
  9
$CEPSNTYPE
380
     0
  9
$PSTYLEMODE
290
     1
  9
$FINGERPRINTGUID
  2
{DA679550-E6F8-4EE8-86D7-42B06B01E42F}
  9
$VERSIONGUID
  2
{FAEB1C32-E019-11D5-929B-00C0DF256EC4}
  9
$EXTNAMES
290
     1
  9
$PSVPSCALE
 40
0.0
  9
$OLESTARTUP
290
     0
  0
ENDSEC
  0
SECTION
  2
CLASSES
  0
CLASS
  1
ACDBDICTIONARYWDFLT
  2
AcDbDictionaryWithDefault
  3
ObjectDBX Classes
 90
        0
280
     0
281
     0
  0
CLASS
  1
VISUALSTYLE
  2
AcDbVisualStyle
  3
ObjectDBX Classes
 90
     4095
280
     0
281
     0
  0
CLASS
  1
MATERIAL
  2
AcDbMaterial
  3
ObjectDBX Classes
 90
     1153
280
     0
281
     0
  0
CLASS
  1
ACDBPLACEHOLDER
  2
AcDbPlaceHolder
  3
ObjectDBX Classes
 90
        0
280
     0
281
     0
  0
CLASS
  1
LAYOUT
  2
AcDbLayout
  3
ObjectDBX Classes
 90
        0
280
     0
281
     0
  0
ENDSEC
  0
SECTION
  2
TABLES
  0
TABLE
  2
VPORT
  5
8
330
0
100
AcDbSymbolTable
 70
     1
  0
VPORT
  5
29
330
8
100
AcDbSymbolTableRecord
100
AcDbViewportTableRecord
  2
*Active
 70
     0
 10
0.0
 20
0.0
 11
1.0
 21
1.0
 12
105.0
 22
148.5
 13
0.0
 23
0.0
 14
10.0
 24
10.0
 15
10.0
 25
10.0
 16
0.0
 26
0.0
 36
1.0
 17
0.0
 27
0.0
 37
0.0
 40
297.0
 41
0.7070707071
 42
50.0
 43
0.0
 44
0.0
 50
0.0
 51
0.0
 71
     0
 72
  2000
 73
     1
 74
     3
 75
     0
 76
     0
 77
     0
 78
     0
281
     0
 65
     1
110
0.0
120
0.0
130
0.0
111
1.0
121
0.0
131
0.0
112
0.0
122
1.0
132
0.0
 79
     0
146
0.0
  0
ENDTAB
  0
TABLE
  2
LTYPE
  5
5
330
0
100
AcDbSymbolTable
 70
     6
  0
LTYPE
  5
14
330
5
100
AcDbSymbolTableRecord
100
AcDbLinetypeTableRecord
  2
ByBlock
 70
     0
  3

 72
    65
 73
     0
 40
0.0
  0
LTYPE
  5
15
330
5
100
AcDbSymbolTableRecord
100
AcDbLinetypeTableRecord
  2
ByLayer
 70
     0
  3

 72
    65
 73
     0
 40
0.0
  0
LTYPE
  5
16
330
5
100
AcDbSymbolTableRecord
100
AcDbLinetypeTableRecord
  2
Continuous
 70
     0
  3
Solid line
 72
    65
 73
     0
 40
0.0
  0
LTYPE
  5
3F
330
5
100
AcDbSymbolTableRecord
100
AcDbLinetypeTableRecord
  2
HIDDEN
 70
     0
  3
Hidden __ __ __ __ __ __ __ __ __ __ __ __ __ __
 72
    65
 73
     2
 40
1.905
 49
1.27
 74
     0
 49
-0.635
 74
     0
  0
LTYPE
  5
40
330
5
100
AcDbSymbolTableRecord
100
AcDbLinetypeTableRecord
  2
PHANTOM
 70
     0
  3
Phantom ______  __  __  ______  __  __  ______
 72
    65
 73
     6
 40
12.7
 49
6.35
 74
     0
 49
-1.27
 74
     0
 49
1.27
 74
     0
 49
-1.27
 74
     0
 49
1.27
 74
     0
 49
-1.27
 74
     0
  0
LTYPE
  5
41
330
5
100
AcDbSymbolTableRecord
100
AcDbLinetypeTableRecord
  2
CENTER
 70
     0
  3
Center ____ _ ____ _ ____ _ ____ _ ____ _ ____
 72
    65
 73
     4
 40
10.16
 49
6.35
 74
     0
 49
-1.27
 74
     0
 49
1.27
 74
     0
 49
-1.27
 74
     0
  0
LTYPE
  5
42
330
5
100
AcDbSymbolTableRecord
100
AcDbLinetypeTableRecord
  2
CENTERX2
 70
     0
  3
Center (2x) ________  __  ________  __  _____
 72
    65
 73
     4
 40
20.32
 49
12.7
 74
     0
 49
-2.54
 74
     0
 49
2.54
 74
     0
 49
-2.54
 74
     0
  0
LTYPE
  5
43
330
5
100
AcDbSymbolTableRecord
100
AcDbLinetypeTableRecord
  2
DOT2
 70
     0
  3
Dot (.5x) ........................................
 72
    65
 73
     2
 40
0.635
 49
0.0
 74
     0
 49
-0.635
 74
     0
  0
ENDTAB
  0
TABLE
  2
LAYER
  5
2
330
0
100
AcDbSymbolTable
 70
     1
  0
LAYER
  5
10
330
2
100
AcDbSymbolTableRecord
100
AcDbLayerTableRecord
  2
0
 70
     0
 62
     7
  6
Continuous
370
    -3
390
F
  0
ENDTAB
  0
TABLE
  2
STYLE
  5
3
330
0
100
AcDbSymbolTable
 70
     3
  0
STYLE
  5
11
330
3
100
AcDbSymbolTableRecord
100
AcDbTextStyleTableRecord
  2
Standard
 70
     0
 40
0.0
 41
1.0
 50
0.0
 71
     0
 42
3.5
  3
txt
  4
bigfont
  0
STYLE
  5
4C
330
3
100
AcDbSymbolTableRecord
100
AcDbTextStyleTableRecord
  2
SLDTEXTSTYLE0
 70
     0
 40
0.0
 41
0.7
 50
0.0
 71
     0
 42
0.2
  3
TXT
  4
bigfont
  0
STYLE
  5
EA
330
3
100
AcDbSymbolTableRecord
100
AcDbTextStyleTableRecord
  2
SLDTEXTSTYLE1
 70
     0
 40
0.0
 41
0.75
 50
0.0
 71
     0
 42
0.2
  3
TXT
  4
bigfont
  0
ENDTAB
  0
TABLE
  2
VIEW
  5
6
330
0
100
AcDbSymbolTable
 70
     0
  0
ENDTAB
  0
TABLE
  2
UCS
  5
7
330
0
100
AcDbSymbolTable
 70
     0
  0
ENDTAB
  0
TABLE
  2
APPID
  5
9
330
0
100
AcDbSymbolTable
 70
     1
  0
APPID
  5
12
330
9
100
AcDbSymbolTableRecord
100
AcDbRegAppTableRecord
  2
ACAD
 70
     0
  0
ENDTAB
  0
TABLE
  2
DIMSTYLE
  5
A
330
0
100
AcDbSymbolTable
 70
     4
100
AcDbDimStyleTable
  0
DIMSTYLE
105
27
330
A
100
AcDbSymbolTableRecord
100
AcDbDimStyleTableRecord
  2
ISO-25
 70
     0
 41
2.5
 42
0.625
 43
3.75
 44
1.25
 73
     0
 74
     0
 77
     1
 78
     8
140
2.5
141
2.5
143
0.0393700787
147
0.625
171
     3
172
     1
178
     0
271
     2
272
     2
274
     3
278
    44
283
     0
284
     8
340
11
  0
DIMSTYLE
105
EB
102
{ACAD_REACTORS
330
E9
330
F7
330
10E
330
125
330
130
330
183
102
}
330
A
100
AcDbSymbolTableRecord
100
AcDbDimStyleTableRecord
  2
SLDDIMSTYLE0
 70
     0
 41
3.302
 44
0.0
 45
0.000000001
 73
     0
 74
     0
 77
     3
 78
    12
 79
     3
140
3.5
147
0.875
173
     1
178
     0
271
     2
272
     2
276
     2
284
    12
340
EA
  0
DIMSTYLE
105
102
102
{ACAD_REACTORS
330
101
330
118
330
18E
102
}
330
A
100
AcDbSymbolTableRecord
100
AcDbDimStyleTableRecord
  2
SLDDIMSTYLE1
 70
     0
 41
3.302
 44
0.0
 45
0.000000001
 73
     0
 74
     0
 77
     3
 78
    12
 79
     3
140
3.5
147
0.875
172
     1
173
     1
178
     0
271
     2
272
     2
276
     2
284
    12
289
     0
340
EA
  0
DIMSTYLE
105
19B
330
A
100
AcDbSymbolTableRecord
100
AcDbDimStyleTableRecord
  2
SLDDIMSTYLE2
 70
     0
 41
3.302
 44
0.0
 45
0.000000001
140
0.0
146
3.302
147
0.0
173
     1
178
     0
271
     0
272
     0
276
     2
340
11
  0
ENDTAB
  0
TABLE
  2
BLOCK_RECORD
  5
1
330
0
100
AcDbSymbolTable
 70
    12
  0
BLOCK_RECORD
  5
1F
330
1
100
AcDbSymbolTableRecord
100
AcDbBlockTableRecord
  2
*Model_Space
340
22
  0
BLOCK_RECORD
  5
1B
330
1
100
AcDbSymbolTableRecord
100
AcDbBlockTableRecord
  2
*Paper_Space
340
1E
  0
BLOCK_RECORD
  5
23
330
1
100
AcDbSymbolTableRecord
100
AcDbBlockTableRecord
  2
*Paper_Space0
340
26
  0
BLOCK_RECORD
  5
EC
330
1
100
AcDbSymbolTableRecord
100
AcDbBlockTableRecord
  2
_D
340
0
  0
BLOCK_RECORD
  5
F8
330
1
100
AcDbSymbolTableRecord
100
AcDbBlockTableRecord
  2
_D_1
340
0
  0
BLOCK_RECORD
  5
103
330
1
100
AcDbSymbolTableRecord
100
AcDbBlockTableRecord
  2
_D_2
340
0
  0
BLOCK_RECORD
  5
10F
330
1
100
AcDbSymbolTableRecord
100
AcDbBlockTableRecord
  2
_D_3
340
0
  0
BLOCK_RECORD
  5
119
330
1
100
AcDbSymbolTableRecord
100
AcDbBlockTableRecord
  2
_D_4
340
0
  0
BLOCK_RECORD
  5
126
330
1
100
AcDbSymbolTableRecord
100
AcDbBlockTableRecord
  2
_D_5
340
0
  0
BLOCK_RECORD
  5
131
330
1
100
AcDbSymbolTableRecord
100
AcDbBlockTableRecord
  2
_D_6
340
0
  0
BLOCK_RECORD
  5
184
330
1
100
AcDbSymbolTableRecord
100
AcDbBlockTableRecord
  2
_D_7
340
0
  0
BLOCK_RECORD
  5
18F
330
1
100
AcDbSymbolTableRecord
100
AcDbBlockTableRecord
  2
_D_8
340
0
  0
BLOCK_RECORD
  5
19D
330
1
100
AcDbSymbolTableRecord
100
AcDbBlockTableRecord
  2
SW_NOTE_0
340
0
102
{BLKREFS
331
1A7
102
}
  0
BLOCK_RECORD
  5
1A9
330
1
100
AcDbSymbolTableRecord
100
AcDbBlockTableRecord
  2
SW_CENTERMARKSYMBOL_0
340
0
102
{BLKREFS
331
1B4
102
}
  0
ENDTAB
  0
ENDSEC
  0
SECTION
  2
BLOCKS
  0
BLOCK
  5
20
330
1F
100
AcDbEntity
  8
0
100
AcDbBlockBegin
  2
*Model_Space
 70
     0
 10
0.0
 20
0.0
 30
0.0
  3
*Model_Space
  1

  0
ENDBLK
  5
21
330
1F
100
AcDbEntity
  8
0
100
AcDbBlockEnd
  0
BLOCK
  5
1C
330
1B
100
AcDbEntity
 67
     1
  8
0
100
AcDbBlockBegin
  2
*Paper_Space
 70
     0
 10
0.0
 20
0.0
 30
0.0
  3
*Paper_Space
  1

  0
ENDBLK
  5
1D
330
1B
100
AcDbEntity
 67
     1
  8
0
100
AcDbBlockEnd
  0
BLOCK
  5
24
330
23
100
AcDbEntity
  8
0
100
AcDbBlockBegin
  2
*Paper_Space0
 70
     0
 10
0.0
 20
0.0
 30
0.0
  3
*Paper_Space0
  1

  0
ENDBLK
  5
25
330
23
100
AcDbEntity
  8
0
100
AcDbBlockEnd
  0
BLOCK
  5
ED
330
EC
100
AcDbEntity
  8
0
100
AcDbBlockBegin
  2
_D
 70
     0
 10
0.0
 20
0.0
 30
0.0
  3
_D
  1

  0
SOLID
  5
EF
330
EC
100
AcDbEntity
  8
0
  6
Continuous
 62
     7
370
     0
100
AcDbTrace
 10
122.7189255111
 20
167.8192887214
 30
0.0
 11
124.7189255111
 21
167.0692887214
 31
0.0
 12
124.7189255111
 22
168.5692887214
 32
0.0
 13
124.7189255111
 23
168.5692887214
 33
0.0
  0
SOLID
  5
F0
330
EC
100
AcDbEntity
  8
0
  6
Continuous
 62
     7
370
     0
100
AcDbTrace
 10
132.7189255111
 20
167.8192887214
 30
0.0
 11
130.7189255111
 21
168.5692887214
 31
0.0
 12
130.7189255111
 22
167.0692887214
 32
0.0
 13
130.7189255111
 23
167.0692887214
 33
0.0
  0
LINE
  5
F1
330
EC
100
AcDbEntity
  8
0
  6
Continuous
 62
     7
370
     0
100
AcDbLine
 10
122.7189255111
 20
154.0192887214
 30
0.0
 11
122.7189255111
 21
168.8192887214
 31
0.0
  0
LINE
  5
F2
330
EC
100
AcDbEntity
  8
0
  6
Continuous
 62
     7
370
     0
100
AcDbLine
 10
132.7189255111
 20
153.6192887214
 30
0.0
 11
132.7189255111
 21
168.8192887214
 31
0.0
  0
LINE
  5
F3
330
EC
100
AcDbEntity
  8
0
  6
Continuous
 62
     7
370
     0
100
AcDbLine
 10
122.7189255111
 20
167.8192887214
 30
0.0
 11
110.9482750925
 21
167.8192887214
 31
0.0
  0
LINE
  5
F4
330
EC
100
AcDbEntity
  8
0
  6
Continuous
 62
     7
370
     0
100
AcDbLine
 10
122.7189255111
 20
167.8192887214
 30
0.0
 11
132.7189255111
 21
167.8192887214
 31
0.0
  0
MTEXT
  5
F5
330
EC
100
AcDbEntity
  8
0
  6
Continuous
 62
     7
370
     0
100
AcDbMText
 10
110.9482750925
 20
172.331025636
 30
0.1
 40
3.5
 41
0.0
 71
     1
 72
     1
  1
10
  7
SLDTEXTSTYLE1
 73
     1
 44
1.0
  0
MTEXT
  5
F6
330
EC
100
AcDbEntity
  8
0
  6
Continuous
 62
     7
370
     0
100
AcDbMText
 10
116.1204974795
 20
172.331025636
 30
0.1
 40
3.5
 41
0.0
 71
     1
 72
     1
  1
st
  7
SLDTEXTSTYLE1
 73
     1
 44
1.0
  0
ENDBLK
  5
EE
330
EC
100
AcDbEntity
  8
0
100
AcDbBlockEnd
  0
BLOCK
  5
F9
330
F8
100
AcDbEntity
  8
0
100
AcDbBlockBegin
  2
_D_1
 70
     0
 10
0.0
 20
0.0
 30
0.0
  3
_D_1
  1

  0
SOLID
  5
FB
330
F8
100
AcDbEntity
  8
0
  6
Continuous
 62
     7
370
     0
100
AcDbTrace
 10
102.7189255111
 20
179.8192887214
 30
0.0
 11
104.7189255111
 21
179.0692887214
 31
0.0
 12
104.7189255111
 22
180.5692887214
 32
0.0
 13
104.7189255111
 23
180.5692887214
 33
0.0
  0
SOLID
  5
FC
330
F8
100
AcDbEntity
  8
0
  6
Continuous
 62
     7
370
     0
100
AcDbTrace
 10
160.7189255111
 20
179.8192887214
 30
0.0
 11
158.7189255111
 21
180.5692887214
 31
0.0
 12
158.7189255111
 22
179.0692887214
 32
0.0
 13
158.7189255111
 23
179.0692887214
 33
0.0
  0
LINE
  5
FD
330
F8
100
AcDbEntity
  8
0
  6
Continuous
 62
     7
370
     0
100
AcDbLine
 10
102.7189255111
 20
155.0192887214
 30
0.0
 11
102.7189255111
 21
180.8192887214
 31
0.0
  0
LINE
  5
FE
330
F8
100
AcDbEntity
  8
0
  6
Continuous
 62
     7
370
     0
100
AcDbLine
 10
160.7189255111
 20
152.0192887214
 30
0.0
 11
160.7189255111
 21
180.8192887214
 31
0.0
  0
LINE
  5
FF
330
F8
100
AcDbEntity
  8
0
  6
Continuous
 62
     7
370
     0
100
AcDbLine
 10
102.7189255111
 20
179.8192887214
 30
0.0
 11
160.7189255111
 21
179.8192887214
 31
0.0
  0
MTEXT
  5
100
330
F8
100
AcDbEntity
  8
0
  6
Continuous
 62
     7
370
     0
100
AcDbMText
 10
129.1328143176
 20
184.331025636
 30
0.1
 40
3.5
 41
0.0
 71
     1
 72
     1
  1
58
  7
SLDTEXTSTYLE1
 73
     1
 44
1.0
  0
ENDBLK
  5
FA
330
F8
100
AcDbEntity
  8
0
100
AcDbBlockEnd
  0
BLOCK
  5
104
330
103
100
AcDbEntity
  8
0
100
AcDbBlockBegin
  2
_D_2
 70
     0
 10
0.0
 20
0.0
 30
0.0
  3
_D_2
  1

  0
SOLID
  5
106
330
103
100
AcDbEntity
  8
0
  6
Continuous
 62
     7
370
     0
100
AcDbTrace
 10
102.7189255111
 20
121.7192887214
 30
0.0
 11
100.7189255111
 21
122.4692887214
 31
0.0
 12
100.7189255111
 22
120.9692887214
 32
0.0
 13
100.7189255111
 23
120.9692887214
 33
0.0
  0
SOLID
  5
107
330
103
100
AcDbEntity
  8
0
  6
Continuous
 62
     7
370
     0
100
AcDbTrace
 10
111.7189255111
 20
121.7192887214
 30
0.0
 11
113.7189255111
 21
120.9692887214
 31
0.0
 12
113.7189255111
 22
122.4692887214
 32
0.0
 13
113.7189255111
 23
122.4692887214
 33
0.0
  0
LINE
  5
108
330
103
100
AcDbEntity
  8
0
  6
Continuous
 62
     7
370
     0
100
AcDbLine
 10
102.7189255111
 20
142.0192887214
 30
0.0
 11
102.7189255111
 21
120.7192887214
 31
0.0
  0
LINE
  5
109
330
103
100
AcDbEntity
  8
0
  6
Continuous
 62
     7
370
     0
100
AcDbLine
 10
111.7189255111
 20
147.5192887214
 30
0.0
 11
111.7189255111
 21
120.7192887214
 31
0.0
  0
LINE
  5
10A
330
103
100
AcDbEntity
  8
0
  6
Continuous
 62
     7
370
     0
100
AcDbLine
 10
102.7189255111
 20
121.7192887214
 30
0.0
 11
97.7189255111
 21
121.7192887214
 31
0.0
  0
LINE
  5
10B
330
103
100
AcDbEntity
  8
0
  6
Continuous
 62
     7
370
     0
100
AcDbLine
 10
102.7189255111
 20
121.7192887214
 30
0.0
 11
111.7189255111
 21
121.7192887214
 31
0.0
  0
LINE
  5
10C
330
103
100
AcDbEntity
  8
0
  6
Continuous
 62
     7
370
     0
100
AcDbLine
 10
111.7189255111
 20
121.7192887214
 30
0.0
 11
116.7189255111
 21
121.7192887214
 31
0.0
  0
MTEXT
  5
10D
330
103
100
AcDbEntity
  8
0
  6
Continuous
 62
     7
370
     0
100
AcDbMText
 10
105.9258699144
 20
126.231025636
 30
0.1
 40
3.5
 41
0.0
 71
     1
 72
     1
  1
9
  7
SLDTEXTSTYLE1
 73
     1
 44
1.0
  0
ENDBLK
  5
105
330
103
100
AcDbEntity
  8
0
100
AcDbBlockEnd
  0
BLOCK
  5
110
330
10F
100
AcDbEntity
  8
0
100
AcDbBlockBegin
  2
_D_3
 70
     0
 10
0.0
 20
0.0
 30
0.0
  3
_D_3
  1

  0
SOLID
  5
112
330
10F
100
AcDbEntity
  8
0
  6
Continuous
 62
     7
370
     0
100
AcDbTrace
 10
137.7189255111
 20
121.7192887214
 30
0.0
 11
139.7189255111
 21
120.9692887214
 31
0.0
 12
139.7189255111
 22
122.4692887214
 32
0.0
 13
139.7189255111
 23
122.4692887214
 33
0.0
  0
SOLID
  5
113
330
10F
100
AcDbEntity
  8
0
  6
Continuous
 62
     7
370
     0
100
AcDbTrace
 10
158.7189255111
 20
121.7192887214
 30
0.0
 11
156.7189255111
 21
122.4692887214
 31
0.0
 12
156.7189255111
 22
120.9692887214
 32
0.0
 13
156.7189255111
 23
120.9692887214
 33
0.0
  0
LINE
  5
114
330
10F
100
AcDbEntity
  8
0
  6
Continuous
 62
     7
370
     0
100
AcDbLine
 10
137.7189255111
 20
139.9192887214
 30
0.0
 11
137.7189255111
 21
120.7192887214
 31
0.0
  0
LINE
  5
115
330
10F
100
AcDbEntity
  8
0
  6
Continuous
 62
     7
370
     0
100
AcDbLine
 10
158.7189255111
 20
141.9192887214
 30
0.0
 11
158.7189255111
 21
120.7192887214
 31
0.0
  0
LINE
  5
116
330
10F
100
AcDbEntity
  8
0
  6
Continuous
 62
     7
370
     0
100
AcDbLine
 10
137.7189255111
 20
121.7192887214
 30
0.0
 11
158.7189255111
 21
121.7192887214
 31
0.0
  0
MTEXT
  5
117
330
10F
100
AcDbEntity
  8
0
  6
Continuous
 62
     7
370
     0
100
AcDbMText
 10
145.6328143176
 20
126.231025636
 30
0.1
 40
3.5
 41
0.0
 71
     1
 72
     1
  1
21
  7
SLDTEXTSTYLE1
 73
     1
 44
1.0
  0
ENDBLK
  5
111
330
10F
100
AcDbEntity
  8
0
100
AcDbBlockEnd
  0
BLOCK
  5
11A
330
119
100
AcDbEntity
  8
0
100
AcDbBlockBegin
  2
_D_4
 70
     0
 10
0.0
 20
0.0
 30
0.0
  3
_D_4
  1

  0
SOLID
  5
11C
330
119
100
AcDbEntity
  8
0
  6
Continuous
 62
     7
370
     0
100
AcDbTrace
 10
172.378202435
 20
151.5192887214
 30
0.0
 11
173.128202435
 21
153.5192887214
 31
0.0
 12
171.628202435
 22
153.5192887214
 32
0.0
 13
171.628202435
 23
153.5192887214
 33
0.0
  0
SOLID
  5
11D
330
119
100
AcDbEntity
  8
0
  6
Continuous
 62
     7
370
     0
100
AcDbTrace
 10
172.378202435
 20
145.5192887214
 30
0.0
 11
171.628202435
 21
143.5192887214
 31
0.0
 12
173.128202435
 22
143.5192887214
 32
0.0
 13
173.128202435
 23
143.5192887214
 33
0.0
  0
LINE
  5
11E
330
119
100
AcDbEntity
  8
0
  6
Continuous
 62
     7
370
     0
100
AcDbLine
 10
161.2189255111
 20
151.5192887214
 30
0.0
 11
173.378202435
 21
151.5192887214
 31
0.0
  0
LINE
  5
11F
330
119
100
AcDbEntity
  8
0
  6
Continuous
 62
     7
370
     0
100
AcDbLine
 10
161.2189255111
 20
145.5192887214
 30
0.0
 11
173.378202435
 21
145.5192887214
 31
0.0
  0
LINE
  5
120
330
119
100
AcDbEntity
  8
0
  6
Continuous
 62
     7
370
     0
100
AcDbLine
 10
172.378202435
 20
151.5192887214
 30
0.0
 11
172.378202435
 21
163.6057442486
 31
0.0
  0
LINE
  5
121
330
119
100
AcDbEntity
  8
0
  6
Continuous
 62
     7
370
     0
100
AcDbLine
 10
172.378202435
 20
151.5192887214
 30
0.0
 11
172.378202435
 21
145.5192887214
 31
0.0
  0
LINE
  5
122
330
119
100
AcDbEntity
  8
0
  6
Continuous
 62
     7
370
     0
100
AcDbLine
 10
172.378202435
 20
145.5192887214
 30
0.0
 11
172.378202435
 21
140.5192887214
 31
0.0
  0
MTEXT
  5
123
330
119
100
AcDbEntity
  8
0
  6
Continuous
 62
     7
370
     0
100
AcDbMText
 10
167.8664653458
 20
155.7411954239
 30
0.1
 40
3.5
 41
0.0
 71
     1
 72
     1
  1
%%c
  7
SLDTEXTSTYLE1
 11
-7.044195017643634E-15
 21
1.0
 31
0.0
 73
     1
 44
1.0
  0
MTEXT
  5
124
330
119
100
AcDbEntity
  8
0
  6
Continuous
 62
     7
370
     0
100
AcDbMText
 10
167.8129931691
 20
161.0196328223
 30
0.1
 40
3.5
 41
0.0
 71
     1
 72
     1
  1
6
  7
SLDTEXTSTYLE1
 11
-7.044195017643634E-15
 21
1.0
 31
0.0
 73
     1
 44
1.0
  0
ENDBLK
  5
11B
330
119
100
AcDbEntity
  8
0
100
AcDbBlockEnd
  0
BLOCK
  5
127
330
126
100
AcDbEntity
  8
0
100
AcDbBlockBegin
  2
_D_5
 70
     0
 10
0.0
 20
0.0
 30
0.0
  3
_D_5
  1

  0
SOLID
  5
129
330
126
100
AcDbEntity
  8
0
  6
Continuous
 62
     7
370
     0
100
AcDbTrace
 10
185.2353377581
 20
154.5192887214
 30
0.0
 11
184.4853377581
 21
152.5192887214
 31
0.0
 12
185.9853377581
 22
152.5192887214
 32
0.0
 13
185.9853377581
 23
152.5192887214
 33
0.0
  0
SOLID
  5
12A
330
126
100
AcDbEntity
  8
0
  6
Continuous
 62
     7
370
     0
100
AcDbTrace
 10
185.2353377581
 20
142.5192887214
 30
0.0
 11
185.9853377581
 21
144.5192887214
 31
0.0
 12
184.4853377581
 22
144.5192887214
 32
0.0
 13
184.4853377581
 23
144.5192887214
 33
0.0
  0
LINE
  5
12B
330
126
100
AcDbEntity
  8
0
  6
Continuous
 62
     7
370
     0
100
AcDbLine
 10
159.3189255111
 20
154.5192887214
 30
0.0
 11
186.2353377581
 21
154.5192887214
 31
0.0
  0
LINE
  5
12C
330
126
100
AcDbEntity
  8
0
  6
Continuous
 62
     7
370
     0
100
AcDbLine
 10
159.3189255111
 20
142.5192887214
 30
0.0
 11
186.2353377581
 21
142.5192887214
 31
0.0
  0
LINE
  5
12D
330
126
100
AcDbEntity
  8
0
  6
Continuous
 62
     7
370
     0
100
AcDbLine
 10
185.2353377581
 20
154.5192887214
 30
0.0
 11
185.2353377581
 21
142.5192887214
 31
0.0
  0
MTEXT
  5
12E
330
126
100
AcDbEntity
  8
0
  6
Continuous
 62
     7
370
     0
100
AcDbMText
 10
180.7236006689
 20
143.2939585959
 30
0.1
 40
3.5
 41
0.0
 71
     1
 72
     1
  1
%%c
  7
SLDTEXTSTYLE1
 11
-7.044195017643634E-15
 21
1.0
 31
0.0
 73
     1
 44
1.0
  0
MTEXT
  5
12F
330
126
100
AcDbEntity
  8
0
  6
Continuous
 62
     7
370
     0
100
AcDbMText
 10
180.6701284923
 20
148.5723959943
 30
0.1
 40
3.5
 41
0.0
 71
     1
 72
     1
  1
12
  7
SLDTEXTSTYLE1
 11
-7.044195017643634E-15
 21
1.0
 31
0.0
 73
     1
 44
1.0
  0
ENDBLK
  5
128
330
126
100
AcDbEntity
  8
0
100
AcDbBlockEnd
  0
BLOCK
  5
132
330
131
100
AcDbEntity
  8
0
100
AcDbBlockBegin
  2
_D_6
 70
     0
 10
0.0
 20
0.0
 30
0.0
  3
_D_6
  1

  0
SOLID
  5
134
330
131
100
AcDbEntity
  8
0
  6
Continuous
 62
     7
370
     0
100
AcDbTrace
 10
92.7189255111
 20
154.0192887214
 30
0.0
 11
91.9689255111
 21
152.0192887214
 31
0.0
 12
93.4689255111
 22
152.0192887214
 32
0.0
 13
93.4689255111
 23
152.0192887214
 33
0.0
  0
SOLID
  5
135
330
131
100
AcDbEntity
  8
0
  6
Continuous
 62
     7
370
     0
100
AcDbTrace
 10
92.7189255111
 20
143.0192887214
 30
0.0
 11
93.4689255111
 21
145.0192887214
 31
0.0
 12
91.9689255111
 22
145.0192887214
 32
0.0
 13
91.9689255111
 23
145.0192887214
 33
0.0
  0
LINE
  5
136
330
131
100
AcDbEntity
  8
0
  6
Continuous
 62
     7
370
     0
100
AcDbLine
 10
101.7189255111
 20
154.0192887214
 30
0.0
 11
91.7189255111
 21
154.0192887214
 31
0.0
  0
LINE
  5
137
330
131
100
AcDbEntity
  8
0
  6
Continuous
 62
     7
370
     0
100
AcDbLine
 10
101.7189255111
 20
143.0192887214
 30
0.0
 11
91.7189255111
 21
143.0192887214
 31
0.0
  0
LINE
  5
138
330
131
100
AcDbEntity
  8
0
  6
Continuous
 62
     7
370
     0
100
AcDbLine
 10
92.7189255111
 20
154.0192887214
 30
0.0
 11
92.7189255111
 21
143.0192887214
 31
0.0
  0
MTEXT
  5
139
330
131
100
AcDbEntity
  8
0
  6
Continuous
 62
     7
370
     0
100
AcDbMText
 10
88.2071884219
 20
143.2939585959
 30
0.1
 40
3.5
 41
0.0
 71
     1
 72
     1
  1
%%c
  7
SLDTEXTSTYLE1
 11
-7.044195017643634E-15
 21
1.0
 31
0.0
 73
     1
 44
1.0
  0
MTEXT
  5
13A
330
131
100
AcDbEntity
  8
0
  6
Continuous
 62
     7
370
     0
100
AcDbMText
 10
88.1537162453
 20
148.5723959943
 30
0.1
 40
3.5
 41
0.0
 71
     1
 72
     1
  1
11
  7
SLDTEXTSTYLE1
 11
-7.044195017643634E-15
 21
1.0
 31
0.0
 73
     1
 44
1.0
  0
ENDBLK
  5
133
330
131
100
AcDbEntity
  8
0
100
AcDbBlockEnd
  0
BLOCK
  5
185
330
184
100
AcDbEntity
  8
0
100
AcDbBlockBegin
  2
_D_7
 70
     0
 10
0.0
 20
0.0
 30
0.0
  3
_D_7
  1

  0
SOLID
  5
187
330
184
100
AcDbEntity
  8
0
  6
Continuous
 62
     7
370
     0
100
AcDbTrace
 10
50.4707320534
 20
179.8192887214
 30
0.0
 11
52.4707320534
 21
179.0692887214
 31
0.0
 12
52.4707320534
 22
180.5692887214
 32
0.0
 13
52.4707320534
 23
180.5692887214
 33
0.0
  0
SOLID
  5
188
330
184
100
AcDbEntity
  8
0
  6
Continuous
 62
     7
370
     0
100
AcDbTrace
 10
66.4707320534
 20
179.8192887214
 30
0.0
 11
64.4707320534
 21
180.5692887214
 31
0.0
 12
64.4707320534
 22
179.0692887214
 32
0.0
 13
64.4707320534
 23
179.0692887214
 33
0.0
  0
LINE
  5
189
330
184
100
AcDbEntity
  8
0
  6
Continuous
 62
     7
370
     0
100
AcDbLine
 10
50.4707320534
 20
149.5192887214
 30
0.0
 11
50.4707320534
 21
180.8192887214
 31
0.0
  0
LINE
  5
18A
330
184
100
AcDbEntity
  8
0
  6
Continuous
 62
     7
370
     0
100
AcDbLine
 10
66.4707320534
 20
149.5192887214
 30
0.0
 11
66.4707320534
 21
180.8192887214
 31
0.0
  0
LINE
  5
18B
330
184
100
AcDbEntity
  8
0
  6
Continuous
 62
     7
370
     0
100
AcDbLine
 10
50.4707320534
 20
179.8192887214
 30
0.0
 11
66.4707320534
 21
179.8192887214
 31
0.0
  0
MTEXT
  5
18C
330
184
100
AcDbEntity
  8
0
  6
Continuous
 62
     7
370
     0
100
AcDbMText
 10
52.1039018487
 20
184.3310258106
 30
29.1
 40
3.5
 41
0.0
 71
     1
 72
     1
  1
%%c
  7
SLDTEXTSTYLE1
 73
     1
 44
1.0
  0
MTEXT
  5
18D
330
184
100
AcDbEntity
  8
0
  6
Continuous
 62
     7
370
     0
100
AcDbMText
 10
57.3823392471
 20
184.3844979873
 30
29.1
 40
3.5
 41
0.0
 71
     1
 72
     1
  1
16
  7
SLDTEXTSTYLE1
 73
     1
 44
1.0
  0
ENDBLK
  5
186
330
184
100
AcDbEntity
  8
0
100
AcDbBlockEnd
  0
BLOCK
  5
190
330
18F
100
AcDbEntity
  8
0
100
AcDbBlockBegin
  2
_D_8
 70
     0
 10
0.0
 20
0.0
 30
0.0
  3
_D_8
  1

  0
SOLID
  5
192
330
18F
100
AcDbEntity
  8
0
  6
Continuous
 62
     7
370
     0
100
AcDbTrace
 10
40.4707320534
 20
154.5192887214
 30
0.0
 11
41.2207320534
 21
156.5192887214
 31
0.0
 12
39.7207320534
 22
156.5192887214
 32
0.0
 13
39.7207320534
 23
156.5192887214
 33
0.0
  0
SOLID
  5
193
330
18F
100
AcDbEntity
  8
0
  6
Continuous
 62
     7
370
     0
100
AcDbTrace
 10
40.4707320534
 20
142.5192887214
 30
0.0
 11
39.7207320534
 21
140.5192887214
 31
0.0
 12
41.2207320534
 22
140.5192887214
 32
0.0
 13
41.2207320534
 23
140.5192887214
 33
0.0
  0
LINE
  5
194
330
18F
100
AcDbEntity
  8
0
  6
Continuous
 62
     7
370
     0
100
AcDbLine
 10
54.0066304383
 20
154.5192887214
 30
0.0
 11
39.4707320534
 21
154.5192887214
 31
0.0
  0
LINE
  5
195
330
18F
100
AcDbEntity
  8
0
  6
Continuous
 62
     7
370
     0
100
AcDbLine
 10
54.0066304383
 20
142.5192887214
 30
0.0
 11
39.4707320534
 21
142.5192887214
 31
0.0
  0
LINE
  5
196
330
18F
100
AcDbEntity
  8
0
  6
Continuous
 62
     7
370
     0
100
AcDbLine
 10
40.4707320534
 20
154.5192887214
 30
0.0
 11
40.4707320534
 21
159.5192887214
 31
0.0
  0
LINE
  5
197
330
18F
100
AcDbEntity
  8
0
  6
Continuous
 62
     7
370
     0
100
AcDbLine
 10
40.4707320534
 20
154.5192887214
 30
0.0
 11
40.4707320534
 21
142.5192887214
 31
0.0
  0
LINE
  5
198
330
18F
100
AcDbEntity
  8
0
  6
Continuous
 62
     7
370
     0
100
AcDbLine
 10
40.4707320534
 20
142.5192887214
 30
0.0
 11
40.4707320534
 21
137.5192887214
 31
0.0
  0
MTEXT
  5
199
330
18F
100
AcDbEntity
  8
0
  6
Continuous
 62
     7
370
     0
100
AcDbMText
 10
35.9589951388
 20
145.9331775279
 30
29.1
 40
3.5
 41
0.0
 71
     1
 72
     1
  1
12
  7
SLDTEXTSTYLE1
 11
-7.044195017643634E-15
 21
1.0
 31
0.0
 73
     1
 44
1.0
  0
ENDBLK
  5
191
330
18F
100
AcDbEntity
  8
0
100
AcDbBlockEnd
  0
BLOCK
  5
19E
330
19D
100
AcDbEntity
  8
0
100
AcDbBlockBegin
  2
SW_NOTE_0
 70
     0
 10
0.0
 20
0.0
 30
0.0
  3
SW_NOTE_0
  1

  0
LINE
  5
1A0
330
19D
100
AcDbEntity
  8
0
  6
Continuous
 62
     0
370
     0
100
AcDbLine
 10
0.0
 20
0.3435404455
 30
0.0
 11
6.7995310668
 21
0.3435404455
 31
0.0
  0
LINE
  5
1A1
330
19D
100
AcDbEntity
  8
0
  6
Continuous
 62
     0
370
     0
100
AcDbLine
 10
6.7995310668
 20
0.3435404455
 30
0.0
 11
0.0
 21
0.3435404455
 31
0.0
  0
LINE
  5
1A2
330
19D
100
AcDbEntity
  8
0
  6
Continuous
 62
     0
370
     0
100
AcDbLine
 10
0.0
 20
0.3435404455
 30
0.0
 11
6.7995310668
 21
0.3435404455
 31
0.0
  0
LINE
  5
1A3
330
19D
100
AcDbEntity
  8
0
  6
Continuous
 62
     0
370
     0
100
AcDbLine
 10
6.7995310668
 20
0.3435404455
 30
0.0
 11
0.0
 21
0.3435404455
 31
0.0
  0
LINE
  5
1A4
330
19D
100
AcDbEntity
  8
0
  6
Continuous
 62
     0
370
     0
100
AcDbLine
 10
0.0
 20
0.3435404455
 30
0.0
 11
6.7995310668
 21
0.3435404455
 31
0.0
  0
LINE
  5
1A5
330
19D
100
AcDbEntity
  8
0
  6
Continuous
 62
     0
370
     0
100
AcDbLine
 10
6.7995310668
 20
0.3435404455
 30
0.0
 11
0.0
 21
0.3435404455
 31
0.0
  0
MTEXT
  5
1A6
330
19D
100
AcDbEntity
  8
0
  6
Continuous
 62
     0
370
     0
100
AcDbMText
 10
0.0163835673
 20
4.5343215788
 30
0.0
 40
3.5
 41
0.0
 71
     1
 72
     1
  1
M5
  7
SLDTEXTSTYLE1
 73
     1
 44
1.0
  0
ENDBLK
  5
19F
330
19D
100
AcDbEntity
  8
0
100
AcDbBlockEnd
  0
BLOCK
  5
1AA
330
1A9
100
AcDbEntity
  8
0
100
AcDbBlockBegin
  2
SW_CENTERMARKSYMBOL_0
 70
     0
 10
0.0
 20
0.0
 30
0.0
  3
SW_CENTERMARKSYMBOL_0
  1

  0
LINE
  5
1AC
330
1A9
100
AcDbEntity
  8
0
  6
Continuous
 62
     0
370
     0
100
AcDbLine
 10
0.0
 20
0.0
 30
0.0
 11
0.0
 21
2.5
 31
0.0
  0
LINE
  5
1AD
330
1A9
100
AcDbEntity
  8
0
  6
Continuous
 62
     0
370
     0
100
AcDbLine
 10
0.0
 20
0.0
 30
0.0
 11
-2.5
 21
0.0
 31
0.0
  0
LINE
  5
1AE
330
1A9
100
AcDbEntity
  8
0
  6
Continuous
 62
     0
370
     0
100
AcDbLine
 10
0.0
 20
0.0
 30
0.0
 11
0.0
 21
-2.5
 31
0.0
  0
LINE
  5
1AF
330
1A9
100
AcDbEntity
  8
0
  6
Continuous
 62
     0
370
     0
100
AcDbLine
 10
0.0
 20
0.0
 30
0.0
 11
2.5
 21
0.0
 31
0.0
  0
LINE
  5
1B0
330
1A9
100
AcDbEntity
  8
0
  6
Continuous
 62
     0
370
     0
100
AcDbLine
 10
0.0
 20
5.0
 30
0.0
 11
0.0
 21
10.5
 31
0.0
  0
LINE
  5
1B1
330
1A9
100
AcDbEntity
  8
0
  6
Continuous
 62
     0
370
     0
100
AcDbLine
 10
-5.0
 20
0.0
 30
0.0
 11
-10.5
 21
0.0
 31
0.0
  0
LINE
  5
1B2
330
1A9
100
AcDbEntity
  8
0
  6
Continuous
 62
     0
370
     0
100
AcDbLine
 10
0.0
 20
-5.0
 30
0.0
 11
0.0
 21
-18.5506545388
 31
0.0
  0
LINE
  5
1B3
330
1A9
100
AcDbEntity
  8
0
  6
Continuous
 62
     0
370
     0
100
AcDbLine
 10
5.0
 20
0.0
 30
0.0
 11
10.5
 21
0.0
 31
0.0
  0
ENDBLK
  5
1AB
330
1A9
100
AcDbEntity
  8
0
100
AcDbBlockEnd
  0
ENDSEC
  0
SECTION
  2
ENTITIES
  0
LINE
  5
44
330
1F
100
AcDbEntity
  8
0
  6
Continuous
 62
     7
370
     0
100
AcDbLine
 10
20.2604743903
 20
285.0
 30
0.0
 11
196.7604743903
 21
285.0
 31
0.0
  0
LINE
  5
45
330
1F
100
AcDbEntity
  8
0
  6
Continuous
 62
     7
370
     0
100
AcDbLine
 10
20.2604743903
 20
285.0
 30
0.0
 11
20.2604743903
 21
10.0
 31
0.0
  0
LINE
  5
46
330
1F
100
AcDbEntity
  8
0
  6
Continuous
 62
     7
370
     0
100
AcDbLine
 10
20.2604743903
 20
10.0
 30
0.0
 11
196.7604743903
 21
10.0
 31
0.0
  0
LINE
  5
47
330
1F
100
AcDbEntity
  8
0
  6
Continuous
 62
     7
370
     0
100
AcDbLine
 10
196.7604743903
 20
285.0
 30
0.0
 11
196.7604743903
 21
10.0
 31
0.0
  0
LINE
  5
48
330
1F
100
AcDbEntity
  8
0
  6
Continuous
 62
     7
370
     0
100
AcDbLine
 10
127.0104743903
 20
50.75
 30
0.0
 11
196.7604743903
 21
50.75
 31
0.0
  0
LINE
  5
49
330
1F
100
AcDbEntity
  8
0
  6
Continuous
 62
     7
370
     0
100
AcDbLine
 10
127.0104743903
 20
50.75
 30
0.0
 11
127.0104743903
 21
10.0
 31
0.0
  0
LINE
  5
4A
330
1F
100
AcDbEntity
  8
0
  6
Continuous
 62
     7
370
     0
100
AcDbLine
 10
127.0104743903
 20
22.75
 30
0.0
 11
196.7604743903
 21
22.75
 31
0.0
  0
LINE
  5
4B
330
1F
100
AcDbEntity
  8
0
  6
Continuous
 62
     7
370
     0
100
AcDbLine
 10
127.0104743903
 20
36.75
 30
0.0
 11
196.7604743903
 21
36.75
 31
0.0
  0
MTEXT
  5
4D
330
1F
100
AcDbEntity
  8
0
  6
Continuous
 62
     7
370
     0
100
AcDbMText
 10
161.2862390268
 20
30.4171582345
 30
0.0
 40
4.2333333333
 41
0.0
 71
     2
 72
     1
  1
VFIL1-S-10-P12
  7
SLDTEXTSTYLE0
 73
     1
 44
1.0
  0
MTEXT
  5
4E
330
1F
100
AcDbEntity
  8
0
  6
Continuous
 62
     7
370
     0
100
AcDbMText
 10
160.5582442015
 20
43.9409718514
 30
0.0
 40
4.2333333333
 41
0.0
 71
     2
 72
     1
  1
吸着金具・スモール用
  7
SLDTEXTSTYLE0
 73
     1
 44
1.0
  0
MTEXT
  5
4F
330
1F
100
AcDbEntity
  8
0
  6
Continuous
 62
     7
370
     0
100
AcDbMText
 10
162.6363513791
 20
16.8228189052
 30
0.0
 40
4.2333333333
 41
0.0
 71
     2
 72
     1
  1
211008
  7
SLDTEXTSTYLE0
 73
     1
 44
1.0
  0
LINE
  5
50
330
1F
100
AcDbEntity
  8
0
  6
Continuous
 62
     7
370
    15
100
AcDbLine
 10
158.8189255111
 20
144.0192887214
 30
0.0
 11
159.4189255111
 21
144.0192887214
 31
0.0
  0
LINE
  5
51
330
1F
100
AcDbEntity
  8
0
  6
Continuous
 62
     7
370
    15
100
AcDbLine
 10
159.4189255111
 20
152.2479263253
 30
0.0
 11
158.8189255111
 21
152.2479263253
 31
0.0
  0
LINE
  5
52
330
1F
100
AcDbEntity
  8
0
  6
Continuous
 62
     7
370
    15
100
AcDbLine
 10
102.7189255111
 20
143.0192887214
 30
0.0
 11
104.7189255111
 21
143.0192887214
 31
0.0
  0
LINE
  5
53
330
1F
100
AcDbEntity
  8
0
  6
Continuous
 62
     7
370
    15
100
AcDbLine
 10
104.7189255111
 20
154.0192887214
 30
0.0
 11
102.7189255111
 21
154.0192887214
 31
0.0
  0
LINE
  5
54
330
1F
100
AcDbEntity
  8
0
  6
Continuous
 62
     7
370
    15
100
AcDbLine
 10
119.7189255111
 20
144.0192887214
 30
0.0
 11
122.7189255111
 21
144.0192887214
 31
0.0
  0
LINE
  5
55
330
1F
100
AcDbEntity
  8
0
  6
Continuous
 62
     7
370
    15
100
AcDbLine
 10
122.1453549804
 20
153.0192887214
 30
0.0
 11
119.7189255111
 21
153.0192887214
 31
0.0
  0
LINE
  5
56
330
1F
100
AcDbEntity
  8
0
  6
Continuous
 62
     7
370
    15
100
AcDbLine
 10
104.7189255111
 20
144.6192887214
 30
0.0
 11
111.7189255111
 21
144.6192887214
 31
0.0
  0
LINE
  5
57
330
1F
100
AcDbEntity
  8
0
  6
Continuous
 62
     7
370
    15
100
AcDbLine
 10
111.7189255111
 20
152.4192887214
 30
0.0
 11
104.7189255111
 21
152.4192887214
 31
0.0
  0
LINE
  5
58
330
1F
100
AcDbEntity
  8
0
  6
Continuous
 62
     7
370
    15
100
AcDbLine
 10
122.7189255111
 20
145.5192887214
 30
0.0
 11
123.1296465466
 21
145.5192887214
 31
0.0
  0
LINE
  5
59
330
1F
100
AcDbEntity
  8
0
  6
Continuous
 62
     7
370
    15
100
AcDbLine
 10
124.1321626664
 20
145.5192887214
 30
0.0
 11
127.129774784
 21
145.5192887214
 31
0.0
  0
LINE
  5
5A
330
1F
100
AcDbEntity
  8
0
  6
Continuous
 62
     7
370
    15
100
AcDbLine
 10
128.1320801184
 20
145.5192887214
 30
0.0
 11
131.12893087
 21
145.5192887214
 31
0.0
  0
LINE
  5
5B
330
1F
100
AcDbEntity
  8
0
  6
Continuous
 62
     7
370
    15
100
AcDbLine
 10
132.1318160592
 20
145.5192887214
 30
0.0
 11
132.7189255111
 21
145.5192887214
 31
0.0
  0
LINE
  5
5C
330
1F
100
AcDbEntity
  8
0
  6
Continuous
 62
     7
370
    15
100
AcDbLine
 10
132.7189255111
 20
151.5192887214
 30
0.0
 11
131.3957543791
 21
151.5192887214
 31
0.0
  0
LINE
  5
5D
330
1F
100
AcDbEntity
  8
0
  6
Continuous
 62
     7
370
    15
100
AcDbLine
 10
130.3935659911
 20
151.5192887214
 30
0.0
 11
127.3961624448
 21
151.5192887214
 31
0.0
  0
LINE
  5
5E
330
1F
100
AcDbEntity
  8
0
  6
Continuous
 62
     7
370
    15
100
AcDbLine
 10
126.393242266
 20
151.5192887214
 30
0.0
 11
123.3963201719
 21
151.5192887214
 31
0.0
  0
LINE
  5
5F
330
1F
100
AcDbEntity
  8
0
  6
Continuous
 62
     7
370
    15
100
AcDbLine
 10
159.4189255111
 20
145.5192887214
 30
0.0
 11
160.2189255111
 21
145.5192887214
 31
0.0
  0
LINE
  5
60
330
1F
100
AcDbEntity
  8
0
  6
Continuous
 62
     7
370
    15
100
AcDbLine
 10
160.2189255111
 20
151.5192887214
 30
0.0
 11
159.4189255111
 21
151.5192887214
 31
0.0
  0
LINE
  5
61
330
1F
100
AcDbEntity
  8
0
  6
Continuous
 62
     7
370
    15
100
AcDbLine
 10
160.2189255111
 20
145.5192887214
 30
0.0
 11
160.7189255111
 21
146.0192887214
 31
0.0
  0
LINE
  5
62
330
1F
100
AcDbEntity
  8
0
  6
Continuous
 62
     7
370
    15
100
AcDbLine
 10
160.7189255111
 20
151.0192887214
 30
0.0
 11
160.2189255111
 21
151.5192887214
 31
0.0
  0
LINE
  5
63
330
1F
100
AcDbEntity
  8
0
  6
Continuous
 62
     7
370
    15
100
AcDbLine
 10
158.7189255111
 20
146.5192887214
 30
0.0
 11
158.8189255111
 21
146.5192887214
 31
0.0
  0
LINE
  5
64
330
1F
100
AcDbEntity
  8
0
  6
Continuous
 62
     7
370
    15
100
AcDbLine
 10
158.8189255111
 20
150.5192887214
 30
0.0
 11
158.7189255111
 21
150.5192887214
 31
0.0
  0
LINE
  5
65
330
1F
100
AcDbEntity
  8
0
  6
Continuous
 62
     7
370
    15
100
AcDbLine
 10
137.3189255111
 20
140.5192887214
 30
0.0
 11
137.7189255111
 21
140.9192887214
 31
0.0
  0
LINE
  5
66
330
1F
100
AcDbEntity
  8
0
  6
Continuous
 62
     7
370
    15
100
AcDbLine
 10
137.7189255111
 20
156.1192887214
 30
0.0
 11
137.3189255111
 21
156.5192887214
 31
0.0
  0
LINE
  5
67
330
1F
100
AcDbEntity
  8
0
  6
Continuous
 62
     7
370
    15
100
AcDbLine
 10
137.3189255111
 20
156.5192887214
 30
0.0
 11
136.1189255111
 21
156.5192887214
 31
0.0
  0
LINE
  5
68
330
1F
100
AcDbEntity
  8
0
  6
Continuous
 62
     7
370
    15
100
AcDbLine
 10
136.1189255111
 20
140.5192887214
 30
0.0
 11
137.3189255111
 21
140.5192887214
 31
0.0
  0
LINE
  5
69
330
1F
100
AcDbEntity
  8
0
  6
Continuous
 62
     7
370
    15
100
AcDbLine
 10
136.1189255111
 20
156.5192887214
 30
0.0
 11
135.7189255111
 21
156.1192887214
 31
0.0
  0
LINE
  5
6A
330
1F
100
AcDbEntity
  8
0
  6
Continuous
 62
     7
370
    15
100
AcDbLine
 10
135.7189255111
 20
140.9192887214
 30
0.0
 11
136.1189255111
 21
140.5192887214
 31
0.0
  0
LINE
  5
6B
330
1F
100
AcDbEntity
  8
0
  6
Continuous
 62
     7
370
    15
100
AcDbLine
 10
158.3189255111
 20
154.5192887214
 30
0.0
 11
137.7189255111
 21
154.5192887214
 31
0.0
  0
LINE
  5
6C
330
1F
100
AcDbEntity
  8
0
  6
Continuous
 62
     7
370
    15
100
AcDbLine
 10
137.7189255111
 20
142.5192887214
 30
0.0
 11
158.3189255111
 21
142.5192887214
 31
0.0
  0
LINE
  5
6D
330
1F
100
AcDbEntity
  8
0
  6
Continuous
 62
     7
370
    15
100
AcDbLine
 10
158.3189255111
 20
142.5192887214
 30
0.0
 11
158.7189255111
 21
142.9192887214
 31
0.0
  0
LINE
  5
6E
330
1F
100
AcDbEntity
  8
0
  6
Continuous
 62
     7
370
    15
100
AcDbLine
 10
158.7189255111
 20
154.1192887214
 30
0.0
 11
158.3189255111
 21
154.5192887214
 31
0.0
  0
LINE
  5
6F
330
1F
100
AcDbEntity
  8
0
  6
Continuous
 62
     7
370
    15
100
AcDbLine
 10
135.7189255111
 20
153.0192887214
 30
0.0
 11
135.1556063477
 21
153.0192887214
 31
0.0
  0
LINE
  5
70
330
1F
100
AcDbEntity
  8
0
  6
Continuous
 62
     7
370
    15
100
AcDbLine
 10
134.1479271179
 20
153.0192887214
 30
0.0
 11
133.1189255111
 21
153.0192887214
 31
0.0
  0
LINE
  5
71
330
1F
100
AcDbEntity
  8
0
  6
Continuous
 62
     7
370
    15
100
AcDbLine
 10
133.1189255111
 20
144.0192887214
 30
0.0
 11
135.7189255111
 21
144.0192887214
 31
0.0
  0
LINE
  5
72
330
1F
100
AcDbEntity
  8
0
  6
Continuous
 62
     7
370
    15
100
AcDbLine
 10
133.1189255111
 20
153.0192887214
 30
0.0
 11
132.7189255111
 21
152.6192887214
 31
0.0
  0
LINE
  5
73
330
1F
100
AcDbEntity
  8
0
  6
Continuous
 62
     7
370
    15
100
AcDbLine
 10
132.7189255111
 20
144.4192887214
 30
0.0
 11
133.1189255111
 21
144.0192887214
 31
0.0
  0
SPLINE
  5
74
330
1F
100
AcDbEntity
  8
0
  6
Continuous
 62
     7
370
    15
100
AcDbSpline
210
0.0
220
0.0
230
1.0
 70
     8
 71
     3
 72
    38
 73
    34
 74
     0
 42
0.00000001
 43
0.00000001
 12
1.0
 22
0.0
 32
0.0
 13
1.0
 23
0.0
 33
0.0
 40
0.0
 40
0.0
 40
0.0
 40
0.0
 40
0.003537471777373
 40
0.0230787329308709
 40
0.0391050938649273
 40
0.0587526583980315
 40
0.0827159166917637
 40
0.1121484489235035
 40
0.1470784296564631
 40
0.1875399107033736
 40
0.2335606231181854
 40
0.2666091788487707
 40
0.297424349510449
 40
0.3254088242886118
 40
0.3620310841527512
 40
0.3922038197689143
 40
0.4158955675649418
 40
0.4330820056707975
 40
0.4498930050588802
 40
0.4725216600263394
 40
0.5009802776388078
 40
0.5352853864238194
 40
0.5754660397133561
 40
0.6201505818810252
 40
0.6640433749495919
 40
0.7066746385083947
 40
0.7615914952953277
 40
0.8143933539134225
 40
0.8650783867189522
 40
0.9010501987806824
 40
0.9353581732195096
 40
0.968314134633131
 40
1.0
 40
1.0
 40
1.0
 40
1.0
 10
121.9938125212584
 20
153.606326661284
 30
0.0
 10
121.9928293740811
 20
153.6067101087747
 30
0.0
 10
121.9864152476757
 20
153.6092117491517
 30
0.0
 10
121.9936071519057
 20
153.5907791171412
 30
0.0
 10
122.008697275676
 20
153.5467309040135
 30
0.0
 10
122.0426516614278
 20
153.4441987093673
 30
0.0
 10
122.0841757440905
 20
153.2927178249578
 30
0.0
 10
122.1370101854634
 20
153.0688965734328
 30
0.0
 10
122.200734692553
 20
152.7524835536358
 30
0.0
 10
122.2756435078926
 20
152.322413054847
 30
0.0
 10
122.3500307805906
 20
151.83662371434
 30
0.0
 10
122.4187047044385
 20
151.3459420547764
 30
0.0
 10
122.4761921769555
 20
150.9100453665901
 30
0.0
 10
122.5359861390605
 20
150.4366949585876
 30
0.0
 10
122.5954942745802
 20
149.9477197528191
 30
0.0
 10
122.6523825867063
 20
149.4676549493246
 30
0.0
 10
122.6970956972855
 20
149.0849435834583
 30
0.0
 10
122.7334185063178
 20
148.7720449886673
 30
0.0
 10
122.7690744670952
 20
148.4640202354053
 30
0.0
 10
122.8118361396155
 20
148.0944950389985
 30
0.0
 10
122.8656430490604
 20
147.631721099851
 30
0.0
 10
122.9305589179549
 20
147.0811338413215
 30
0.0
 10
123.005760573544
 20
146.461024474709
 30
0.0
 10
123.0870516363878
 20
145.8219664389961
 30
0.0
 10
123.1705149586936
 20
145.2118635902003
 30
0.0
 10
123.2617269647327
 20
144.6073143412839
 30
0.0
 10
123.360753758822
 20
144.0367696383638
 30
0.0
 10
123.471665640124
 20
143.5298770584018
 30
0.0
 10
123.5711816358906
 20
143.1823263050765
 30
0.0
 10
123.6834415148048
 20
142.9141265034777
 30
0.0
 10
123.820469464309
 20
142.7135089723555
 30
0.0
 10
124.0078016248023
 20
142.5559389452922
 30
0.0
 10
124.1861220360292
 20
142.5316348918703
 30
0.0
 10
124.273530403393
 20
142.5197216307057
 30
0.0
  0
SPLINE
  5
75
330
1F
100
AcDbEntity
  8
0
  6
Continuous
 62
     7
370
    15
100
AcDbSpline
210
0.0
220
0.0
230
1.0
 70
     8
 71
     3
 72
    41
 73
    37
 74
     0
 42
0.00000001
 43
0.00000001
 12
1.0
 22
0.0
 32
0.0
 13
1.0
 23
0.0
 33
0.0
 40
0.0
 40
0.0
 40
0.0
 40
0.0
 40
0.0177208674002545
 40
0.0492432434323648
 40
0.0772610542502103
 40
0.10171676427629
 40
0.1275296992365845
 40
0.1576138926143067
 40
0.1919831442732433
 40
0.2306557492054817
 40
0.2734423529666996
 40
0.313294883299392
 40
0.346754448973597
 40
0.3737904588465091
 40
0.3943724005631847
 40
0.4098055394737794
 40
0.4291663891483113
 40
0.4541820635822427
 40
0.4848718157512414
 40
0.5212614973448448
 40
0.5633732974589408
 40
0.6111777987001554
 40
0.65866155089343
 40
0.7017260600507175
 40
0.7403513537271956
 40
0.7745243871226382
 40
0.8042203251262612
 40
0.8294145518389436
 40
0.850868529980898
 40
0.8744073577652438
 40
0.901356584844562
 40
0.9169836665506257
 40
0.9380906543926394
 40
0.9656612817058736
 40
0.981999984836478
 40
1.0
 40
1.0
 40
1.0
 40
1.0
 10
125.9856168023192
 20
153.6160983511249
 30
0.0
 10
125.9875094242563
 20
153.6095330622402
 30
0.0
 10
125.9927686951861
 20
153.5912892533198
 30
0.0
 10
126.0310094915927
 20
153.4864093853871
 30
0.0
 10
126.0719783514407
 20
153.3386996792621
 30
0.0
 10
126.1180395792657
 20
153.1504994503215
 30
0.0
 10
126.1668377715249
 20
152.922216193683
 30
0.0
 10
126.2221629883383
 20
152.6308598094499
 30
0.0
 10
126.2859798189383
 20
152.2541493808406
 30
0.0
 10
126.358067076026
 20
151.7808290191896
 30
0.0
 10
126.433885156863
 20
151.2347157034259
 30
0.0
 10
126.5065665030912
 20
150.6726900233255
 30
0.0
 10
126.5694711544968
 20
150.1627255344977
 30
0.0
 10
126.6203367588078
 20
149.7384080789687
 30
0.0
 10
126.6599174923481
 20
149.4028521314036
 30
0.0
 10
126.6947027866413
 20
149.1053268215947
 30
0.0
 10
126.7322690926464
 20
148.782015653131
 30
0.0
 10
126.7794411795455
 20
148.3743974999686
 30
0.0
 10
126.8373509792705
 20
147.8745308177948
 30
0.0
 10
126.9060614232339
 20
147.2874966498684
 30
0.0
 10
126.9856390409762
 20
146.6242211053178
 30
0.0
 10
127.0723327500143
 20
145.9346101050966
 30
0.0
 10
127.1597843318678
 20
145.2875926663397
 30
0.0
 10
127.2417722107645
 20
144.7352273070632
 30
0.0
 10
127.3157411963091
 20
144.2892726223189
 30
0.0
 10
127.3817236278133
 20
143.9373649354718
 30
0.0
 10
127.4397076981898
 20
143.6658061019791
 30
0.0
 10
127.4904155731199
 20
143.4585304389719
 30
0.0
 10
127.5378884200486
 20
143.2888216564465
 30
0.0
 10
127.5929615086933
 20
143.1215016065267
 30
0.0
 10
127.6494803516713
 20
142.9852022262286
 30
0.0
 10
127.7119498571728
 20
142.863796150272
 30
0.0
 10
127.8154027637476
 20
142.7136997255797
 30
0.0
 10
127.9603733698141
 20
142.5976366010197
 30
0.0
 10
128.1238119595669
 20
142.5290631585877
 30
0.0
 10
128.2222260819913
 20
142.5227526086366
 30
0.0
 10
128.2738137877633
 20
142.5194446810128
 30
0.0
  0
SPLINE
  5
76
330
1F
100
AcDbEntity
  8
0
  6
Continuous
 62
     7
370
    15
100
AcDbSpline
210
0.0
220
0.0
230
1.0
 70
     8
 71
     3
 72
    43
 73
    39
 74
     0
 42
0.00000001
 43
0.00000001
 12
1.0
 22
0.0
 32
0.0
 13
1.0
 23
0.0
 33
0.0
 40
0.0
 40
0.0
 40
0.0
 40
0.0
 40
0.007126759961617
 40
0.0288346717776004
 40
0.0527546292444953
 40
0.0788941836394777
 40
0.1072449469014744
 40
0.1378275428618914
 40
0.1706612310703502
 40
0.2057537249208039
 40
0.2431021325386856
 40
0.2827039329526203
 40
0.3245666252778302
 40
0.3669387692360018
 40
0.4042198153312616
 40
0.4359721670590485
 40
0.4621716008128159
 40
0.4827964938010312
 40
0.4982622483958106
 40
0.5163433750883127
 40
0.5399423794249038
 40
0.569081357699888
 40
0.603785059572691
 40
0.6440786484218041
 40
0.688902936835742
 40
0.7313906373253828
 40
0.770332228476783
 40
0.8057249319501179
 40
0.8375650200966813
 40
0.8521502686207858
 40
0.8658403082419006
 40
0.8786327179340971
 40
0.8923296428572072
 40
0.9108937894679241
 40
0.9348442673509101
 40
0.953986173589883
 40
0.9757241376506944
 40
1.0
 40
1.0
 40
1.0
 40
1.0
 10
129.9773096906844
 20
153.6310381985731
 30
0.0
 10
129.9768863589516
 20
153.6309690861864
 30
0.0
 10
129.975173570583
 20
153.6306894593996
 30
0.0
 10
130.0018688075532
 20
153.5717354977229
 30
0.0
 10
130.0328396841208
 20
153.4764412459007
 30
0.0
 10
130.0761061225926
 20
153.3252325703378
 30
0.0
 10
130.1258250631431
 20
153.1183978955766
 30
0.0
 10
130.1811813283003
 20
152.8524529248726
 30
0.0
 10
130.2413494978785
 20
152.5227356330262
 30
0.0
 10
130.3064025948123
 20
152.1242384789131
 30
0.0
 10
130.3761684881208
 20
151.6537176108934
 30
0.0
 10
130.4505636935548
 20
151.1089602851653
 30
0.0
 10
130.5283578940481
 20
150.4998124197442
 30
0.0
 10
130.6048367860464
 20
149.8705977869762
 30
0.0
 10
130.6749714870825
 20
149.2755353047285
 30
0.0
 10
130.7349361255926
 20
148.759156276832
 30
0.0
 10
130.7844162343419
 20
148.3313168147685
 30
0.0
 10
130.8236478733766
 20
147.9928091812844
 30
0.0
 10
130.8577615150469
 20
147.6999013338474
 30
0.0
 10
130.8937728975104
 20
147.3928412425147
 30
0.0
 10
130.9384446496681
 20
147.016566661955
 30
0.0
 10
130.9936673734636
 20
146.561130424541
 30
0.0
 10
131.0595372380803
 20
146.0362112058992
 30
0.0
 10
131.135515487297
 20
145.4624939004514
 30
0.0
 10
131.2165702075292
 20
144.8982299382868
 30
0.0
 10
131.2974314363472
 20
144.3934613318046
 30
0.0
 10
131.373288593205
 20
143.9780064290382
 30
0.0
 10
131.4436320260831
 20
143.6473459891142
 30
0.0
 10
131.4995217107028
 20
143.4258940530534
 30
0.0
 10
131.5418226128025
 20
143.2805154215841
 30
0.0
 10
131.5717750088669
 20
143.1874089659352
 30
0.0
 10
131.60087445752
 20
143.1053543128169
 30
0.0
 10
131.6395648447398
 20
143.0081681760348
 30
0.0
 10
131.7102685469069
 20
142.8665292603251
 30
0.0
 10
131.8115745853619
 20
142.728121189623
 30
0.0
 10
131.9437197472462
 20
142.6149713196727
 30
0.0
 10
132.0947732768211
 20
142.5349885057617
 30
0.0
 10
132.2116876299568
 20
142.5249791889331
 30
0.0
 10
132.2733690193307
 20
142.5196984979649
 30
0.0
  0
SPLINE
  5
77
330
1F
100
AcDbEntity
  8
0
  6
Continuous
 62
     7
370
    15
100
AcDbSpline
210
0.0
220
0.0
230
1.0
 70
     8
 71
     3
 72
    19
 73
    15
 74
     0
 42
0.00000001
 43
0.00000001
 12
1.0
 22
0.0
 32
0.0
 13
1.0
 23
0.0
 33
0.0
 40
0.0
 40
0.0
 40
0.0
 40
0.0
 40
0.0360906282835597
 40
0.0896380559484004
 40
0.1562818145128186
 40
0.2361631883288911
 40
0.3048647777305226
 40
0.3811399671991059
 40
0.4650222234235328
 40
0.556560610561737
 40
0.655804432084732
 40
0.7627670493864334
 40
0.8774859216357966
 40
1.0
 40
1.0
 40
1.0
 40
1.0
 10
133.9873731866944
 20
153.6145308569852
 30
0.0
 10
133.9888878197217
 20
153.6090120716287
 30
0.0
 10
133.9926497038034
 20
153.595305100759
 30
0.0
 10
134.0276039113608
 20
153.5058526970961
 30
0.0
 10
134.0684476288791
 20
153.3662689372035
 30
0.0
 10
134.118874930304
 20
153.1628600299494
 30
0.0
 10
134.1727770750466
 20
152.9060561536335
 30
0.0
 10
134.2293047449861
 20
152.6022141929658
 30
0.0
 10
134.2925983698708
 20
152.2212011308978
 30
0.0
 10
134.3626672378466
 20
151.7544609445189
 30
0.0
 10
134.4393914761194
 20
151.1974283434624
 30
0.0
 10
134.5227427680428
 20
150.5475932837035
 30
0.0
 10
134.612613657063
 20
149.8077640717164
 30
0.0
 10
134.6748248029176
 20
149.2749614113056
 30
0.0
 10
134.7069524697473
 20
148.9998064350621
 30
0.0
  0
SPLINE
  5
78
330
1F
100
AcDbEntity
  8
0
  6
Continuous
 62
     7
370
    15
100
AcDbSpline
210
0.0
220
0.0
230
1.0
 70
     8
 71
     3
 72
    15
 73
    11
 74
     0
 42
0.00000001
 43
0.00000001
 12
1.0
 22
0.0
 32
0.0
 13
1.0
 23
0.0
 33
0.0
 40
0.0
 40
0.0
 40
0.0
 40
0.0
 40
0.11797903439533
 40
0.2231061505000163
 40
0.3570000891432143
 40
0.4660096596186381
 40
0.5665821023247352
 40
0.6675210913355968
 40
0.9387528122177861
 40
1.0
 40
1.0
 40
1.0
 40
1.0
 10
134.2735332230972
 20
154.5191155483961
 30
0.0
 10
134.1962702088595
 20
154.5104680312054
 30
0.0
 10
134.0501607431314
 20
154.4941150047403
 30
0.0
 10
133.857924670455
 20
154.3670192068061
 30
0.0
 10
133.7202222022355
 20
154.1947863414474
 30
0.0
 10
133.6412497271449
 20
154.0335201037148
 30
0.0
 10
133.5850786979676
 20
153.8896791460984
 30
0.0
 10
133.5004288832492
 20
153.6249286611726
 30
0.0
 10
133.4293745991792
 20
153.3529708361322
 30
0.0
 10
133.3789993745117
 20
153.0711955961048
 30
0.0
 10
133.3697195652836
 20
153.0192887214472
 30
0.0
  0
SPLINE
  5
79
330
1F
100
AcDbEntity
  8
0
  6
Continuous
 62
     7
370
    15
100
AcDbSpline
210
0.0
220
0.0
230
1.0
 70
     8
 71
     3
 72
    10
 73
     6
 74
     0
 42
0.00000001
 43
0.00000001
 12
1.0
 22
0.0
 32
0.0
 13
1.0
 23
0.0
 33
0.0
 40
0.0
 40
0.0
 40
0.0
 40
0.0
 40
0.3515816749070615
 40
0.9929346894410541
 40
1.0
 40
1.0
 40
1.0
 40
1.0
 10
132.393298767797
 20
145.5192887214472
 30
0.0
 10
132.3779894532283
 20
145.4093694669451
 30
0.0
 10
132.334752986166
 20
145.0989362202138
 30
0.0
 10
132.2911669665813
 20
144.8099440758451
 30
0.0
 10
132.2633115533698
 20
144.6532312918074
 30
0.0
 10
132.2630080345804
 20
144.6515237143918
 30
0.0
  0
SPLINE
  5
7A
330
1F
100
AcDbEntity
  8
0
  6
Continuous
 62
     7
370
    15
100
AcDbSpline
210
0.0
220
0.0
230
1.0
 70
     8
 71
     3
 72
    17
 73
    13
 74
     0
 42
0.00000001
 43
0.00000001
 12
1.0
 22
0.0
 32
0.0
 13
1.0
 23
0.0
 33
0.0
 40
0.0
 40
0.0
 40
0.0
 40
0.0
 40
0.056301306664052
 40
0.1115001855715762
 40
0.2198165440383892
 40
0.3279155150719389
 40
0.4343025494964604
 40
0.5737123549287082
 40
0.7110003531122627
 40
0.8468032970546748
 40
0.9769574811716524
 40
1.0
 40
1.0
 40
1.0
 40
1.0
 10
130.2733101627715
 20
154.5189009453452
 30
0.0
 10
130.2099092469282
 20
154.5132789859813
 30
0.0
 10
130.0843488594204
 20
154.502145150028
 30
0.0
 10
129.8917899859408
 20
154.3986058642107
 30
0.0
 10
129.7439250922459
 20
154.2325946092665
 30
0.0
 10
129.6428026892551
 20
154.0291030900217
 30
0.0
 10
129.5314063134223
 20
153.7275042577804
 30
0.0
 10
129.4289932919686
 20
153.3320045222749
 30
0.0
 10
129.3277825460437
 20
152.8254844629828
 30
0.0
 10
129.2349966167045
 20
152.2605781279822
 30
0.0
 10
129.1692403005963
 20
151.8197537668146
 30
0.0
 10
129.1344726455736
 20
151.5585732314187
 30
0.0
 10
129.1292431965706
 20
151.5192887214472
 30
0.0
  0
SPLINE
  5
7B
330
1F
100
AcDbEntity
  8
0
  6
Continuous
 62
     7
370
    15
100
AcDbSpline
210
0.0
220
0.0
230
1.0
 70
     8
 71
     3
 72
    10
 73
     6
 74
     0
 42
0.00000001
 43
0.00000001
 12
1.0
 22
0.0
 32
0.0
 13
1.0
 23
0.0
 33
0.0
 40
0.0
 40
0.0
 40
0.0
 40
0.0
 40
0.25671571263419
 40
0.7755078762641817
 40
1.0
 40
1.0
 40
1.0
 40
1.0
 10
128.393459644348
 20
145.5192887214472
 30
0.0
 10
128.3821915728477
 20
145.4378513722903
 30
0.0
 10
128.3481520584406
 20
145.1918387498245
 30
0.0
 10
128.3044294672399
 20
144.9004269104607
 30
0.0
 10
128.2722061598373
 20
144.7108734740609
 30
0.0
 10
128.2624738422899
 20
144.6536231672507
 30
0.0
  0
SPLINE
  5
7C
330
1F
100
AcDbEntity
  8
0
  6
Continuous
 62
     7
370
    15
100
AcDbSpline
210
0.0
220
0.0
230
1.0
 70
     8
 71
     3
 72
    19
 73
    15
 74
     0
 42
0.00000001
 43
0.00000001
 12
1.0
 22
0.0
 32
0.0
 13
1.0
 23
0.0
 33
0.0
 40
0.0
 40
0.0
 40
0.0
 40
0.0
 40
0.0694687826842992
 40
0.1499859856697902
 40
0.2414418369653052
 40
0.3234368200230786
 40
0.3843391181522148
 40
0.4406910871660074
 40
0.5126325062003012
 40
0.6001623399444042
 40
0.7031821789319462
 40
0.8216154676654942
 40
0.9553903709042775
 40
1.0
 40
1.0
 40
1.0
 40
1.0
 10
126.2729745526742
 20
154.5190842899365
 30
0.0
 10
126.1935877954589
 20
154.5092166505115
 30
0.0
 10
126.0221884910521
 20
154.4879120073583
 30
0.0
 10
125.8428652594784
 20
154.3515544287841
 30
0.0
 10
125.7112755243727
 20
154.1808781382393
 30
0.0
 10
125.6190889801481
 20
153.987069994527
 30
0.0
 10
125.5590380853002
 20
153.8171085580968
 30
0.0
 10
125.5140255092864
 20
153.6670797998136
 30
0.0
 10
125.4618409175873
 20
153.4679262125898
 30
0.0
 10
125.4005860011484
 20
153.1948652735418
 30
0.0
 10
125.32912800877
 20
152.826931651734
 30
0.0
 10
125.2478504898776
 20
152.3414754194614
 30
0.0
 10
125.1803102667307
 20
151.8968331835204
 30
0.0
 10
125.1398834000222
 20
151.5948158936037
 30
0.0
 10
125.1297736247756
 20
151.5192887214472
 30
0.0
  0
SPLINE
  5
7D
330
1F
100
AcDbEntity
  8
0
  6
Continuous
 62
     7
370
    15
100
AcDbSpline
210
0.0
220
0.0
230
1.0
 70
     8
 71
     3
 72
    10
 73
     6
 74
     0
 42
0.00000001
 43
0.00000001
 12
1.0
 22
0.0
 32
0.0
 13
1.0
 23
0.0
 33
0.0
 40
0.0
 40
0.0
 40
0.0
 40
0.0
 40
0.3747710884811823
 40
0.979503829222688
 40
0.9999999999999999
 40
0.9999999999999999
 40
0.9999999999999999
 40
0.9999999999999999
 10
124.3933083604589
 20
145.5192887214472
 30
0.0
 10
124.3768474765924
 20
145.400930982806
 30
0.0
 10
124.3338252177384
 20
145.0915905299789
 30
0.0
 10
124.2902066900299
 20
144.8036163529368
 30
0.0
 10
124.2641422243527
 20
144.6543496479549
 30
0.0
 10
124.2632877825156
 20
144.6494564067431
 30
0.0
  0
SPLINE
  5
7E
330
1F
100
AcDbEntity
  8
0
  6
Continuous
 62
     7
370
    15
100
AcDbSpline
210
0.0
220
0.0
230
1.0
 70
     8
 71
     3
 72
    17
 73
    13
 74
     0
 42
0.00000001
 43
0.00000001
 12
1.0
 22
0.0
 32
0.0
 13
1.0
 23
0.0
 33
0.0
 40
0.0
 40
0.0
 40
0.0
 40
0.0
 40
0.1297622493482246
 40
0.2432777611617722
 40
0.3584651517795543
 40
0.4531749791153887
 40
0.536257933210999
 40
0.6137260079040565
 40
0.6857199764951827
 40
0.8267612351203818
 40
0.9630806127617033
 40
1.0
 40
1.0
 40
1.0
 40
1.0
 10
122.2737989567315
 20
154.5189213530239
 30
0.0
 10
122.1889225094359
 20
154.5085636873022
 30
0.0
 10
122.0297964756536
 20
154.4891451758299
 30
0.0
 10
121.8414708133806
 20
154.3505126901709
 30
0.0
 10
121.7170020609197
 20
154.1872528522518
 30
0.0
 10
121.6451533354765
 20
154.0428427009564
 30
0.0
 10
121.5970010356589
 20
153.923343199504
 30
0.0
 10
121.5534461567033
 20
153.7970485196973
 30
0.0
 10
121.5027178805319
 20
153.628217520844
 30
0.0
 10
121.446298263676
 20
153.4024732093296
 30
0.0
 10
121.3991517846266
 20
153.1904831384466
 30
0.0
 10
121.3732084928325
 20
153.0493631816123
 30
0.0
 10
121.3676796469264
 20
153.0192887214472
 30
0.0
  0
SPLINE
  5
7F
330
1F
100
AcDbEntity
  8
0
  6
Continuous
 62
     7
370
    15
100
AcDbSpline
210
0.0
220
0.0
230
1.0
 70
     8
 71
     3
 72
    13
 73
     9
 74
     0
 42
0.00000001
 43
0.00000001
 12
1.0
 22
0.0
 32
0.0
 13
1.0
 23
0.0
 33
0.0
 40
0.0
 40
0.0
 40
0.0
 40
0.0
 40
0.0385097996421741
 40
0.2496575430182524
 40
0.4296948868184123
 40
0.6300589795655505
 40
0.8927951429685053
 40
1.0
 40
1.0
 40
1.0
 40
1.0
 10
120.148703464796
 20
144.0192887214472
 30
0.0
 10
120.1458612228266
 20
144.0046939087084
 30
0.0
 10
120.1274350779667
 20
143.9100763016827
 30
0.0
 10
120.0995574824648
 20
143.7869153860994
 30
0.0
 10
120.0655816207543
 20
143.6413580988
 30
0.0
 10
120.045747448393
 20
143.5420418289548
 30
0.0
 10
120.0392692411824
 20
143.4850505172689
 30
0.0
 10
120.0513757622342
 20
143.4830427270903
 30
0.0
 10
120.054884099474
 20
143.4824608914809
 30
0.0
  0
SPLINE
  5
80
330
1F
100
AcDbEntity
  8
0
  6
Continuous
 62
     7
370
    15
100
AcDbSpline
210
0.0
220
0.0
230
1.0
 70
     8
 71
     3
 72
    13
 73
     9
 74
     0
 42
0.00000001
 43
0.00000001
 12
1.0
 22
0.0
 32
0.0
 13
1.0
 23
0.0
 33
0.0
 40
0.0
 40
0.0
 40
0.0
 40
0.0
 40
0.1996482950639945
 40
0.3693944921184984
 40
0.5192600333027326
 40
0.6738540368668555
 40
0.8902384724649199
 40
1.0
 40
1.0
 40
1.0
 40
1.0
 10
120.5787293976236
 20
142.6145002599775
 30
0.0
 10
120.6414103267758
 20
142.6668322771034
 30
0.0
 10
120.757384219677
 20
142.7636583425679
 30
0.0
 10
120.8701403862591
 20
142.9731047378962
 30
0.0
 10
120.9494760592615
 20
143.1736961064283
 30
0.0
 10
121.0301440334312
 20
143.4391278497635
 30
0.0
 10
121.0984363491701
 20
143.7143477755661
 30
0.0
 10
121.1416225913528
 20
143.9425045763145
 30
0.0
 10
121.1561565376416
 20
144.0192887214472
 30
0.0
  0
SPLINE
  5
81
330
1F
100
AcDbEntity
  8
0
  6
Continuous
 62
     7
370
    15
100
AcDbSpline
210
0.0
220
0.0
230
1.0
 70
     8
 71
     3
 72
    19
 73
    15
 74
     0
 42
0.00000001
 43
0.00000001
 12
1.0
 22
0.0
 32
0.0
 13
1.0
 23
0.0
 33
0.0
 40
0.0
 40
0.0
 40
0.0
 40
0.0
 40
0.0894699229362552
 40
0.1664462533391303
 40
0.2424129636960518
 40
0.3015551642703138
 40
0.3525519419514058
 40
0.4054190642483037
 40
0.4602062958912552
 40
0.5888468945219434
 40
0.7272621040099934
 40
0.8757307298752044
 40
0.9879473797236257
 40
1.0
 40
1.0
 40
1.0
 40
1.0
 10
124.2520215787825
 20
142.5197215956485
 30
0.0
 10
124.3297464619008
 20
142.5287161949863
 30
0.0
 10
124.4743427146045
 20
142.5454493865543
 30
0.0
 10
124.6546730059762
 20
142.6704945411395
 30
0.0
 10
124.7811722337189
 20
142.820498940235
 30
0.0
 10
124.8605805787285
 20
142.9652814679134
 30
0.0
 10
124.9115187607355
 20
143.0859686616753
 30
0.0
 10
124.9605206813703
 20
143.2203754112386
 30
0.0
 10
125.0276737332303
 20
143.4372561940678
 30
0.0
 10
125.1115488644584
 20
143.7766130579113
 30
0.0
 10
125.2114813490302
 20
144.2913724625022
 30
0.0
 10
125.3034123738859
 20
144.8642597982953
 30
0.0
 10
125.3653736780068
 20
145.2871611463195
 30
0.0
 10
125.3935760145389
 20
145.4987656381005
 30
0.0
 10
125.3963113010083
 20
145.5192887214472
 30
0.0
  0
SPLINE
  5
82
330
1F
100
AcDbEntity
  8
0
  6
Continuous
 62
     7
370
    15
100
AcDbSpline
210
0.0
220
0.0
230
1.0
 70
     8
 71
     3
 72
    10
 73
     6
 74
     0
 42
0.00000001
 43
0.00000001
 12
1.0
 22
0.0
 32
0.0
 13
1.0
 23
0.0
 33
0.0
 40
0.0
 40
0.0
 40
0.0
 40
0.0
 40
0.0370320114350901
 40
0.5449752099039944
 40
0.9999999999999999
 40
0.9999999999999999
 40
0.9999999999999999
 40
0.9999999999999999
 10
126.1314626014659
 20
151.5192887214472
 30
0.0
 10
126.1330892477891
 20
151.5313263835044
 30
0.0
 10
126.1570275078792
 20
151.7084765612057
 30
0.0
 10
126.2007658573527
 20
152.0044848779003
 30
0.0
 10
126.2426442761931
 20
152.2637896214937
 30
0.0
 10
126.2624328039206
 20
152.386317148811
 30
0.0
  0
SPLINE
  5
83
330
1F
100
AcDbEntity
  8
0
  6
Continuous
 62
     7
370
    15
100
AcDbSpline
210
0.0
220
0.0
230
1.0
 70
     8
 71
     3
 72
    18
 73
    14
 74
     0
 42
0.00000001
 43
0.00000001
 12
1.0
 22
0.0
 32
0.0
 13
1.0
 23
0.0
 33
0.0
 40
0.0
 40
0.0
 40
0.0
 40
0.0
 40
0.0479096214252271
 40
0.0952331196787492
 40
0.1880739135557475
 40
0.2799570500761537
 40
0.3729628127421337
 40
0.5000671544439937
 40
0.6311348314434228
 40
0.7666223105496979
 40
0.8689079767543074
 40
0.9695888692409136
 40
1.0
 40
1.0
 40
1.0
 40
1.0
 10
128.252308674968
 20
142.5194213094069
 30
0.0
 10
128.3043153364133
 20
142.5230676101249
 30
0.0
 10
128.4076924132129
 20
142.5303156029568
 30
0.0
 10
128.5803140073227
 20
142.6052646469539
 30
0.0
 10
128.7402573218689
 20
142.7473593144326
 30
0.0
 10
128.8557073666063
 20
142.9413452328307
 30
0.0
 10
128.949799155091
 20
143.1702857053227
 30
0.0
 10
129.0474700425496
 20
143.4967740501497
 30
0.0
 10
129.1440704662964
 20
143.9305102138134
 30
0.0
 10
129.22952487544
 20
144.4000309571954
 30
0.0
 10
129.3065722041591
 20
144.8872975287943
 30
0.0
 10
129.3596375099966
 20
145.2474751411326
 30
0.0
 10
129.3893034688001
 20
145.4681060780866
 30
0.0
 10
129.3961854691684
 20
145.5192887214472
 30
0.0
  0
SPLINE
  5
84
330
1F
100
AcDbEntity
  8
0
  6
Continuous
 62
     7
370
    15
100
AcDbSpline
210
0.0
220
0.0
230
1.0
 70
     8
 71
     3
 72
    10
 73
     6
 74
     0
 42
0.00000001
 43
0.00000001
 12
1.0
 22
0.0
 32
0.0
 13
1.0
 23
0.0
 33
0.0
 40
0.0
 40
0.0
 40
0.0
 40
0.0
 40
0.4132639404615288
 40
0.9212113969560963
 40
0.9999999999999999
 40
0.9999999999999999
 40
0.9999999999999999
 40
0.9999999999999999
 10
130.1321073492569
 20
151.5192887214472
 30
0.0
 10
130.1501396848825
 20
151.6486743137409
 30
0.0
 10
130.1903357713679
 20
151.9370892238097
 30
0.0
 10
130.2346465410274
 20
152.2252038331807
 30
0.0
 10
130.2591886620114
 20
152.3672521837595
 30
0.0
 10
130.2624842484964
 20
152.3863268442049
 30
0.0
  0
SPLINE
  5
85
330
1F
100
AcDbEntity
  8
0
  6
Continuous
 62
     7
370
    15
100
AcDbSpline
210
0.0
220
0.0
230
1.0
 70
     8
 71
     3
 72
    16
 73
    12
 74
     0
 42
0.00000001
 43
0.00000001
 12
1.0
 22
0.0
 32
0.0
 13
1.0
 23
0.0
 33
0.0
 40
0.0
 40
0.0
 40
0.0
 40
0.0
 40
0.1135859879790342
 40
0.2139892415789043
 40
0.3274349917742875
 40
0.4470576977503559
 40
0.5467141592253272
 40
0.6466979889707293
 40
0.7458800782851641
 40
0.8700711907292096
 40
0.9999999999999999
 40
0.9999999999999999
 40
0.9999999999999999
 40
0.9999999999999999
 10
132.2518819362495
 20
142.5197065597586
 30
0.0
 10
132.3348169713047
 20
142.5301980981531
 30
0.0
 10
132.4910616416865
 20
142.5499635321118
 30
0.0
 10
132.6493695234353
 20
142.6614225775137
 30
0.0
 10
132.7733858122274
 20
142.7988136123116
 30
0.0
 10
132.8658710913979
 20
142.9623682728075
 30
0.0
 10
132.9405677629809
 20
143.1435706654258
 30
0.0
 10
132.9945049053877
 20
143.3122192417052
 30
0.0
 10
133.0442300789508
 20
143.4937870411206
 30
0.0
 10
133.09886044307
 20
143.7208276748918
 30
0.0
 10
133.1370268052545
 20
143.9131362134221
 30
0.0
 10
133.1565408597189
 20
144.0114615208409
 30
0.0
  0
SPLINE
  5
86
330
1F
100
AcDbEntity
  8
0
  6
Continuous
 62
     7
370
    15
100
AcDbSpline
210
0.0
220
0.0
230
1.0
 70
     8
 71
     3
 72
    22
 73
    18
 74
     0
 42
0.00000001
 43
0.00000001
 12
1.0
 22
0.0
 32
0.0
 13
1.0
 23
0.0
 33
0.0
 40
0.0
 40
0.0
 40
0.0
 40
0.0
 40
0.1002720896250916
 40
0.1946430582222421
 40
0.2830953279671408
 40
0.3656095588154797
 40
0.4662720293238268
 40
0.556250449916929
 40
0.6354534003123045
 40
0.7037748145310377
 40
0.7611281115447566
 40
0.807421170337083
 40
0.8409658468115453
 40
0.8836449511338847
 40
0.9365078658373445
 40
0.9669532766111373
 40
1.0
 40
1.0
 40
1.0
 40
1.0
 10
135.7068975317712
 20
149.0006984937577
 30
0.0
 10
135.673826603154
 20
149.2844817024275
 30
0.0
 10
135.6096310058709
 20
149.835347170716
 30
0.0
 10
135.5158875391336
 20
150.6077576974479
 30
0.0
 10
135.4275984522636
 20
151.2941964961946
 30
0.0
 10
135.3366386713977
 20
151.9490448152484
 30
0.0
 10
135.2441018738483
 20
152.5458897616174
 30
0.0
 10
135.1511966033843
 20
153.0588514351796
 30
0.0
 10
135.0672172059974
 20
153.4460848224873
 30
0.0
 10
134.9927432608875
 20
153.7275413825319
 30
0.0
 10
134.9254652821718
 20
153.9292145738774
 30
0.0
 10
134.8720431154835
 20
154.0596113934964
 30
0.0
 10
134.8065248897041
 20
154.1858308178141
 30
0.0
 10
134.6981430225681
 20
154.3357590667379
 30
0.0
 10
134.5526782760708
 20
154.447207677022
 30
0.0
 10
134.3945546934517
 20
154.5103983915874
 30
0.0
 10
134.3008137931379
 20
154.5161277228236
 30
0.0
 10
134.2520230311995
 20
154.5191097555913
 30
0.0
  0
SPLINE
  5
87
330
1F
100
AcDbEntity
  8
0
  6
Continuous
 62
     7
370
    15
100
AcDbSpline
210
0.0
220
0.0
230
1.0
 70
     8
 71
     3
 72
    38
 73
    34
 74
     0
 42
0.00000001
 43
0.00000001
 12
1.0
 22
0.0
 32
0.0
 13
1.0
 23
0.0
 33
0.0
 40
0.0
 40
0.0
 40
0.0
 40
0.0
 40
0.010794937629919
 40
0.0369981026418176
 40
0.0649820934588956
 40
0.0947296102654426
 40
0.1261968063600135
 40
0.158929625621858
 40
0.1927105171662784
 40
0.2275299335887413
 40
0.2633768640997111
 40
0.3002498520091619
 40
0.3372513871016246
 40
0.3810619848572029
 40
0.4179695605148894
 40
0.4479434597285871
 40
0.4746098843491126
 40
0.5073962345763366
 40
0.546813897320691
 40
0.5807675138451738
 40
0.618497076648043
 40
0.6600225642011753
 40
0.7026282217814592
 40
0.7553842675516389
 40
0.8035312631111434
 40
0.8470941710959365
 40
0.8671599831227204
 40
0.8860733924939325
 40
0.9050673174741979
 40
0.9228882794302824
 40
0.9445166946892921
 40
0.9702143158613323
 40
1.0
 40
1.0
 40
1.0
 40
1.0
 10
132.5433891365036
 20
143.415737642199
 30
0.0
 10
132.5432118125155
 20
143.4175912143268
 30
0.0
 10
132.5426040599433
 20
143.4239440673201
 30
0.0
 10
132.5094795075784
 20
143.5045926196817
 30
0.0
 10
132.4707457314011
 20
143.6347204905486
 30
0.0
 10
132.4203518472435
 20
143.8290761810116
 30
0.0
 10
132.3643474265814
 20
144.0850705376143
 30
0.0
 10
132.3045492645007
 20
144.3993122935543
 30
0.0
 10
132.2421725581736
 20
144.7682996524888
 30
0.0
 10
132.1773096781467
 20
145.1913235843224
 30
0.0
 10
132.1101364947546
 20
145.6670389105628
 30
0.0
 10
132.0413296531443
 20
146.1886902602097
 30
0.0
 10
131.967376780604
 20
146.7796371982925
 30
0.0
 10
131.8933329815173
 20
147.3967629167773
 30
0.0
 10
131.8236924483279
 20
147.9922680418085
 30
0.0
 10
131.7648364119983
 20
148.5005473927421
 30
0.0
 10
131.7085764817786
 20
148.9868136754957
 30
0.0
 10
131.6463238658781
 20
149.5215326092815
 30
0.0
 10
131.5793806284073
 20
150.0859948590089
 30
0.0
 10
131.5092526787
 20
150.6588282010051
 30
0.0
 10
131.4376493541295
 20
151.2191860567648
 30
0.0
 10
131.3604318290089
 20
151.7861117064951
 30
0.0
 10
131.2733628923003
 20
152.3710291037234
 30
0.0
 10
131.1806052043252
 20
152.9175220024554
 30
0.0
 10
131.0843979464836
 20
153.3849178490076
 30
0.0
 10
131.006284089418
 20
153.6850960666144
 30
0.0
 10
130.9450659688696
 20
153.8752154914884
 30
0.0
 10
130.9002965567306
 20
153.9939789277824
 30
0.0
 10
130.8538536300449
 20
154.0991883795719
 30
0.0
 10
130.7755573225823
 20
154.2341315316235
 30
0.0
 10
130.6602105708185
 20
154.3681499931423
 30
0.0
 10
130.484488960976
 20
154.4917417803113
 30
0.0
 10
130.3330891074595
 20
154.509416245982
 30
0.0
 10
130.2518115377431
 20
154.5189046145793
 30
0.0
  0
SPLINE
  5
88
330
1F
100
AcDbEntity
  8
0
  6
Continuous
 62
     7
370
    15
100
AcDbSpline
210
0.0
220
0.0
230
1.0
 70
     8
 71
     3
 72
    38
 73
    34
 74
     0
 42
0.00000001
 43
0.00000001
 12
1.0
 22
0.0
 32
0.0
 13
1.0
 23
0.0
 33
0.0
 40
0.0
 40
0.0
 40
0.0
 40
0.0
 40
0.0055667458186201
 40
0.0248976662567721
 40
0.0438270666427195
 40
0.0632603440387899
 40
0.0933404256254413
 40
0.1245319308697834
 40
0.1568082118502797
 40
0.1901371304704775
 40
0.2351231855670803
 40
0.2789422412535041
 40
0.3215192356684591
 40
0.3628408449504102
 40
0.402890207781194
 40
0.4418504020402938
 40
0.4987135754702622
 40
0.5538227807588552
 40
0.5926521927936086
 40
0.635174325675623
 40
0.6814221262730841
 40
0.731198732491841
 40
0.7789760792607998
 40
0.8223972426527454
 40
0.83756545581835
 40
0.8521233220898837
 40
0.8660715066337885
 40
0.8811803409983838
 40
0.9016433955425027
 40
0.928061683054807
 40
0.9608090008613152
 40
0.9796215071892677
 40
1.0
 40
1.0
 40
1.0
 40
1.0
 10
128.5309402261196
 20
143.4342423207062
 30
0.0
 10
128.5323867218597
 20
143.4336192030559
 30
0.0
 10
128.5388562768476
 20
143.4308322650851
 30
0.0
 10
128.5180052961156
 20
143.4764795057902
 30
0.0
 10
128.4942233229324
 20
143.5508424768856
 30
0.0
 10
128.4607347535503
 20
143.6651289281603
 30
0.0
 10
128.4181718043994
 20
143.8353795504943
 30
0.0
 10
128.3649141353673
 20
144.0813821335362
 30
0.0
 10
128.3073167476794
 20
144.3839568112586
 30
0.0
 10
128.2395061322621
 20
144.7822913130179
 30
0.0
 10
128.1633888683798
 20
145.2832105386125
 30
0.0
 10
128.0814424018975
 20
145.8786549737295
 30
0.0
 10
128.0014463422477
 20
146.5029009776516
 30
0.0
 10
127.9236736129697
 20
147.1414900894099
 30
0.0
 10
127.8480761319405
 20
147.7824515324384
 30
0.0
 10
127.7626930171816
 20
148.5186056606518
 30
0.0
 10
127.6677311384507
 20
149.3405472280705
 30
0.0
 10
127.572881438177
 20
150.1426606611488
 30
0.0
 10
127.4869862239669
 20
150.8378989409305
 30
0.0
 10
127.4064657444165
 20
151.4554523608421
 30
0.0
 10
127.3186834174287
 20
152.0774620489544
 30
0.0
 10
127.2272761437699
 20
152.6545318027522
 30
0.0
 10
127.1363999658039
 20
153.1453193432714
 30
0.0
 10
127.0656199269679
 20
153.4601981062493
 30
0.0
 10
127.0153200898423
 20
153.6502625464232
 30
0.0
 10
126.9843572965361
 20
153.7565486650965
 30
0.0
 10
126.9535098540018
 20
153.852610119024
 30
0.0
 10
126.9133473692808
 20
153.9646065799512
 30
0.0
 10
126.8408915066049
 20
154.1254834991188
 30
0.0
 10
126.7185776773243
 20
154.3095232470554
 30
0.0
 10
126.5607764937912
 20
154.4398746146987
 30
0.0
 10
126.3962461459443
 20
154.5098138396621
 30
0.0
 10
126.3010148701649
 20
154.5158943076388
 30
0.0
 10
126.251496615681
 20
154.519056022718
 30
0.0
  0
SPLINE
  5
89
330
1F
100
AcDbEntity
  8
0
  6
Continuous
 62
     7
370
    15
100
AcDbSpline
210
0.0
220
0.0
230
1.0
 70
     8
 71
     3
 72
    37
 73
    33
 74
     0
 42
0.00000001
 43
0.00000001
 12
1.0
 22
0.0
 32
0.0
 13
1.0
 23
0.0
 33
0.0
 40
0.0
 40
0.0
 40
0.0
 40
0.0
 40
0.0003871611027086
 40
0.0170883241847604
 40
0.0487688157561453
 40
0.0823149693872909
 40
0.117704668448236
 40
0.1549078377686966
 40
0.1938893779237719
 40
0.2341581178093658
 40
0.2838132985800241
 40
0.3275483766872896
 40
0.3652988505612531
 40
0.3970199322989281
 40
0.4245414554671134
 40
0.4578880847226063
 40
0.4877203192137083
 40
0.5216941710236517
 40
0.5596498650763635
 40
0.5979238061334811
 40
0.6350639947297001
 40
0.671077818142626
 40
0.7059715004877658
 40
0.7397418603806916
 40
0.7832376371315759
 40
0.8255088281629811
 40
0.8667081660207675
 40
0.8974087572164039
 40
0.9294819865534528
 40
0.9635860243366596
 40
0.9815219189813569
 40
1.0
 40
1.0
 40
1.0
 40
1.0
 10
124.5068264862074
 20
143.4661013576982
 30
0.0
 10
124.5070167340862
 20
143.4660577904534
 30
0.0
 10
124.515413800331
 20
143.4641348410727
 30
0.0
 10
124.4992393803949
 20
143.5027744899526
 30
0.0
 10
124.4745313966403
 20
143.5997816956157
 30
0.0
 10
124.4277967860056
 20
143.7825903150171
 30
0.0
 10
124.3720941859613
 20
144.0396944360661
 30
0.0
 10
124.307704506496
 20
144.377629322695
 30
0.0
 10
124.237311365165
 20
144.7958382373224
 30
0.0
 10
124.1571833094216
 20
145.3251869718976
 30
0.0
 10
124.0739099058774
 20
145.9341267526531
 30
0.0
 10
123.9919672865622
 20
146.5796693678932
 30
0.0
 10
123.9210761060488
 20
147.1641276560488
 30
0.0
 10
123.8602429608448
 20
147.6791496988361
 30
0.0
 10
123.8021394172929
 20
148.1780737859978
 30
0.0
 10
123.745211860705
 20
148.6703433601844
 30
0.0
 10
123.6842301897645
 20
149.1966089719035
 30
0.0
 10
123.6203192874001
 20
149.7423752364109
 30
0.0
 10
123.5511002797047
 20
150.3202431976036
 30
0.0
 10
123.4798334889188
 20
150.8934737786169
 30
0.0
 10
123.4096490080359
 20
151.4295869557647
 30
0.0
 10
123.3414211589997
 20
151.9174550547762
 30
0.0
 10
123.2750805022036
 20
152.355775325994
 30
0.0
 10
123.2036999939019
 20
152.7851709978402
 30
0.0
 10
123.1268302620329
 20
153.1913009814533
 30
0.0
 10
123.0402894079034
 20
153.5681604292428
 30
0.0
 10
122.9556984818064
 20
153.8532265008471
 30
0.0
 10
122.867760410917
 20
154.0760070359784
 30
0.0
 10
122.7437495878654
 20
154.2873517880032
 30
0.0
 10
122.5800172561151
 20
154.4322400447509
 30
0.0
 10
122.406348425422
 20
154.5081787157844
 30
0.0
 10
122.3041682071183
 20
154.5153215198246
 30
0.0
 10
122.2523173911081
 20
154.5189460982824
 30
0.0
  0
LINE
  5
8A
330
1F
100
AcDbEntity
  8
0
  6
Continuous
 62
     7
370
    15
100
AcDbLine
 10
113.3689255111
 20
134.2192887214
 30
0.0
 11
113.7189255111
 21
131.7192887214
 31
0.0
  0
LINE
  5
8B
330
1F
100
AcDbEntity
  8
0
  6
Continuous
 62
     7
370
    15
100
AcDbLine
 10
117.7189255111
 20
131.7192887214
 30
0.0
 11
118.0689255111
 21
134.2192887214
 31
0.0
  0
LINE
  5
8C
330
1F
100
AcDbEntity
  8
0
  6
Continuous
 62
     7
370
    15
100
AcDbLine
 10
113.3689255111
 20
136.7192887214
 30
0.0
 11
113.7189255111
 21
134.2192887214
 31
0.0
  0
LINE
  5
8D
330
1F
100
AcDbEntity
  8
0
  6
Continuous
 62
     7
370
    15
100
AcDbLine
 10
117.7189255111
 20
134.2192887214
 30
0.0
 11
118.0689255111
 21
136.7192887214
 31
0.0
  0
LINE
  5
8E
330
1F
100
AcDbEntity
  8
0
  6
Continuous
 62
     7
370
    15
100
AcDbLine
 10
117.8189255111
 20
136.7192887214
 30
0.0
 11
117.8189255111
 21
139.2192887214
 31
0.0
  0
LINE
  5
8F
330
1F
100
AcDbEntity
  8
0
  6
Continuous
 62
     7
370
    15
100
AcDbLine
 10
113.6189255111
 20
139.2192887214
 30
0.0
 11
113.6189255111
 21
136.7192887214
 31
0.0
  0
LINE
  5
90
330
1F
100
AcDbEntity
  8
0
  6
Continuous
 62
     7
370
    15
100
AcDbLine
 10
111.7189255111
 20
155.3192887214
 30
0.0
 11
111.7189255111
 21
154.5192887214
 31
0.0
  0
LINE
  5
91
330
1F
100
AcDbEntity
  8
0
  6
Continuous
 62
     7
370
    15
100
AcDbLine
 10
119.7189255111
 20
154.5192887214
 30
0.0
 11
119.7189255111
 21
155.3192887214
 31
0.0
  0
LINE
  5
92
330
1F
100
AcDbEntity
  8
0
  6
Continuous
 62
     7
370
    15
100
AcDbLine
 10
111.7189255111
 20
142.5192887214
 30
0.0
 11
111.7189255111
 21
141.7192887214
 31
0.0
  0
LINE
  5
93
330
1F
100
AcDbEntity
  8
0
  6
Continuous
 62
     7
370
    15
100
AcDbLine
 10
119.7189255111
 20
141.7192887214
 30
0.0
 11
119.7189255111
 21
142.5192887214
 31
0.0
  0
LINE
  5
94
330
1F
100
AcDbEntity
  8
0
  6
Continuous
 62
     7
370
    15
100
AcDbLine
 10
159.4189255111
 20
152.2120490046
 30
0.0
 11
158.8189255111
 21
152.2120490046
 31
0.0
  0
LINE
  5
95
330
1F
100
AcDbEntity
  8
0
  6
Continuous
 62
     7
370
    15
100
AcDbLine
 10
158.8189255111
 20
144.0192887214
 30
0.0
 11
158.8189255111
 21
152.2120490046
 31
0.0
  0
LINE
  5
96
330
1F
100
AcDbEntity
  8
0
  6
Continuous
 62
     7
370
    15
100
AcDbLine
 10
159.4189255111
 20
144.0192887214
 30
0.0
 11
159.4189255111
 21
152.2120490046
 31
0.0
  0
LINE
  5
97
330
1F
100
AcDbEntity
  8
0
  6
Continuous
 62
     7
370
    15
100
AcDbLine
 10
158.8189255111
 20
152.2120490046
 30
0.0
 11
158.8189255111
 21
152.2479263253
 31
0.0
  0
LINE
  5
98
330
1F
100
AcDbEntity
  8
0
  6
Continuous
 62
     7
370
    15
100
AcDbLine
 10
159.4189255111
 20
152.2479263253
 30
0.0
 11
159.4189255111
 21
152.2120490046
 31
0.0
  0
LINE
  5
99
330
1F
100
AcDbEntity
  8
0
  6
Continuous
 62
     7
370
    15
100
AcDbLine
 10
119.7189255111
 20
154.5192887214
 30
0.0
 11
117.7189255111
 21
154.5192887214
 31
0.0
  0
LINE
  5
9A
330
1F
100
AcDbEntity
  8
0
  6
Continuous
 62
     7
370
    15
100
AcDbLine
 10
113.7189255111
 20
154.5192887214
 30
0.0
 11
111.7189255111
 21
154.5192887214
 31
0.0
  0
LINE
  5
9B
330
1F
100
AcDbEntity
  8
0
  6
Continuous
 62
     7
370
    15
100
AcDbLine
 10
119.7189255111
 20
148.5192887214
 30
0.0
 11
111.7189255111
 21
148.5192887214
 31
0.0
  0
LINE
  5
9C
330
1F
100
AcDbEntity
  8
0
  6
Continuous
 62
     7
370
    15
100
AcDbLine
 10
111.7189255111
 20
154.5192887214
 30
0.0
 11
111.7189255111
 21
148.5192887214
 31
0.0
  0
LINE
  5
9D
330
1F
100
AcDbEntity
  8
0
  6
Continuous
 62
     7
370
    15
100
AcDbLine
 10
119.7189255111
 20
154.5192887214
 30
0.0
 11
119.7189255111
 21
148.5192887214
 31
0.0
  0
LINE
  5
9E
330
1F
100
AcDbEntity
  8
0
  6
Continuous
 62
     7
370
    15
100
AcDbLine
 10
119.7189255111
 20
142.5192887214
 30
0.0
 11
117.7189255111
 21
142.5192887214
 31
0.0
  0
LINE
  5
9F
330
1F
100
AcDbEntity
  8
0
  6
Continuous
 62
     7
370
    15
100
AcDbLine
 10
113.7189255111
 20
142.5192887214
 30
0.0
 11
111.7189255111
 21
142.5192887214
 31
0.0
  0
LINE
  5
A0
330
1F
100
AcDbEntity
  8
0
  6
Continuous
 62
     7
370
    15
100
AcDbLine
 10
111.7189255111
 20
148.5192887214
 30
0.0
 11
111.7189255111
 21
142.5192887214
 31
0.0
  0
LINE
  5
A1
330
1F
100
AcDbEntity
  8
0
  6
Continuous
 62
     7
370
    15
100
AcDbLine
 10
119.7189255111
 20
148.5192887214
 30
0.0
 11
119.7189255111
 21
142.5192887214
 31
0.0
  0
LINE
  5
A2
330
1F
100
AcDbEntity
  8
0
  6
Continuous
 62
     7
370
    15
100
AcDbLine
 10
102.7189255111
 20
154.0192887214
 30
0.0
 11
102.7189255111
 21
143.0192887214
 31
0.0
  0
LINE
  5
A3
330
1F
100
AcDbEntity
  8
0
  6
Continuous
 62
     7
370
    15
100
AcDbLine
 10
104.7189255111
 20
154.0192887214
 30
0.0
 11
104.7189255111
 21
143.0192887214
 31
0.0
  0
LINE
  5
A4
330
1F
100
AcDbEntity
  8
0
  6
Continuous
 62
     7
370
    15
100
AcDbLine
 10
122.7189255111
 20
148.8978857855
 30
0.0
 11
122.7189255111
 21
144.0192887214
 31
0.0
  0
LINE
  5
A5
330
1F
100
AcDbEntity
  8
0
  6
Continuous
 62
     7
370
    15
100
AcDbLine
 10
160.2189255111
 20
145.5192887214
 30
0.0
 11
160.2189255111
 21
151.5192887214
 31
0.0
  0
LINE
  5
A6
330
1F
100
AcDbEntity
  8
0
  6
Continuous
 62
     7
370
    15
100
AcDbLine
 10
160.7189255111
 20
151.0192887214
 30
0.0
 11
160.7189255111
 21
146.0192887214
 31
0.0
  0
LINE
  5
A7
330
1F
100
AcDbEntity
  8
0
  6
Continuous
 62
     7
370
    15
100
AcDbLine
 10
137.7189255111
 20
140.9484053975
 30
0.0
 11
137.7189255111
 21
140.9192887214
 31
0.0
  0
LINE
  5
A8
330
1F
100
AcDbEntity
  8
0
  6
Continuous
 62
     7
370
    15
100
AcDbLine
 10
137.7189255111
 20
156.1192887214
 30
0.0
 11
137.7189255111
 21
140.9484053975
 31
0.0
  0
LINE
  5
A9
330
1F
100
AcDbEntity
  8
0
  6
Continuous
 62
     7
370
    15
100
AcDbLine
 10
137.3189255111
 20
140.5499378541
 30
0.0
 11
137.3189255111
 21
140.5192887214
 31
0.0
  0
LINE
  5
AA
330
1F
100
AcDbEntity
  8
0
  6
Continuous
 62
     7
370
    15
100
AcDbLine
 10
137.3189255111
 20
156.5192887214
 30
0.0
 11
137.3189255111
 21
140.5499378541
 31
0.0
  0
LINE
  5
AB
330
1F
100
AcDbEntity
  8
0
  6
Continuous
 62
     7
370
    15
100
AcDbLine
 10
136.1189255111
 20
140.5499378541
 30
0.0
 11
136.1189255111
 21
140.5192887214
 31
0.0
  0
LINE
  5
AC
330
1F
100
AcDbEntity
  8
0
  6
Continuous
 62
     7
370
    15
100
AcDbLine
 10
136.1189255111
 20
156.5192887214
 30
0.0
 11
136.1189255111
 21
140.5499378541
 31
0.0
  0
LINE
  5
AD
330
1F
100
AcDbEntity
  8
0
  6
Continuous
 62
     7
370
    15
100
AcDbLine
 10
135.7189255111
 20
140.9484053975
 30
0.0
 11
135.7189255111
 21
140.9192887214
 31
0.0
  0
LINE
  5
AE
330
1F
100
AcDbEntity
  8
0
  6
Continuous
 62
     7
370
    15
100
AcDbLine
 10
135.7189255111
 20
156.1192887214
 30
0.0
 11
135.7189255111
 21
140.9484053975
 31
0.0
  0
LINE
  5
AF
330
1F
100
AcDbEntity
  8
0
  6
Continuous
 62
     7
370
    15
100
AcDbLine
 10
158.3189255111
 20
142.5422755709
 30
0.0
 11
158.3189255111
 21
142.5192887214
 31
0.0
  0
LINE
  5
B0
330
1F
100
AcDbEntity
  8
0
  6
Continuous
 62
     7
370
    15
100
AcDbLine
 10
158.3189255111
 20
154.5192887214
 30
0.0
 11
158.3189255111
 21
142.5422755709
 31
0.0
  0
LINE
  5
B1
330
1F
100
AcDbEntity
  8
0
  6
Continuous
 62
     7
370
    15
100
AcDbLine
 10
158.7189255111
 20
142.9407431143
 30
0.0
 11
158.7189255111
 21
142.9192887214
 31
0.0
  0
LINE
  5
B2
330
1F
100
AcDbEntity
  8
0
  6
Continuous
 62
     7
370
    15
100
AcDbLine
 10
158.7189255111
 20
154.1192887214
 30
0.0
 11
158.7189255111
 21
142.9407431143
 31
0.0
  0
LINE
  5
B3
330
1F
100
AcDbEntity
  8
0
  6
Continuous
 62
     7
370
    15
100
AcDbLine
 10
133.1189255111
 20
144.0365288586
 30
0.0
 11
133.1189255111
 21
144.0192887214
 31
0.0
  0
LINE
  5
B4
330
1F
100
AcDbEntity
  8
0
  6
Continuous
 62
     7
370
    15
100
AcDbLine
 10
133.1189255111
 20
153.0192887214
 30
0.0
 11
133.1189255111
 21
144.0365288586
 31
0.0
  0
LINE
  5
B5
330
1F
100
AcDbEntity
  8
0
  6
Continuous
 62
     7
370
    15
100
AcDbLine
 10
132.7189255111
 20
144.4349964019
 30
0.0
 11
132.7189255111
 21
144.4192887214
 31
0.0
  0
LINE
  5
B6
330
1F
100
AcDbEntity
  8
0
  6
Continuous
 62
     7
370
    15
100
AcDbLine
 10
132.7189255111
 20
152.6192887214
 30
0.0
 11
132.7189255111
 21
144.4349964019
 31
0.0
  0
LINE
  5
B7
330
1F
100
AcDbEntity
  8
0
  6
Continuous
 62
     7
370
    15
100
AcDbLine
 10
119.2263283965
 20
155.3192887214
 30
0.0
 11
119.2263283965
 21
157.8192887214
 31
0.0
  0
LINE
  5
B8
330
1F
100
AcDbEntity
  8
0
  6
Continuous
 62
     7
370
    15
100
AcDbLine
 10
115.7189255111
 20
155.3192887214
 30
0.0
 11
115.8072159685
 21
155.3192887214
 31
0.0
  0
LINE
  5
B9
330
1F
100
AcDbEntity
  8
0
  6
Continuous
 62
     7
370
    15
100
AcDbLine
 10
119.1380379391
 20
155.3192887214
 30
0.0
 11
119.2263283965
 21
155.3192887214
 31
0.0
  0
LINE
  5
BA
330
1F
100
AcDbEntity
  8
0
  6
Continuous
 62
     7
370
    15
100
AcDbLine
 10
115.7189255111
 20
155.3192887214
 30
0.0
 11
115.7189255113
 21
157.8192887214
 31
0.0
  0
LINE
  5
BB
330
1F
100
AcDbEntity
  8
0
  6
Continuous
 62
     7
370
    15
100
AcDbLine
 10
115.7189255113
 20
157.8192887214
 30
0.0
 11
119.2263283965
 21
157.8192887214
 31
0.0
  0
LINE
  5
BC
330
1F
100
AcDbEntity
  8
0
  6
Continuous
 62
     7
370
    15
100
AcDbLine
 10
112.2115226258
 20
155.3192887214
 30
0.0
 11
112.2998130832
 21
155.3192887214
 31
0.0
  0
LINE
  5
BD
330
1F
100
AcDbEntity
  8
0
  6
Continuous
 62
     7
370
    15
100
AcDbLine
 10
115.6306350538
 20
155.3192887214
 30
0.0
 11
115.7189255111
 21
155.3192887214
 31
0.0
  0
LINE
  5
BE
330
1F
100
AcDbEntity
  8
0
  6
Continuous
 62
     7
370
    15
100
AcDbLine
 10
112.2115226258
 20
155.3192887214
 30
0.0
 11
112.2115226258
 21
157.8192887214
 31
0.0
  0
LINE
  5
BF
330
1F
100
AcDbEntity
  8
0
  6
Continuous
 62
     7
370
    15
100
AcDbLine
 10
112.2115226258
 20
157.8192887214
 30
0.0
 11
115.7189255113
 21
157.8192887214
 31
0.0
  0
SPLINE
  5
C0
330
1F
100
AcDbEntity
  8
0
  6
Continuous
 62
     7
370
    15
100
AcDbSpline
210
0.0
220
0.0
230
1.0
 70
     8
 71
     3
 72
    33
 73
    29
 74
     0
 42
0.00000001
 43
0.00000001
 12
1.0
 22
0.0
 32
0.0
 13
1.0
 23
0.0
 33
0.0
 40
0.0
 40
0.0
 40
0.0
 40
0.0
 40
0.0387500165525896
 40
0.0774950828528702
 40
0.1162422952205208
 40
0.1549925490473423
 40
0.1937381654465475
 40
0.2324846677534898
 40
0.2712350178455364
 40
0.3099812890908279
 40
0.3487271146899454
 40
0.387477416485163
 40
0.4262243915402621
 40
0.4649696257975238
 40
0.5037197365128291
 40
0.5424674207186978
 40
0.5812122038454969
 40
0.6199619878087765
 40
0.6587103491715282
 40
0.6974548607703247
 40
0.7362041947529329
 40
0.7749531692801818
 40
0.8136976114919393
 40
0.852446390044152
 40
0.8911958870798207
 40
0.9299404676691506
 40
0.9686886084369452
 40
1.0
 40
1.0
 40
1.0
 40
1.0
 10
124.2647426550244
 20
142.5196434745922
 30
0.0
 10
124.2388755333355
 20
142.5274151125902
 30
0.0
 10
124.1871445944409
 20
142.5429573957721
 30
0.0
 10
124.1095315984737
 20
142.6785290155981
 30
0.0
 10
124.0319261869746
 20
142.8952932929916
 30
0.0
 10
123.9543320343139
 20
143.1965757183536
 30
0.0
 10
123.8767206560618
 20
143.5761639432008
 30
0.0
 10
123.7991126591627
 20
144.0300213656766
 30
0.0
 10
123.7215187885442
 20
144.5500147067686
 30
0.0
 10
123.6439099074338
 20
145.1286663040261
 30
0.0
 10
123.5662993302359
 20
145.7581925273654
 30
0.0
 10
123.4887053032477
 20
146.428444631873
 30
0.0
 10
123.4110991081942
 20
147.1295766719511
 30
0.0
 10
123.333486296267
 20
147.8515693176119
 30
0.0
 10
123.2558916316702
 20
148.5833603821383
 30
0.0
 10
123.1782881292734
 20
149.3142626747688
 30
0.0
 10
123.1006736222594
 20
150.0333044864998
 30
0.0
 10
123.0230778299195
 20
150.729779819997
 30
0.0
 10
122.9454768695755
 20
151.3937722801662
 30
0.0
 10
122.8678613455633
 20
152.0148589141687
 30
0.0
 10
122.7902639541206
 20
152.5838490407251
 30
0.0
 10
122.7126652564897
 20
153.0930680540608
 30
0.0
 10
122.6350494784668
 20
153.5341889739778
 30
0.0
 10
122.5574500432746
 20
153.9002504672233
 30
0.0
 10
122.4798533109922
 20
154.1878849076132
 30
0.0
 10
122.4022377652162
 20
154.3886051371231
 30
0.0
 10
122.3296027975657
 20
154.5035069482462
 30
0.0
 10
122.2828336917728
 20
154.509488873201
 30
0.0
 10
122.2619313857508
 20
154.5121623480064
 30
0.0
  0
SPLINE
  5
C1
330
1F
100
AcDbEntity
  8
0
  6
Continuous
 62
     7
370
    15
100
AcDbSpline
210
0.0
220
0.0
230
1.0
 70
     8
 71
     3
 72
    11
 73
     7
 74
     0
 42
0.00000001
 43
0.00000001
 12
1.0
 22
0.0
 32
0.0
 13
1.0
 23
0.0
 33
0.0
 40
-0.0000016624765367
 40
-0.0000016624765367
 40
-0.0000016624765367
 40
-0.0000016624765367
 40
0.1249999988728448
 40
0.2499999988728448
 40
0.3749999988728448
 40
0.5000016613493815
 40
0.5000016613493815
 40
0.5000016613493815
 40
0.5000016613493815
 10
135.2069249447939
 20
149.0439769414902
 30
0.0
 10
135.0763230073156
 20
149.0439769414901
 30
0.0
 10
134.8151191323477
 20
149.0345155722091
 30
0.0
 10
134.6528278510177
 20
149.0002529231531
 30
0.0
 10
134.8151191323477
 20
148.9659902740973
 30
0.0
 10
135.0763230073156
 20
148.9565289048161
 30
0.0
 10
135.2069249447939
 20
148.9565289048161
 30
0.0
  0
SPLINE
  5
C2
330
1F
100
AcDbEntity
  8
0
  6
Continuous
 62
     7
370
    15
100
AcDbSpline
210
0.0
220
0.0
230
1.0
 70
     8
 71
     3
 72
    11
 73
     7
 74
     0
 42
0.00000001
 43
0.00000001
 12
1.0
 22
0.0
 32
0.0
 13
1.0
 23
0.0
 33
0.0
 40
0.0000016624744875
 40
0.0000016624744875
 40
0.0000016624744875
 40
0.0000016624744875
 40
0.125
 40
0.25
 40
0.375
 40
0.4999983386526348
 40
0.4999983386526348
 40
0.4999983386526348
 40
0.4999983386526348
 10
120.306935363462
 20
143.5315110357417
 30
0.0
 10
120.1763334259826
 20
143.5315110357418
 30
0.0
 10
119.9151295510158
 20
143.4235813248605
 30
0.0
 10
119.7528382696858
 20
143.0327332671717
 30
0.0
 10
119.9151295510158
 20
142.6418852094819
 30
0.0
 10
120.1763334259827
 20
142.5339554986007
 30
0.0
 10
120.306935363462
 20
142.5339554986008
 30
0.0
  0
SPLINE
  5
C3
330
1F
100
AcDbEntity
  8
0
  6
Continuous
 62
     7
370
    15
100
AcDbSpline
210
0.0
220
0.0
230
1.0
 70
     8
 71
     3
 72
    11
 73
     7
 74
     0
 42
0.00000001
 43
0.00000001
 12
1.0
 22
0.0
 32
0.0
 13
1.0
 23
0.0
 33
0.0
 40
0.5000016613473874
 40
0.5000016613473874
 40
0.5000016613473874
 40
0.5000016613473874
 40
0.625
 40
0.75
 40
0.875
 40
0.9999983375257351
 40
0.9999983375257351
 40
0.9999983375257351
 40
0.9999983375257351
 10
135.2069249448002
 20
149.0439769414917
 30
0.0
 10
135.3375268822795
 20
149.0439769414916
 30
0.0
 10
135.5987307572464
 20
149.0345155722106
 30
0.0
 10
135.7610220385764
 20
149.0002529231546
 30
0.0
 10
135.5987307572464
 20
148.9659902740986
 30
0.0
 10
135.3375268822799
 20
148.9565289048175
 30
0.0
 10
135.206924944801
 20
148.9565289048174
 30
0.0
  0
SPLINE
  5
C4
330
1F
100
AcDbEntity
  8
0
  6
Continuous
 62
     7
370
    15
100
AcDbSpline
210
0.0
220
0.0
230
1.0
 70
     8
 71
     3
 72
    11
 73
     7
 74
     0
 42
0.00000001
 43
0.00000001
 12
1.0
 22
0.0
 32
0.0
 13
1.0
 23
0.0
 33
0.0
 40
0.4999983386506239
 40
0.4999983386506239
 40
0.4999983386506239
 40
0.4999983386506239
 40
0.625
 40
0.75
 40
0.875
 40
1.000001662476781
 40
1.000001662476781
 40
1.000001662476781
 40
1.000001662476781
 10
120.3069353634683
 20
142.5339554986007
 30
0.0
 10
120.4375373009466
 20
142.5339554986009
 30
0.0
 10
120.6987411759146
 20
142.6418852094824
 30
0.0
 10
120.8610324572446
 20
143.0327332671716
 30
0.0
 10
120.6987411759146
 20
143.4235813248604
 30
0.0
 10
120.437537300947
 20
143.5315110357416
 30
0.0
 10
120.3069353634692
 20
143.5315110357417
 30
0.0
  0
LINE
  5
C5
330
1F
100
AcDbEntity
  8
0
  6
Continuous
 62
     7
370
    15
100
AcDbLine
 10
115.7189255111
 20
141.7192887214
 30
0.0
 11
115.7189255111
 21
139.2192887214
 31
0.0
  0
LINE
  5
C6
330
1F
100
AcDbEntity
  8
0
  6
Continuous
 62
     7
370
    15
100
AcDbLine
 10
115.7189255111
 20
139.2192887214
 30
0.0
 11
112.2115226258
 21
139.2192887214
 31
0.0
  0
LINE
  5
C7
330
1F
100
AcDbEntity
  8
0
  6
Continuous
 62
     7
370
    15
100
AcDbLine
 10
112.2115226258
 20
141.7192887214
 30
0.0
 11
112.2115226258
 21
139.2192887214
 31
0.0
  0
LINE
  5
C8
330
1F
100
AcDbEntity
  8
0
  6
Continuous
 62
     7
370
    15
100
AcDbLine
 10
115.7189255111
 20
141.7192887214
 30
0.0
 11
115.6306350538
 21
141.7192887214
 31
0.0
  0
LINE
  5
C9
330
1F
100
AcDbEntity
  8
0
  6
Continuous
 62
     7
370
    15
100
AcDbLine
 10
112.2998130832
 20
141.7192887214
 30
0.0
 11
112.2115226258
 21
141.7192887214
 31
0.0
  0
LINE
  5
CA
330
1F
100
AcDbEntity
  8
0
  6
Continuous
 62
     7
370
    15
100
AcDbLine
 10
119.2263283965
 20
141.7192887214
 30
0.0
 11
119.2263283965
 21
139.2192887214
 31
0.0
  0
LINE
  5
CB
330
1F
100
AcDbEntity
  8
0
  6
Continuous
 62
     7
370
    15
100
AcDbLine
 10
119.2263283965
 20
141.7192887214
 30
0.0
 11
119.1380379391
 21
141.7192887214
 31
0.0
  0
LINE
  5
CC
330
1F
100
AcDbEntity
  8
0
  6
Continuous
 62
     7
370
    15
100
AcDbLine
 10
115.8072159685
 20
141.7192887214
 30
0.0
 11
115.7189255111
 21
141.7192887214
 31
0.0
  0
LINE
  5
CD
330
1F
100
AcDbEntity
  8
0
  6
Continuous
 62
     7
370
    15
100
AcDbLine
 10
119.2263283965
 20
139.2192887214
 30
0.0
 11
115.7189255111
 21
139.2192887214
 31
0.0
  0
LINE
  5
CE
330
1F
100
AcDbEntity
  8
0
  6
Continuous
 62
     7
370
    15
100
AcDbLine
 10
118.0689255111
 20
134.2192887214
 30
0.0
 11
117.75408521
 21
134.2192887214
 31
0.0
  0
LINE
  5
CF
330
1F
100
AcDbEntity
  8
0
  6
Continuous
 62
     7
370
    15
100
AcDbLine
 10
117.75408521
 20
134.2192887214
 30
0.0
 11
113.3689255111
 21
134.2192887214
 31
0.0
  0
LINE
  5
D0
330
1F
100
AcDbEntity
  8
0
  6
Continuous
 62
     7
370
    15
100
AcDbLine
 10
117.4509763187
 20
131.7192887214
 30
0.0
 11
113.7189255111
 21
131.7192887214
 31
0.0
  0
LINE
  5
D1
330
1F
100
AcDbEntity
  8
0
  6
Continuous
 62
     7
370
    15
100
AcDbLine
 10
117.7189255111
 20
131.7192887214
 30
0.0
 11
117.4509763187
 21
131.7192887214
 31
0.0
  0
LINE
  5
D2
330
1F
100
AcDbEntity
  8
0
  6
Continuous
 62
     7
370
    15
100
AcDbLine
 10
118.0689255111
 20
136.7192887214
 30
0.0
 11
117.75408521
 21
136.7192887214
 31
0.0
  0
LINE
  5
D3
330
1F
100
AcDbEntity
  8
0
  6
Continuous
 62
     7
370
    15
100
AcDbLine
 10
117.75408521
 20
136.7192887214
 30
0.0
 11
113.3689255111
 21
136.7192887214
 31
0.0
  0
LINE
  5
D4
330
1F
100
AcDbEntity
  8
0
  6
Continuous
 62
     7
370
    15
100
AcDbLine
 10
119.7189255111
 20
155.3192887214
 30
0.0
 11
119.2263283965
 21
155.3192887214
 31
0.0
  0
LINE
  5
D5
330
1F
100
AcDbEntity
  8
0
  6
Continuous
 62
     7
370
    15
100
AcDbLine
 10
119.1380379391
 20
155.3192887214
 30
0.0
 11
115.8072159685
 21
155.3192887214
 31
0.0
  0
LINE
  5
D6
330
1F
100
AcDbEntity
  8
0
  6
Continuous
 62
     7
370
    15
100
AcDbLine
 10
115.6306350538
 20
155.3192887214
 30
0.0
 11
112.2998130832
 21
155.3192887214
 31
0.0
  0
LINE
  5
D7
330
1F
100
AcDbEntity
  8
0
  6
Continuous
 62
     7
370
    15
100
AcDbLine
 10
112.2115226258
 20
155.3192887214
 30
0.0
 11
111.7189255111
 21
155.3192887214
 31
0.0
  0
LINE
  5
D8
330
1F
100
AcDbEntity
  8
0
  6
Continuous
 62
     7
370
    15
100
AcDbLine
 10
117.7189255111
 20
154.5192887214
 30
0.0
 11
113.7189255111
 21
154.5192887214
 31
0.0
  0
LINE
  5
D9
330
1F
100
AcDbEntity
  8
0
  6
Continuous
 62
     7
370
    15
100
AcDbLine
 10
117.7189255111
 20
142.5192887214
 30
0.0
 11
113.7189255111
 21
142.5192887214
 31
0.0
  0
LINE
  5
DA
330
1F
100
AcDbEntity
  8
0
  6
Continuous
 62
     7
370
    15
100
AcDbLine
 10
119.7189255111
 20
141.7192887214
 30
0.0
 11
119.2263283965
 21
141.7192887214
 31
0.0
  0
LINE
  5
DB
330
1F
100
AcDbEntity
  8
0
  6
Continuous
 62
     7
370
    15
100
AcDbLine
 10
119.1380379391
 20
141.7192887214
 30
0.0
 11
115.8072159685
 21
141.7192887214
 31
0.0
  0
LINE
  5
DC
330
1F
100
AcDbEntity
  8
0
  6
Continuous
 62
     7
370
    15
100
AcDbLine
 10
115.6306350538
 20
141.7192887214
 30
0.0
 11
112.2998130832
 21
141.7192887214
 31
0.0
  0
LINE
  5
DD
330
1F
100
AcDbEntity
  8
0
  6
Continuous
 62
     7
370
    15
100
AcDbLine
 10
112.2115226258
 20
141.7192887214
 30
0.0
 11
111.7189255111
 21
141.7192887214
 31
0.0
  0
SPLINE
  5
DE
330
1F
100
AcDbEntity
  8
0
  6
Continuous
 62
     8
370
    15
100
AcDbSpline
210
0.0
220
0.0
230
1.0
 70
     8
 71
     3
 72
    20
 73
    16
 74
     0
 42
0.00000001
 43
0.00000001
 12
1.0
 22
0.0
 32
0.0
 13
1.0
 23
0.0
 33
0.0
 40
0.0
 40
0.0
 40
0.0
 40
0.0
 40
0.082119667909099
 40
0.1642370036369824
 40
0.2463459359477779
 40
0.3284646808686101
 40
0.4105825160939908
 40
0.492690786053908
 40
0.574808315368102
 40
0.6569273838015195
 40
0.7390360269601349
 40
0.8211522124919152
 40
0.9032721432397108
 40
0.9853814966941506
 40
1.0
 40
1.0
 40
1.0
 40
1.0
 10
135.2069301522062
 20
149.043976860916
 30
0.0
 10
135.1810620475627
 20
149.2860808714449
 30
0.0
 10
135.1293265729243
 20
149.7702820167999
 30
0.0
 10
135.0517272590577
 20
150.4760775862308
 30
0.0
 10
134.9741114789319
 20
151.1532524373151
 30
0.0
 10
134.8965140340306
 20
151.7909912432524
 30
0.0
 10
134.8189152266804
 20
152.3806662383638
 30
0.0
 10
134.741299436109
 20
152.9128233088333
 30
0.0
 10
134.6637000524764
 20
153.3793356392733
 30
0.0
 10
134.586103241492
 20
153.7745291140646
 30
0.0
 10
134.5084880245299
 20
154.0910189060284
 30
0.0
 10
134.4308860464901
 20
154.3263368326676
 30
0.0
 10
134.3532914015127
 20
154.468110948588
 30
0.0
 10
134.2969410453277
 20
154.528925604036
 30
0.0
 10
134.266469772868
 20
154.5148197522466
 30
0.0
 10
134.2618646424319
 20
154.5126879316117
 30
0.0
  0
SPLINE
  5
DF
330
1F
100
AcDbEntity
  8
0
  6
Continuous
 62
     8
370
    15
100
AcDbSpline
210
0.0
220
0.0
230
1.0
 70
     8
 71
     3
 72
    34
 73
    30
 74
     0
 42
0.00000001
 43
0.00000001
 12
1.0
 22
0.0
 32
0.0
 13
1.0
 23
0.0
 33
0.0
 40
0.0
 40
0.0
 40
0.0
 40
0.0
 40
0.0017822424215251
 40
0.0405921159419639
 40
0.0793971054835888
 40
0.1182038385078195
 40
0.1570139034028747
 40
0.1958194851983707
 40
0.2346255133273454
 40
0.2734356265937249
 40
0.3122418861407056
 40
0.3510472584136384
 40
0.3898572752663071
 40
0.4286642459690803
 40
0.4674690672946892
 40
0.5062788465071973
 40
0.5450865206801416
 40
0.5838909464820492
 40
0.6227003557269095
 40
0.6615086900702376
 40
0.7003129096153138
 40
0.7391218308049283
 40
0.7779307517490485
 40
0.8167349712467042
 40
0.8555433058749778
 40
0.8943527149238886
 40
0.9331571405873735
 40
0.9719648150721933
 40
0.9999999999999999
 40
0.9999999999999999
 40
0.9999999999999999
 40
0.9999999999999999
 10
132.2615358121551
 20
142.5215540051552
 30
0.0
 10
132.2603478117334
 20
142.5209322830055
 30
0.0
 10
132.2332900724069
 20
142.5067720221571
 30
0.0
 10
132.1803747137001
 20
142.5611769160238
 30
0.0
 10
132.1027610120246
 20
142.6913464930061
 30
0.0
 10
132.0251550553862
 20
142.9190356271799
 30
0.0
 10
131.947560964499
 20
143.2265088377211
 30
0.0
 10
131.8699504044627
 20
143.6129736177618
 30
0.0
 10
131.7923415186
 20
144.0728523669655
 30
0.0
 10
131.7147476498293
 20
144.5983542955573
 30
0.0
 10
131.6371396502919
 20
145.1817433858724
 30
0.0
 10
131.5595282807453
 20
145.8152148595686
 30
0.0
 10
131.4819340958981
 20
146.4885945003033
 30
0.0
 10
131.4043288044301
 20
147.1919503131771
 30
0.0
 10
131.3267153605358
 20
147.9152296502433
 30
0.0
 10
131.2491203748223
 20
148.6473721697489
 30
0.0
 10
131.1715177418342
 20
149.3776772599542
 30
0.0
 10
131.093902816059
 20
150.0951854177156
 30
0.0
 10
131.0163065421346
 20
150.7891909351461
 30
0.0
 10
130.938706371409
 20
151.4498376650818
 30
0.0
 10
130.8610906747849
 20
152.0667762287894
 30
0.0
 10
130.7834926539396
 20
152.6308058167428
 30
0.0
 10
130.7058946305115
 20
153.1343666827557
 30
0.0
 10
130.6282789387905
 20
153.5692806177974
 30
0.0
 10
130.5506787504897
 20
153.9285229342286
 30
0.0
 10
130.4730825453091
 20
154.2090389938394
 30
0.0
 10
130.3954673599257
 20
154.4019164099894
 30
0.0
 10
130.3250475620337
 20
154.5075953285298
 30
0.0
 10
130.2804947225336
 20
154.5093700407944
 30
0.0
 10
130.2618084020288
 20
154.51011438936
 30
0.0
  0
SPLINE
  5
E0
330
1F
100
AcDbEntity
  8
0
  6
Continuous
 62
     8
370
    15
100
AcDbSpline
210
0.0
220
0.0
230
1.0
 70
     8
 71
     3
 72
    34
 73
    30
 74
     0
 42
0.00000001
 43
0.00000001
 12
1.0
 22
0.0
 32
0.0
 13
1.0
 23
0.0
 33
0.0
 40
0.0
 40
0.0
 40
0.0
 40
0.0
 40
0.0197653831735625
 40
0.0585571709246061
 40
0.0973517023915836
 40
0.1361414567842891
 40
0.1749325319380802
 40
0.2137272075391557
 40
0.2525175891019945
 40
0.2913079706648317
 40
0.3301026462659018
 40
0.3688937214196879
 40
0.4076834758123946
 40
0.4464780072793783
 40
0.4852697950304278
 40
0.5240590457280118
 40
0.5628532942649549
 40
0.6016457744593466
 40
0.6404346899845776
 40
0.6792285274721453
 40
0.7180216461384344
 40
0.7568104232139855
 40
0.7956037375483987
 40
0.8343974122394716
 40
0.873186258877055
 40
0.9119789593099087
 40
0.9507730844440183
 40
0.9895622030082095
 40
1.0
 40
1.0
 40
1.0
 40
1.0
 10
128.2620989982899
 20
142.5305332105391
 30
0.0
 10
128.2489176251291
 20
142.5285373344612
 30
0.0
 10
128.2098663244574
 20
142.5226243270779
 30
0.0
 10
128.144947282136
 20
142.6102577766098
 30
0.0
 10
128.0673530801138
 20
142.7847899117783
 30
0.0
 10
127.9897409100257
 20
143.0488366472952
 30
0.0
 10
127.9121338234052
 20
143.3936851169351
 30
0.0
 10
127.8345398974396
 20
143.8143948278155
 30
0.0
 10
127.7569301543349
 20
144.3045564396002
 30
0.0
 10
127.6793204099537
 20
144.8579814573317
 30
0.0
 10
127.6017264878178
 20
145.4654035089053
 30
0.0
 10
127.5241193871564
 20
146.1179195603996
 30
0.0
 10
127.4465072694021
 20
146.8064680918228
 30
0.0
 10
127.3689128720676
 20
147.5202784510592
 30
0.0
 10
127.2913084809086
 20
148.2488589339887
 30
0.0
 10
127.2136944696689
 20
148.9815274902084
 30
0.0
 10
127.1360991075496
 20
149.7072481211193
 30
0.0
 10
127.0584973242729
 20
150.4155312334108
 30
0.0
 10
126.9808820581519
 20
151.0955081199759
 30
0.0
 10
126.9032852499974
 20
151.7370929653204
 30
0.0
 10
126.82568583615
 20
152.3313726271102
 30
0.0
 10
126.7480700518001
 20
152.8688310452731
 30
0.0
 10
126.6704713579497
 20
153.3413504094528
 30
0.0
 10
126.5928739546895
 20
153.7430966101915
 30
0.0
 10
126.5152584768169
 20
154.066624382793
 30
0.0
 10
126.4376573446183
 20
154.3090865218208
 30
0.0
 10
126.3600621900808
 20
154.4594466813338
 30
0.0
 10
126.3013562541783
 20
154.526040556949
 30
0.0
 10
126.2685302253477
 20
154.5131409341373
 30
0.0
 10
126.2615699796953
 20
154.5104057710124
 30
0.0
  0
SPLINE
  5
E1
330
1F
100
AcDbEntity
  8
0
  6
Continuous
 62
     8
370
    15
100
AcDbSpline
210
0.0
220
0.0
230
1.0
 70
     8
 71
     3
 72
    10
 73
     6
 74
     0
 42
0.00000001
 43
0.00000001
 12
1.0
 22
0.0
 32
0.0
 13
1.0
 23
0.0
 33
0.0
 40
0.0
 40
0.0
 40
0.0
 40
0.0
 40
0.4822803349500246
 40
0.9644979378505816
 40
0.9999999999999999
 40
0.9999999999999999
 40
0.9999999999999999
 40
0.9999999999999999
 10
120.306930152526
 20
143.5315110310264
 30
0.0
 10
120.3457301799011
 20
143.5717323936776
 30
0.0
 10
120.4233251877834
 20
143.6521698872335
 30
0.0
 10
120.5038019552566
 20
143.8421304928374
 30
0.0
 10
120.5454553807828
 20
144.0079198938449
 30
0.0
 10
120.5483117190708
 20
144.0192887214472
 30
0.0
  0
SPLINE
  5
E2
330
1F
100
AcDbEntity
  8
0
  6
Continuous
 62
     8
370
    15
100
AcDbSpline
210
0.0
220
0.0
230
1.0
 70
     8
 71
     3
 72
     9
 73
     5
 74
     0
 42
0.00000001
 43
0.00000001
 12
1.0
 22
0.0
 32
0.0
 13
1.0
 23
0.0
 33
0.0
 40
0.0
 40
0.0
 40
0.0
 40
0.0
 40
0.7227864146250426
 40
1.0
 40
1.0
 40
1.0
 40
1.0
 10
121.9808417693218
 20
153.0192887214472
 30
0.0
 10
122.0049029071386
 20
153.1080560020264
 30
0.0
 10
122.0381923233893
 20
153.2308686044538
 30
0.0
 10
122.0714792897364
 20
153.2862267708471
 30
0.0
 10
122.0807068890237
 20
153.3015728066327
 30
0.0
  0
SPLINE
  5
E3
330
1F
100
AcDbEntity
  8
0
  6
Continuous
 62
     8
370
    15
100
AcDbSpline
210
0.0
220
0.0
230
1.0
 70
     8
 71
     3
 72
    12
 73
     8
 74
     0
 42
0.00000001
 43
0.00000001
 12
1.0
 22
0.0
 32
0.0
 13
1.0
 23
0.0
 33
0.0
 40
0.0
 40
0.0
 40
0.0
 40
0.0
 40
0.1371225598737613
 40
0.419984979273605
 40
0.7028522072108779
 40
0.9857194330036675
 40
1.0
 40
1.0
 40
1.0
 40
1.0
 10
124.4411270344923
 20
143.7346490220984
 30
0.0
 10
124.4599362822512
 20
143.7715582566596
 30
0.0
 10
124.5175460697104
 20
143.8846054760704
 30
0.0
 10
124.6139629539074
 20
144.2409773711404
 30
0.0
 10
124.7303676671608
 20
144.793723812913
 30
0.0
 10
124.8099301020914
 20
145.2349377415529
 30
0.0
 10
124.8506918197297
 20
145.5062497894063
 30
0.0
 10
124.8526507790548
 20
145.5192887214472
 30
0.0
  0
SPLINE
  5
E4
330
1F
100
AcDbEntity
  8
0
  6
Continuous
 62
     8
370
    15
100
AcDbSpline
210
0.0
220
0.0
230
1.0
 70
     8
 71
     3
 72
    11
 73
     7
 74
     0
 42
0.00000001
 43
0.00000001
 12
1.0
 22
0.0
 32
0.0
 13
1.0
 23
0.0
 33
0.0
 40
0.0
 40
0.0
 40
0.0
 40
0.0
 40
0.25709918612905
 40
0.5423491010285226
 40
0.8276357726064482
 40
1.0
 40
1.0
 40
1.0
 40
1.0
 10
125.6731184246162
 20
151.5192887214472
 30
0.0
 10
125.7080854091993
 20
151.733223572158
 30
0.0
 10
125.7818480412007
 20
152.1845177816363
 30
0.0
 10
125.8944420500575
 20
152.7231373135448
 30
0.0
 10
125.9954725442618
 20
153.1158998863955
 30
0.0
 10
126.0577286512328
 20
153.248340500193
 30
0.0
 10
126.0811760557997
 20
153.2982213681735
 30
0.0
  0
SPLINE
  5
E5
330
1F
100
AcDbEntity
  8
0
  6
Continuous
 62
     8
370
    15
100
AcDbSpline
210
0.0
220
0.0
230
1.0
 70
     8
 71
     3
 72
    12
 73
     8
 74
     0
 42
0.00000001
 43
0.00000001
 12
1.0
 22
0.0
 32
0.0
 13
1.0
 23
0.0
 33
0.0
 40
0.0
 40
0.0
 40
0.0
 40
0.0
 40
0.0239574969550043
 40
0.3110525414805332
 40
0.5981772512852739
 40
0.8852691397445882
 40
1.0
 40
1.0
 40
1.0
 40
1.0
 10
128.4456546885604
 20
143.7306804638934
 30
0.0
 10
128.448892325025
 20
143.7358443397716
 30
0.0
 10
128.4909282293859
 20
143.8028896040919
 30
0.0
 10
128.57178466766
 20
144.0825819393484
 30
0.0
 10
128.6881688178669
 20
144.5740562082919
 30
0.0
 10
128.7812954928269
 20
145.0687407812053
 30
0.0
 10
128.8355960623676
 20
145.4192182701473
 30
0.0
 10
128.8511002892331
 20
145.5192887214472
 30
0.0
  0
SPLINE
  5
E6
330
1F
100
AcDbEntity
  8
0
  6
Continuous
 62
     8
370
    15
100
AcDbSpline
210
0.0
220
0.0
230
1.0
 70
     8
 71
     3
 72
    11
 73
     7
 74
     0
 42
0.00000001
 43
0.00000001
 12
1.0
 22
0.0
 32
0.0
 13
1.0
 23
0.0
 33
0.0
 40
0.0
 40
0.0
 40
0.0
 40
0.0
 40
0.1519531654268737
 40
0.4397226799816113
 40
0.7274595298296515
 40
1.0
 40
1.0
 40
1.0
 40
1.0
 10
129.6743619658569
 20
151.5192887214472
 30
0.0
 10
129.6948540669834
 20
151.6499776317608
 30
0.0
 10
129.7541541914689
 20
152.0281657249509
 30
0.0
 10
129.8522321012478
 20
152.5323489330775
 30
0.0
 10
129.9666041344911
 20
153.0206766901555
 30
0.0
 10
130.0421482710354
 20
153.2141216716629
 30
0.0
 10
130.078895848988
 20
153.3082207621105
 30
0.0
  0
SPLINE
  5
E7
330
1F
100
AcDbEntity
  8
0
  6
Continuous
 62
     8
370
    15
100
AcDbSpline
210
0.0
220
0.0
230
1.0
 70
     8
 71
     3
 72
    10
 73
     6
 74
     0
 42
0.00000001
 43
0.00000001
 12
1.0
 22
0.0
 32
0.0
 13
1.0
 23
0.0
 33
0.0
 40
0.0
 40
0.0
 40
0.0
 40
0.0
 40
0.3088065895610173
 40
0.7337331924486105
 40
1.0
 40
1.0
 40
1.0
 40
1.0
 10
132.4450018958281
 20
143.7388708941876
 30
0.0
 10
132.4731956018502
 20
143.8039404684967
 30
0.0
 10
132.5401846449143
 20
143.9585476177707
 30
0.0
 10
132.631509651232
 20
144.3111611675177
 30
0.0
 10
132.6946154233634
 20
144.6383406052358
 30
0.0
 10
132.7189255111474
 20
144.764379168483
 30
0.0
  0
SPLINE
  5
E8
330
1F
100
AcDbEntity
  8
0
  6
Continuous
 62
     8
370
    15
100
AcDbSpline
210
0.0
220
0.0
230
1.0
 70
     8
 71
     3
 72
     9
 73
     5
 74
     0
 42
0.00000001
 43
0.00000001
 12
1.0
 22
0.0
 32
0.0
 13
1.0
 23
0.0
 33
0.0
 40
0.0
 40
0.0
 40
0.0
 40
0.0
 40
0.6076660939332877
 40
1.0
 40
1.0
 40
1.0
 40
1.0
 10
133.9811371325043
 20
153.0192887214472
 30
0.0
 10
134.0017137626159
 20
153.0960421429143
 30
0.0
 10
134.0355755006939
 20
153.222350690048
 30
0.0
 10
134.069438952064
 20
153.2799909388905
 30
0.0
 10
134.0827247322129
 20
153.3026051628655
 30
0.0
  0
DIMENSION
  5
E9
330
1F
100
AcDbEntity
  8
0
  6
Continuous
 62
     7
370
     0
100
AcDbDimension
  2
_D
 10
132.7189255111
 20
167.8192887214
 30
0.0
 11
115.2309139887
 21
167.8192887214
 31
0.0
 70
   160
  1
<>st
 71
     2
 42
-1.0
  3
SLDDIMSTYLE0
100
AcDbAlignedDimension
 13
122.7189255111
 23
153.0192887214
 33
0.0
 14
132.7189255111
 24
152.6192887214
 34
0.0
100
AcDbRotatedDimension
  0
DIMENSION
  5
F7
330
1F
100
AcDbEntity
  8
0
  6
Continuous
 62
     7
370
     0
100
AcDbDimension
  2
_D_1
 10
160.7189255111
 20
179.8192887214
 30
0.0
 11
131.7189255111
 21
179.8192887214
 31
0.0
 70
   160
  1
<>
 71
     2
 42
-1.0
  3
SLDDIMSTYLE0
100
AcDbAlignedDimension
 13
102.7189255111
 23
154.0192887214
 33
0.0
 14
160.7189255111
 24
151.0192887214
 34
0.0
100
AcDbRotatedDimension
  0
DIMENSION
  5
101
330
1F
100
AcDbEntity
  8
0
  6
Continuous
 62
     7
370
     0
100
AcDbDimension
  2
_D_2
 10
111.7189255111
 20
121.7192887214
 30
0.0
 11
107.2189255111
 21
121.7192887214
 31
0.0
 70
   160
  1
<>
 71
     2
 42
-1.0
  3
SLDDIMSTYLE1
100
AcDbAlignedDimension
 13
102.7189255111
 23
143.0192887214
 33
0.0
 14
111.7189255111
 24
148.5192887214
 34
0.0
100
AcDbRotatedDimension
  0
DIMENSION
  5
10E
330
1F
100
AcDbEntity
  8
0
  6
Continuous
 62
     7
370
     0
100
AcDbDimension
  2
_D_3
 10
158.7189255111
 20
121.7192887214
 30
0.0
 11
148.2189255111
 21
121.7192887214
 31
0.0
 70
   160
  1
<>
 71
     2
 42
-1.0
  3
SLDDIMSTYLE0
100
AcDbAlignedDimension
 13
137.7189255111
 23
140.9192887214
 33
0.0
 14
158.7189255111
 24
142.9192887214
 34
0.0
100
AcDbRotatedDimension
  0
DIMENSION
  5
118
330
1F
100
AcDbEntity
  8
0
  6
Continuous
 62
     7
370
     0
100
AcDbDimension
  2
_D_4
 10
172.378202435
 20
145.5192887214
 30
0.0
 11
172.378202435
 21
159.6734698363
 31
0.0
 70
   160
  1
%%c<>
 71
     2
 42
-1.0
  3
SLDDIMSTYLE1
100
AcDbAlignedDimension
 13
160.2189255111
 23
151.5192887214
 33
0.0
 14
160.2189255111
 24
145.5192887214
 34
0.0
 50
90.0
100
AcDbRotatedDimension
  0
DIMENSION
  5
125
330
1F
100
AcDbEntity
  8
0
  6
Continuous
 62
     7
370
     0
100
AcDbDimension
  2
_D_5
 10
185.2353377581
 20
142.5192887214
 30
0.0
 11
185.2353377581
 21
148.5192887214
 31
0.0
 70
   160
  1
%%c<>
 71
     2
 42
-1.0
  3
SLDDIMSTYLE0
100
AcDbAlignedDimension
 13
158.3189255111
 23
154.5192887214
 33
0.0
 14
158.3189255111
 24
142.5192887214
 34
0.0
 50
90.0
100
AcDbRotatedDimension
  0
DIMENSION
  5
130
330
1F
100
AcDbEntity
  8
0
  6
Continuous
 62
     7
370
     0
100
AcDbDimension
  2
_D_6
 10
92.7189255111
 20
143.0192887214
 30
0.0
 11
92.7189255111
 21
148.5192887214
 31
0.0
 70
   160
  1
%%c<>
 71
     2
 42
-1.0
  3
SLDDIMSTYLE0
100
AcDbAlignedDimension
 13
102.7189255111
 23
154.0192887214
 33
0.0
 14
102.7189255111
 24
143.0192887214
 34
0.0
 50
90.0
100
AcDbRotatedDimension
  0
LINE
  5
13B
330
1F
100
AcDbEntity
  8
0
  6
CENTERX2
 62
     7
370
     0
100
AcDbLine
 10
94.0893073401
 20
148.5192887214
 30
0.0
 11
166.4723650678
 21
148.5192887214
 31
0.0
  0
LINE
  5
13C
330
1F
100
AcDbEntity
  8
0
  6
CENTERX2
 62
     7
370
     0
100
AcDbLine
 10
117.7189255111
 20
148.5192887214
 30
0.0
 11
100.7189255111
 21
148.5192887214
 31
0.0
  0
LINE
  5
13D
330
1F
100
AcDbEntity
  8
0
  6
CENTERX2
 62
     7
370
     0
100
AcDbLine
 10
115.7189255111
 20
129.9023683707
 30
0.0
 11
115.7189255111
 21
162.2725608347
 31
0.0
  0
LINE
  5
13E
330
1F
100
AcDbEntity
  8
0
  6
CENTERX2
 62
     7
370
     0
100
AcDbLine
 10
160.2189255111
 20
148.5192887214
 30
0.0
 11
162.7189255111
 21
148.5192887214
 31
0.0
  0
LINE
  5
13F
330
1F
100
AcDbEntity
  8
0
  6
CENTERX2
 62
     7
370
     0
100
AcDbLine
 10
160.2189255111
 20
148.5192887214
 30
0.0
 11
159.4189255111
 21
148.5192887214
 31
0.0
  0
LINE
  5
140
330
1F
100
AcDbEntity
  8
0
  6
CENTERX2
 62
     7
370
     0
100
AcDbLine
 10
159.4189255111
 20
148.5192887214
 30
0.0
 11
158.7189255111
 21
148.5192887214
 31
0.0
  0
LINE
  5
141
330
1F
100
AcDbEntity
  8
0
  6
CENTERX2
 62
     7
370
     0
100
AcDbLine
 10
158.7189255111
 20
148.5192887214
 30
0.0
 11
122.7189255111
 21
148.5192887214
 31
0.0
  0
LINE
  5
142
330
1F
100
AcDbEntity
  8
0
  6
CENTERX2
 62
     7
370
     0
100
AcDbLine
 10
122.7189255111
 20
148.5192887214
 30
0.0
 11
117.7189255111
 21
148.5192887214
 31
0.0
  0
LINE
  5
143
330
1F
100
AcDbEntity
  8
0
  6
Continuous
 62
     7
370
    15
100
AcDbLine
 10
56.1207320534
 20
134.2192887214
 30
0.0
 11
56.4707320534
 21
131.7192887214
 31
0.0
  0
LINE
  5
144
330
1F
100
AcDbEntity
  8
0
  6
Continuous
 62
     7
370
    15
100
AcDbLine
 10
60.4707320534
 20
131.7192887214
 30
0.0
 11
60.8207320534
 21
134.2192887214
 31
0.0
  0
LINE
  5
145
330
1F
100
AcDbEntity
  8
0
  6
Continuous
 62
     7
370
    15
100
AcDbLine
 10
56.1207320534
 20
136.7192887214
 30
0.0
 11
56.4707320534
 21
134.2192887214
 31
0.0
  0
LINE
  5
146
330
1F
100
AcDbEntity
  8
0
  6
Continuous
 62
     7
370
    15
100
AcDbLine
 10
60.4707320534
 20
134.2192887214
 30
0.0
 11
60.8207320534
 21
136.7192887214
 31
0.0
  0
LINE
  5
147
330
1F
100
AcDbEntity
  8
0
  6
Continuous
 62
     7
370
    15
100
AcDbLine
 10
60.5707320534
 20
136.7192887214
 30
0.0
 11
60.5707320534
 21
139.2192887214
 31
0.0
  0
LINE
  5
148
330
1F
100
AcDbEntity
  8
0
  6
Continuous
 62
     7
370
    15
100
AcDbLine
 10
56.3707320534
 20
139.2192887214
 30
0.0
 11
56.3707320534
 21
136.7192887214
 31
0.0
  0
LINE
  5
149
330
1F
100
AcDbEntity
  8
0
  6
Continuous
 62
     7
370
    15
100
AcDbLine
 10
54.4707320534
 20
155.3192887214
 30
0.0
 11
54.4707320534
 21
154.5192887214
 31
0.0
  0
LINE
  5
14A
330
1F
100
AcDbEntity
  8
0
  6
Continuous
 62
     7
370
    15
100
AcDbLine
 10
62.4707320534
 20
154.5192887214
 30
0.0
 11
62.4707320534
 21
155.3192887214
 31
0.0
  0
LINE
  5
14B
330
1F
100
AcDbEntity
  8
0
  6
Continuous
 62
     7
370
    15
100
AcDbLine
 10
54.4707320534
 20
142.5192887214
 30
0.0
 11
54.4707320534
 21
141.7192887214
 31
0.0
  0
LINE
  5
14C
330
1F
100
AcDbEntity
  8
0
  6
Continuous
 62
     7
370
    15
100
AcDbLine
 10
62.4707320534
 20
141.7192887214
 30
0.0
 11
62.4707320534
 21
142.5192887214
 31
0.0
  0
CIRCLE
  5
14D
330
1F
100
AcDbEntity
  8
0
  6
Continuous
 62
     7
370
    15
100
AcDbCircle
 10
58.4707320534
 20
148.5192887214
 30
0.0
 40
2.100000000000001
  0
CIRCLE
  5
14E
330
1F
100
AcDbEntity
  8
0
  6
Continuous
 62
     7
370
    15
100
AcDbCircle
 10
58.4707320534
 20
148.5192887214
 30
0.0
 40
5.5
  0
LINE
  5
14F
330
1F
100
AcDbEntity
  8
0
  6
Continuous
 62
     7
370
    15
100
AcDbLine
 10
51.5425288231
 20
148.5192887214
 30
0.0
 11
55.0066304383
 21
154.5192887214
 31
0.0
  0
LINE
  5
150
330
1F
100
AcDbEntity
  8
0
  6
Continuous
 62
     7
370
    15
100
AcDbLine
 10
55.0066304383
 20
154.5192887214
 30
0.0
 11
61.9348336686
 21
154.5192887214
 31
0.0
  0
LINE
  5
151
330
1F
100
AcDbEntity
  8
0
  6
Continuous
 62
     7
370
    15
100
AcDbLine
 10
61.9348336686
 20
154.5192887214
 30
0.0
 11
65.3989352837
 21
148.5192887214
 31
0.0
  0
LINE
  5
152
330
1F
100
AcDbEntity
  8
0
  6
Continuous
 62
     7
370
    15
100
AcDbLine
 10
65.3989352837
 20
148.5192887214
 30
0.0
 11
61.9348336686
 21
142.5192887214
 31
0.0
  0
LINE
  5
153
330
1F
100
AcDbEntity
  8
0
  6
Continuous
 62
     7
370
    15
100
AcDbLine
 10
61.9348336686
 20
142.5192887214
 30
0.0
 11
55.0066304383
 21
142.5192887214
 31
0.0
  0
LINE
  5
154
330
1F
100
AcDbEntity
  8
0
  6
Continuous
 62
     7
370
    15
100
AcDbLine
 10
55.0066304383
 20
142.5192887214
 30
0.0
 11
51.5425288231
 21
148.5192887214
 31
0.0
  0
ARC
  5
155
330
1F
100
AcDbEntity
  8
0
  6
Continuous
 62
     7
370
    15
100
AcDbCircle
 10
58.4707320534
 20
148.5192887214
 30
0.0
 40
7.600000000000007
100
AcDbArc
 50
121.7568638593
 51
238.2431361407
  0
ARC
  5
156
330
1F
100
AcDbEntity
  8
0
  6
Continuous
 62
     7
370
    15
100
AcDbCircle
 10
58.4707320534
 20
148.5192887214
 30
0.0
 40
7.600000000000001
100
AcDbArc
 50
301.7568638593
 51
58.2431361407
  0
ARC
  5
157
330
1F
100
AcDbEntity
  8
0
  6
Continuous
 62
     7
370
    15
100
AcDbCircle
 10
58.4707320534
 20
148.5192887214
 30
0.0
 40
8.000000000000005
100
AcDbArc
 50
120.4143653546
 51
239.5856346455
  0
ARC
  5
158
330
1F
100
AcDbEntity
  8
0
  6
Continuous
 62
     7
370
    15
100
AcDbCircle
 10
58.4707320534
 20
148.5192887214
 30
0.0
 40
7.999999999999996
100
AcDbArc
 50
300.4143653546
 51
59.5856346455
  0
LINE
  5
159
330
1F
100
AcDbEntity
  8
0
  6
Continuous
 62
     7
370
    15
100
AcDbLine
 10
56.4457320534
 20
155.3192887214
 30
0.0
 11
56.4457320534
 21
157.8192887214
 31
0.0
  0
LINE
  5
15A
330
1F
100
AcDbEntity
  8
0
  6
Continuous
 62
     7
370
    15
100
AcDbLine
 10
54.4207320534
 20
155.3192887214
 30
0.0
 11
54.4717065727
 21
155.3192887214
 31
0.0
  0
LINE
  5
15B
330
1F
100
AcDbEntity
  8
0
  6
Continuous
 62
     7
370
    15
100
AcDbLine
 10
56.3947575341
 20
155.3192887214
 30
0.0
 11
56.4457320534
 21
155.3192887214
 31
0.0
  0
LINE
  5
15C
330
1F
100
AcDbEntity
  8
0
  6
Continuous
 62
     7
370
    15
100
AcDbLine
 10
54.4207320534
 20
155.3192887214
 30
0.0
 11
54.4207320535
 21
157.8192887214
 31
0.0
  0
LINE
  5
15D
330
1F
100
AcDbEntity
  8
0
  6
Continuous
 62
     7
370
    15
100
AcDbLine
 10
54.4207320535
 20
157.8192887214
 30
0.0
 11
56.4457320534
 21
157.8192887214
 31
0.0
  0
LINE
  5
15E
330
1F
100
AcDbEntity
  8
0
  6
Continuous
 62
     7
370
    15
100
AcDbLine
 10
60.4957320534
 20
155.3192887214
 30
0.0
 11
60.4957320534
 21
157.8192887214
 31
0.0
  0
LINE
  5
15F
330
1F
100
AcDbEntity
  8
0
  6
Continuous
 62
     7
370
    15
100
AcDbLine
 10
56.4457320534
 20
155.3192887214
 30
0.0
 11
56.5476810921
 21
155.3192887214
 31
0.0
  0
LINE
  5
160
330
1F
100
AcDbEntity
  8
0
  6
Continuous
 62
     7
370
    15
100
AcDbLine
 10
60.3937830148
 20
155.3192887214
 30
0.0
 11
60.4957320534
 21
155.3192887214
 31
0.0
  0
LINE
  5
161
330
1F
100
AcDbEntity
  8
0
  6
Continuous
 62
     7
370
    15
100
AcDbLine
 10
56.4457320534
 20
157.8192887214
 30
0.0
 11
60.4957320534
 21
157.8192887214
 31
0.0
  0
LINE
  5
162
330
1F
100
AcDbEntity
  8
0
  6
Continuous
 62
     7
370
    15
100
AcDbLine
 10
62.5207320534
 20
155.3192887214
 30
0.0
 11
62.5207320533
 21
157.8192887214
 31
0.0
  0
LINE
  5
163
330
1F
100
AcDbEntity
  8
0
  6
Continuous
 62
     7
370
    15
100
AcDbLine
 10
60.4957320534
 20
155.3192887214
 30
0.0
 11
60.5467065727
 21
155.3192887214
 31
0.0
  0
LINE
  5
164
330
1F
100
AcDbEntity
  8
0
  6
Continuous
 62
     7
370
    15
100
AcDbLine
 10
62.4697575341
 20
155.3192887214
 30
0.0
 11
62.5207320534
 21
155.3192887214
 31
0.0
  0
LINE
  5
165
330
1F
100
AcDbEntity
  8
0
  6
Continuous
 62
     7
370
    15
100
AcDbLine
 10
60.4957320534
 20
157.8192887214
 30
0.0
 11
62.5207320533
 21
157.8192887214
 31
0.0
  0
LINE
  5
166
330
1F
100
AcDbEntity
  8
0
  6
Continuous
 62
     7
370
    15
100
AcDbLine
 10
56.4457320533
 20
141.7192887214
 30
0.0
 11
56.4457320536
 21
139.2192887214
 31
0.0
  0
LINE
  5
167
330
1F
100
AcDbEntity
  8
0
  6
Continuous
 62
     7
370
    15
100
AcDbLine
 10
56.4457320536
 20
139.2192887214
 30
0.0
 11
54.4207320534
 21
139.2192887214
 31
0.0
  0
LINE
  5
168
330
1F
100
AcDbEntity
  8
0
  6
Continuous
 62
     7
370
    15
100
AcDbLine
 10
54.4207320534
 20
139.2192887214
 30
0.0
 11
54.4207320534
 21
141.7192887214
 31
0.0
  0
LINE
  5
169
330
1F
100
AcDbEntity
  8
0
  6
Continuous
 62
     7
370
    15
100
AcDbLine
 10
56.4457320533
 20
141.7192887214
 30
0.0
 11
56.3947575341
 21
141.7192887214
 31
0.0
  0
LINE
  5
16A
330
1F
100
AcDbEntity
  8
0
  6
Continuous
 62
     7
370
    15
100
AcDbLine
 10
54.4717065727
 20
141.7192887214
 30
0.0
 11
54.4207320534
 21
141.7192887214
 31
0.0
  0
LINE
  5
16B
330
1F
100
AcDbEntity
  8
0
  6
Continuous
 62
     7
370
    15
100
AcDbLine
 10
60.4957320534
 20
141.7192887214
 30
0.0
 11
60.4957320534
 21
139.2192887214
 31
0.0
  0
LINE
  5
16C
330
1F
100
AcDbEntity
  8
0
  6
Continuous
 62
     7
370
    15
100
AcDbLine
 10
60.4957320534
 20
141.7192887214
 30
0.0
 11
60.3937830148
 21
141.7192887214
 31
0.0
  0
LINE
  5
16D
330
1F
100
AcDbEntity
  8
0
  6
Continuous
 62
     7
370
    15
100
AcDbLine
 10
56.5476810921
 20
141.7192887214
 30
0.0
 11
56.4457320533
 21
141.7192887214
 31
0.0
  0
LINE
  5
16E
330
1F
100
AcDbEntity
  8
0
  6
Continuous
 62
     7
370
    15
100
AcDbLine
 10
60.4957320534
 20
139.2192887214
 30
0.0
 11
56.4457320536
 21
139.2192887214
 31
0.0
  0
LINE
  5
16F
330
1F
100
AcDbEntity
  8
0
  6
Continuous
 62
     7
370
    15
100
AcDbLine
 10
62.5207320534
 20
141.7192887214
 30
0.0
 11
62.5207320534
 21
139.2192887214
 31
0.0
  0
LINE
  5
170
330
1F
100
AcDbEntity
  8
0
  6
Continuous
 62
     7
370
    15
100
AcDbLine
 10
62.5207320534
 20
141.7192887214
 30
0.0
 11
62.4697575341
 21
141.7192887214
 31
0.0
  0
LINE
  5
171
330
1F
100
AcDbEntity
  8
0
  6
Continuous
 62
     7
370
    15
100
AcDbLine
 10
60.5467065727
 20
141.7192887214
 30
0.0
 11
60.4957320534
 21
141.7192887214
 31
0.0
  0
LINE
  5
172
330
1F
100
AcDbEntity
  8
0
  6
Continuous
 62
     7
370
    15
100
AcDbLine
 10
62.5207320534
 20
139.2192887214
 30
0.0
 11
60.4957320534
 21
139.2192887214
 31
0.0
  0
LINE
  5
173
330
1F
100
AcDbEntity
  8
0
  6
Continuous
 62
     7
370
    15
100
AcDbLine
 10
57.2957320534
 20
134.2192887214
 30
0.0
 11
56.1207320534
 21
134.2192887214
 31
0.0
  0
LINE
  5
174
330
1F
100
AcDbEntity
  8
0
  6
Continuous
 62
     7
370
    15
100
AcDbLine
 10
60.8207320534
 20
134.2192887214
 30
0.0
 11
57.2957320534
 21
134.2192887214
 31
0.0
  0
LINE
  5
175
330
1F
100
AcDbEntity
  8
0
  6
Continuous
 62
     7
370
    15
100
AcDbLine
 10
60.4707320534
 20
131.7192887214
 30
0.0
 11
56.4707320534
 21
131.7192887214
 31
0.0
  0
LINE
  5
176
330
1F
100
AcDbEntity
  8
0
  6
Continuous
 62
     7
370
    15
100
AcDbLine
 10
57.2957320534
 20
136.7192887214
 30
0.0
 11
56.1207320534
 21
136.7192887214
 31
0.0
  0
LINE
  5
177
330
1F
100
AcDbEntity
  8
0
  6
Continuous
 62
     7
370
    15
100
AcDbLine
 10
60.8207320534
 20
136.7192887214
 30
0.0
 11
57.2957320534
 21
136.7192887214
 31
0.0
  0
LINE
  5
178
330
1F
100
AcDbEntity
  8
0
  6
Continuous
 62
     7
370
    15
100
AcDbLine
 10
62.4707320534
 20
154.5192887214
 30
0.0
 11
61.9348336686
 21
154.5192887214
 31
0.0
  0
LINE
  5
179
330
1F
100
AcDbEntity
  8
0
  6
Continuous
 62
     7
370
    15
100
AcDbLine
 10
55.0066304383
 20
154.5192887214
 30
0.0
 11
54.4707320534
 21
154.5192887214
 31
0.0
  0
LINE
  5
17A
330
1F
100
AcDbEntity
  8
0
  6
Continuous
 62
     7
370
    15
100
AcDbLine
 10
62.4697575341
 20
155.3192887214
 30
0.0
 11
60.5467065727
 21
155.3192887214
 31
0.0
  0
LINE
  5
17B
330
1F
100
AcDbEntity
  8
0
  6
Continuous
 62
     7
370
    15
100
AcDbLine
 10
60.3937830148
 20
155.3192887214
 30
0.0
 11
56.5476810921
 21
155.3192887214
 31
0.0
  0
LINE
  5
17C
330
1F
100
AcDbEntity
  8
0
  6
Continuous
 62
     7
370
    15
100
AcDbLine
 10
56.3947575341
 20
155.3192887214
 30
0.0
 11
54.4717065727
 21
155.3192887214
 31
0.0
  0
LINE
  5
17D
330
1F
100
AcDbEntity
  8
0
  6
Continuous
 62
     7
370
    15
100
AcDbLine
 10
55.0066304383
 20
142.5192887214
 30
0.0
 11
54.4707320534
 21
142.5192887214
 31
0.0
  0
LINE
  5
17E
330
1F
100
AcDbEntity
  8
0
  6
Continuous
 62
     7
370
    15
100
AcDbLine
 10
62.4707320534
 20
142.5192887214
 30
0.0
 11
61.9348336686
 21
142.5192887214
 31
0.0
  0
LINE
  5
17F
330
1F
100
AcDbEntity
  8
0
  6
Continuous
 62
     7
370
    15
100
AcDbLine
 10
55.5056984387
 20
141.7192887214
 30
0.0
 11
54.4717065727
 21
141.7192887214
 31
0.0
  0
LINE
  5
180
330
1F
100
AcDbEntity
  8
0
  6
Continuous
 62
     7
370
    15
100
AcDbLine
 10
62.4697575341
 20
141.7192887214
 30
0.0
 11
60.5467065727
 21
141.7192887214
 31
0.0
  0
LINE
  5
181
330
1F
100
AcDbEntity
  8
0
  6
Continuous
 62
     7
370
    15
100
AcDbLine
 10
60.3937830148
 20
141.7192887214
 30
0.0
 11
56.5476810921
 21
141.7192887214
 31
0.0
  0
LINE
  5
182
330
1F
100
AcDbEntity
  8
0
  6
Continuous
 62
     7
370
    15
100
AcDbLine
 10
56.3947575341
 20
141.7192887214
 30
0.0
 11
55.5056984387
 21
141.7192887214
 31
0.0
  0
DIMENSION
  5
183
330
1F
100
AcDbEntity
  8
0
  6
Continuous
 62
     7
370
     0
100
AcDbDimension
  2
_D_7
 10
66.4707320534
 20
179.8192887214
 30
0.0
 11
57.3292319743
 21
179.8192887214
 31
0.0
 70
   160
  1
%%c<>
 71
     2
 42
-1.0
  3
SLDDIMSTYLE0
100
AcDbAlignedDimension
 13
50.4707320534
 23
148.5192887214
 33
0.0
 14
66.4707320534
 24
148.5192887214
 34
0.0
100
AcDbRotatedDimension
  0
DIMENSION
  5
18E
330
1F
100
AcDbEntity
  8
0
  6
Continuous
 62
     7
370
     0
100
AcDbDimension
  2
_D_8
 10
40.4707320534
 20
142.5192887214
 30
0.0
 11
40.4707320534
 21
148.5192887214
 31
0.0
 70
   160
  1
<>
 71
     2
 42
-1.0
  3
SLDDIMSTYLE1
100
AcDbAlignedDimension
 13
55.0066304383
 23
154.5192887214
 33
0.0
 14
55.0066304383
 24
142.5192887214
 34
0.0
 50
90.0
100
AcDbRotatedDimension
  0
MTEXT
  5
19A
330
1F
100
AcDbEntity
  8
0
  6
Continuous
 62
     7
370
     0
100
AcDbMText
 10
41.4498379396
 20
125.0365544502
 30
0.0
 40
3.5
 41
0.0
 71
     1
 72
     1
  1
BF-6
  7
SLDTEXTSTYLE1
 73
     1
 44
1.0
  0
LEADER
  5
19C
330
1F
100
AcDbEntity
  8
0
  6
Continuous
 62
     7
370
     0
100
AcDbLeader
  3
SLDDIMSTYLE2
 76
     3
 10
57.3737718704
 20
132.7530002344
 30
0.0
 10
50.9103165299
 20
120.5158264947
 30
0.0
 10
41.3833528722
 20
120.5158264947
 30
0.0
  0
INSERT
  5
1A7
330
1F
100
AcDbEntity
  8
0
  6
Continuous
 62
     7
370
     0
100
AcDbBlockReference
  2
SW_NOTE_0
 10
74.4431418523
 20
163.6576787808
 30
0.0
  0
LEADER
  5
1A8
330
1F
100
AcDbEntity
  8
0
  6
Continuous
 62
     7
370
     0
100
AcDbLeader
  3
SLDDIMSTYLE2
 76
     2
 10
60.0910265736
 20
149.855195031
 30
0.0
 10
74.4431418523
 20
163.6576787808
 30
0.0
  0
INSERT
  5
1B4
330
1F
100
AcDbEntity
  8
0
  6
Continuous
 62
     7
370
     0
100
AcDbBlockReference
  2
SW_CENTERMARKSYMBOL_0
 10
58.4707320534
 20
148.5192887214
 30
0.0
  0
ENDSEC
  0
SECTION
  2
OBJECTS
  0
DICTIONARY
  5
C
330
0
100
AcDbDictionary
281
     1
  3
ACAD_GROUP
350
D
  3
ACAD_LAYOUT
350
1A
  3
ACAD_MLINESTYLE
350
17
  3
ACAD_PLOTSETTINGS
350
19
  3
ACAD_PLOTSTYLENAME
350
E
  0
DICTIONARY
  5
D
102
{ACAD_REACTORS
330
C
102
}
330
C
100
AcDbDictionary
281
     1
  0
DICTIONARY
  5
1A
102
{ACAD_REACTORS
330
C
102
}
330
C
100
AcDbDictionary
281
     1
  3
Layout1
350
1E
  3
Layout2
350
26
  3
Model
350
22
  0
DICTIONARY
  5
17
102
{ACAD_REACTORS
330
C
102
}
330
C
100
AcDbDictionary
281
     1
  3
Standard
350
18
  0
DICTIONARY
  5
19
102
{ACAD_REACTORS
330
C
102
}
330
C
100
AcDbDictionary
281
     1
  0
ACDBDICTIONARYWDFLT
  5
E
102
{ACAD_REACTORS
330
C
102
}
330
C
100
AcDbDictionary
281
     1
  3
Normal
350
F
100
AcDbDictionaryWithDefault
340
F
  0
LAYOUT
  5
1E
102
{ACAD_REACTORS
330
1A
102
}
330
1A
100
AcDbPlotSettings
  1

  2
none_device
  4

  6

 40
0.0
 41
0.0
 42
0.0
 43
0.0
 44
0.0
 45
0.0
 46
0.0
 47
0.0
 48
0.0
 49
0.0
140
0.0
141
0.0
142
1.0
143
1.0
 70
   688
 72
     0
 73
     0
 74
     5
  7

 75
    16
147
1.0
148
0.0
149
0.0
100
AcDbLayout
  1
Layout1
 70
     1
 71
     1
 10
0.0
 20
0.0
 11
420.0
 21
297.0
 12
0.0
 22
0.0
 32
0.0
 14
1.0000000000E+20
 24
1.0000000000E+20
 34
1.0000000000E+20
 15
-1.0000000000E+20
 25
-1.0000000000E+20
 35
-1.0000000000E+20
146
0.0
 13
0.0
 23
0.0
 33
0.0
 16
1.0
 26
0.0
 36
0.0
 17
0.0
 27
1.0
 37
0.0
 76
     0
330
1B
  0
LAYOUT
  5
26
102
{ACAD_REACTORS
330
1A
102
}
330
1A
100
AcDbPlotSettings
  1

  2
none_device
  4

  6

 40
0.0
 41
0.0
 42
0.0
 43
0.0
 44
0.0
 45
0.0
 46
0.0
 47
0.0
 48
0.0
 49
0.0
140
0.0
141
0.0
142
1.0
143
1.0
 70
   688
 72
     0
 73
     0
 74
     5
  7

 75
    16
147
1.0
148
0.0
149
0.0
100
AcDbLayout
  1
Layout2
 70
     1
 71
     2
 10
0.0
 20
0.0
 11
0.0
 21
0.0
 12
0.0
 22
0.0
 32
0.0
 14
0.0
 24
0.0
 34
0.0
 15
0.0
 25
0.0
 35
0.0
146
0.0
 13
0.0
 23
0.0
 33
0.0
 16
1.0
 26
0.0
 36
0.0
 17
0.0
 27
1.0
 37
0.0
 76
     0
330
23
  0
LAYOUT
  5
22
102
{ACAD_REACTORS
330
1A
102
}
330
1A
100
AcDbPlotSettings
  1

  2
none_device
  4

  6

 40
0.0
 41
0.0
 42
0.0
 43
0.0
 44
0.0
 45
0.0
 46
0.0
 47
0.0
 48
0.0
 49
0.0
140
0.0
141
0.0
142
1.0
143
1.0
 70
  1712
 72
     0
 73
     0
 74
     0
  7

 75
     0
147
1.0
148
0.0
149
0.0
100
AcDbLayout
  1
Model
 70
     1
 71
     0
 10
0.0
 20
0.0
 11
210.0
 21
297.0
 12
0.0
 22
0.0
 32
0.0
 14
0.0
 24
0.0
 34
0.0
 15
210.0
 25
297.0
 35
0.0
146
0.0
 13
0.0
 23
0.0
 33
0.0
 16
1.0
 26
0.0
 36
0.0
 17
0.0
 27
1.0
 37
0.0
 76
     0
330
1F
331
29
  0
MLINESTYLE
  5
18
102
{ACAD_REACTORS
330
17
102
}
330
17
100
AcDbMlineStyle
  2
Standard
 70
     0
  3

 62
   256
 51
90.0
 52
90.0
 71
     2
 49
0.5
 62
   256
  6
BYLAYER
 49
-0.5
 62
   256
  6
BYLAYER
  0
ACDBPLACEHOLDER
  5
F
102
{ACAD_REACTORS
330
E
102
}
330
E
  0
ENDSEC
  0
EOF
