  0
SECTION
  2
HEADER
  9
$ACADVER
  1
AC1015
  9
$ACADMAINTVER
 70
     6
  9
$DWGCODEPAGE
  3
DOS932
  9
$INSBASE
 10
0.0
 20
0.0
 30
0.0
  9
$EXTMIN
 10
0.0
 20
0.0
 30
0.0
  9
$EXTMAX
 10
210.0
 20
297.0
 30
0.0
  9
$LIMMIN
 10
0.0
 20
0.0
  9
$LIMMAX
 10
210.0
 20
297.0
  9
$ORTHOMODE
 70
     0
  9
$REGENMODE
 70
     1
  9
$FILLMODE
 70
     1
  9
$QTEXTMODE
 70
     0
  9
$MIRRTEXT
 70
     1
  9
$LTSCALE
 40
1.0
  9
$ATTMODE
 70
     1
  9
$TEXTSIZE
 40
3.5
  9
$TRACEWID
 40
1.0
  9
$TEXTSTYLE
  7
Standard
  9
$CLAYER
  8
0
  9
$CELTYPE
  6
ByLayer
  9
$CECOLOR
 62
   256
  9
$CELTSCALE
 40
1.0
  9
$DISPSILH
 70
     0
  9
$DIMSCALE
 40
1.0
  9
$DIMASZ
 40
3.302
  9
$DIMEXO
 40
1.0
  9
$DIMDLI
 40
3.75
  9
$DIMRND
 40
0.0
  9
$DIMDLE
 40
0.0
  9
$DIMEXE
 40
1.0
  9
$DIMTP
 40
0.0
  9
$DIMTM
 40
0.0
  9
$DIMTXT
 40
3.5
  9
$DIMCEN
 40
2.5
  9
$DIMTSZ
 40
0.0
  9
$DIMTOL
 70
     0
  9
$DIMLIM
 70
     0
  9
$DIMTIH
 70
     1
  9
$DIMTOH
 70
     1
  9
$DIMSE1
 70
     0
  9
$DIMSE2
 70
     0
  9
$DIMTAD
 70
     1
  9
$DIMZIN
 70
     0
  9
$DIMBLK
  1

  9
$DIMASO
 70
     1
  9
$DIMSHO
 70
     1
  9
$DIMPOST
  1

  9
$DIMAPOST
  1

  9
$DIMALT
 70
     0
  9
$DIMALTD
 70
     3
  9
$DIMALTF
 40
0.0393700787
  9
$DIMLFAC
 40
1.0
  9
$DIMTOFL
 70
     1
  9
$DIMTVP
 40
0.0
  9
$DIMTIX
 70
     0
  9
$DIMSOXD
 70
     0
  9
$DIMSAH
 70
     0
  9
$DIMBLK1
  1

  9
$DIMBLK2
  1

  9
$DIMSTYLE
  2
ISO-25
  9
$DIMCLRD
 70
     0
  9
$DIMCLRE
 70
     0
  9
$DIMCLRT
 70
     0
  9
$DIMTFAC
 40
1.0
  9
$DIMGAP
 40
1.524
  9
$DIMJUST
 70
     0
  9
$DIMSD1
 70
     0
  9
$DIMSD2
 70
     0
  9
$DIMTOLJ
 70
     0
  9
$DIMTZIN
 70
     0
  9
$DIMALTZ
 70
     0
  9
$DIMALTTZ
 70
     0
  9
$DIMUPT
 70
     0
  9
$DIMDEC
 70
     2
  9
$DIMTDEC
 70
     2
  9
$DIMALTU
 70
     2
  9
$DIMALTTD
 70
     3
  9
$DIMTXSTY
  7
Standard
  9
$DIMAUNIT
 70
     0
  9
$DIMADEC
 70
     2
  9
$DIMALTRND
 40
0.0
  9
$DIMAZIN
 70
     0
  9
$DIMDSEP
 70
    44
  9
$DIMATFIT
 70
     3
  9
$DIMFRAC
 70
     0
  9
$DIMLDRBLK
  1

  9
$DIMLUNIT
 70
     2
  9
$DIMLWD
 70
    -2
  9
$DIMLWE
 70
    -2
  9
$DIMTMOVE
 70
     0
  9
$LUNITS
 70
     2
  9
$LUPREC
 70
     2
  9
$SKETCHINC
 40
1.0
  9
$FILLETRAD
 40
10.0
  9
$AUNITS
 70
     0
  9
$AUPREC
 70
     2
  9
$MENU
  1
.
  9
$ELEVATION
 40
0.0
  9
$PELEVATION
 40
0.0
  9
$THICKNESS
 40
0.0
  9
$LIMCHECK
 70
     0
  9
$CHAMFERA
 40
10.0
  9
$CHAMFERB
 40
10.0
  9
$CHAMFERC
 40
20.0
  9
$CHAMFERD
 40
0.0
  9
$SKPOLY
 70
     0
  9
$TDCREATE
 40
2456749.62062853
  9
$TDUCREATE
 40
2456749.24562853
  9
$TDUPDATE
 40
2456749.620631597
  9
$TDUUPDATE
 40
2456749.245631597
  9
$TDINDWG
 40
0.0000000116
  9
$TDUSRTIMER
 40
0.0000000116
  9
$USRTIMER
 70
     1
  9
$ANGBASE
 50
0.0
  9
$ANGDIR
 70
     0
  9
$PDMODE
 70
     0
  9
$PDSIZE
 40
-1.0
  9
$PLINEWID
 40
0.0
  9
$SPLFRAME
 70
     0
  9
$SPLINETYPE
 70
     6
  9
$SPLINESEGS
 70
     8
  9
$HANDSEED
  5
1DA
  9
$SURFTAB1
 70
     6
  9
$SURFTAB2
 70
     6
  9
$SURFTYPE
 70
     6
  9
$SURFU
 70
     6
  9
$SURFV
 70
     6
  9
$UCSBASE
  2

  9
$UCSNAME
  2

  9
$UCSORG
 10
0.0
 20
0.0
 30
0.0
  9
$UCSXDIR
 10
1.0
 20
0.0
 30
0.0
  9
$UCSYDIR
 10
0.0
 20
1.0
 30
0.0
  9
$UCSORTHOREF
  2

  9
$UCSORTHOVIEW
 70
     0
  9
$UCSORGTOP
 10
0.0
 20
0.0
 30
0.0
  9
$UCSORGBOTTOM
 10
0.0
 20
0.0
 30
0.0
  9
$UCSORGLEFT
 10
0.0
 20
0.0
 30
0.0
  9
$UCSORGRIGHT
 10
0.0
 20
0.0
 30
0.0
  9
$UCSORGFRONT
 10
0.0
 20
0.0
 30
0.0
  9
$UCSORGBACK
 10
0.0
 20
0.0
 30
0.0
  9
$PUCSBASE
  2

  9
$PUCSNAME
  2

  9
$PUCSORG
 10
0.0
 20
0.0
 30
0.0
  9
$PUCSXDIR
 10
1.0
 20
0.0
 30
0.0
  9
$PUCSYDIR
 10
0.0
 20
1.0
 30
0.0
  9
$PUCSORTHOREF
  2

  9
$PUCSORTHOVIEW
 70
     0
  9
$PUCSORGTOP
 10
0.0
 20
0.0
 30
0.0
  9
$PUCSORGBOTTOM
 10
0.0
 20
0.0
 30
0.0
  9
$PUCSORGLEFT
 10
0.0
 20
0.0
 30
0.0
  9
$PUCSORGRIGHT
 10
0.0
 20
0.0
 30
0.0
  9
$PUCSORGFRONT
 10
0.0
 20
0.0
 30
0.0
  9
$PUCSORGBACK
 10
0.0
 20
0.0
 30
0.0
  9
$USERI1
 70
     0
  9
$USERI2
 70
     0
  9
$USERI3
 70
     0
  9
$USERI4
 70
     0
  9
$USERI5
 70
     0
  9
$USERR1
 40
0.0
  9
$USERR2
 40
0.0
  9
$USERR3
 40
0.0
  9
$USERR4
 40
0.0
  9
$USERR5
 40
0.0
  9
$WORLDVIEW
 70
     1
  9
$SHADEDGE
 70
     3
  9
$SHADEDIF
 70
    70
  9
$TILEMODE
 70
     1
  9
$MAXACTVP
 70
    64
  9
$PINSBASE
 10
0.0
 20
0.0
 30
0.0
  9
$PLIMCHECK
 70
     0
  9
$PEXTMIN
 10
1.0000000000E+20
 20
1.0000000000E+20
 30
1.0000000000E+20
  9
$PEXTMAX
 10
-1.0000000000E+20
 20
-1.0000000000E+20
 30
-1.0000000000E+20
  9
$PLIMMIN
 10
0.0
 20
0.0
  9
$PLIMMAX
 10
420.0
 20
297.0
  9
$UNITMODE
 70
     0
  9
$VISRETAIN
 70
     1
  9
$PLINEGEN
 70
     0
  9
$PSLTSCALE
 70
     1
  9
$TREEDEPTH
 70
  3020
  9
$CMLSTYLE
  2
Standard
  9
$CMLJUST
 70
     0
  9
$CMLSCALE
 40
20.0
  9
$PROXYGRAPHICS
 70
     1
  9
$MEASUREMENT
 70
     1
  9
$CELWEIGHT
370
    -1
  9
$ENDCAPS
280
     0
  9
$JOINSTYLE
280
     0
  9
$LWDISPLAY
290
     1
  9
$INSUNITS
 70
     4
  9
$HYPERLINKBASE
  1

  9
$STYLESHEET
  1

  9
$XEDIT
290
     1
  9
$CEPSNTYPE
380
     0
  9
$PSTYLEMODE
290
     1
  9
$FINGERPRINTGUID
  2
{98A968BF-224C-44B1-A207-FD3135B7C074}
  9
$VERSIONGUID
  2
{FAEB1C32-E019-11D5-929B-00C0DF256EC4}
  9
$EXTNAMES
290
     1
  9
$PSVPSCALE
 40
0.0
  9
$OLESTARTUP
290
     0
  0
ENDSEC
  0
SECTION
  2
CLASSES
  0
CLASS
  1
ACDBDICTIONARYWDFLT
  2
AcDbDictionaryWithDefault
  3
ObjectDBX Classes
 90
        0
280
     0
281
     0
  0
CLASS
  1
VISUALSTYLE
  2
AcDbVisualStyle
  3
ObjectDBX Classes
 90
     4095
280
     0
281
     0
  0
CLASS
  1
MATERIAL
  2
AcDbMaterial
  3
ObjectDBX Classes
 90
     1153
280
     0
281
     0
  0
CLASS
  1
ACDBPLACEHOLDER
  2
AcDbPlaceHolder
  3
ObjectDBX Classes
 90
        0
280
     0
281
     0
  0
CLASS
  1
LAYOUT
  2
AcDbLayout
  3
ObjectDBX Classes
 90
        0
280
     0
281
     0
  0
ENDSEC
  0
SECTION
  2
TABLES
  0
TABLE
  2
VPORT
  5
8
330
0
100
AcDbSymbolTable
 70
     1
  0
VPORT
  5
29
330
8
100
AcDbSymbolTableRecord
100
AcDbViewportTableRecord
  2
*Active
 70
     0
 10
0.0
 20
0.0
 11
1.0
 21
1.0
 12
105.0
 22
148.5
 13
0.0
 23
0.0
 14
10.0
 24
10.0
 15
10.0
 25
10.0
 16
0.0
 26
0.0
 36
1.0
 17
0.0
 27
0.0
 37
0.0
 40
297.0
 41
0.7070707071
 42
50.0
 43
0.0
 44
0.0
 50
0.0
 51
0.0
 71
     0
 72
  2000
 73
     1
 74
     3
 75
     0
 76
     0
 77
     0
 78
     0
281
     0
 65
     1
110
0.0
120
0.0
130
0.0
111
1.0
121
0.0
131
0.0
112
0.0
122
1.0
132
0.0
 79
     0
146
0.0
  0
ENDTAB
  0
TABLE
  2
LTYPE
  5
5
330
0
100
AcDbSymbolTable
 70
     6
  0
LTYPE
  5
14
330
5
100
AcDbSymbolTableRecord
100
AcDbLinetypeTableRecord
  2
ByBlock
 70
     0
  3

 72
    65
 73
     0
 40
0.0
  0
LTYPE
  5
15
330
5
100
AcDbSymbolTableRecord
100
AcDbLinetypeTableRecord
  2
ByLayer
 70
     0
  3

 72
    65
 73
     0
 40
0.0
  0
LTYPE
  5
16
330
5
100
AcDbSymbolTableRecord
100
AcDbLinetypeTableRecord
  2
Continuous
 70
     0
  3
Solid line
 72
    65
 73
     0
 40
0.0
  0
LTYPE
  5
3F
330
5
100
AcDbSymbolTableRecord
100
AcDbLinetypeTableRecord
  2
HIDDEN
 70
     0
  3
Hidden __ __ __ __ __ __ __ __ __ __ __ __ __ __
 72
    65
 73
     2
 40
1.905
 49
1.27
 74
     0
 49
-0.635
 74
     0
  0
LTYPE
  5
40
330
5
100
AcDbSymbolTableRecord
100
AcDbLinetypeTableRecord
  2
PHANTOM
 70
     0
  3
Phantom ______  __  __  ______  __  __  ______
 72
    65
 73
     6
 40
12.7
 49
6.35
 74
     0
 49
-1.27
 74
     0
 49
1.27
 74
     0
 49
-1.27
 74
     0
 49
1.27
 74
     0
 49
-1.27
 74
     0
  0
LTYPE
  5
41
330
5
100
AcDbSymbolTableRecord
100
AcDbLinetypeTableRecord
  2
CENTER
 70
     0
  3
Center ____ _ ____ _ ____ _ ____ _ ____ _ ____
 72
    65
 73
     4
 40
10.16
 49
6.35
 74
     0
 49
-1.27
 74
     0
 49
1.27
 74
     0
 49
-1.27
 74
     0
  0
LTYPE
  5
42
330
5
100
AcDbSymbolTableRecord
100
AcDbLinetypeTableRecord
  2
CENTERX2
 70
     0
  3
Center (2x) ________  __  ________  __  _____
 72
    65
 73
     4
 40
20.32
 49
12.7
 74
     0
 49
-2.54
 74
     0
 49
2.54
 74
     0
 49
-2.54
 74
     0
  0
LTYPE
  5
43
330
5
100
AcDbSymbolTableRecord
100
AcDbLinetypeTableRecord
  2
DOT2
 70
     0
  3
Dot (.5x) ........................................
 72
    65
 73
     2
 40
0.635
 49
0.0
 74
     0
 49
-0.635
 74
     0
  0
ENDTAB
  0
TABLE
  2
LAYER
  5
2
330
0
100
AcDbSymbolTable
 70
     1
  0
LAYER
  5
10
330
2
100
AcDbSymbolTableRecord
100
AcDbLayerTableRecord
  2
0
 70
     0
 62
     7
  6
Continuous
370
    -3
390
F
  0
ENDTAB
  0
TABLE
  2
STYLE
  5
3
330
0
100
AcDbSymbolTable
 70
     3
  0
STYLE
  5
11
330
3
100
AcDbSymbolTableRecord
100
AcDbTextStyleTableRecord
  2
Standard
 70
     0
 40
0.0
 41
1.0
 50
0.0
 71
     0
 42
3.5
  3
txt
  4
bigfont
  0
STYLE
  5
4C
330
3
100
AcDbSymbolTableRecord
100
AcDbTextStyleTableRecord
  2
SLDTEXTSTYLE0
 70
     0
 40
0.0
 41
0.7
 50
0.0
 71
     0
 42
0.2
  3
TXT
  4
bigfont
  0
STYLE
  5
102
330
3
100
AcDbSymbolTableRecord
100
AcDbTextStyleTableRecord
  2
SLDTEXTSTYLE1
 70
     0
 40
0.0
 41
0.75
 50
0.0
 71
     0
 42
0.2
  3
TXT
  4
bigfont
  0
ENDTAB
  0
TABLE
  2
VIEW
  5
6
330
0
100
AcDbSymbolTable
 70
     0
  0
ENDTAB
  0
TABLE
  2
UCS
  5
7
330
0
100
AcDbSymbolTable
 70
     0
  0
ENDTAB
  0
TABLE
  2
APPID
  5
9
330
0
100
AcDbSymbolTable
 70
     1
  0
APPID
  5
12
330
9
100
AcDbSymbolTableRecord
100
AcDbRegAppTableRecord
  2
ACAD
 70
     0
  0
ENDTAB
  0
TABLE
  2
DIMSTYLE
  5
A
330
0
100
AcDbSymbolTable
 70
     5
100
AcDbDimStyleTable
  0
DIMSTYLE
105
27
330
A
100
AcDbSymbolTableRecord
100
AcDbDimStyleTableRecord
  2
ISO-25
 70
     0
 41
2.5
 42
0.625
 43
3.75
 44
1.25
 73
     0
 74
     0
 77
     1
 78
     8
140
2.5
141
2.5
143
0.0393700787
147
0.625
171
     3
172
     1
178
     0
271
     2
272
     2
274
     3
278
    44
283
     0
284
     8
340
11
  0
DIMSTYLE
105
103
102
{ACAD_REACTORS
330
101
330
110
330
129
330
140
330
1A9
102
}
330
A
100
AcDbSymbolTableRecord
100
AcDbDimStyleTableRecord
  2
SLDDIMSTYLE0
 70
     0
 41
3.302
 44
0.0
 45
0.000000001
 73
     0
 74
     0
 77
     3
 78
    12
 79
     3
140
3.5
147
0.875
172
     1
173
     1
178
     0
271
     2
272
     2
276
     2
284
    12
289
     0
340
102
  0
DIMSTYLE
105
11E
102
{ACAD_REACTORS
330
11D
330
136
330
14C
102
}
330
A
100
AcDbSymbolTableRecord
100
AcDbDimStyleTableRecord
  2
SLDDIMSTYLE1
 70
     0
 41
3.302
 44
0.0
 45
0.000000001
 73
     0
 74
     0
 77
     3
 78
    12
 79
     3
140
3.5
147
0.875
173
     1
178
     0
271
     2
272
     2
276
     2
284
    12
340
102
  0
DIMSTYLE
105
1B7
102
{ACAD_REACTORS
330
1B6
102
}
330
A
100
AcDbSymbolTableRecord
100
AcDbDimStyleTableRecord
  2
SLDDIMSTYLE2
 70
     0
 41
3.302
 44
0.0
 45
0.000000001
 73
     0
 74
     0
 77
     3
 78
    12
 79
     3
140
3.5
147
0.875
173
     1
178
     0
271
     1
272
     1
276
     2
284
    12
340
102
  0
DIMSTYLE
105
1CC
330
A
100
AcDbSymbolTableRecord
100
AcDbDimStyleTableRecord
  2
SLDDIMSTYLE3
 70
     0
 41
3.302
 44
0.0
 45
0.000000001
140
0.0
146
3.302
147
0.0
173
     1
178
     0
271
     0
272
     0
276
     2
340
11
  0
ENDTAB
  0
TABLE
  2
BLOCK_RECORD
  5
1
330
0
100
AcDbSymbolTable
 70
    13
  0
BLOCK_RECORD
  5
1F
330
1
100
AcDbSymbolTableRecord
100
AcDbBlockTableRecord
  2
*Model_Space
340
22
  0
BLOCK_RECORD
  5
1B
330
1
100
AcDbSymbolTableRecord
100
AcDbBlockTableRecord
  2
*Paper_Space
340
1E
  0
BLOCK_RECORD
  5
23
330
1
100
AcDbSymbolTableRecord
100
AcDbBlockTableRecord
  2
*Paper_Space0
340
26
  0
BLOCK_RECORD
  5
104
330
1
100
AcDbSymbolTableRecord
100
AcDbBlockTableRecord
  2
_D
340
0
  0
BLOCK_RECORD
  5
111
330
1
100
AcDbSymbolTableRecord
100
AcDbBlockTableRecord
  2
_D_1
340
0
  0
BLOCK_RECORD
  5
11F
330
1
100
AcDbSymbolTableRecord
100
AcDbBlockTableRecord
  2
_D_2
340
0
  0
BLOCK_RECORD
  5
12A
330
1
100
AcDbSymbolTableRecord
100
AcDbBlockTableRecord
  2
_D_3
340
0
  0
BLOCK_RECORD
  5
137
330
1
100
AcDbSymbolTableRecord
100
AcDbBlockTableRecord
  2
_D_4
340
0
  0
BLOCK_RECORD
  5
141
330
1
100
AcDbSymbolTableRecord
100
AcDbBlockTableRecord
  2
_D_5
340
0
  0
BLOCK_RECORD
  5
14D
330
1
100
AcDbSymbolTableRecord
100
AcDbBlockTableRecord
  2
_D_6
340
0
  0
BLOCK_RECORD
  5
156
330
1
100
AcDbSymbolTableRecord
100
AcDbBlockTableRecord
  2
SW_NOTE_0
340
0
102
{BLKREFS
331
160
102
}
  0
BLOCK_RECORD
  5
1AA
330
1
100
AcDbSymbolTableRecord
100
AcDbBlockTableRecord
  2
_D_7
340
0
  0
BLOCK_RECORD
  5
1B8
330
1
100
AcDbSymbolTableRecord
100
AcDbBlockTableRecord
  2
_D_8
340
0
  0
BLOCK_RECORD
  5
1C1
330
1
100
AcDbSymbolTableRecord
100
AcDbBlockTableRecord
  2
SW_NOTE_1
340
0
102
{BLKREFS
331
1CB
102
}
  0
BLOCK_RECORD
  5
1CE
330
1
100
AcDbSymbolTableRecord
100
AcDbBlockTableRecord
  2
SW_CENTERMARKSYMBOL_0
340
0
102
{BLKREFS
331
1D9
102
}
  0
ENDTAB
  0
ENDSEC
  0
SECTION
  2
BLOCKS
  0
BLOCK
  5
20
330
1F
100
AcDbEntity
  8
0
100
AcDbBlockBegin
  2
*Model_Space
 70
     0
 10
0.0
 20
0.0
 30
0.0
  3
*Model_Space
  1

  0
ENDBLK
  5
21
330
1F
100
AcDbEntity
  8
0
100
AcDbBlockEnd
  0
BLOCK
  5
1C
330
1B
100
AcDbEntity
 67
     1
  8
0
100
AcDbBlockBegin
  2
*Paper_Space
 70
     0
 10
0.0
 20
0.0
 30
0.0
  3
*Paper_Space
  1

  0
ENDBLK
  5
1D
330
1B
100
AcDbEntity
 67
     1
  8
0
100
AcDbBlockEnd
  0
BLOCK
  5
24
330
23
100
AcDbEntity
  8
0
100
AcDbBlockBegin
  2
*Paper_Space0
 70
     0
 10
0.0
 20
0.0
 30
0.0
  3
*Paper_Space0
  1

  0
ENDBLK
  5
25
330
23
100
AcDbEntity
  8
0
100
AcDbBlockEnd
  0
BLOCK
  5
105
330
104
100
AcDbEntity
  8
0
100
AcDbBlockBegin
  2
_D
 70
     0
 10
0.0
 20
0.0
 30
0.0
  3
_D
  1

  0
SOLID
  5
107
330
104
100
AcDbEntity
  8
0
  6
Continuous
 62
     7
370
     0
100
AcDbTrace
 10
176.1234751324
 20
132.829607535
 30
0.0
 11
176.8734751324
 21
134.829607535
 31
0.0
 12
175.3734751324
 22
134.829607535
 32
0.0
 13
175.3734751324
 23
134.829607535
 33
0.0
  0
SOLID
  5
108
330
104
100
AcDbEntity
  8
0
  6
Continuous
 62
     7
370
     0
100
AcDbTrace
 10
176.1234751324
 20
126.829607535
 30
0.0
 11
175.3734751324
 21
124.829607535
 31
0.0
 12
176.8734751324
 22
124.829607535
 32
0.0
 13
176.8734751324
 23
124.829607535
 33
0.0
  0
LINE
  5
109
330
104
100
AcDbEntity
  8
0
  6
Continuous
 62
     7
370
     0
100
AcDbLine
 10
165.3450382847
 20
132.829607535
 30
0.0
 11
177.1234751324
 21
132.829607535
 31
0.0
  0
LINE
  5
10A
330
104
100
AcDbEntity
  8
0
  6
Continuous
 62
     7
370
     0
100
AcDbLine
 10
165.3450382847
 20
126.829607535
 30
0.0
 11
177.1234751324
 21
126.829607535
 31
0.0
  0
LINE
  5
10B
330
104
100
AcDbEntity
  8
0
  6
Continuous
 62
     7
370
     0
100
AcDbLine
 10
176.1234751324
 20
132.829607535
 30
0.0
 11
176.1234751324
 21
144.7689095002
 31
0.0
  0
LINE
  5
10C
330
104
100
AcDbEntity
  8
0
  6
Continuous
 62
     7
370
     0
100
AcDbLine
 10
176.1234751324
 20
132.829607535
 30
0.0
 11
176.1234751324
 21
126.829607535
 31
0.0
  0
LINE
  5
10D
330
104
100
AcDbEntity
  8
0
  6
Continuous
 62
     7
370
     0
100
AcDbLine
 10
176.1234751324
 20
126.829607535
 30
0.0
 11
176.1234751324
 21
121.829607535
 31
0.0
  0
MTEXT
  5
10E
330
104
100
AcDbEntity
  8
0
  6
Continuous
 62
     7
370
     0
100
AcDbMText
 10
171.6117380432
 20
136.9043606755
 30
0.1
 40
3.5
 41
0.0
 71
     1
 72
     1
  1
%%c
  7
SLDTEXTSTYLE1
 11
-7.044195017643634E-15
 21
1.0
 31
0.0
 73
     1
 44
1.0
  0
MTEXT
  5
10F
330
104
100
AcDbEntity
  8
0
  6
Continuous
 62
     7
370
     0
100
AcDbMText
 10
171.5582658665
 20
142.1827980739
 30
0.1
 40
3.5
 41
0.0
 71
     1
 72
     1
  1
6
  7
SLDTEXTSTYLE1
 11
-7.044195017643634E-15
 21
1.0
 31
0.0
 73
     1
 44
1.0
  0
ENDBLK
  5
106
330
104
100
AcDbEntity
  8
0
100
AcDbBlockEnd
  0
BLOCK
  5
112
330
111
100
AcDbEntity
  8
0
100
AcDbBlockBegin
  2
_D_1
 70
     0
 10
0.0
 20
0.0
 30
0.0
  3
_D_1
  1

  0
SOLID
  5
114
330
111
100
AcDbEntity
  8
0
  6
Continuous
 62
     7
370
     0
100
AcDbTrace
 10
188.4719257811
 20
135.829607535
 30
0.0
 11
189.2219257811
 21
137.829607535
 31
0.0
 12
187.7219257811
 22
137.829607535
 32
0.0
 13
187.7219257811
 23
137.829607535
 33
0.0
  0
SOLID
  5
115
330
111
100
AcDbEntity
  8
0
  6
Continuous
 62
     7
370
     0
100
AcDbTrace
 10
188.4719257811
 20
123.829607535
 30
0.0
 11
187.7219257811
 21
121.829607535
 31
0.0
 12
189.2219257811
 22
121.829607535
 32
0.0
 13
189.2219257811
 23
121.829607535
 33
0.0
  0
LINE
  5
116
330
111
100
AcDbEntity
  8
0
  6
Continuous
 62
     7
370
     0
100
AcDbLine
 10
163.4450382847
 20
135.829607535
 30
0.0
 11
189.4719257811
 21
135.829607535
 31
0.0
  0
LINE
  5
117
330
111
100
AcDbEntity
  8
0
  6
Continuous
 62
     7
370
     0
100
AcDbLine
 10
163.4450382847
 20
123.829607535
 30
0.0
 11
189.4719257811
 21
123.829607535
 31
0.0
  0
LINE
  5
118
330
111
100
AcDbEntity
  8
0
  6
Continuous
 62
     7
370
     0
100
AcDbLine
 10
188.4719257811
 20
135.829607535
 30
0.0
 11
188.4719257811
 21
140.829607535
 31
0.0
  0
LINE
  5
119
330
111
100
AcDbEntity
  8
0
  6
Continuous
 62
     7
370
     0
100
AcDbLine
 10
188.4719257811
 20
135.829607535
 30
0.0
 11
188.4719257811
 21
123.829607535
 31
0.0
  0
LINE
  5
11A
330
111
100
AcDbEntity
  8
0
  6
Continuous
 62
     7
370
     0
100
AcDbLine
 10
188.4719257811
 20
123.829607535
 30
0.0
 11
188.4719257811
 21
118.829607535
 31
0.0
  0
MTEXT
  5
11B
330
111
100
AcDbEntity
  8
0
  6
Continuous
 62
     7
370
     0
100
AcDbMText
 10
183.9601886919
 20
124.6042774094
 30
0.1
 40
3.5
 41
0.0
 71
     1
 72
     1
  1
%%c
  7
SLDTEXTSTYLE1
 11
-7.044195017643634E-15
 21
1.0
 31
0.0
 73
     1
 44
1.0
  0
MTEXT
  5
11C
330
111
100
AcDbEntity
  8
0
  6
Continuous
 62
     7
370
     0
100
AcDbMText
 10
183.9067165152
 20
129.8827148078
 30
0.1
 40
3.5
 41
0.0
 71
     1
 72
     1
  1
12
  7
SLDTEXTSTYLE1
 11
-7.044195017643634E-15
 21
1.0
 31
0.0
 73
     1
 44
1.0
  0
ENDBLK
  5
113
330
111
100
AcDbEntity
  8
0
100
AcDbBlockEnd
  0
BLOCK
  5
120
330
11F
100
AcDbEntity
  8
0
100
AcDbBlockBegin
  2
_D_2
 70
     0
 10
0.0
 20
0.0
 30
0.0
  3
_D_2
  1

  0
SOLID
  5
122
330
11F
100
AcDbEntity
  8
0
  6
Continuous
 62
     7
370
     0
100
AcDbTrace
 10
136.8450382847
 20
102.2824297272
 30
0.0
 11
134.8450382847
 21
103.0324297272
 31
0.0
 12
134.8450382847
 22
101.5324297272
 32
0.0
 13
134.8450382847
 23
101.5324297272
 33
0.0
  0
SOLID
  5
123
330
11F
100
AcDbEntity
  8
0
  6
Continuous
 62
     7
370
     0
100
AcDbTrace
 10
116.8450382847
 20
102.2824297272
 30
0.0
 11
118.8450382847
 21
101.5324297272
 31
0.0
 12
118.8450382847
 22
103.0324297272
 32
0.0
 13
118.8450382847
 23
103.0324297272
 33
0.0
  0
LINE
  5
124
330
11F
100
AcDbEntity
  8
0
  6
Continuous
 62
     7
370
     0
100
AcDbLine
 10
136.8450382847
 20
124.729607535
 30
0.0
 11
136.8450382847
 21
101.2824297272
 31
0.0
  0
LINE
  5
125
330
11F
100
AcDbEntity
  8
0
  6
Continuous
 62
     7
370
     0
100
AcDbLine
 10
116.8450382847
 20
124.329607535
 30
0.0
 11
116.8450382847
 21
101.2824297272
 31
0.0
  0
LINE
  5
126
330
11F
100
AcDbEntity
  8
0
  6
Continuous
 62
     7
370
     0
100
AcDbLine
 10
136.8450382847
 20
102.2824297272
 30
0.0
 11
116.8450382847
 21
102.2824297272
 31
0.0
  0
MTEXT
  5
127
330
11F
100
AcDbEntity
  8
0
  6
Continuous
 62
     7
370
     0
100
AcDbMText
 10
122.5623993884
 20
106.7941666417
 30
0.1
 40
3.5
 41
0.0
 71
     1
 72
     1
  1
20
  7
SLDTEXTSTYLE1
 73
     1
 44
1.0
  0
MTEXT
  5
128
330
11F
100
AcDbEntity
  8
0
  6
Continuous
 62
     7
370
     0
100
AcDbMText
 10
127.7346217755
 20
106.7941666417
 30
0.1
 40
3.5
 41
0.0
 71
     1
 72
     1
  1
st
  7
SLDTEXTSTYLE1
 73
     1
 44
1.0
  0
ENDBLK
  5
121
330
11F
100
AcDbEntity
  8
0
100
AcDbBlockEnd
  0
BLOCK
  5
12B
330
12A
100
AcDbEntity
  8
0
100
AcDbBlockBegin
  2
_D_3
 70
     0
 10
0.0
 20
0.0
 30
0.0
  3
_D_3
  1

  0
SOLID
  5
12D
330
12A
100
AcDbEntity
  8
0
  6
Continuous
 62
     7
370
     0
100
AcDbTrace
 10
86.0327029784
 20
135.329607535
 30
0.0
 11
86.7827029784
 21
137.329607535
 31
0.0
 12
85.2827029784
 22
137.329607535
 32
0.0
 13
85.2827029784
 23
137.329607535
 33
0.0
  0
SOLID
  5
12E
330
12A
100
AcDbEntity
  8
0
  6
Continuous
 62
     7
370
     0
100
AcDbTrace
 10
86.0327029784
 20
124.329607535
 30
0.0
 11
85.2827029784
 21
122.329607535
 31
0.0
 12
86.7827029784
 22
122.329607535
 32
0.0
 13
86.7827029784
 23
122.329607535
 33
0.0
  0
LINE
  5
12F
330
12A
100
AcDbEntity
  8
0
  6
Continuous
 62
     7
370
     0
100
AcDbLine
 10
93.8450382847
 20
135.329607535
 30
0.0
 11
85.0327029784
 21
135.329607535
 31
0.0
  0
LINE
  5
130
330
12A
100
AcDbEntity
  8
0
  6
Continuous
 62
     7
370
     0
100
AcDbLine
 10
93.8450382847
 20
124.329607535
 30
0.0
 11
85.0327029784
 21
124.329607535
 31
0.0
  0
LINE
  5
131
330
12A
100
AcDbEntity
  8
0
  6
Continuous
 62
     7
370
     0
100
AcDbLine
 10
86.0327029784
 20
135.329607535
 30
0.0
 11
86.0327029784
 21
140.329607535
 31
0.0
  0
LINE
  5
132
330
12A
100
AcDbEntity
  8
0
  6
Continuous
 62
     7
370
     0
100
AcDbLine
 10
86.0327029784
 20
135.329607535
 30
0.0
 11
86.0327029784
 21
124.329607535
 31
0.0
  0
LINE
  5
133
330
12A
100
AcDbEntity
  8
0
  6
Continuous
 62
     7
370
     0
100
AcDbLine
 10
86.0327029784
 20
124.329607535
 30
0.0
 11
86.0327029784
 21
119.329607535
 31
0.0
  0
MTEXT
  5
134
330
12A
100
AcDbEntity
  8
0
  6
Continuous
 62
     7
370
     0
100
AcDbMText
 10
81.5209658892
 20
124.5226961331
 30
0.1
 40
3.5
 41
0.0
 71
     1
 72
     1
  1
%%c
  7
SLDTEXTSTYLE1
 11
-7.044195017643634E-15
 21
1.0
 31
0.0
 73
     1
 44
1.0
  0
MTEXT
  5
135
330
12A
100
AcDbEntity
  8
0
  6
Continuous
 62
     7
370
     0
100
AcDbMText
 10
81.4674937125
 20
129.8011335315
 30
0.1
 40
3.5
 41
0.0
 71
     1
 72
     1
  1
11
  7
SLDTEXTSTYLE1
 11
-7.044195017643634E-15
 21
1.0
 31
0.0
 73
     1
 44
1.0
  0
ENDBLK
  5
12C
330
12A
100
AcDbEntity
  8
0
100
AcDbBlockEnd
  0
BLOCK
  5
138
330
137
100
AcDbEntity
  8
0
100
AcDbBlockBegin
  2
_D_4
 70
     0
 10
0.0
 20
0.0
 30
0.0
  3
_D_4
  1

  0
SOLID
  5
13A
330
137
100
AcDbEntity
  8
0
  6
Continuous
 62
     7
370
     0
100
AcDbTrace
 10
94.8450382847
 20
161.129607535
 30
0.0
 11
96.8450382847
 21
160.379607535
 31
0.0
 12
96.8450382847
 22
161.879607535
 32
0.0
 13
96.8450382847
 23
161.879607535
 33
0.0
  0
SOLID
  5
13B
330
137
100
AcDbEntity
  8
0
  6
Continuous
 62
     7
370
     0
100
AcDbTrace
 10
164.8450382847
 20
161.129607535
 30
0.0
 11
162.8450382847
 21
161.879607535
 31
0.0
 12
162.8450382847
 22
160.379607535
 32
0.0
 13
162.8450382847
 23
160.379607535
 33
0.0
  0
LINE
  5
13C
330
137
100
AcDbEntity
  8
0
  6
Continuous
 62
     7
370
     0
100
AcDbLine
 10
94.8450382847
 20
136.329607535
 30
0.0
 11
94.8450382847
 21
162.129607535
 31
0.0
  0
LINE
  5
13D
330
137
100
AcDbEntity
  8
0
  6
Continuous
 62
     7
370
     0
100
AcDbLine
 10
164.8450382847
 20
133.329607535
 30
0.0
 11
164.8450382847
 21
162.129607535
 31
0.0
  0
LINE
  5
13E
330
137
100
AcDbEntity
  8
0
  6
Continuous
 62
     7
370
     0
100
AcDbLine
 10
94.8450382847
 20
161.129607535
 30
0.0
 11
164.8450382847
 21
161.129607535
 31
0.0
  0
MTEXT
  5
13F
330
137
100
AcDbEntity
  8
0
  6
Continuous
 62
     7
370
     0
100
AcDbMText
 10
123.077209396
 20
165.6413444495
 30
0.1
 40
3.5
 41
0.0
 71
     1
 72
     1
  1
70
  7
SLDTEXTSTYLE1
 73
     1
 44
1.0
  0
ENDBLK
  5
139
330
137
100
AcDbEntity
  8
0
100
AcDbBlockEnd
  0
BLOCK
  5
142
330
141
100
AcDbEntity
  8
0
100
AcDbBlockBegin
  2
_D_5
 70
     0
 10
0.0
 20
0.0
 30
0.0
  3
_D_5
  1

  0
SOLID
  5
144
330
141
100
AcDbEntity
  8
0
  6
Continuous
 62
     7
370
     0
100
AcDbTrace
 10
94.8450382847
 20
147.9862568364
 30
0.0
 11
92.8450382847
 21
148.7362568364
 31
0.0
 12
92.8450382847
 22
147.2362568364
 32
0.0
 13
92.8450382847
 23
147.2362568364
 33
0.0
  0
SOLID
  5
145
330
141
100
AcDbEntity
  8
0
  6
Continuous
 62
     7
370
     0
100
AcDbTrace
 10
103.8450382847
 20
147.9862568364
 30
0.0
 11
105.8450382847
 21
147.2362568364
 31
0.0
 12
105.8450382847
 22
148.7362568364
 32
0.0
 13
105.8450382847
 23
148.7362568364
 33
0.0
  0
LINE
  5
146
330
141
100
AcDbEntity
  8
0
  6
Continuous
 62
     7
370
     0
100
AcDbLine
 10
94.8450382847
 20
136.329607535
 30
0.0
 11
94.8450382847
 21
148.9862568364
 31
0.0
  0
LINE
  5
147
330
141
100
AcDbEntity
  8
0
  6
Continuous
 62
     7
370
     0
100
AcDbLine
 10
103.8450382847
 20
136.829607535
 30
0.0
 11
103.8450382847
 21
148.9862568364
 31
0.0
  0
LINE
  5
148
330
141
100
AcDbEntity
  8
0
  6
Continuous
 62
     7
370
     0
100
AcDbLine
 10
94.8450382847
 20
147.9862568364
 30
0.0
 11
89.8450382847
 21
147.9862568364
 31
0.0
  0
LINE
  5
149
330
141
100
AcDbEntity
  8
0
  6
Continuous
 62
     7
370
     0
100
AcDbLine
 10
94.8450382847
 20
147.9862568364
 30
0.0
 11
103.8450382847
 21
147.9862568364
 31
0.0
  0
LINE
  5
14A
330
141
100
AcDbEntity
  8
0
  6
Continuous
 62
     7
370
     0
100
AcDbLine
 10
103.8450382847
 20
147.9862568364
 30
0.0
 11
108.8450382847
 21
147.9862568364
 31
0.0
  0
MTEXT
  5
14B
330
141
100
AcDbEntity
  8
0
  6
Continuous
 62
     7
370
     0
100
AcDbMText
 10
98.0519826879
 20
152.4979937509
 30
0.1
 40
3.5
 41
0.0
 71
     1
 72
     1
  1
9
  7
SLDTEXTSTYLE1
 73
     1
 44
1.0
  0
ENDBLK
  5
143
330
141
100
AcDbEntity
  8
0
100
AcDbBlockEnd
  0
BLOCK
  5
14E
330
14D
100
AcDbEntity
  8
0
100
AcDbBlockBegin
  2
_D_6
 70
     0
 10
0.0
 20
0.0
 30
0.0
  3
_D_6
  1

  0
SOLID
  5
150
330
14D
100
AcDbEntity
  8
0
  6
Continuous
 62
     7
370
     0
100
AcDbTrace
 10
141.8450382847
 20
102.2824297272
 30
0.0
 11
143.8450382847
 21
101.5324297272
 31
0.0
 12
143.8450382847
 22
103.0324297272
 32
0.0
 13
143.8450382847
 23
103.0324297272
 33
0.0
  0
SOLID
  5
151
330
14D
100
AcDbEntity
  8
0
  6
Continuous
 62
     7
370
     0
100
AcDbTrace
 10
162.8450382847
 20
102.2824297272
 30
0.0
 11
160.8450382847
 21
103.0324297272
 31
0.0
 12
160.8450382847
 22
101.5324297272
 32
0.0
 13
160.8450382847
 23
101.5324297272
 33
0.0
  0
LINE
  5
152
330
14D
100
AcDbEntity
  8
0
  6
Continuous
 62
     7
370
     0
100
AcDbLine
 10
141.8450382847
 20
121.229607535
 30
0.0
 11
141.8450382847
 21
101.2824297272
 31
0.0
  0
LINE
  5
153
330
14D
100
AcDbEntity
  8
0
  6
Continuous
 62
     7
370
     0
100
AcDbLine
 10
162.8450382847
 20
123.229607535
 30
0.0
 11
162.8450382847
 21
101.2824297272
 31
0.0
  0
LINE
  5
154
330
14D
100
AcDbEntity
  8
0
  6
Continuous
 62
     7
370
     0
100
AcDbLine
 10
141.8450382847
 20
102.2824297272
 30
0.0
 11
162.8450382847
 21
102.2824297272
 31
0.0
  0
MTEXT
  5
155
330
14D
100
AcDbEntity
  8
0
  6
Continuous
 62
     7
370
     0
100
AcDbMText
 10
149.7589270912
 20
106.7941666417
 30
0.1
 40
3.5
 41
0.0
 71
     1
 72
     1
  1
21
  7
SLDTEXTSTYLE1
 73
     1
 44
1.0
  0
ENDBLK
  5
14F
330
14D
100
AcDbEntity
  8
0
100
AcDbBlockEnd
  0
BLOCK
  5
157
330
156
100
AcDbEntity
  8
0
100
AcDbBlockBegin
  2
SW_NOTE_0
 70
     0
 10
0.0
 20
0.0
 30
0.0
  3
SW_NOTE_0
  1

  0
LINE
  5
159
330
156
100
AcDbEntity
  8
0
  6
Continuous
 62
     0
370
     0
100
AcDbLine
 10
-0.0140466877
 20
0.2591380833
 30
0.0
 11
9.01291697
 21
0.2591380833
 31
0.0
  0
LINE
  5
15A
330
156
100
AcDbEntity
  8
0
  6
Continuous
 62
     0
370
     0
100
AcDbLine
 10
9.01291697
 20
0.2591380833
 30
0.0
 11
-0.0140466877
 21
0.2591380833
 31
0.0
  0
LINE
  5
15B
330
156
100
AcDbEntity
  8
0
  6
Continuous
 62
     0
370
     0
100
AcDbLine
 10
-0.0140466877
 20
0.2591380833
 30
0.0
 11
9.01291697
 21
0.2591380833
 31
0.0
  0
LINE
  5
15C
330
156
100
AcDbEntity
  8
0
  6
Continuous
 62
     0
370
     0
100
AcDbLine
 10
9.01291697
 20
0.2591380833
 30
0.0
 11
-0.0140466877
 21
0.2591380833
 31
0.0
  0
LINE
  5
15D
330
156
100
AcDbEntity
  8
0
  6
Continuous
 62
     0
370
     0
100
AcDbLine
 10
-0.0140466877
 20
0.2591380833
 30
0.0
 11
9.01291697
 21
0.2591380833
 31
0.0
  0
LINE
  5
15E
330
156
100
AcDbEntity
  8
0
  6
Continuous
 62
     0
370
     0
100
AcDbLine
 10
9.01291697
 20
0.2591380833
 30
0.0
 11
-0.0140466877
 21
0.2591380833
 31
0.0
  0
MTEXT
  5
15F
330
156
100
AcDbEntity
  8
0
  6
Continuous
 62
     0
370
     0
100
AcDbMText
 10
0.0
 20
4.5117370892
 30
0.0
 40
3.5
 41
0.0
 71
     1
 72
     1
  1
BF-6
  7
SLDTEXTSTYLE1
 73
     1
 44
1.0
  0
ENDBLK
  5
158
330
156
100
AcDbEntity
  8
0
100
AcDbBlockEnd
  0
BLOCK
  5
1AB
330
1AA
100
AcDbEntity
  8
0
100
AcDbBlockBegin
  2
_D_7
 70
     0
 10
0.0
 20
0.0
 30
0.0
  3
_D_7
  1

  0
SOLID
  5
1AD
330
1AA
100
AcDbEntity
  8
0
  6
Continuous
 62
     7
370
     0
100
AcDbTrace
 10
49.8009653266
 20
147.263123573
 30
0.0
 11
47.8009653266
 21
148.013123573
 31
0.0
 12
47.8009653266
 22
146.513123573
 32
0.0
 13
47.8009653266
 23
146.513123573
 33
0.0
  0
SOLID
  5
1AE
330
1AA
100
AcDbEntity
  8
0
  6
Continuous
 62
     7
370
     0
100
AcDbTrace
 10
65.8009653266
 20
147.263123573
 30
0.0
 11
67.8009653266
 21
146.513123573
 31
0.0
 12
67.8009653266
 22
148.013123573
 32
0.0
 13
67.8009653266
 23
148.013123573
 33
0.0
  0
LINE
  5
1AF
330
1AA
100
AcDbEntity
  8
0
  6
Continuous
 62
     7
370
     0
100
AcDbLine
 10
49.8009653266
 20
130.829607535
 30
0.0
 11
49.8009653266
 21
148.263123573
 31
0.0
  0
LINE
  5
1B0
330
1AA
100
AcDbEntity
  8
0
  6
Continuous
 62
     7
370
     0
100
AcDbLine
 10
65.8009653266
 20
130.829607535
 30
0.0
 11
65.8009653266
 21
148.263123573
 31
0.0
  0
LINE
  5
1B1
330
1AA
100
AcDbEntity
  8
0
  6
Continuous
 62
     7
370
     0
100
AcDbLine
 10
49.8009653266
 20
147.263123573
 30
0.0
 11
44.8009653266
 21
147.263123573
 31
0.0
  0
LINE
  5
1B2
330
1AA
100
AcDbEntity
  8
0
  6
Continuous
 62
     7
370
     0
100
AcDbLine
 10
49.8009653266
 20
147.263123573
 30
0.0
 11
65.8009653266
 21
147.263123573
 31
0.0
  0
LINE
  5
1B3
330
1AA
100
AcDbEntity
  8
0
  6
Continuous
 62
     7
370
     0
100
AcDbLine
 10
65.8009653266
 20
147.263123573
 30
0.0
 11
70.8009653266
 21
147.263123573
 31
0.0
  0
MTEXT
  5
1B4
330
1AA
100
AcDbEntity
  8
0
  6
Continuous
 62
     7
370
     0
100
AcDbMText
 10
52.5756352011
 20
151.7748606622
 30
35.1
 40
3.5
 41
0.0
 71
     1
 72
     1
  1
%%c
  7
SLDTEXTSTYLE1
 73
     1
 44
1.0
  0
MTEXT
  5
1B5
330
1AA
100
AcDbEntity
  8
0
  6
Continuous
 62
     7
370
     0
100
AcDbMText
 10
57.8540725994
 20
151.8283328388
 30
35.1
 40
3.5
 41
0.0
 71
     1
 72
     1
  1
16
  7
SLDTEXTSTYLE1
 73
     1
 44
1.0
  0
ENDBLK
  5
1AC
330
1AA
100
AcDbEntity
  8
0
100
AcDbBlockEnd
  0
BLOCK
  5
1B9
330
1B8
100
AcDbEntity
  8
0
100
AcDbBlockBegin
  2
_D_8
 70
     0
 10
0.0
 20
0.0
 30
0.0
  3
_D_8
  1

  0
SOLID
  5
1BB
330
1B8
100
AcDbEntity
  8
0
  6
Continuous
 62
     7
370
     0
100
AcDbTrace
 10
42.1187968947
 20
139.129607535
 30
0.0
 11
41.3687968947
 21
137.129607535
 31
0.0
 12
42.8687968947
 22
137.129607535
 32
0.0
 13
42.8687968947
 23
137.129607535
 33
0.0
  0
SOLID
  5
1BC
330
1B8
100
AcDbEntity
  8
0
  6
Continuous
 62
     7
370
     0
100
AcDbTrace
 10
42.1187968947
 20
120.529607535
 30
0.0
 11
42.8687968947
 21
122.529607535
 31
0.0
 12
41.3687968947
 22
122.529607535
 32
0.0
 13
41.3687968947
 23
122.529607535
 33
0.0
  0
LINE
  5
1BD
330
1B8
100
AcDbEntity
  8
0
  6
Continuous
 62
     7
370
     0
100
AcDbLine
 10
52.7509653267
 20
139.129607535
 30
0.0
 11
41.1187968947
 21
139.129607535
 31
0.0
  0
LINE
  5
1BE
330
1B8
100
AcDbEntity
  8
0
  6
Continuous
 62
     7
370
     0
100
AcDbLine
 10
52.7509653266
 20
120.529607535
 30
0.0
 11
41.1187968947
 21
120.529607535
 31
0.0
  0
LINE
  5
1BF
330
1B8
100
AcDbEntity
  8
0
  6
Continuous
 62
     7
370
     0
100
AcDbLine
 10
42.1187968947
 20
139.129607535
 30
0.0
 11
42.1187968947
 21
120.529607535
 31
0.0
  0
MTEXT
  5
1C0
330
1B8
100
AcDbEntity
  8
0
  6
Continuous
 62
     7
370
     0
100
AcDbMText
 10
37.6070599801
 20
125.3039130045
 30
35.1
 40
3.5
 41
0.0
 71
     1
 72
     1
  1
18.6
  7
SLDTEXTSTYLE1
 11
-7.044195017643634E-15
 21
1.0
 31
0.0
 73
     1
 44
1.0
  0
ENDBLK
  5
1BA
330
1B8
100
AcDbEntity
  8
0
100
AcDbBlockEnd
  0
BLOCK
  5
1C2
330
1C1
100
AcDbEntity
  8
0
100
AcDbBlockBegin
  2
SW_NOTE_1
 70
     0
 10
0.0
 20
0.0
 30
0.0
  3
SW_NOTE_1
  1

  0
LINE
  5
1C4
330
1C1
100
AcDbEntity
  8
0
  6
Continuous
 62
     0
370
     0
100
AcDbLine
 10
-6.9167643611
 20
0.3435404455
 30
0.0
 11
0.0
 21
0.3435404455
 31
0.0
  0
LINE
  5
1C5
330
1C1
100
AcDbEntity
  8
0
  6
Continuous
 62
     0
370
     0
100
AcDbLine
 10
0.0
 20
0.3435404455
 30
0.0
 11
-6.9167643611
 21
0.3435404455
 31
0.0
  0
LINE
  5
1C6
330
1C1
100
AcDbEntity
  8
0
  6
Continuous
 62
     0
370
     0
100
AcDbLine
 10
-6.9167643611
 20
0.3435404455
 30
0.0
 11
0.0
 21
0.3435404455
 31
0.0
  0
LINE
  5
1C7
330
1C1
100
AcDbEntity
  8
0
  6
Continuous
 62
     0
370
     0
100
AcDbLine
 10
0.0
 20
0.3435404455
 30
0.0
 11
-6.9167643611
 21
0.3435404455
 31
0.0
  0
LINE
  5
1C8
330
1C1
100
AcDbEntity
  8
0
  6
Continuous
 62
     0
370
     0
100
AcDbLine
 10
-6.9167643611
 20
0.3435404455
 30
0.0
 11
0.0
 21
0.3435404455
 31
0.0
  0
LINE
  5
1C9
330
1C1
100
AcDbEntity
  8
0
  6
Continuous
 62
     0
370
     0
100
AcDbLine
 10
0.0
 20
0.3435404455
 30
0.0
 11
-6.9167643611
 21
0.3435404455
 31
0.0
  0
MTEXT
  5
1CA
330
1C1
100
AcDbEntity
  8
0
  6
Continuous
 62
     0
370
     0
100
AcDbMText
 10
-6.8222059559
 20
4.5898007747
 30
0.0
 40
3.5
 41
0.0
 71
     1
 72
     1
  1
M5
  7
SLDTEXTSTYLE1
 73
     1
 44
1.0
  0
ENDBLK
  5
1C3
330
1C1
100
AcDbEntity
  8
0
100
AcDbBlockEnd
  0
BLOCK
  5
1CF
330
1CE
100
AcDbEntity
  8
0
100
AcDbBlockBegin
  2
SW_CENTERMARKSYMBOL_0
 70
     0
 10
0.0
 20
0.0
 30
0.0
  3
SW_CENTERMARKSYMBOL_0
  1

  0
LINE
  5
1D1
330
1CE
100
AcDbEntity
  8
0
  6
Continuous
 62
     0
370
     0
100
AcDbLine
 10
0.0
 20
0.0
 30
0.0
 11
0.0
 21
2.5
 31
0.0
  0
LINE
  5
1D2
330
1CE
100
AcDbEntity
  8
0
  6
Continuous
 62
     0
370
     0
100
AcDbLine
 10
0.0
 20
0.0
 30
0.0
 11
-2.5
 21
0.0
 31
0.0
  0
LINE
  5
1D3
330
1CE
100
AcDbEntity
  8
0
  6
Continuous
 62
     0
370
     0
100
AcDbLine
 10
0.0
 20
0.0
 30
0.0
 11
0.0
 21
-2.5
 31
0.0
  0
LINE
  5
1D4
330
1CE
100
AcDbEntity
  8
0
  6
Continuous
 62
     0
370
     0
100
AcDbLine
 10
0.0
 20
0.0
 30
0.0
 11
2.5
 21
0.0
 31
0.0
  0
LINE
  5
1D5
330
1CE
100
AcDbEntity
  8
0
  6
Continuous
 62
     0
370
     0
100
AcDbLine
 10
0.0
 20
5.0
 30
0.0
 11
0.0
 21
10.5
 31
0.0
  0
LINE
  5
1D6
330
1CE
100
AcDbEntity
  8
0
  6
Continuous
 62
     0
370
     0
100
AcDbLine
 10
-5.0
 20
0.0
 30
0.0
 11
-10.5
 21
0.0
 31
0.0
  0
LINE
  5
1D7
330
1CE
100
AcDbEntity
  8
0
  6
Continuous
 62
     0
370
     0
100
AcDbLine
 10
0.0
 20
-5.0
 30
0.0
 11
0.0
 21
-20.1006211094
 31
0.0
  0
LINE
  5
1D8
330
1CE
100
AcDbEntity
  8
0
  6
Continuous
 62
     0
370
     0
100
AcDbLine
 10
5.0
 20
0.0
 30
0.0
 11
10.5
 21
0.0
 31
0.0
  0
ENDBLK
  5
1D0
330
1CE
100
AcDbEntity
  8
0
100
AcDbBlockEnd
  0
ENDSEC
  0
SECTION
  2
ENTITIES
  0
LINE
  5
44
330
1F
100
AcDbEntity
  8
0
  6
Continuous
 62
     7
370
     0
100
AcDbLine
 10
20.2604743903
 20
285.0
 30
0.0
 11
196.7604743903
 21
285.0
 31
0.0
  0
LINE
  5
45
330
1F
100
AcDbEntity
  8
0
  6
Continuous
 62
     7
370
     0
100
AcDbLine
 10
20.2604743903
 20
285.0
 30
0.0
 11
20.2604743903
 21
10.0
 31
0.0
  0
LINE
  5
46
330
1F
100
AcDbEntity
  8
0
  6
Continuous
 62
     7
370
     0
100
AcDbLine
 10
20.2604743903
 20
10.0
 30
0.0
 11
196.7604743903
 21
10.0
 31
0.0
  0
LINE
  5
47
330
1F
100
AcDbEntity
  8
0
  6
Continuous
 62
     7
370
     0
100
AcDbLine
 10
196.7604743903
 20
285.0
 30
0.0
 11
196.7604743903
 21
10.0
 31
0.0
  0
LINE
  5
48
330
1F
100
AcDbEntity
  8
0
  6
Continuous
 62
     7
370
     0
100
AcDbLine
 10
127.0104743903
 20
50.75
 30
0.0
 11
196.7604743903
 21
50.75
 31
0.0
  0
LINE
  5
49
330
1F
100
AcDbEntity
  8
0
  6
Continuous
 62
     7
370
     0
100
AcDbLine
 10
127.0104743903
 20
50.75
 30
0.0
 11
127.0104743903
 21
10.0
 31
0.0
  0
LINE
  5
4A
330
1F
100
AcDbEntity
  8
0
  6
Continuous
 62
     7
370
     0
100
AcDbLine
 10
127.0104743903
 20
22.75
 30
0.0
 11
196.7604743903
 21
22.75
 31
0.0
  0
LINE
  5
4B
330
1F
100
AcDbEntity
  8
0
  6
Continuous
 62
     7
370
     0
100
AcDbLine
 10
127.0104743903
 20
36.75
 30
0.0
 11
196.7604743903
 21
36.75
 31
0.0
  0
MTEXT
  5
4D
330
1F
100
AcDbEntity
  8
0
  6
Continuous
 62
     7
370
     0
100
AcDbMText
 10
161.2186231453
 20
30.4171582345
 30
0.0
 40
4.2333333333
 41
0.0
 71
     2
 72
     1
  1
VFIL1-S-20-P12
  7
SLDTEXTSTYLE0
 73
     1
 44
1.0
  0
MTEXT
  5
4E
330
1F
100
AcDbEntity
  8
0
  6
Continuous
 62
     7
370
     0
100
AcDbMText
 10
160.5582442015
 20
43.9409718514
 30
0.0
 40
4.2333333333
 41
0.0
 71
     2
 72
     1
  1
吸着金具・スモール用
  7
SLDTEXTSTYLE0
 73
     1
 44
1.0
  0
MTEXT
  5
4F
330
1F
100
AcDbEntity
  8
0
  6
Continuous
 62
     7
370
     0
100
AcDbMText
 10
162.706416639
 20
16.8228189052
 30
0.0
 40
4.2333333333
 41
0.0
 71
     2
 72
     1
  1
211010
  7
SLDTEXTSTYLE0
 73
     1
 44
1.0
  0
LINE
  5
50
330
1F
100
AcDbEntity
  8
0
  6
Continuous
 62
     7
370
    15
100
AcDbLine
 10
162.9450382847
 20
125.329607535
 30
0.0
 11
163.5450382847
 21
125.329607535
 31
0.0
  0
LINE
  5
51
330
1F
100
AcDbEntity
  8
0
  6
Continuous
 62
     7
370
    15
100
AcDbLine
 10
163.5450382847
 20
133.5582451388
 30
0.0
 11
162.9450382847
 21
133.5582451388
 31
0.0
  0
LINE
  5
52
330
1F
100
AcDbEntity
  8
0
  6
Continuous
 62
     7
370
    15
100
AcDbLine
 10
94.8450382847
 20
124.329607535
 30
0.0
 11
96.8450382847
 21
124.329607535
 31
0.0
  0
LINE
  5
53
330
1F
100
AcDbEntity
  8
0
  6
Continuous
 62
     7
370
    15
100
AcDbLine
 10
96.8450382847
 20
135.329607535
 30
0.0
 11
94.8450382847
 21
135.329607535
 31
0.0
  0
LINE
  5
54
330
1F
100
AcDbEntity
  8
0
  6
Continuous
 62
     7
370
    15
100
AcDbLine
 10
111.8450382847
 20
125.329607535
 30
0.0
 11
114.5651401793
 21
125.329607535
 31
0.0
  0
LINE
  5
55
330
1F
100
AcDbEntity
  8
0
  6
Continuous
 62
     7
370
    15
100
AcDbLine
 10
115.5833269945
 20
125.329607535
 30
0.0
 11
116.8450382847
 21
125.329607535
 31
0.0
  0
LINE
  5
56
330
1F
100
AcDbEntity
  8
0
  6
Continuous
 62
     7
370
    15
100
AcDbLine
 10
116.8450382847
 20
134.329607535
 30
0.0
 11
114.0521187551
 21
134.329607535
 31
0.0
  0
LINE
  5
57
330
1F
100
AcDbEntity
  8
0
  6
Continuous
 62
     7
370
    15
100
AcDbLine
 10
113.0352537391
 20
134.329607535
 30
0.0
 11
111.8450382847
 21
134.329607535
 31
0.0
  0
LINE
  5
58
330
1F
100
AcDbEntity
  8
0
  6
Continuous
 62
     7
370
    15
100
AcDbLine
 10
96.8450382847
 20
125.929607535
 30
0.0
 11
103.8450382847
 21
125.929607535
 31
0.0
  0
LINE
  5
59
330
1F
100
AcDbEntity
  8
0
  6
Continuous
 62
     7
370
    15
100
AcDbLine
 10
103.8450382847
 20
133.729607535
 30
0.0
 11
96.8450382847
 21
133.729607535
 31
0.0
  0
LINE
  5
5A
330
1F
100
AcDbEntity
  8
0
  6
Continuous
 62
     7
370
    15
100
AcDbLine
 10
116.8450382847
 20
126.829607535
 30
0.0
 11
119.2677827221
 21
126.829607535
 31
0.0
  0
LINE
  5
5B
330
1F
100
AcDbEntity
  8
0
  6
Continuous
 62
     7
370
    15
100
AcDbLine
 10
120.2718010022
 20
126.829607535
 30
0.0
 11
124.2673706677
 21
126.829607535
 31
0.0
  0
LINE
  5
5C
330
1F
100
AcDbEntity
  8
0
  6
Continuous
 62
     7
370
    15
100
AcDbLine
 10
125.271435382
 20
126.829607535
 30
0.0
 11
129.267419023
 21
126.829607535
 31
0.0
  0
LINE
  5
5D
330
1F
100
AcDbEntity
  8
0
  6
Continuous
 62
     7
370
    15
100
AcDbLine
 10
130.2710569519
 20
126.829607535
 30
0.0
 11
134.2674826454
 21
126.829607535
 31
0.0
  0
LINE
  5
5E
330
1F
100
AcDbEntity
  8
0
  6
Continuous
 62
     7
370
    15
100
AcDbLine
 10
135.2715111845
 20
126.829607535
 30
0.0
 11
136.8450382847
 21
126.829607535
 31
0.0
  0
LINE
  5
5F
330
1F
100
AcDbEntity
  8
0
  6
Continuous
 62
     7
370
    15
100
AcDbLine
 10
136.8450382847
 20
132.829607535
 30
0.0
 11
134.3516468929
 21
132.829607535
 31
0.0
  0
LINE
  5
60
330
1F
100
AcDbEntity
  8
0
  6
Continuous
 62
     7
370
    15
100
AcDbLine
 10
133.3476465168
 20
132.829607535
 30
0.0
 11
129.3503831921
 21
132.829607535
 31
0.0
  0
LINE
  5
61
330
1F
100
AcDbEntity
  8
0
  6
Continuous
 62
     7
370
    15
100
AcDbLine
 10
128.3481051863
 20
132.829607535
 30
0.0
 11
124.3520134372
 21
132.829607535
 31
0.0
  0
LINE
  5
62
330
1F
100
AcDbEntity
  8
0
  6
Continuous
 62
     7
370
    15
100
AcDbLine
 10
123.3477870568
 20
132.829607535
 30
0.0
 11
119.3514614649
 21
132.829607535
 31
0.0
  0
LINE
  5
63
330
1F
100
AcDbEntity
  8
0
  6
Continuous
 62
     7
370
    15
100
AcDbLine
 10
118.3472604438
 20
132.829607535
 30
0.0
 11
116.8450382847
 21
132.829607535
 31
0.0
  0
LINE
  5
64
330
1F
100
AcDbEntity
  8
0
  6
Continuous
 62
     7
370
    15
100
AcDbLine
 10
164.3450382847
 20
126.829607535
 30
0.0
 11
164.8450382847
 21
127.329607535
 31
0.0
  0
LINE
  5
65
330
1F
100
AcDbEntity
  8
0
  6
Continuous
 62
     7
370
    15
100
AcDbLine
 10
164.8450382847
 20
132.329607535
 30
0.0
 11
164.3450382847
 21
132.829607535
 31
0.0
  0
LINE
  5
66
330
1F
100
AcDbEntity
  8
0
  6
Continuous
 62
     7
370
    15
100
AcDbLine
 10
163.5450382847
 20
126.829607535
 30
0.0
 11
164.3450382847
 21
126.829607535
 31
0.0
  0
LINE
  5
67
330
1F
100
AcDbEntity
  8
0
  6
Continuous
 62
     7
370
    15
100
AcDbLine
 10
164.3450382847
 20
132.829607535
 30
0.0
 11
163.5450382847
 21
132.829607535
 31
0.0
  0
LINE
  5
68
330
1F
100
AcDbEntity
  8
0
  6
Continuous
 62
     7
370
    15
100
AcDbLine
 10
162.8450382847
 20
127.829607535
 30
0.0
 11
162.9450382847
 21
127.829607535
 31
0.0
  0
LINE
  5
69
330
1F
100
AcDbEntity
  8
0
  6
Continuous
 62
     7
370
    15
100
AcDbLine
 10
162.9450382847
 20
131.829607535
 30
0.0
 11
162.8450382847
 21
131.829607535
 31
0.0
  0
LINE
  5
6A
330
1F
100
AcDbEntity
  8
0
  6
Continuous
 62
     7
370
    15
100
AcDbLine
 10
141.4450382847
 20
121.829607535
 30
0.0
 11
141.8450382847
 21
122.229607535
 31
0.0
  0
LINE
  5
6B
330
1F
100
AcDbEntity
  8
0
  6
Continuous
 62
     7
370
    15
100
AcDbLine
 10
141.8450382847
 20
137.429607535
 30
0.0
 11
141.4450382847
 21
137.829607535
 31
0.0
  0
LINE
  5
6C
330
1F
100
AcDbEntity
  8
0
  6
Continuous
 62
     7
370
    15
100
AcDbLine
 10
141.4450382847
 20
137.829607535
 30
0.0
 11
140.2450382847
 21
137.829607535
 31
0.0
  0
LINE
  5
6D
330
1F
100
AcDbEntity
  8
0
  6
Continuous
 62
     7
370
    15
100
AcDbLine
 10
140.2450382847
 20
121.829607535
 30
0.0
 11
141.4450382847
 21
121.829607535
 31
0.0
  0
LINE
  5
6E
330
1F
100
AcDbEntity
  8
0
  6
Continuous
 62
     7
370
    15
100
AcDbLine
 10
140.2450382847
 20
137.829607535
 30
0.0
 11
139.8450382847
 21
137.429607535
 31
0.0
  0
LINE
  5
6F
330
1F
100
AcDbEntity
  8
0
  6
Continuous
 62
     7
370
    15
100
AcDbLine
 10
139.8450382847
 20
122.229607535
 30
0.0
 11
140.2450382847
 21
121.829607535
 31
0.0
  0
LINE
  5
70
330
1F
100
AcDbEntity
  8
0
  6
Continuous
 62
     7
370
    15
100
AcDbLine
 10
162.4450382847
 20
135.829607535
 30
0.0
 11
141.8450382847
 21
135.829607535
 31
0.0
  0
LINE
  5
71
330
1F
100
AcDbEntity
  8
0
  6
Continuous
 62
     7
370
    15
100
AcDbLine
 10
141.8450382847
 20
123.829607535
 30
0.0
 11
162.4450382847
 21
123.829607535
 31
0.0
  0
LINE
  5
72
330
1F
100
AcDbEntity
  8
0
  6
Continuous
 62
     7
370
    15
100
AcDbLine
 10
162.4450382847
 20
123.829607535
 30
0.0
 11
162.8450382847
 21
124.229607535
 31
0.0
  0
LINE
  5
73
330
1F
100
AcDbEntity
  8
0
  6
Continuous
 62
     7
370
    15
100
AcDbLine
 10
162.8450382847
 20
135.429607535
 30
0.0
 11
162.4450382847
 21
135.829607535
 31
0.0
  0
LINE
  5
74
330
1F
100
AcDbEntity
  8
0
  6
Continuous
 62
     7
370
    15
100
AcDbLine
 10
137.2450382847
 20
134.329607535
 30
0.0
 11
136.8450382847
 21
133.929607535
 31
0.0
  0
LINE
  5
75
330
1F
100
AcDbEntity
  8
0
  6
Continuous
 62
     7
370
    15
100
AcDbLine
 10
136.8450382847
 20
125.729607535
 30
0.0
 11
137.2450382847
 21
125.329607535
 31
0.0
  0
LINE
  5
76
330
1F
100
AcDbEntity
  8
0
  6
Continuous
 62
     7
370
    15
100
AcDbLine
 10
139.8450382847
 20
134.329607535
 30
0.0
 11
139.0536998848
 21
134.329607535
 31
0.0
  0
LINE
  5
77
330
1F
100
AcDbEntity
  8
0
  6
Continuous
 62
     7
370
    15
100
AcDbLine
 10
138.0461100581
 20
134.329607535
 30
0.0
 11
137.2450382847
 21
134.329607535
 31
0.0
  0
LINE
  5
78
330
1F
100
AcDbEntity
  8
0
  6
Continuous
 62
     7
370
    15
100
AcDbLine
 10
137.2450382847
 20
125.329607535
 30
0.0
 11
139.8450382847
 21
125.329607535
 31
0.0
  0
SPLINE
  5
79
330
1F
100
AcDbEntity
  8
0
  6
Continuous
 62
     7
370
    15
100
AcDbSpline
210
0.0
220
0.0
230
1.0
 70
     8
 71
     3
 72
    13
 73
     9
 74
     0
 42
0.00000001
 43
0.00000001
 12
1.0
 22
0.0
 32
0.0
 13
1.0
 23
0.0
 33
0.0
 40
0.0
 40
0.0
 40
0.0
 40
0.0
 40
0.1872996396015714
 40
0.3637888300421314
 40
0.5297037324448544
 40
0.7588969469964542
 40
0.9648156631666392
 40
1.0
 40
1.0
 40
1.0
 40
1.0
 10
126.2870345673098
 20
124.454711178142
 30
0.0
 10
126.3228947283906
 20
124.5460845679745
 30
0.0
 10
126.3925452951105
 20
124.7235575126895
 30
0.0
 10
126.4930792534673
 20
125.0740687574771
 30
0.0
 10
126.6008126953549
 20
125.514215137464
 30
0.0
 10
126.7131518095381
 20
126.0577046640755
 30
0.0
 10
126.8004779485207
 20
126.5247286985307
 30
0.0
 10
126.8448697871042
 20
126.7907821666278
 30
0.0
 10
126.8513479190976
 20
126.8296075349531
 30
0.0
  0
SPLINE
  5
7A
330
1F
100
AcDbEntity
  8
0
  6
Continuous
 62
     7
370
    15
100
AcDbSpline
210
0.0
220
0.0
230
1.0
 70
     8
 71
     3
 72
    11
 73
     7
 74
     0
 42
0.00000001
 43
0.00000001
 12
1.0
 22
0.0
 32
0.0
 13
1.0
 23
0.0
 33
0.0
 40
0.0
 40
0.0
 40
0.0
 40
0.0
 40
0.2324882421727434
 40
0.579251250625915
 40
0.8925593479924556
 40
1.0
 40
1.0
 40
1.0
 40
1.0
 10
127.7720462112476
 20
132.8296075349531
 30
0.0
 10
127.7948214995866
 20
132.9607129550269
 30
0.0
 10
127.8515667961679
 20
133.2873659411386
 30
0.0
 10
127.9378383275289
 20
133.715811881157
 30
0.0
 10
128.0114765322846
 20
134.0534507142006
 30
0.0
 10
128.0504167438475
 20
134.2004568698048
 30
0.0
 10
128.0603603544366
 20
134.237995750742
 30
0.0
  0
SPLINE
  5
7B
330
1F
100
AcDbEntity
  8
0
  6
Continuous
 62
     7
370
    15
100
AcDbSpline
210
0.0
220
0.0
230
1.0
 70
     8
 71
     3
 72
    20
 73
    16
 74
     0
 42
0.00000001
 43
0.00000001
 12
1.0
 22
0.0
 32
0.0
 13
1.0
 23
0.0
 33
0.0
 40
0.0
 40
0.0
 40
0.0
 40
0.0
 40
0.0485344634703883
 40
0.0917791835255618
 40
0.1366948657981946
 40
0.1755369338257477
 40
0.2299247464395727
 40
0.3079030212941413
 40
0.4092017387845209
 40
0.509832281506249
 40
0.6226294475551176
 40
0.7474702987743205
 40
0.8843045804368799
 40
0.9822944591430576
 40
1.0
 40
1.0
 40
1.0
 40
1.0
 10
130.5480212824298
 20
123.8312169185074
 30
0.0
 10
130.6038547988031
 20
123.8348928574922
 30
0.0
 10
130.7094365685331
 20
123.8418440969741
 30
0.0
 10
130.8492037233948
 20
123.8992319549362
 30
0.0
 10
130.9601486330116
 20
123.9720401233919
 30
0.0
 10
131.0535061259654
 20
124.0608023176143
 30
0.0
 10
131.1306355132428
 20
124.1578411807616
 30
0.0
 10
131.2226485970313
 20
124.3091607505199
 30
0.0
 10
131.3198613700404
 20
124.5276574622085
 30
0.0
 10
131.4220547412586
 20
124.8243430058813
 30
0.0
 10
131.5258885331416
 20
125.1977012515203
 30
0.0
 10
131.6370068034331
 20
125.6751822550141
 30
0.0
 10
131.7413797826513
 20
126.2028613135935
 30
0.0
 10
131.8139289371846
 20
126.6010743779209
 30
0.0
 10
131.8469118343478
 20
126.7992756457654
 30
0.0
 10
131.8519593983353
 20
126.8296075349531
 30
0.0
  0
SPLINE
  5
7C
330
1F
100
AcDbEntity
  8
0
  6
Continuous
 62
     7
370
    15
100
AcDbSpline
210
0.0
220
0.0
230
1.0
 70
     8
 71
     3
 72
    11
 73
     7
 74
     0
 42
0.00000001
 43
0.00000001
 12
1.0
 22
0.0
 32
0.0
 13
1.0
 23
0.0
 33
0.0
 40
0.0
 40
0.0
 40
0.0
 40
0.0
 40
0.1947906603136698
 40
0.4972131037737541
 40
0.7704343036190817
 40
1.0
 40
1.0
 40
1.0
 40
1.0
 10
132.7719592487655
 20
132.8296075349531
 30
0.0
 10
132.7909583588868
 20
132.9389499944789
 30
0.0
 10
132.839454557304
 20
133.2180522039355
 30
0.0
 10
132.9139811077954
 20
133.5990952299586
 30
0.0
 10
132.991780042443
 20
133.9658631853724
 30
0.0
 10
133.038836062073
 20
134.1548073800189
 30
0.0
 10
133.0603212041806
 20
134.2410767437329
 30
0.0
  0
SPLINE
  5
7D
330
1F
100
AcDbEntity
  8
0
  6
Continuous
 62
     7
370
    15
100
AcDbSpline
210
0.0
220
0.0
230
1.0
 70
     8
 71
     3
 72
    18
 73
    14
 74
     0
 42
0.00000001
 43
0.00000001
 12
1.0
 22
0.0
 32
0.0
 13
1.0
 23
0.0
 33
0.0
 40
0.0
 40
0.0
 40
0.0
 40
0.0
 40
0.0853145131970511
 40
0.1690022538799568
 40
0.2515615272973557
 40
0.3325080915667956
 40
0.438518885069335
 40
0.5480113192428682
 40
0.6709227849600475
 40
0.77216497429795
 40
0.8811450860005399
 40
0.9978113450589915
 40
1.0
 40
1.0
 40
1.0
 40
1.0
 10
135.548796058847
 20
123.8299668099403
 30
0.0
 10
135.6406497667595
 20
123.8417604281317
 30
0.0
 10
135.8226057210599
 20
123.865122784442
 30
0.0
 10
136.0130072567257
 20
124.0120761603274
 30
0.0
 10
136.1435555597088
 20
124.1731041990375
 30
0.0
 10
136.2596860032785
 20
124.3825272196648
 30
0.0
 10
136.361655371161
 20
124.6362475292901
 30
0.0
 10
136.4627098191171
 20
124.9577274398336
 30
0.0
 10
136.5619817947185
 20
125.3435498487195
 30
0.0
 10
136.6587035845021
 20
125.78260547008
 30
0.0
 10
136.7527117754861
 20
126.2654825610995
 30
0.0
 10
136.8178306814023
 20
126.6207012426613
 30
0.0
 10
136.8516270514392
 20
126.8258301860792
 30
0.0
 10
136.8522493950157
 20
126.8296075349531
 30
0.0
  0
SPLINE
  5
7E
330
1F
100
AcDbEntity
  8
0
  6
Continuous
 62
     7
370
    15
100
AcDbSpline
210
0.0
220
0.0
230
1.0
 70
     8
 71
     3
 72
    21
 73
    17
 74
     0
 42
0.00000001
 43
0.00000001
 12
1.0
 22
0.0
 32
0.0
 13
1.0
 23
0.0
 33
0.0
 40
0.0
 40
0.0
 40
0.0
 40
0.0
 40
0.099945445231462
 40
0.1938107566004606
 40
0.2816418004384975
 40
0.363375698691729
 40
0.4626922888604028
 40
0.5509633045135656
 40
0.6281485925356376
 40
0.6941223049950406
 40
0.7487542386769014
 40
0.7970374064649935
 40
0.8387032355669419
 40
0.8862112546412162
 40
0.9399805942385623
 40
1.0
 40
1.0
 40
1.0
 40
1.0
 10
139.7743645971715
 20
130.0735979833689
 30
0.0
 10
139.731951535103
 20
130.3661221716672
 30
0.0
 10
139.6497055895254
 20
130.933374977703
 30
0.0
 10
139.5297466129736
 20
131.7335680647758
 30
0.0
 10
139.4172142551301
 20
132.4460976485928
 30
0.0
 10
139.3017683804942
 20
133.1270947587979
 30
0.0
 10
139.1850022197247
 20
133.7490699830677
 30
0.0
 10
139.0684794751258
 20
134.2837398627167
 30
0.0
 10
138.9646500453045
 20
134.6861823454868
 30
0.0
 10
138.8728988199469
 20
134.9815304449828
 30
0.0
 10
138.7919261762165
 20
135.1958994663288
 30
0.0
 10
138.714777352436
 20
135.3620576657968
 30
0.0
 10
138.6122421645385
 20
135.52788945199
 30
0.0
 10
138.4772268550441
 20
135.6756008766435
 30
0.0
 10
138.2885859597033
 20
135.8017680336771
 30
0.0
 10
138.13122390796
 20
135.8189954191306
 30
0.0
 10
138.0482211750864
 20
135.828082235533
 30
0.0
  0
SPLINE
  5
7F
330
1F
100
AcDbEntity
  8
0
  6
Continuous
 62
     7
370
    15
100
AcDbSpline
210
0.0
220
0.0
230
1.0
 70
     8
 71
     3
 72
    38
 73
    34
 74
     0
 42
0.00000001
 43
0.00000001
 12
1.0
 22
0.0
 32
0.0
 13
1.0
 23
0.0
 33
0.0
 40
0.0
 40
0.0
 40
0.0
 40
0.0
 40
0.0029245912968255
 40
0.0213304725702226
 40
0.0512654639991662
 40
0.0808179970554697
 40
0.1101573762333453
 40
0.1393130765532631
 40
0.169975026803356
 40
0.2028482203721651
 40
0.2379255515593248
 40
0.2752053714286459
 40
0.3147085999216774
 40
0.3537121797208339
 40
0.3860179608203133
 40
0.4113479514170015
 40
0.429676104193853
 40
0.4428720056760489
 40
0.4612101339391896
 40
0.4862616652329814
 40
0.5180586076628594
 40
0.5566342845054801
 40
0.6019992488925554
 40
0.6488293259369879
 40
0.6927631118537952
 40
0.7338228184148736
 40
0.7840642826284201
 40
0.8291586010040456
 40
0.8704023326161722
 40
0.9015908517921376
 40
0.9335042307060225
 40
0.9663259405139175
 40
1.0
 40
1.0
 40
1.0
 40
1.0
 10
135.7643250170254
 20
124.7833139311169
 30
0.0
 10
135.765316462003
 20
124.7829867452252
 30
0.0
 10
135.7725475544031
 20
124.7806004187338
 30
0.0
 10
135.7556624489647
 20
124.8083085454449
 30
0.0
 10
135.7090497069408
 20
124.9189580029092
 30
0.0
 10
135.6520298301473
 20
125.0850527411517
 30
0.0
 10
135.589361489371
 20
125.3007082654241
 30
0.0
 10
135.5222761452068
 20
125.5656389573103
 30
0.0
 10
135.451420964522
 20
125.8803816358927
 30
0.0
 10
135.3754465956739
 20
126.2542037997776
 30
0.0
 10
135.2937989901761
 20
126.6936011107158
 30
0.0
 10
135.2065728109649
 20
127.2012713034513
 30
0.0
 10
135.1160192336258
 20
127.7643476612696
 30
0.0
 10
135.029266201931
 20
128.3308629546316
 30
0.0
 10
134.9536048796659
 20
128.840192530321
 30
0.0
 10
134.8940952083719
 20
129.2471598210246
 30
0.0
 10
134.8495354571973
 20
129.5540439962052
 30
0.0
 10
134.8104459872678
 20
129.8239547950658
 30
0.0
 10
134.7660765009559
 20
130.1305709443581
 30
0.0
 10
134.7070992879821
 20
130.537177693488
 30
0.0
 10
134.6322220628729
 20
131.0486922168994
 30
0.0
 10
134.5413351662419
 20
131.6565363127473
 30
0.0
 10
134.4385481579299
 20
132.3169482043955
 30
0.0
 10
134.331148777135
 20
132.9624767066431
 30
0.0
 10
134.2262718330412
 20
133.5373939183742
 30
0.0
 10
134.1172831546938
 20
134.0725204719676
 30
0.0
 10
134.0046660682733
 20
134.5479357259016
 30
0.0
 10
133.8866964301278
 20
134.9485847972204
 30
0.0
 10
133.7780777177854
 20
135.2337819106708
 30
0.0
 10
133.651407267262
 20
135.4704648835948
 30
0.0
 10
133.5006043393836
 20
135.6540035776517
 30
0.0
 10
133.3024994933959
 20
135.7980876018
 30
0.0
 10
133.1337374994042
 20
135.8186373798489
 30
0.0
 10
133.0482748980237
 20
135.8290439734682
 30
0.0
  0
SPLINE
  5
80
330
1F
100
AcDbEntity
  8
0
  6
Continuous
 62
     7
370
    15
100
AcDbSpline
210
0.0
220
0.0
230
1.0
 70
     8
 71
     3
 72
    33
 73
    29
 74
     0
 42
0.00000001
 43
0.00000001
 12
1.0
 22
0.0
 32
0.0
 13
1.0
 23
0.0
 33
0.0
 40
0.0
 40
0.0
 40
0.0
 40
0.0
 40
0.016976725628779
 40
0.0430416891100562
 40
0.0711356072828676
 40
0.1021659413265425
 40
0.136414795628945
 40
0.1738781346919808
 40
0.2145554900578105
 40
0.258470696905386
 40
0.3021030428366837
 40
0.3400527135707142
 40
0.3816270230894895
 40
0.4128522985013042
 40
0.4406923762928868
 40
0.47381395967686
 40
0.5119421420334946
 40
0.5514401817131332
 40
0.6112909697444093
 40
0.6719874022255932
 40
0.713897423533552
 40
0.7610212085389293
 40
0.8141469972702158
 40
0.8582204909983161
 40
0.9060822219692874
 40
0.9544097182722253
 40
0.9774772342731044
 40
1.0
 40
1.0
 40
1.0
 40
1.0
 10
130.7752053102477
 20
124.7642605522805
 30
0.0
 10
130.7757785594444
 20
124.7655265975139
 30
0.0
 10
130.7772319382788
 20
124.7687364464877
 30
0.0
 10
130.742658842462
 20
124.8359330056383
 30
0.0
 10
130.6882968532002
 20
124.9752549987287
 30
0.0
 10
130.6224980868369
 20
125.1801453996055
 30
0.0
 10
130.5470218461474
 20
125.4600921626563
 30
0.0
 10
130.4616491917183
 20
125.8275222840851
 30
0.0
 10
130.3670562817829
 20
126.292568919537
 30
0.0
 10
130.2664344578754
 20
126.8462696493321
 30
0.0
 10
130.1674664660554
 20
127.4404046293943
 30
0.0
 10
130.0702310465046
 20
128.0600895176747
 30
0.0
 10
129.9825278349907
 20
128.6431245804562
 30
0.0
 10
129.9027624593762
 20
129.18676200006
 30
0.0
 10
129.8296913335331
 20
129.6904891493191
 30
0.0
 10
129.7511583060832
 20
130.2340706240601
 30
0.0
 10
129.6633527897014
 20
130.8382311640536
 30
0.0
 10
129.5542574222755
 20
131.5739690716947
 30
0.0
 10
129.4269107458993
 20
132.394729657309
 30
0.0
 10
129.2972883846754
 20
133.1579848664303
 30
0.0
 10
129.1776124168918
 20
133.7889342030502
 30
0.0
 10
129.0578471889706
 20
134.338091161119
 30
0.0
 10
128.9269063152536
 20
134.8181620064227
 30
0.0
 10
128.7799832562451
 20
135.217549623061
 30
0.0
 10
128.6308369505271
 20
135.508183910446
 30
0.0
 10
128.467255586764
 20
135.6938909078392
 30
0.0
 10
128.2538468142397
 20
135.8103723513722
 30
0.0
 10
128.1163597488106
 20
135.822525729691
 30
0.0
 10
128.0484376205021
 20
135.8285298095582
 30
0.0
  0
SPLINE
  5
81
330
1F
100
AcDbEntity
  8
0
  6
Continuous
 62
     7
370
    15
100
AcDbSpline
210
0.0
220
0.0
230
1.0
 70
     8
 71
     3
 72
    37
 73
    33
 74
     0
 42
0.00000001
 43
0.00000001
 12
1.0
 22
0.0
 32
0.0
 13
1.0
 23
0.0
 33
0.0
 40
0.0
 40
0.0
 40
0.0
 40
0.0
 40
0.0137593595206267
 40
0.0382825054851421
 40
0.0695307792883166
 40
0.0984308571399716
 40
0.1344719821359279
 40
0.1778039683163995
 40
0.2285038162987348
 40
0.266454940233088
 40
0.3077038847972738
 40
0.3482625162444873
 40
0.3827687485140372
 40
0.4111641751243303
 40
0.4334079859390882
 40
0.4519358225305651
 40
0.4669194288463515
 40
0.4877518073876788
 40
0.5146137974757319
 40
0.5475243532092359
 40
0.593978463870522
 40
0.637557505333662
 40
0.6776682146019088
 40
0.7142893523877482
 40
0.7582161236449169
 40
0.8010199763689277
 40
0.8438392409426579
 40
0.87634062180458
 40
0.9123569184942536
 40
0.9534216035807105
 40
0.9760458514238484
 40
1.0
 40
1.0
 40
1.0
 40
1.0
 10
127.8326242848014
 20
134.9098832959525
 30
0.0
 10
127.83328281688
 20
134.9084819823602
 30
0.0
 10
127.8351150430002
 20
134.9045831238994
 30
0.0
 10
127.8682330371453
 20
134.8450731016355
 30
0.0
 10
127.9152544139373
 20
134.7296002453276
 30
0.0
 10
127.9790876351338
 20
134.539926315824
 30
0.0
 10
128.057668623353
 20
134.261124654248
 30
0.0
 10
128.1564421309666
 20
133.8431268078055
 30
0.0
 10
128.2593349359794
 20
133.3304728927571
 30
0.0
 10
128.3616030292048
 20
132.7609748251385
 30
0.0
 10
128.4565566259956
 20
132.1900133566211
 30
0.0
 10
128.549091257107
 20
131.599007730635
 30
0.0
 10
128.6314722747146
 20
131.0511496751385
 30
0.0
 10
128.69930884882
 20
130.5898398306894
 30
0.0
 10
128.7544371167295
 20
130.2108060277609
 30
0.0
 10
128.7988986006249
 20
129.9036894617367
 30
0.0
 10
128.8422408103896
 20
129.6039867854144
 30
0.0
 10
128.8922474688852
 20
129.2586586822804
 30
0.0
 10
128.9565989279531
 20
128.8170656296676
 30
0.0
 10
129.0414637289495
 20
128.2436992489622
 30
0.0
 10
129.1397450764554
 20
127.6010403429812
 30
0.0
 10
129.2438884599903
 20
126.957691754829
 30
0.0
 10
129.3404358479936
 20
126.4033387305048
 30
0.0
 10
129.437772680584
 20
125.891605805478
 30
0.0
 10
129.5377822687077
 20
125.4243681262115
 30
0.0
 10
129.6462909255488
 20
124.9920637676079
 30
0.0
 10
129.7527648629277
 20
124.6515996824623
 30
0.0
 10
129.8571916128269
 20
124.3871306154658
 30
0.0
 10
129.9984982062914
 20
124.1286600592509
 30
0.0
 10
130.1851072447887
 20
123.9447508842693
 30
0.0
 10
130.388031561016
 20
123.845450946492
 30
0.0
 10
130.5089829997526
 20
123.8360583473745
 30
0.0
 10
130.5711854145355
 20
123.8312279596396
 30
0.0
  0
SPLINE
  5
82
330
1F
100
AcDbEntity
  8
0
  6
Continuous
 62
     7
370
    15
100
AcDbSpline
210
0.0
220
0.0
230
1.0
 70
     8
 71
     3
 72
    35
 73
    31
 74
     0
 42
0.00000001
 43
0.00000001
 12
1.0
 22
0.0
 32
0.0
 13
1.0
 23
0.0
 33
0.0
 40
0.0
 40
0.0
 40
0.0
 40
0.0
 40
0.0087512061285014
 40
0.0457778221187423
 40
0.0825671206600986
 40
0.118651498014905
 40
0.1539604450556973
 40
0.1883995718912517
 40
0.2218717216056897
 40
0.264775617653025
 40
0.3055307168109449
 40
0.3441221334245263
 40
0.3978389790864003
 40
0.4473625761517253
 40
0.4788650507288861
 40
0.5105342322231418
 40
0.5477829124517456
 40
0.5797676797589313
 40
0.6152304405825175
 40
0.6541972794361125
 40
0.6942061688782606
 40
0.7448333787063055
 40
0.7923880423651652
 40
0.8368985640508242
 40
0.8684962010260978
 40
0.9042688686297677
 40
0.9250345278328723
 40
0.947896070040803
 40
0.972907262747788
 40
1.0
 40
1.0
 40
1.0
 40
1.0
 10
132.8826159919778
 20
134.8569175801125
 30
0.0
 10
132.8785479245064
 20
134.8577766083497
 30
0.0
 10
132.8572677413712
 20
134.8622702108612
 30
0.0
 10
132.9129101134047
 20
134.7659697187907
 30
0.0
 10
132.967822279327
 20
134.5871607162701
 30
0.0
 10
133.0390533093807
 20
134.3361536404576
 30
0.0
 10
133.1130646276827
 20
134.0292829728469
 30
0.0
 10
133.1900721923153
 20
133.6742737536441
 30
0.0
 10
133.2756775950496
 20
133.2394777517038
 30
0.0
 10
133.3680502143525
 20
132.7244416360081
 30
0.0
 10
133.464322764716
 20
132.1408962197707
 30
0.0
 10
133.5693755328901
 20
131.4671124668917
 30
0.0
 10
133.6816288296193
 20
130.7128107152606
 30
0.0
 10
133.7884166822349
 20
129.9764242833409
 30
0.0
 10
133.8776703576225
 20
129.3593331141563
 30
0.0
 10
133.957179088183
 20
128.8132606700377
 30
0.0
 10
134.0371375068998
 20
128.2733844259078
 30
0.0
 10
134.1201897620975
 20
127.7287965870431
 30
0.0
 10
134.2047898305171
 20
127.1955179083693
 30
0.0
 10
134.2959413445216
 20
126.6538180293203
 30
0.0
 10
134.399518171541
 20
126.0855162793218
 30
0.0
 10
134.5117574450401
 20
125.538287212304
 30
0.0
 10
134.6301325046528
 20
125.0501775556874
 30
0.0
 10
134.7395385617335
 20
124.6915448702702
 30
0.0
 10
134.8377694035281
 20
124.4326324902144
 30
0.0
 10
134.94391887094
 20
124.2244232584457
 30
0.0
 10
135.0717157217406
 20
124.0574351415041
 30
0.0
 10
135.2042895520285
 20
123.9400026508759
 30
0.0
 10
135.3721064601558
 20
123.8477658721011
 30
0.0
 10
135.5035171064898
 20
123.8360509589735
 30
0.0
 10
135.5718473479142
 20
123.8299594978582
 30
0.0
  0
SPLINE
  5
83
330
1F
100
AcDbEntity
  8
0
  6
Continuous
 62
     7
370
    15
100
AcDbSpline
210
0.0
220
0.0
230
1.0
 70
     8
 71
     3
 72
    20
 73
    16
 74
     0
 42
0.00000001
 43
0.00000001
 12
1.0
 22
0.0
 32
0.0
 13
1.0
 23
0.0
 33
0.0
 40
0.0
 40
0.0
 40
0.0
 40
0.0
 40
0.0027261853209925
 40
0.0426522045960228
 40
0.0995587838934737
 40
0.1738041995272684
 40
0.2410807199266057
 40
0.3184060946515911
 40
0.4058697760739181
 40
0.5035929765097893
 40
0.6117678539103332
 40
0.7304893599020983
 40
0.8155576648874098
 40
0.9053636228120598
 40
1.0
 40
1.0
 40
1.0
 40
1.0
 10
137.8567404643515
 20
134.8883674968216
 30
0.0
 10
137.8563492190087
 20
134.8885479942146
 30
0.0
 10
137.8502280370469
 20
134.8913719444709
 30
0.0
 10
137.8701307897621
 20
134.8639623626522
 30
0.0
 10
137.9010156235734
 20
134.7939041952356
 30
0.0
 10
137.9539318694477
 20
134.6557456284354
 30
0.0
 10
138.0159536690378
 20
134.4518658634677
 30
0.0
 10
138.0865412700981
 20
134.1813570696259
 30
0.0
 10
138.1697455942169
 20
133.811505203265
 30
0.0
 10
138.2658614721487
 20
133.3236424314302
 30
0.0
 10
138.3746926003173
 20
132.7057679316732
 30
0.0
 10
138.4812251556039
 20
132.0453437933795
 30
0.0
 10
138.5826193880105
 20
131.3821285954398
 30
0.0
 10
138.6764736286658
 20
130.7482432721469
 30
0.0
 10
138.7411839874497
 20
130.3021832939821
 30
0.0
 10
138.7743865269757
 20
130.0733123012338
 30
0.0
  0
SPLINE
  5
84
330
1F
100
AcDbEntity
  8
0
  6
Continuous
 62
     7
370
    15
100
AcDbSpline
210
0.0
220
0.0
230
1.0
 70
     8
 71
     3
 72
    16
 73
    12
 74
     0
 42
0.00000001
 43
0.00000001
 12
1.0
 22
0.0
 32
0.0
 13
1.0
 23
0.0
 33
0.0
 40
0.0
 40
0.0
 40
0.0
 40
0.0
 40
0.1150055632608854
 40
0.2166724415687107
 40
0.3440606355686366
 40
0.4437090239133469
 40
0.5284800287338148
 40
0.6127936604480599
 40
0.7620557373118566
 40
0.9112141504675643
 40
1.0
 40
1.0
 40
1.0
 40
1.0
 10
138.0713395094786
 20
135.8280994907886
 30
0.0
 10
137.9938421692787
 20
135.8201864684453
 30
0.0
 10
137.8478358593224
 20
135.8052781994652
 30
0.0
 10
137.6460017546281
 20
135.6826877725551
 30
0.0
 10
137.4916459060971
 20
135.5129180051507
 30
0.0
 10
137.3895212712513
 20
135.3335753023051
 30
0.0
 10
137.3237735573518
 20
135.1882694427489
 30
0.0
 10
137.2459877249119
 20
134.9869853866768
 30
0.0
 10
137.1602535156171
 20
134.7121013348537
 30
0.0
 10
137.0783497740011
 20
134.4037099311677
 30
0.0
 10
137.0291915722107
 20
134.1791934974276
 30
0.0
 10
137.0108488197604
 20
134.0954180700296
 30
0.0
  0
SPLINE
  5
85
330
1F
100
AcDbEntity
  8
0
  6
Continuous
 62
     7
370
    15
100
AcDbSpline
210
0.0
220
0.0
230
1.0
 70
     8
 71
     3
 72
     9
 73
     5
 74
     0
 42
0.00000001
 43
0.00000001
 12
1.0
 22
0.0
 32
0.0
 13
1.0
 23
0.0
 33
0.0
 40
0.0
 40
0.0
 40
0.0
 40
0.0
 40
0.533105017938189
 40
1.0
 40
1.0
 40
1.0
 40
1.0
 10
136.845038284684
 20
133.2690234443115
 30
0.0
 10
136.8312132241593
 20
133.1950043159293
 30
0.0
 10
136.8052801339434
 20
133.056159011737
 30
0.0
 10
136.7795080680562
 20
132.9017161378065
 30
0.0
 10
136.7674752198162
 20
132.8296075349531
 30
0.0
  0
SPLINE
  5
86
330
1F
100
AcDbEntity
  8
0
  6
Continuous
 62
     7
370
    15
100
AcDbSpline
210
0.0
220
0.0
230
1.0
 70
     8
 71
     3
 72
    12
 73
     8
 74
     0
 42
0.00000001
 43
0.00000001
 12
1.0
 22
0.0
 32
0.0
 13
1.0
 23
0.0
 33
0.0
 40
0.0
 40
0.0
 40
0.0
 40
0.0
 40
0.039593013867108
 40
0.3798793250641607
 40
0.6965674739751068
 40
0.9895584563811873
 40
1.0
 40
1.0
 40
1.0
 40
1.0
 10
135.847985874802
 20
126.8296075349531
 30
0.0
 10
135.8440687886853
 20
126.8063430554187
 30
0.0
 10
135.8064858950158
 20
126.5831295659591
 30
0.0
 10
135.7384173259684
 20
126.2236839745351
 30
0.0
 10
135.6475273760242
 20
125.7821113506279
 30
0.0
 10
135.588656650483
 20
125.5206937343247
 30
0.0
 10
135.5618047330784
 20
125.4218801237995
 30
0.0
 10
135.5608807205129
 20
125.418479807301
 30
0.0
  0
SPLINE
  5
87
330
1F
100
AcDbEntity
  8
0
  6
Continuous
 62
     7
370
    15
100
AcDbSpline
210
0.0
220
0.0
230
1.0
 70
     8
 71
     3
 72
    18
 73
    14
 74
     0
 42
0.00000001
 43
0.00000001
 12
1.0
 22
0.0
 32
0.0
 13
1.0
 23
0.0
 33
0.0
 40
0.0
 40
0.0
 40
0.0
 40
0.0
 40
0.0909122815630821
 40
0.1712618947881767
 40
0.2720747447859297
 40
0.351488227261795
 40
0.4217746877527872
 40
0.4907120570678649
 40
0.6101650009598608
 40
0.7265005437976066
 40
0.8533549934821522
 40
0.9598961413607655
 40
1.0
 40
1.0
 40
1.0
 40
1.0
 10
133.0713486713707
 20
135.8289946408538
 30
0.0
 10
132.9874480907238
 20
135.819771477251
 30
0.0
 10
132.8293949413763
 20
135.8023967458351
 30
0.0
 10
132.6155161351012
 20
135.6587882441242
 30
0.0
 10
132.4561596888873
 20
135.4602479044449
 30
0.0
 10
132.3544993381919
 20
135.2595683522995
 30
0.0
 10
132.2820635173524
 20
135.0820819589204
 30
0.0
 10
132.1973723125763
 20
134.8374082168108
 30
0.0
 10
132.1041568830547
 20
134.5086680865711
 30
0.0
 10
131.9985984429696
 20
134.060641886525
 30
0.0
 10
131.8985333603309
 20
133.5655222413348
 30
0.0
 10
131.8206424182706
 20
133.1456983037646
 30
0.0
 10
131.7790488369689
 20
132.8974872487009
 30
0.0
 10
131.7676739995678
 20
132.8296075349531
 30
0.0
  0
SPLINE
  5
88
330
1F
100
AcDbEntity
  8
0
  6
Continuous
 62
     7
370
    15
100
AcDbSpline
210
0.0
220
0.0
230
1.0
 70
     8
 71
     3
 72
    10
 73
     6
 74
     0
 42
0.00000001
 43
0.00000001
 12
1.0
 22
0.0
 32
0.0
 13
1.0
 23
0.0
 33
0.0
 40
0.0
 40
0.0
 40
0.0
 40
0.0
 40
0.3405568561228028
 40
0.7134569702285237
 40
1.0
 40
1.0
 40
1.0
 40
1.0
 10
130.847605948357
 20
126.8296075349531
 30
0.0
 10
130.8141359879405
 20
126.6407374132359
 30
0.0
 10
130.7440173686172
 20
126.2450598563627
 30
0.0
 10
130.647231409413
 20
125.7749108029636
 30
0.0
 10
130.5862316614529
 20
125.5277707451172
 30
0.0
 10
130.5597258849381
 20
125.4203827745079
 30
0.0
  0
SPLINE
  5
89
330
1F
100
AcDbEntity
  8
0
  6
Continuous
 62
     7
370
    15
100
AcDbSpline
210
0.0
220
0.0
230
1.0
 70
     8
 71
     3
 72
    17
 73
    13
 74
     0
 42
0.00000001
 43
0.00000001
 12
1.0
 22
0.0
 32
0.0
 13
1.0
 23
0.0
 33
0.0
 40
0.0
 40
0.0
 40
0.0
 40
0.0
 40
0.078817410725127
 40
0.1546808265720703
 40
0.2634135730393487
 40
0.3647737370405384
 40
0.4606636702475623
 40
0.570025697392866
 40
0.6843884090759413
 40
0.8147460067969278
 40
0.9609508331466466
 40
0.9999999999999999
 40
0.9999999999999999
 40
0.9999999999999999
 40
0.9999999999999999
 10
128.0715788534338
 20
135.8285564264948
 30
0.0
 10
127.9865513519062
 20
135.8186049844798
 30
0.0
 10
127.8196830914971
 20
135.7990750701841
 30
0.0
 10
127.6092242299668
 20
135.6535675132174
 30
0.0
 10
127.4593768809815
 20
135.4677690087556
 30
0.0
 10
127.3335233241325
 20
135.2203252949557
 30
0.0
 10
127.2353715917275
 20
134.9579658599142
 30
0.0
 10
127.1389483610992
 20
134.6376060909155
 30
0.0
 10
127.0348049719687
 20
134.2209305422498
 30
0.0
 10
126.9218873520454
 20
133.6883784106662
 30
0.0
 10
126.8314648916436
 20
133.2107885991485
 30
0.0
 10
126.7787612328846
 20
132.8959677368039
 30
0.0
 10
126.767651977267
 20
132.8296075349531
 30
0.0
  0
SPLINE
  5
8A
330
1F
100
AcDbEntity
  8
0
  6
Continuous
 62
     7
370
    15
100
AcDbSpline
210
0.0
220
0.0
230
1.0
 70
     8
 71
     3
 72
    11
 73
     7
 74
     0
 42
0.00000001
 43
0.00000001
 12
1.0
 22
0.0
 32
0.0
 13
1.0
 23
0.0
 33
0.0
 40
0.0
 40
0.0
 40
0.0
 40
0.0
 40
0.1716995787114146
 40
0.5163830268641555
 40
0.7927678689803024
 40
1.0
 40
1.0
 40
1.0
 40
1.0
 10
125.8472754402356
 20
126.8296075349531
 30
0.0
 10
125.8304649499827
 20
126.7324042994511
 30
0.0
 10
125.7799077389224
 20
126.4400675252653
 30
0.0
 10
125.7026499860988
 20
126.0474419959317
 30
0.0
 10
125.6232212040867
 20
125.6741734856101
 30
0.0
 10
125.57828663671
 20
125.497297118046
 30
0.0
 10
125.5590319647874
 20
125.4215047687006
 30
0.0
  0
SPLINE
  5
8B
330
1F
100
AcDbEntity
  8
0
  6
Continuous
 62
     7
370
    15
100
AcDbSpline
210
0.0
220
0.0
230
1.0
 70
     8
 71
     3
 72
    37
 73
    33
 74
     0
 42
0.00000001
 43
0.00000001
 12
1.0
 22
0.0
 32
0.0
 13
1.0
 23
0.0
 33
0.0
 40
0.0
 40
0.0
 40
0.0
 40
0.0
 40
0.0280135991220389
 40
0.0543912367631337
 40
0.0784160444348458
 40
0.1041533324789049
 40
0.1341579909666162
 40
0.1684621136928056
 40
0.2070790412263566
 40
0.2500067067065215
 40
0.2961729804043828
 40
0.3379019530642296
 40
0.3736323779518675
 40
0.4033043761687156
 40
0.4268808971968659
 40
0.4463740601772729
 40
0.4776101665161188
 40
0.5158967358199172
 40
0.5594238771990389
 40
0.6040358730131161
 40
0.6495887061875174
 40
0.6961375551670186
 40
0.7423679498056519
 40
0.7860082720169771
 40
0.8270384111485194
 40
0.8483147843809994
 40
0.8761240878796642
 40
0.9109627806400611
 40
0.936918713924258
 40
0.9604196389050687
 40
0.9814486206602446
 40
1.0
 40
1.0
 40
1.0
 40
1.0
 10
112.8496450709352
 20
134.8893091606053
 30
0.0
 10
112.8506219606634
 20
134.8832284220168
 30
0.0
 10
112.8525186909003
 20
134.8714220528738
 30
0.0
 10
112.8874377044948
 20
134.7954026176849
 30
0.0
 10
112.9366334404987
 20
134.6655604014997
 30
0.0
 10
112.9949823025147
 20
134.4830872911835
 30
0.0
 10
113.0621350293623
 20
134.2372313970633
 30
0.0
 10
113.1410154360903
 20
133.9051188436679
 30
0.0
 10
113.231031381953
 20
133.4742918461644
 30
0.0
 10
113.3313320006235
 20
132.9368925737605
 30
0.0
 10
113.4347641587822
 20
132.3258304243633
 30
0.0
 10
113.5325706457887
 20
131.7060180829083
 30
0.0
 10
113.617441836271
 20
131.1447921262023
 30
0.0
 10
113.6880221665514
 20
130.6665915954978
 30
0.0
 10
113.7457861230174
 20
130.2703187678608
 30
0.0
 10
113.804822714278
 20
129.8630227592394
 30
0.0
 10
113.8755695084204
 20
129.3737899788146
 30
0.0
 10
113.9654041052719
 20
128.7565034764894
 30
0.0
 10
114.065880609992
 20
128.0808271997463
 30
0.0
 10
114.1723225968075
 20
127.3941606118191
 30
0.0
 10
114.2814987493415
 20
126.734084597994
 30
0.0
 10
114.3922620625238
 20
126.1223800710869
 30
0.0
 10
114.501971517986
 20
125.5836927426443
 30
0.0
 10
114.609287762192
 20
125.1303720613869
 30
0.0
 10
114.6976805964289
 20
124.8208671859139
 30
0.0
 10
114.7766639705168
 20
124.5882470398879
 30
0.0
 10
114.8664493700013
 20
124.3691139122577
 30
0.0
 10
114.9765927013653
 20
124.173014794836
 30
0.0
 10
115.1061485888306
 20
124.0168967824183
 30
0.0
 10
115.2431625565783
 20
123.9129175518701
 30
0.0
 10
115.3929352163274
 20
123.8430481594868
 30
0.0
 10
115.5150059872894
 20
123.8341044644879
 30
0.0
 10
115.5722207553149
 20
123.8299125401589
 30
0.0
  0
LWPOLYLINE
  5
8C
330
1F
100
AcDbEntity
  8
0
  6
Continuous
 62
     7
370
    15
100
AcDbPolyline
 90
       30
 70
   128
 43
0.0
 10
117.8687712486
 20
134.8710962931
 10
117.8585637053
 20
134.8735099956
 10
117.8886857262
 20
134.7907218114
 10
117.9362805505
 20
134.660724666
 10
117.9871302018
 20
134.5022901704
 10
118.0489002115
 20
134.2811509877
 10
118.1218351831
 20
133.982508839
 10
118.2058473833
 20
133.5919261287
 10
118.3008510991
 20
133.0964871456
 10
118.4066630925
 20
132.4880091802
 10
118.5096926711
 20
131.8489632061
 10
118.6002831674
 20
131.2577035682
 10
118.6782794304
 20
130.7325721062
 10
118.7435517297
 20
130.2856431637
 10
118.7959968107
 20
129.9238404389
 10
118.8389544049
 20
129.6268924425
 10
118.9089448861
 20
129.1443191091
 10
118.9972282402
 20
128.5429808983
 10
119.0990330027
 20
127.868886692
 10
119.2495522124
 20
126.931430923
 10
119.3959859209
 20
126.1135505356
 10
119.4948035863
 20
125.6284320784
 10
119.6043778623
 20
125.1643441393
 10
119.7282665254
 20
124.7375667124
 10
119.8340093534
 20
124.4541991738
 10
119.981644361
 20
124.1785976772
 10
120.2174040279
 20
123.9381663911
 10
120.3796719767
 20
123.8593796102
 10
120.5704361361
 20
123.8309552593
 10
120.5704361361
 20
123.8309552593
  0
LWPOLYLINE
  5
8D
330
1F
100
AcDbEntity
  8
0
  6
Continuous
 62
     7
370
    15
100
AcDbPolyline
 90
       32
 70
   128
 43
0.0
 10
122.8728907146
 20
134.8655088533
 10
122.871850841
 20
134.8486197174
 10
122.8999973529
 20
134.76743022
 10
122.9382749407
 20
134.6570010224
 10
122.9765846782
 20
134.537878429
 10
123.0319475916
 20
134.3453962925
 10
123.0982674992
 20
134.0828325265
 10
123.1759384355
 20
133.7351311118
 10
123.2649202924
 20
133.2891284741
 10
123.3651731323
 20
132.7331965576
 10
123.4736822473
 20
132.0772979414
 10
123.5695544824
 20
131.4606648406
 10
123.6485967629
 20
130.9333028578
 10
123.7106506627
 20
130.5110613576
 10
123.7555964841
 20
130.2023259327
 10
123.7900397365
 20
129.9647676472
 10
123.8391886254
 20
129.6252705322
 10
123.9055224866
 20
129.1681647726
 10
123.9891172242
 20
128.5982751594
 10
124.084625477
 20
127.9628702755
 10
124.1753447658
 20
127.3827424112
 10
124.2870520776
 20
126.7113095988
 10
124.3882284425
 20
126.1544868091
 10
124.4798678366
 20
125.6987670651
 10
124.6251860558
 20
125.0841775775
 10
124.7937754918
 20
124.551849343
 10
124.9013797359
 20
124.3132396316
 10
125.0553837761
 20
124.0833906382
 10
125.2798706653
 20
123.9009960617
 10
125.4226504816
 20
123.8467949297
 10
125.5838503758
 20
123.8313395692
 10
125.5838503758
 20
123.8313395692
  0
SPLINE
  5
8E
330
1F
100
AcDbEntity
  8
0
  6
Continuous
 62
     7
370
    15
100
AcDbSpline
210
0.0
220
0.0
230
1.0
 70
     8
 71
     3
 72
    18
 73
    14
 74
     0
 42
0.00000001
 43
0.00000001
 12
1.0
 22
0.0
 32
0.0
 13
1.0
 23
0.0
 33
0.0
 40
0.0
 40
0.0
 40
0.0
 40
0.0
 40
0.0898568118387958
 40
0.1919920401059934
 40
0.3023207210723652
 40
0.3944047371808199
 40
0.4653472434908333
 40
0.5362283241480916
 40
0.6193609723851278
 40
0.7147075447490692
 40
0.8222317773093274
 40
0.9418520165224955
 40
1.0
 40
1.0
 40
1.0
 40
1.0
 10
123.0702139298682
 20
135.8294247454169
 30
0.0
 10
122.9745119106165
 20
135.8158390082022
 30
0.0
 10
122.7700307417167
 20
135.7868111209355
 30
0.0
 10
122.5662326890538
 20
135.6086247087794
 30
0.0
 10
122.4187769109907
 20
135.3964968516468
 30
0.0
 10
122.3082310862857
 20
135.154717067876
 30
0.0
 10
122.2321275670429
 20
134.942551217493
 30
0.0
 10
122.1654469399768
 20
134.7272620903192
 30
0.0
 10
122.0918063871035
 20
134.4544396041486
 30
0.0
 10
122.0089666240388
 20
134.1030615568966
 30
0.0
 10
121.916398562983
 20
133.6565520423032
 30
0.0
 10
121.8350560361808
 20
133.2273086785107
 30
0.0
 10
121.784592329303
 20
132.9276318288335
 30
0.0
 10
121.7680856513978
 20
132.8296075349531
 30
0.0
  0
SPLINE
  5
8F
330
1F
100
AcDbEntity
  8
0
  6
Continuous
 62
     7
370
    15
100
AcDbSpline
210
0.0
220
0.0
230
1.0
 70
     8
 71
     3
 72
    12
 73
     8
 74
     0
 42
0.00000001
 43
0.00000001
 12
1.0
 22
0.0
 32
0.0
 13
1.0
 23
0.0
 33
0.0
 40
0.0
 40
0.0
 40
0.0
 40
0.0
 40
0.1806473244604223
 40
0.4281932662797087
 40
0.6820578186989539
 40
0.9493477426756743
 40
1.0
 40
1.0
 40
1.0
 40
1.0
 10
120.8473358865026
 20
126.8296075349531
 30
0.0
 10
120.8295570882582
 20
126.7267949079779
 30
0.0
 10
120.7874155192449
 20
126.4830953420374
 30
0.0
 10
120.7203886478895
 20
126.1359337406626
 30
0.0
 10
120.6462801004519
 20
125.7823571427591
 30
0.0
 10
120.5920488408928
 20
125.5422561348287
 30
0.0
 10
120.5639704910027
 20
125.4375984431918
 30
0.0
 10
120.5594972506228
 20
125.4209251338936
 30
0.0
  0
SPLINE
  5
90
330
1F
100
AcDbEntity
  8
0
  6
Continuous
 62
     7
370
    15
100
AcDbSpline
210
0.0
220
0.0
230
1.0
 70
     8
 71
     3
 72
    19
 73
    15
 74
     0
 42
0.00000001
 43
0.00000001
 12
1.0
 22
0.0
 32
0.0
 13
1.0
 23
0.0
 33
0.0
 40
0.0
 40
0.0
 40
0.0
 40
0.0
 40
0.0494663123516624
 40
0.10454494993475
 40
0.1976486376521814
 40
0.3033572855941382
 40
0.406226167906478
 40
0.4899819304350922
 40
0.5738249917654691
 40
0.6539537182387362
 40
0.7479494182597138
 40
0.8557094436018398
 40
0.9771300524687597
 40
0.9999999999999999
 40
0.9999999999999999
 40
0.9999999999999999
 40
0.9999999999999999
 10
118.0717514602708
 20
135.8281415619599
 30
0.0
 10
118.0227432067355
 20
135.8252175650477
 30
0.0
 10
117.9191663446518
 20
135.8190378217788
 30
0.0
 10
117.7621083072295
 20
135.758015607306
 30
0.0
 10
117.6012444792012
 20
135.6423011120629
 30
0.0
 10
117.4599265992672
 20
135.4607435259166
 30
0.0
 10
117.3461008921531
 20
135.2442396171883
 30
0.0
 10
117.2533260832846
 20
135.0077322068813
 30
0.0
 10
117.1817598207384
 20
134.782725564085
 30
0.0
 10
117.1134822220011
 20
134.5365904768823
 30
0.0
 10
117.0386278318927
 20
134.2329635864466
 30
0.0
 10
116.9540860771421
 20
133.8425391571497
 30
0.0
 10
116.8883573382056
 20
133.5156745756883
 30
0.0
 10
116.8509649507196
 20
133.3030739404144
 30
0.0
 10
116.845038284684
 20
133.269376895402
 30
0.0
  0
SPLINE
  5
91
330
1F
100
AcDbEntity
  8
0
  6
Continuous
 62
     7
370
    15
100
AcDbSpline
210
0.0
220
0.0
230
1.0
 70
     8
 71
     3
 72
    15
 73
    11
 74
     0
 42
0.00000001
 43
0.00000001
 12
1.0
 22
0.0
 32
0.0
 13
1.0
 23
0.0
 33
0.0
 40
0.0
 40
0.0
 40
0.0
 40
0.0
 40
0.0557485188229272
 40
0.1428635922979318
 40
0.2614453488609668
 40
0.4110082350381543
 40
0.5906430743105924
 40
0.7990325434647679
 40
0.9532493431211696
 40
1.0
 40
1.0
 40
1.0
 40
1.0
 10
113.070867604996
 20
135.8289514028437
 30
0.0
 10
113.0351631880292
 20
135.8274671998287
 30
0.0
 10
112.943665487705
 20
135.8236637162763
 30
0.0
 10
112.8312498503379
 20
135.7844468317063
 30
0.0
 10
112.6916003484199
 20
135.6978199129777
 30
0.0
 10
112.5408276380081
 20
135.5305759178861
 30
0.0
 10
112.3781288175512
 20
135.2541990234097
 30
0.0
 10
112.2325953198075
 20
134.8836021946796
 30
0.0
 10
112.1298735812814
 20
134.5611092444773
 30
0.0
 10
112.0840286133428
 20
134.3732977473468
 30
0.0
 10
112.0733637902781
 20
134.3296075349531
 30
0.0
  0
SPLINE
  5
92
330
1F
100
AcDbEntity
  8
0
  6
Continuous
 62
     7
370
    15
100
AcDbSpline
210
0.0
220
0.0
230
1.0
 70
     8
 71
     3
 72
    15
 73
    11
 74
     0
 42
0.00000001
 43
0.00000001
 12
1.0
 22
0.0
 32
0.0
 13
1.0
 23
0.0
 33
0.0
 40
0.0
 40
0.0
 40
0.0
 40
0.0
 40
0.1368495163689093
 40
0.2924855253968519
 40
0.4607010024701866
 40
0.6011487956076027
 40
0.7093941210953847
 40
0.8175638165231555
 40
0.944423781486588
 40
1.0
 40
1.0
 40
1.0
 40
1.0
 10
115.5491278345646
 20
123.8299025836672
 30
0.0
 10
115.6447818603682
 20
123.8434203396457
 30
0.0
 10
115.8492211505887
 20
123.8723115485038
 30
0.0
 10
116.0528548682231
 20
124.050224175639
 30
0.0
 10
116.2002061704076
 20
124.2620952925209
 30
0.0
 10
116.310707364757
 20
124.503881990439
 30
0.0
 10
116.3868149736697
 20
124.7155595620104
 30
0.0
 10
116.4534542866406
 20
124.932205495139
 30
0.0
 10
116.5098538848205
 20
125.1351794972955
 30
0.0
 10
116.5444798748777
 20
125.2842083245942
 30
0.0
 10
116.5550281200393
 20
125.3296075349531
 30
0.0
  0
LINE
  5
93
330
1F
100
AcDbEntity
  8
0
  6
Continuous
 62
     7
370
    15
100
AcDbLine
 10
116.8450382847
 20
126.7937296932
 30
0.0
 11
116.851155195
 21
126.829607535
 31
0.0
  0
SPLINE
  5
94
330
1F
100
AcDbEntity
  8
0
  6
Continuous
 62
     7
370
    15
100
AcDbSpline
210
0.0
220
0.0
230
1.0
 70
     8
 71
     3
 72
    12
 73
     8
 74
     0
 42
0.00000001
 43
0.00000001
 12
1.0
 22
0.0
 32
0.0
 13
1.0
 23
0.0
 33
0.0
 40
0.0
 40
0.0
 40
0.0
 40
0.0
 40
0.1800792216233226
 40
0.4279508103369875
 40
0.6821547446968228
 40
0.949816582707207
 40
1.0
 40
1.0
 40
1.0
 40
1.0
 10
117.7719250229962
 20
132.8296075349531
 30
0.0
 10
117.7896326518171
 20
132.9320402320151
 30
0.0
 10
117.8317140981647
 20
133.175467293269
 30
0.0
 10
117.898704422387
 20
133.5226445814852
 30
0.0
 10
117.972863056335
 20
133.8764558850171
 30
0.0
 10
118.0270824172739
 20
134.1164646145109
 30
0.0
 10
118.0551324034342
 20
134.2209946222428
 30
0.0
 10
118.0595611124901
 20
134.2374984803628
 30
0.0
  0
SPLINE
  5
95
330
1F
100
AcDbEntity
  8
0
  6
Continuous
 62
     7
370
    15
100
AcDbSpline
210
0.0
220
0.0
230
1.0
 70
     8
 71
     3
 72
    19
 73
    15
 74
     0
 42
0.00000001
 43
0.00000001
 12
1.0
 22
0.0
 32
0.0
 13
1.0
 23
0.0
 33
0.0
 40
0.0
 40
0.0
 40
0.0
 40
0.0
 40
0.0450692562270812
 40
0.0951950287608866
 40
0.1798254476906672
 40
0.2758020450821879
 40
0.3691595239590459
 40
0.4451883393574979
 40
0.5213437821112316
 40
0.5941607619815253
 40
0.679583451289636
 40
0.7775205892514669
 40
0.8878726780016963
 40
1.0
 40
1.0
 40
1.0
 40
1.0
 10
120.5473212800156
 20
123.8309518357205
 30
0.0
 10
120.5963559902387
 20
123.833877847956
 30
0.0
 10
120.6999268285605
 20
123.8400581544939
 30
0.0
 10
120.8570386285764
 20
123.901149206315
 30
0.0
 10
121.0178920814197
 20
124.0169428238295
 30
0.0
 10
121.159180206185
 20
124.1984594262269
 30
0.0
 10
121.2729282919903
 20
124.4145646242646
 30
0.0
 10
121.3656497344297
 20
124.6505426262716
 30
0.0
 10
121.4371910704986
 20
124.875340770508
 30
0.0
 10
121.5054703505049
 20
125.1212838131867
 30
0.0
 10
121.5803273659219
 20
125.4254100377276
 30
0.0
 10
121.6648929602443
 20
125.8135295546484
 30
0.0
 10
121.756738980619
 20
126.2804200945417
 30
0.0
 10
121.8201458034363
 20
126.6455738292864
 30
0.0
 10
121.8521021863438
 20
126.8296075349531
 30
0.0
  0
SPLINE
  5
96
330
1F
100
AcDbEntity
  8
0
  6
Continuous
 62
     7
370
    15
100
AcDbSpline
210
0.0
220
0.0
230
1.0
 70
     8
 71
     3
 72
    12
 73
     8
 74
     0
 42
0.00000001
 43
0.00000001
 12
1.0
 22
0.0
 32
0.0
 13
1.0
 23
0.0
 33
0.0
 40
0.0
 40
0.0
 40
0.0
 40
0.0
 40
0.1890481585098377
 40
0.4299722835495449
 40
0.657922476571105
 40
0.8956348855022054
 40
1.0
 40
1.0
 40
1.0
 40
1.0
 10
122.7714842747445
 20
132.8296075349531
 30
0.0
 10
122.7900521469523
 20
132.9354528895543
 30
0.0
 10
122.8322830286322
 20
133.1761882089551
 30
0.0
 10
122.8966460182598
 20
133.5112069526641
 30
0.0
 10
122.9652246228664
 20
133.8412253563664
 30
0.0
 10
123.0194448300437
 20
134.0830758198032
 30
0.0
 10
123.0501105614768
 20
134.2005940023472
 30
0.0
 10
123.0594664306964
 20
134.2364478592561
 30
0.0
  0
SPLINE
  5
97
330
1F
100
AcDbEntity
  8
0
  6
Continuous
 62
     7
370
    15
100
AcDbSpline
210
0.0
220
0.0
230
1.0
 70
     8
 71
     3
 72
    18
 73
    14
 74
     0
 42
0.00000001
 43
0.00000001
 12
1.0
 22
0.0
 32
0.0
 13
1.0
 23
0.0
 33
0.0
 40
0.0
 40
0.0
 40
0.0
 40
0.0
 40
0.0204540466955904
 40
0.0292982114699944
 40
0.037904652674234
 40
0.0468845581575344
 40
0.0567773887887003
 40
0.0807368035281509
 40
0.1505835584391413
 40
0.2534276116735576
 40
0.4432489655920587
 40
0.6926902761962129
 40
1.0
 40
1.0
 40
1.0
 40
1.0
 10
125.5610806074432
 20
123.8309108626771
 30
0.0
 10
125.5713945829212
 20
123.8307671231827
 30
0.0
 10
125.5861682381859
 20
123.8305612318904
 30
0.0
 10
125.6118009933018
 20
123.8325838628184
 30
0.0
 10
125.6307081581725
 20
123.8347949653813
 30
0.0
 10
125.6501135115965
 20
123.8377727079923
 30
0.0
 10
125.6781636306786
 20
123.8430251389039
 30
0.0
 10
125.7353936645498
 20
123.8568743711835
 30
0.0
 10
125.8106280171581
 20
123.8839325696051
 30
0.0
 10
125.9154654767646
 20
123.9375327526844
 30
0.0
 10
126.0340733993883
 20
124.033209118193
 30
0.0
 10
126.1656222027513
 20
124.1977468172155
 30
0.0
 10
126.2441089322175
 20
124.3637668003245
 30
0.0
 10
126.2874312318881
 20
124.4554048072648
 30
0.0
  0
SPLINE
  5
98
330
1F
100
AcDbEntity
  8
0
  6
Continuous
 62
     7
370
    15
100
AcDbSpline
210
0.0
220
0.0
230
1.0
 70
     8
 71
     3
 72
    37
 73
    33
 74
     0
 42
0.00000001
 43
0.00000001
 12
1.0
 22
0.0
 32
0.0
 13
1.0
 23
0.0
 33
0.0
 40
0.0
 40
0.0
 40
0.0
 40
0.0
 40
0.0194020445008587
 40
0.0437543401648294
 40
0.0673917653564462
 40
0.0934203515058756
 40
0.1237775177383251
 40
0.1584932610917305
 40
0.1975790486527227
 40
0.241034061258031
 40
0.2877800513456029
 40
0.3300341962547863
 40
0.3662094909567755
 40
0.3962467581020476
 40
0.4201107074000821
 40
0.4398394478106377
 40
0.4714551218526484
 40
0.5102073477723942
 40
0.5542563935380352
 40
0.5993870343481892
 40
0.6454599998613461
 40
0.6925311572171319
 40
0.7392846113777712
 40
0.7834588079993176
 40
0.8250401538244552
 40
0.8466121261435918
 40
0.8747709706790056
 40
0.9100157162557299
 40
0.9362617300138877
 40
0.9600163499259795
 40
0.9812637178420861
 40
1.0
 40
1.0
 40
1.0
 40
1.0
 10
125.7523686634656
 20
124.7968507143505
 30
0.0
 10
125.7541298348057
 20
124.7999830011025
 30
0.0
 10
125.7581015239698
 20
124.8070467484327
 30
0.0
 10
125.7290507988754
 20
124.8703813934501
 30
0.0
 10
125.6821006836078
 20
124.9954078542936
 30
0.0
 10
125.6241284154509
 20
125.1766929997451
 30
0.0
 10
125.5570365883875
 20
125.4224593423874
 30
0.0
 10
125.4781480344062
 20
125.7545098516822
 30
0.0
 10
125.3881222555669
 20
126.185300202876
 30
0.0
 10
125.2877798994871
 20
126.7229914008004
 30
0.0
 10
125.1843151472795
 20
127.334553150624
 30
0.0
 10
125.086472954211
 20
127.9546273756738
 30
0.0
 10
125.0015680162938
 20
128.5160710152528
 30
0.0
 10
124.9309636236581
 20
128.9944128284811
 30
0.0
 10
124.873186669846
 20
129.3907650578601
 30
0.0
 10
124.814144160241
 20
129.7981114392052
 30
0.0
 10
124.743399079397
 20
130.2873627599884
 30
0.0
 10
124.6535710274295
 20
130.9046404134687
 30
0.0
 10
124.5531104147043
 20
131.580199513946
 30
0.0
 10
124.4466981692063
 20
132.2665541810734
 30
0.0
 10
124.3375926661207
 20
132.9258838285979
 30
0.0
 10
124.2269251293202
 20
133.5371226224243
 30
0.0
 10
124.117267350082
 20
134.0757012635153
 30
0.0
 10
124.0099137969954
 20
134.5292365526046
 30
0.0
 10
123.9214237198795
 20
134.8387229913868
 30
0.0
 10
123.8423576970602
 20
135.0714245989427
 30
0.0
 10
123.7525464656706
 20
135.2905335107193
 30
0.0
 10
123.6424307456407
 20
135.4865751914632
 30
0.0
 10
123.5129434718796
 20
135.6426168729193
 30
0.0
 10
123.3760130067271
 20
135.7465212106771
 30
0.0
 10
123.226339489043
 20
135.8163258214142
 30
0.0
 10
123.1043032761601
 20
135.8252339803423
 30
0.0
 10
123.0471172785379
 20
135.82940833108
 30
0.0
  0
LWPOLYLINE
  5
99
330
1F
100
AcDbEntity
  8
0
  6
Continuous
 62
     7
370
    15
100
AcDbPolyline
 90
       32
 70
   128
 43
0.0
 10
120.7503538745
 20
124.7881900052
 10
120.7607005103
 20
124.785808555
 10
120.7299239965
 20
124.8701846215
 10
120.6808004644
 20
125.0048534262
 10
120.6276625746
 20
125.1718502682
 10
120.5631344503
 20
125.4057943527
 10
120.4870031684
 20
125.7225011248
 10
120.3993715409
 20
126.1373038985
 10
120.3003396121
 20
126.6629414637
 10
120.1925089365
 20
127.2926748352
 10
120.0965492073
 20
127.8937776315
 10
120.0172097353
 20
128.4133112282
 10
119.9546700313
 20
128.8336814874
 10
119.9090657622
 20
129.1445540213
 10
119.8752543492
 20
129.3767033638
 10
119.8291634923
 20
129.6946107874
 10
119.767748532
 20
130.1190857535
 10
119.690950377
 20
130.6476810059
 10
119.6023427575
 20
131.2484192328
 10
119.5162472851
 20
131.8159558223
 10
119.4076111448
 20
132.4996920324
 10
119.3059699551
 20
133.0968994299
 10
119.211276047
 20
133.6077337706
 10
119.1181965674
 20
134.0593894683
 10
119.0126985385
 20
134.5032530154
 10
118.8909859906
 20
134.9217140566
 10
118.785629542
 20
135.2042523086
 10
118.6380071142
 20
135.4800799645
 10
118.4020879935
 20
135.7207200475
 10
118.2396442117
 20
135.7996491402
 10
118.0486345696
 20
135.8281375404
 10
118.0486345696
 20
135.8281375404
  0
LWPOLYLINE
  5
9A
330
1F
100
AcDbEntity
  8
0
  6
Continuous
 62
     7
370
    15
100
AcDbPolyline
 90
       31
 70
   128
 43
0.0
 10
115.7462282715
 20
124.7939230889
 10
115.7472417558
 20
124.8108547427
 10
115.7190564838
 20
124.892132132
 10
115.6807445539
 20
125.0027527111
 10
115.6424148098
 20
125.1221168615
 10
115.5870422241
 20
125.3148894975
 10
115.5207151721
 20
125.5776468861
 10
115.4430388952
 20
125.9254451871
 10
115.354053214
 20
126.3714978889
 10
115.2537977856
 20
126.9275586665
 10
115.1452869265
 20
127.5837382663
 10
115.0494135254
 20
128.20049103
 10
114.9703706195
 20
128.7278764224
 10
114.9083165009
 20
129.1501075904
 10
114.8633707704
 20
129.4588273391
 10
114.8289272982
 20
129.6963754731
 10
114.7797781615
 20
130.0358622995
 10
114.7134443767
 20
130.4929713823
 10
114.6298500317
 20
131.0628798162
 10
114.534342184
 20
131.6982800407
 10
114.4436227948
 20
132.2783272122
 10
114.3319143332
 20
132.9494863455
 10
114.2307353016
 20
133.5061310247
 10
114.139097582
 20
133.9617913339
 10
113.9939426756
 20
134.5756226322
 10
113.825758022
 20
135.1064813947
 10
113.7190706164
 20
135.3433573751
 10
113.5673819295
 20
135.5708330635
 10
113.3466089026
 20
135.7532808231
 10
113.0477377071
 20
135.8289814635
 10
113.0477377071
 20
135.8289814635
  0
LINE
  5
9B
330
1F
100
AcDbEntity
  8
0
  6
Continuous
 62
     7
370
    15
100
AcDbLine
 10
105.4950382847
 20
115.529607535
 30
0.0
 11
105.8450382847
 21
113.029607535
 31
0.0
  0
LINE
  5
9C
330
1F
100
AcDbEntity
  8
0
  6
Continuous
 62
     7
370
    15
100
AcDbLine
 10
109.8450382847
 20
113.029607535
 30
0.0
 11
110.1950382847
 21
115.529607535
 31
0.0
  0
LINE
  5
9D
330
1F
100
AcDbEntity
  8
0
  6
Continuous
 62
     7
370
    15
100
AcDbLine
 10
105.4950382847
 20
118.029607535
 30
0.0
 11
105.8450382847
 21
115.529607535
 31
0.0
  0
LINE
  5
9E
330
1F
100
AcDbEntity
  8
0
  6
Continuous
 62
     7
370
    15
100
AcDbLine
 10
109.8450382847
 20
115.529607535
 30
0.0
 11
110.1950382847
 21
118.029607535
 31
0.0
  0
LINE
  5
9F
330
1F
100
AcDbEntity
  8
0
  6
Continuous
 62
     7
370
    15
100
AcDbLine
 10
109.9450382847
 20
118.029607535
 30
0.0
 11
109.9450382847
 21
120.529607535
 31
0.0
  0
LINE
  5
A0
330
1F
100
AcDbEntity
  8
0
  6
Continuous
 62
     7
370
    15
100
AcDbLine
 10
105.7450382847
 20
120.529607535
 30
0.0
 11
105.7450382847
 21
118.029607535
 31
0.0
  0
LINE
  5
A1
330
1F
100
AcDbEntity
  8
0
  6
Continuous
 62
     7
370
    15
100
AcDbLine
 10
103.8450382847
 20
136.629607535
 30
0.0
 11
103.8450382847
 21
135.829607535
 31
0.0
  0
LINE
  5
A2
330
1F
100
AcDbEntity
  8
0
  6
Continuous
 62
     7
370
    15
100
AcDbLine
 10
111.8450382847
 20
135.829607535
 30
0.0
 11
111.8450382847
 21
136.629607535
 31
0.0
  0
LINE
  5
A3
330
1F
100
AcDbEntity
  8
0
  6
Continuous
 62
     7
370
    15
100
AcDbLine
 10
103.8450382847
 20
123.829607535
 30
0.0
 11
103.8450382847
 21
123.029607535
 31
0.0
  0
LINE
  5
A4
330
1F
100
AcDbEntity
  8
0
  6
Continuous
 62
     7
370
    15
100
AcDbLine
 10
111.8450382847
 20
123.029607535
 30
0.0
 11
111.8450382847
 21
123.829607535
 31
0.0
  0
LINE
  5
A5
330
1F
100
AcDbEntity
  8
0
  6
Continuous
 62
     7
370
    15
100
AcDbLine
 10
163.5450382847
 20
133.5223678181
 30
0.0
 11
162.9450382847
 21
133.5223678181
 31
0.0
  0
LINE
  5
A6
330
1F
100
AcDbEntity
  8
0
  6
Continuous
 62
     7
370
    15
100
AcDbLine
 10
162.9450382847
 20
125.329607535
 30
0.0
 11
162.9450382847
 21
133.5223678181
 31
0.0
  0
LINE
  5
A7
330
1F
100
AcDbEntity
  8
0
  6
Continuous
 62
     7
370
    15
100
AcDbLine
 10
163.5450382847
 20
125.329607535
 30
0.0
 11
163.5450382847
 21
133.5223678181
 31
0.0
  0
LINE
  5
A8
330
1F
100
AcDbEntity
  8
0
  6
Continuous
 62
     7
370
    15
100
AcDbLine
 10
162.9450382847
 20
133.5223678181
 30
0.0
 11
162.9450382847
 21
133.5582451388
 31
0.0
  0
LINE
  5
A9
330
1F
100
AcDbEntity
  8
0
  6
Continuous
 62
     7
370
    15
100
AcDbLine
 10
163.5450382847
 20
133.5582451388
 30
0.0
 11
163.5450382847
 21
133.5223678181
 31
0.0
  0
LINE
  5
AA
330
1F
100
AcDbEntity
  8
0
  6
Continuous
 62
     7
370
    15
100
AcDbLine
 10
111.8450382847
 20
135.829607535
 30
0.0
 11
109.8450382847
 21
135.829607535
 31
0.0
  0
LINE
  5
AB
330
1F
100
AcDbEntity
  8
0
  6
Continuous
 62
     7
370
    15
100
AcDbLine
 10
105.8450382847
 20
135.829607535
 30
0.0
 11
103.8450382847
 21
135.829607535
 31
0.0
  0
LINE
  5
AC
330
1F
100
AcDbEntity
  8
0
  6
Continuous
 62
     7
370
    15
100
AcDbLine
 10
111.8450382847
 20
129.829607535
 30
0.0
 11
103.8450382847
 21
129.829607535
 31
0.0
  0
LINE
  5
AD
330
1F
100
AcDbEntity
  8
0
  6
Continuous
 62
     7
370
    15
100
AcDbLine
 10
103.8450382847
 20
135.829607535
 30
0.0
 11
103.8450382847
 21
129.829607535
 31
0.0
  0
LINE
  5
AE
330
1F
100
AcDbEntity
  8
0
  6
Continuous
 62
     7
370
    15
100
AcDbLine
 10
111.8450382847
 20
135.829607535
 30
0.0
 11
111.8450382847
 21
129.829607535
 31
0.0
  0
LINE
  5
AF
330
1F
100
AcDbEntity
  8
0
  6
Continuous
 62
     7
370
    15
100
AcDbLine
 10
111.8450382847
 20
123.829607535
 30
0.0
 11
109.8450382847
 21
123.829607535
 31
0.0
  0
LINE
  5
B0
330
1F
100
AcDbEntity
  8
0
  6
Continuous
 62
     7
370
    15
100
AcDbLine
 10
105.8450382847
 20
123.829607535
 30
0.0
 11
103.8450382847
 21
123.829607535
 31
0.0
  0
LINE
  5
B1
330
1F
100
AcDbEntity
  8
0
  6
Continuous
 62
     7
370
    15
100
AcDbLine
 10
103.8450382847
 20
129.829607535
 30
0.0
 11
103.8450382847
 21
123.829607535
 31
0.0
  0
LINE
  5
B2
330
1F
100
AcDbEntity
  8
0
  6
Continuous
 62
     7
370
    15
100
AcDbLine
 10
111.8450382847
 20
129.829607535
 30
0.0
 11
111.8450382847
 21
123.829607535
 31
0.0
  0
LINE
  5
B3
330
1F
100
AcDbEntity
  8
0
  6
Continuous
 62
     7
370
    15
100
AcDbLine
 10
96.8450382847
 20
135.329607535
 30
0.0
 11
96.8450382847
 21
124.329607535
 31
0.0
  0
LINE
  5
B4
330
1F
100
AcDbEntity
  8
0
  6
Continuous
 62
     7
370
    15
100
AcDbLine
 10
94.8450382847
 20
135.329607535
 30
0.0
 11
94.8450382847
 21
124.329607535
 31
0.0
  0
LINE
  5
B5
330
1F
100
AcDbEntity
  8
0
  6
Continuous
 62
     7
370
    15
100
AcDbLine
 10
116.8450382847
 20
134.329607535
 30
0.0
 11
116.8450382847
 21
125.329607535
 31
0.0
  0
LINE
  5
B6
330
1F
100
AcDbEntity
  8
0
  6
Continuous
 62
     7
370
    15
100
AcDbLine
 10
164.8450382847
 20
132.329607535
 30
0.0
 11
164.8450382847
 21
127.329607535
 31
0.0
  0
LINE
  5
B7
330
1F
100
AcDbEntity
  8
0
  6
Continuous
 62
     7
370
    15
100
AcDbLine
 10
164.3450382847
 20
126.829607535
 30
0.0
 11
164.3450382847
 21
132.829607535
 31
0.0
  0
LINE
  5
B8
330
1F
100
AcDbEntity
  8
0
  6
Continuous
 62
     7
370
    15
100
AcDbLine
 10
141.8450382847
 20
122.2370839978
 30
0.0
 11
141.8450382847
 21
122.229607535
 31
0.0
  0
LINE
  5
B9
330
1F
100
AcDbEntity
  8
0
  6
Continuous
 62
     7
370
    15
100
AcDbLine
 10
141.8450382847
 20
137.429607535
 30
0.0
 11
141.8450382847
 21
122.2370839978
 31
0.0
  0
LINE
  5
BA
330
1F
100
AcDbEntity
  8
0
  6
Continuous
 62
     7
370
    15
100
AcDbLine
 10
141.4450382847
 20
121.8374774959
 30
0.0
 11
141.4450382847
 21
121.829607535
 31
0.0
  0
LINE
  5
BB
330
1F
100
AcDbEntity
  8
0
  6
Continuous
 62
     7
370
    15
100
AcDbLine
 10
141.4450382847
 20
137.829607535
 30
0.0
 11
141.4450382847
 21
121.8374774959
 31
0.0
  0
LINE
  5
BC
330
1F
100
AcDbEntity
  8
0
  6
Continuous
 62
     7
370
    15
100
AcDbLine
 10
140.2450382847
 20
121.8374774959
 30
0.0
 11
140.2450382847
 21
121.829607535
 31
0.0
  0
LINE
  5
BD
330
1F
100
AcDbEntity
  8
0
  6
Continuous
 62
     7
370
    15
100
AcDbLine
 10
140.2450382847
 20
137.829607535
 30
0.0
 11
140.2450382847
 21
121.8374774959
 31
0.0
  0
LINE
  5
BE
330
1F
100
AcDbEntity
  8
0
  6
Continuous
 62
     7
370
    15
100
AcDbLine
 10
139.8450382847
 20
122.2370839978
 30
0.0
 11
139.8450382847
 21
122.229607535
 31
0.0
  0
LINE
  5
BF
330
1F
100
AcDbEntity
  8
0
  6
Continuous
 62
     7
370
    15
100
AcDbLine
 10
139.8450382847
 20
137.429607535
 30
0.0
 11
139.8450382847
 21
122.2370839978
 31
0.0
  0
LINE
  5
C0
330
1F
100
AcDbEntity
  8
0
  6
Continuous
 62
     7
370
    15
100
AcDbLine
 10
162.4450382847
 20
123.8355100057
 30
0.0
 11
162.4450382847
 21
123.829607535
 31
0.0
  0
LINE
  5
C1
330
1F
100
AcDbEntity
  8
0
  6
Continuous
 62
     7
370
    15
100
AcDbLine
 10
162.4450382847
 20
135.829607535
 30
0.0
 11
162.4450382847
 21
123.8355100057
 31
0.0
  0
LINE
  5
C2
330
1F
100
AcDbEntity
  8
0
  6
Continuous
 62
     7
370
    15
100
AcDbLine
 10
162.8450382847
 20
124.2351165076
 30
0.0
 11
162.8450382847
 21
124.229607535
 31
0.0
  0
LINE
  5
C3
330
1F
100
AcDbEntity
  8
0
  6
Continuous
 62
     7
370
    15
100
AcDbLine
 10
162.8450382847
 20
135.429607535
 30
0.0
 11
162.8450382847
 21
124.2351165076
 31
0.0
  0
LINE
  5
C4
330
1F
100
AcDbEntity
  8
0
  6
Continuous
 62
     7
370
    15
100
AcDbLine
 10
137.2450382847
 20
125.334034388
 30
0.0
 11
137.2450382847
 21
125.329607535
 31
0.0
  0
LINE
  5
C5
330
1F
100
AcDbEntity
  8
0
  6
Continuous
 62
     7
370
    15
100
AcDbLine
 10
137.2450382847
 20
134.329607535
 30
0.0
 11
137.2450382847
 21
125.334034388
 31
0.0
  0
LINE
  5
C6
330
1F
100
AcDbEntity
  8
0
  6
Continuous
 62
     7
370
    15
100
AcDbLine
 10
136.8450382847
 20
125.7336408899
 30
0.0
 11
136.8450382847
 21
125.729607535
 31
0.0
  0
LINE
  5
C7
330
1F
100
AcDbEntity
  8
0
  6
Continuous
 62
     7
370
    15
100
AcDbLine
 10
136.8450382847
 20
133.929607535
 30
0.0
 11
136.8450382847
 21
125.7336408899
 31
0.0
  0
LINE
  5
C8
330
1F
100
AcDbEntity
  8
0
  6
Continuous
 62
     7
370
    15
100
AcDbLine
 10
111.35244117
 20
136.629607535
 30
0.0
 11
111.35244117
 21
139.129607535
 31
0.0
  0
LINE
  5
C9
330
1F
100
AcDbEntity
  8
0
  6
Continuous
 62
     7
370
    15
100
AcDbLine
 10
107.8450382847
 20
136.629607535
 30
0.0
 11
107.933328742
 21
136.629607535
 31
0.0
  0
LINE
  5
CA
330
1F
100
AcDbEntity
  8
0
  6
Continuous
 62
     7
370
    15
100
AcDbLine
 10
111.2641507127
 20
136.629607535
 30
0.0
 11
111.35244117
 21
136.629607535
 31
0.0
  0
LINE
  5
CB
330
1F
100
AcDbEntity
  8
0
  6
Continuous
 62
     7
370
    15
100
AcDbLine
 10
107.8450382847
 20
136.629607535
 30
0.0
 11
107.8450382848
 21
139.129607535
 31
0.0
  0
LINE
  5
CC
330
1F
100
AcDbEntity
  8
0
  6
Continuous
 62
     7
370
    15
100
AcDbLine
 10
107.8450382848
 20
139.129607535
 30
0.0
 11
111.35244117
 21
139.129607535
 31
0.0
  0
LINE
  5
CD
330
1F
100
AcDbEntity
  8
0
  6
Continuous
 62
     7
370
    15
100
AcDbLine
 10
104.3376353994
 20
136.629607535
 30
0.0
 11
104.3376353994
 21
139.129607535
 31
0.0
  0
LINE
  5
CE
330
1F
100
AcDbEntity
  8
0
  6
Continuous
 62
     7
370
    15
100
AcDbLine
 10
104.3376353994
 20
139.129607535
 30
0.0
 11
107.8450382848
 21
139.129607535
 31
0.0
  0
LINE
  5
CF
330
1F
100
AcDbEntity
  8
0
  6
Continuous
 62
     7
370
    15
100
AcDbLine
 10
104.3376353994
 20
136.629607535
 30
0.0
 11
104.4259258567
 21
136.629607535
 31
0.0
  0
LINE
  5
D0
330
1F
100
AcDbEntity
  8
0
  6
Continuous
 62
     7
370
    15
100
AcDbLine
 10
107.7567478273
 20
136.629607535
 30
0.0
 11
107.8450382847
 21
136.629607535
 31
0.0
  0
SPLINE
  5
D1
330
1F
100
AcDbEntity
  8
0
  6
Continuous
 62
     7
370
    15
100
AcDbSpline
210
0.0
220
0.0
230
1.0
 70
     8
 71
     3
 72
    12
 73
     8
 74
     0
 42
0.00000001
 43
0.00000001
 12
1.0
 22
0.0
 32
0.0
 13
1.0
 23
0.0
 33
0.0
 40
0.0
 40
0.0
 40
0.0
 40
0.0
 40
0.2168024107401715
 40
0.4333263872260443
 40
0.6529261720198148
 40
0.8633715160569269
 40
1.0
 40
1.0
 40
1.0
 40
1.0
 10
139.2743261172421
 20
130.095622926654
 30
0.0
 10
139.3307199549632
 20
130.095363290914
 30
0.0
 10
139.4434352051215
 20
130.094844352878
 30
0.0
 10
139.5951980384782
 20
130.0910133547521
 30
0.0
 10
139.7057317601562
 20
130.0853294240617
 30
0.0
 10
139.7681878376282
 20
130.0791835284368
 30
0.0
 10
139.7673834163534
 20
130.0751626319588
 30
0.0
 10
139.767066749263
 20
130.0735797727929
 30
0.0
  0
SPLINE
  5
D2
330
1F
100
AcDbEntity
  8
0
  6
Continuous
 62
     7
370
    15
100
AcDbSpline
210
0.0
220
0.0
230
1.0
 70
     8
 71
     3
 72
    10
 73
     6
 74
     0
 42
0.00000001
 43
0.00000001
 12
1.0
 22
0.0
 32
0.0
 13
1.0
 23
0.0
 33
0.0
 40
0.7701429714273176
 40
0.7701429714273176
 40
0.7701429714273176
 40
0.7701429714273176
 40
0.875
 40
1.0
 40
1.000015861506629
 40
1.000015861506629
 40
1.000015861506629
 40
1.000015861506629
 10
139.7702276180119
 20
130.0706628355578
 30
0.0
 10
139.7559474531571
 20
130.0658425035535
 30
0.0
 10
139.6451357089617
 20
130.0556974204727
 30
0.0
 10
139.4049609504119
 20
130.0512867237905
 30
0.0
 10
139.2743424405809
 20
130.0512870281723
 30
0.0
 10
139.2743258682329
 20
130.0512870282496
 30
0.0
  0
SPLINE
  5
D3
330
1F
100
AcDbEntity
  8
0
  6
Continuous
 62
     7
370
    15
100
AcDbSpline
210
0.0
220
0.0
230
1.0
 70
     8
 71
     3
 72
    11
 73
     7
 74
     0
 42
0.00000001
 43
0.00000001
 12
1.0
 22
0.0
 32
0.0
 13
1.0
 23
0.0
 33
0.0
 40
0.000015861505742
 40
0.000015861505742
 40
0.000015861505742
 40
0.000015861505742
 40
0.1250000794427472
 40
0.2500000794427472
 40
0.3750000794427472
 40
0.4999842179370052
 40
0.4999842179370052
 40
0.4999842179370052
 40
0.4999842179370052
 10
139.2743261172421
 20
130.0956229266524
 30
0.0
 10
139.1437406697175
 20
130.0956223211018
 30
0.0
 10
138.8825629427179
 20
130.0908253091648
 30
0.0
 10
138.7202784914979
 20
130.0734549774494
 30
0.0
 10
138.8825629083369
 20
130.0560846494137
 30
0.0
 10
139.1437405037177
 20
130.0512876368456
 30
0.0
 10
139.2743258682329
 20
130.0512870282473
 30
0.0
  0
LINE
  5
D4
330
1F
100
AcDbEntity
  8
0
  6
Continuous
 62
     7
370
    15
100
AcDbLine
 10
111.35244117
 20
123.029607535
 30
0.0
 11
111.35244117
 21
120.529607535
 31
0.0
  0
LINE
  5
D5
330
1F
100
AcDbEntity
  8
0
  6
Continuous
 62
     7
370
    15
100
AcDbLine
 10
111.35244117
 20
120.529607535
 30
0.0
 11
107.8450382847
 21
120.529607535
 31
0.0
  0
LINE
  5
D6
330
1F
100
AcDbEntity
  8
0
  6
Continuous
 62
     7
370
    15
100
AcDbLine
 10
107.8450382847
 20
123.029607535
 30
0.0
 11
107.8450382847
 21
120.529607535
 31
0.0
  0
LINE
  5
D7
330
1F
100
AcDbEntity
  8
0
  6
Continuous
 62
     7
370
    15
100
AcDbLine
 10
111.35244117
 20
123.029607535
 30
0.0
 11
111.2641507127
 21
123.029607535
 31
0.0
  0
LINE
  5
D8
330
1F
100
AcDbEntity
  8
0
  6
Continuous
 62
     7
370
    15
100
AcDbLine
 10
107.933328742
 20
123.029607535
 30
0.0
 11
107.8450382847
 21
123.029607535
 31
0.0
  0
LINE
  5
D9
330
1F
100
AcDbEntity
  8
0
  6
Continuous
 62
     7
370
    15
100
AcDbLine
 10
104.3376353994
 20
123.029607535
 30
0.0
 11
104.3376353994
 21
120.529607535
 31
0.0
  0
LINE
  5
DA
330
1F
100
AcDbEntity
  8
0
  6
Continuous
 62
     7
370
    15
100
AcDbLine
 10
107.8450382847
 20
120.529607535
 30
0.0
 11
104.3376353994
 21
120.529607535
 31
0.0
  0
LINE
  5
DB
330
1F
100
AcDbEntity
  8
0
  6
Continuous
 62
     7
370
    15
100
AcDbLine
 10
107.8450382847
 20
123.029607535
 30
0.0
 11
107.7567478273
 21
123.029607535
 31
0.0
  0
LINE
  5
DC
330
1F
100
AcDbEntity
  8
0
  6
Continuous
 62
     7
370
    15
100
AcDbLine
 10
104.4259258567
 20
123.029607535
 30
0.0
 11
104.3376353994
 21
123.029607535
 31
0.0
  0
LINE
  5
DD
330
1F
100
AcDbEntity
  8
0
  6
Continuous
 62
     7
370
    15
100
AcDbLine
 10
109.5770890923
 20
113.029607535
 30
0.0
 11
105.8450382847
 21
113.029607535
 31
0.0
  0
LINE
  5
DE
330
1F
100
AcDbEntity
  8
0
  6
Continuous
 62
     7
370
    15
100
AcDbLine
 10
109.8450382847
 20
113.029607535
 30
0.0
 11
109.5770890923
 21
113.029607535
 31
0.0
  0
LINE
  5
DF
330
1F
100
AcDbEntity
  8
0
  6
Continuous
 62
     7
370
    15
100
AcDbLine
 10
110.1950382847
 20
115.529607535
 30
0.0
 11
109.8801979836
 21
115.529607535
 31
0.0
  0
LINE
  5
E0
330
1F
100
AcDbEntity
  8
0
  6
Continuous
 62
     7
370
    15
100
AcDbLine
 10
109.8801979836
 20
115.529607535
 30
0.0
 11
105.4950382847
 21
115.529607535
 31
0.0
  0
LINE
  5
E1
330
1F
100
AcDbEntity
  8
0
  6
Continuous
 62
     7
370
    15
100
AcDbLine
 10
110.1950382847
 20
118.029607535
 30
0.0
 11
109.8801979836
 21
118.029607535
 31
0.0
  0
LINE
  5
E2
330
1F
100
AcDbEntity
  8
0
  6
Continuous
 62
     7
370
    15
100
AcDbLine
 10
109.8801979836
 20
118.029607535
 30
0.0
 11
105.4950382847
 21
118.029607535
 31
0.0
  0
LINE
  5
E3
330
1F
100
AcDbEntity
  8
0
  6
Continuous
 62
     7
370
    15
100
AcDbLine
 10
111.8450382847
 20
136.629607535
 30
0.0
 11
111.35244117
 21
136.629607535
 31
0.0
  0
LINE
  5
E4
330
1F
100
AcDbEntity
  8
0
  6
Continuous
 62
     7
370
    15
100
AcDbLine
 10
111.2641507127
 20
136.629607535
 30
0.0
 11
107.933328742
 21
136.629607535
 31
0.0
  0
LINE
  5
E5
330
1F
100
AcDbEntity
  8
0
  6
Continuous
 62
     7
370
    15
100
AcDbLine
 10
107.7567478273
 20
136.629607535
 30
0.0
 11
104.4259258567
 21
136.629607535
 31
0.0
  0
LINE
  5
E6
330
1F
100
AcDbEntity
  8
0
  6
Continuous
 62
     7
370
    15
100
AcDbLine
 10
104.3376353994
 20
136.629607535
 30
0.0
 11
103.8450382847
 21
136.629607535
 31
0.0
  0
LINE
  5
E7
330
1F
100
AcDbEntity
  8
0
  6
Continuous
 62
     7
370
    15
100
AcDbLine
 10
109.8450382847
 20
135.829607535
 30
0.0
 11
105.8450382847
 21
135.829607535
 31
0.0
  0
LINE
  5
E8
330
1F
100
AcDbEntity
  8
0
  6
Continuous
 62
     7
370
    15
100
AcDbLine
 10
109.8450382847
 20
123.829607535
 30
0.0
 11
105.8450382847
 21
123.829607535
 31
0.0
  0
LINE
  5
E9
330
1F
100
AcDbEntity
  8
0
  6
Continuous
 62
     7
370
    15
100
AcDbLine
 10
111.8450382847
 20
123.029607535
 30
0.0
 11
111.35244117
 21
123.029607535
 31
0.0
  0
LINE
  5
EA
330
1F
100
AcDbEntity
  8
0
  6
Continuous
 62
     7
370
    15
100
AcDbLine
 10
111.2641507127
 20
123.029607535
 30
0.0
 11
107.933328742
 21
123.029607535
 31
0.0
  0
LINE
  5
EB
330
1F
100
AcDbEntity
  8
0
  6
Continuous
 62
     7
370
    15
100
AcDbLine
 10
107.7567478273
 20
123.029607535
 30
0.0
 11
104.4259258567
 21
123.029607535
 31
0.0
  0
LINE
  5
EC
330
1F
100
AcDbEntity
  8
0
  6
Continuous
 62
     7
370
    15
100
AcDbLine
 10
104.3376353994
 20
123.029607535
 30
0.0
 11
103.8450382847
 21
123.029607535
 31
0.0
  0
SPLINE
  5
ED
330
1F
100
AcDbEntity
  8
0
  6
Continuous
 62
     8
370
    15
100
AcDbSpline
210
0.0
220
0.0
230
1.0
 70
     8
 71
     3
 72
    12
 73
     8
 74
     0
 42
0.00000001
 43
0.00000001
 12
1.0
 22
0.0
 32
0.0
 13
1.0
 23
0.0
 33
0.0
 40
0.0
 40
0.0
 40
0.0
 40
0.0
 40
0.2226899324647309
 40
0.4452986316433866
 40
0.6679938974079913
 40
0.890781733981264
 40
1.0
 40
1.0
 40
1.0
 40
1.0
 10
125.8243260950764
 20
125.1046975333462
 30
0.0
 10
125.859348056463
 20
125.1842349088693
 30
0.0
 10
125.9293792038539
 20
125.34328064611
 30
0.0
 10
126.0345065640718
 20
125.6819145976971
 30
0.0
 10
126.1395857012419
 20
126.0908940466335
 30
0.0
 10
126.2267773102723
 20
126.4764556756237
 30
0.0
 10
126.278985678554
 20
126.7421902559875
 30
0.0
 10
126.2961603853165
 20
126.8296075349531
 30
0.0
  0
SPLINE
  5
EE
330
1F
100
AcDbEntity
  8
0
  6
Continuous
 62
     8
370
    15
100
AcDbSpline
210
0.0
220
0.0
230
1.0
 70
     8
 71
     3
 72
    13
 73
     9
 74
     0
 42
0.00000001
 43
0.00000001
 12
1.0
 22
0.0
 32
0.0
 13
1.0
 23
0.0
 33
0.0
 40
0.0
 40
0.0
 40
0.0
 40
0.0
 40
0.1321559763886953
 40
0.3109800311104863
 40
0.4898215278087681
 40
0.6685879249853468
 40
0.8473194815726989
 40
1.0
 40
1.0
 40
1.0
 40
1.0
 10
127.3228058792131
 20
132.8296075349531
 30
0.0
 10
127.3487057276267
 20
132.9588368064247
 30
0.0
 10
127.4096514062523
 20
133.2629299239726
 30
0.0
 10
127.5055810874973
 20
133.6745278854079
 30
0.0
 10
127.6106296135773
 20
134.0667292276985
 30
0.0
 10
127.7157192117776
 20
134.3818048223731
 30
0.0
 10
127.8157186763046
 20
134.6130517670683
 30
0.0
 10
127.8806285967277
 20
134.6969832347595
 30
0.0
 10
127.9105323964031
 20
134.7356502024579
 30
0.0
  0
SPLINE
  5
EF
330
1F
100
AcDbEntity
  8
0
  6
Continuous
 62
     8
370
    15
100
AcDbSpline
210
0.0
220
0.0
230
1.0
 70
     8
 71
     3
 72
    14
 73
    10
 74
     0
 42
0.00000001
 43
0.00000001
 12
1.0
 22
0.0
 32
0.0
 13
1.0
 23
0.0
 33
0.0
 40
0.0
 40
0.0
 40
0.0
 40
0.0
 40
0.0924720053653689
 40
0.2709431673176718
 40
0.449489220643953
 40
0.6280807170046436
 40
0.8066162229451003
 40
0.9850856618857442
 40
0.9999999999999999
 40
0.9999999999999999
 40
0.9999999999999999
 40
0.9999999999999999
 10
130.708568504949
 20
124.9281920434901
 30
0.0
 10
130.7267103760598
 20
124.9473161913254
 30
0.0
 10
130.7798660960035
 20
125.0033499841072
 30
0.0
 10
130.8681040301179
 20
125.1898617403353
 30
0.0
 10
130.9731678775017
 20
125.4776578966679
 30
0.0
 10
131.0782153597191
 20
125.8430889988909
 30
0.0
 10
131.1832833014863
 20
126.2812243155091
 30
0.0
 10
131.2563015078663
 20
126.6154144970697
 30
0.0
 10
131.2942406242386
 20
126.8142711149086
 30
0.0
 10
131.2971666029218
 20
126.8296075349531
 30
0.0
  0
SPLINE
  5
F0
330
1F
100
AcDbEntity
  8
0
  6
Continuous
 62
     8
370
    15
100
AcDbSpline
210
0.0
220
0.0
230
1.0
 70
     8
 71
     3
 72
    14
 73
    10
 74
     0
 42
0.00000001
 43
0.00000001
 12
1.0
 22
0.0
 32
0.0
 13
1.0
 23
0.0
 33
0.0
 40
0.0
 40
0.0
 40
0.0
 40
0.0
 40
0.0280393259880871
 40
0.2050314420022734
 40
0.3819413109731024
 40
0.5588511799439431
 40
0.7358432959581549
 40
0.9128440007532886
 40
1.0
 40
1.0
 40
1.0
 40
1.0
 10
132.3225239272568
 20
132.8296075349531
 30
0.0
 10
132.3280725591704
 20
132.8585275509496
 30
0.0
 10
132.3686457171296
 20
133.069998846123
 30
0.0
 10
132.444218388031
 20
133.4147089978498
 30
0.0
 10
132.5493264090308
 20
133.8488330846284
 30
0.0
 10
132.6544318658575
 20
134.2078244819048
 30
0.0
 10
132.7594864190231
 20
134.4874995262732
 30
0.0
 10
132.8467681368211
 20
134.6674090846092
 30
0.0
 10
132.8990682177185
 20
134.7202256193049
 30
0.0
 10
132.9163241333987
 20
134.7376519340178
 30
0.0
  0
SPLINE
  5
F1
330
1F
100
AcDbEntity
  8
0
  6
Continuous
 62
     8
370
    15
100
AcDbSpline
210
0.0
220
0.0
230
1.0
 70
     8
 71
     3
 72
    13
 73
     9
 74
     0
 42
0.00000001
 43
0.00000001
 12
1.0
 22
0.0
 32
0.0
 13
1.0
 23
0.0
 33
0.0
 40
0.0
 40
0.0
 40
0.0
 40
0.0
 40
0.1652213840788714
 40
0.3444913471016851
 40
0.5236881101501338
 40
0.7028447996284352
 40
0.8820808691337745
 40
1.0
 40
1.0
 40
1.0
 40
1.0
 10
135.7098925380632
 20
124.9221446425304
 30
0.0
 10
135.742179342019
 20
124.966250357148
 30
0.0
 10
135.8094982586975
 20
125.0582120431503
 30
0.0
 10
135.911800961277
 20
125.3006182034459
 30
0.0
 10
136.016889881483
 20
125.6196709349893
 30
0.0
 10
136.1220101741576
 20
126.0176217902533
 30
0.0
 10
136.2150818566629
 20
126.4219224127479
 30
0.0
 10
136.2731381261487
 20
126.7137876163034
 30
0.0
 10
136.2961764065844
 20
126.8296075349531
 30
0.0
  0
SPLINE
  5
F2
330
1F
100
AcDbEntity
  8
0
  6
Continuous
 62
     8
370
    15
100
AcDbSpline
210
0.0
220
0.0
230
1.0
 70
     8
 71
     3
 72
    10
 73
     6
 74
     0
 42
0.00000001
 43
0.00000001
 12
1.0
 22
0.0
 32
0.0
 13
1.0
 23
0.0
 33
0.0
 40
0.0
 40
0.0
 40
0.0
 40
0.0
 40
0.4710005897761519
 40
0.9563285167468608
 40
1.0
 40
1.0
 40
1.0
 40
1.0
 10
137.7012492287309
 20
134.3296075349531
 30
0.0
 10
137.7352421827837
 20
134.4145605191106
 30
0.0
 10
137.8042621204117
 20
134.5870506668856
 30
0.0
 10
137.8764513759019
 20
134.7153255828977
 30
0.0
 10
137.9146109842506
 20
134.7437101301422
 30
0.0
 10
137.9177612461691
 20
134.7460534130564
 30
0.0
  0
SPLINE
  5
F3
330
1F
100
AcDbEntity
  8
0
  6
Continuous
 62
     8
370
    15
100
AcDbSpline
210
0.0
220
0.0
230
1.0
 70
     8
 71
     3
 72
    19
 73
    15
 74
     0
 42
0.00000001
 43
0.00000001
 12
1.0
 22
0.0
 32
0.0
 13
1.0
 23
0.0
 33
0.0
 40
0.0
 40
0.0
 40
0.0
 40
0.0
 40
0.0863676489385606
 40
0.1727034956633732
 40
0.2590731720906382
 40
0.3454790245190488
 40
0.4318698636235913
 40
0.5182207709859947
 40
0.604587321741256
 40
0.6909898903122365
 40
0.7773839986753841
 40
0.8637375485413706
 40
0.9500969505300488
 40
1.0
 40
1.0
 40
1.0
 40
1.0
 10
139.2743261861613
 20
130.0956234655357
 30
0.0
 10
139.2393042674071
 20
130.3589729963235
 30
0.0
 10
139.1692733256364
 20
130.8855750875848
 30
0.0
 10
139.0641450255106
 20
131.6559804458606
 30
0.0
 10
138.9590679208557
 20
132.3943243163476
 30
0.0
 10
138.8540234055223
 20
133.0884307127345
 30
0.0
 10
138.7489642349164
 20
133.7266935163361
 30
0.0
 10
138.6438456434561
 20
134.2968823986583
 30
0.0
 10
138.5387544916168
 20
134.7876354653746
 30
0.0
 10
138.4337066138299
 20
135.1924706404462
 30
0.0
 10
138.3286515022904
 20
135.5065518541369
 30
0.0
 10
138.2235414025971
 20
135.717246278521
 30
0.0
 10
138.1332398821474
 20
135.8232221319921
 30
0.0
 10
138.0780037932122
 20
135.8176128691078
 30
0.0
 10
138.0577748214805
 20
135.8155586030924
 30
0.0
  0
SPLINE
  5
F4
330
1F
100
AcDbEntity
  8
0
  6
Continuous
 62
     8
370
    15
100
AcDbSpline
210
0.0
220
0.0
230
1.0
 70
     8
 71
     3
 72
    32
 73
    28
 74
     0
 42
0.00000001
 43
0.00000001
 12
1.0
 22
0.0
 32
0.0
 13
1.0
 23
0.0
 33
0.0
 40
0.0
 40
0.0
 40
0.0
 40
0.0
 40
0.0280403058104663
 40
0.070080095003475
 40
0.1121188601548613
 40
0.1541381032347423
 40
0.1961559174859724
 40
0.2381935092479432
 40
0.2802341829309622
 40
0.3222565969565274
 40
0.364272070979442
 40
0.4063069576587818
 40
0.4483489134600485
 40
0.4903747427413662
 40
0.5323887628574142
 40
0.5744205475924735
 40
0.6164631116210323
 40
0.6584923944655275
 40
0.7005060058747141
 40
0.7425344279270247
 40
0.784576904194963
 40
0.8266094984213809
 40
0.8686237897100416
 40
0.9106487498504838
 40
0.9526904455423933
 40
0.9947260538329085
 40
1.0
 40
1.0
 40
1.0
 40
1.0
 10
135.5616317791585
 20
123.8415547636972
 30
0.0
 10
135.5382568554965
 20
123.841214041014
 30
0.0
 10
135.4798367768424
 20
123.8403624854649
 30
0.0
 10
135.3864376805663
 20
123.9583754492853
 30
0.0
 10
135.2813851396052
 20
124.176497088406
 30
0.0
 10
135.1762814105782
 20
124.496703816458
 30
0.0
 10
135.0711722999987
 20
124.9109396399298
 30
0.0
 10
134.9661188279361
 20
125.4108022341114
 30
0.0
 10
134.8610705820277
 20
125.986397655333
 30
0.0
 10
134.7559772416592
 20
126.6284274708056
 30
0.0
 10
134.6508598922683
 20
127.3274835481537
 30
0.0
 10
134.5458009685729
 20
128.0701088374143
 30
0.0
 10
134.4407546488788
 20
128.8428992567219
 30
0.0
 10
134.3356720685106
 20
129.6327658741502
 30
0.0
 10
134.2305494731914
 20
130.4262006896044
 30
0.0
 10
134.1254833426048
 20
131.2090371124384
 30
0.0
 10
134.0204378829149
 20
131.9681359216028
 30
0.0
 10
133.9153652332354
 20
132.6905538853615
 30
0.0
 10
133.8102411529374
 20
133.3625842169673
 30
0.0
 10
133.7051661289698
 20
133.9721301134433
 30
0.0
 10
133.6001205313803
 20
134.5103586529641
 30
0.0
 10
133.4950564376529
 20
134.9684614034433
 30
0.0
 10
133.3899346042136
 20
135.3357477476645
 30
0.0
 10
133.2848501919462
 20
135.6080471090402
 30
0.0
 10
133.1798004207278
 20
135.7703332624857
 30
0.0
 10
133.1053635911208
 20
135.8407770938966
 30
0.0
 10
133.0659236268101
 20
135.8250552986945
 30
0.0
 10
133.0615269620985
 20
135.8233026738285
 30
0.0
  0
SPLINE
  5
F5
330
1F
100
AcDbEntity
  8
0
  6
Continuous
 62
     8
370
    15
100
AcDbSpline
210
0.0
220
0.0
230
1.0
 70
     8
 71
     3
 72
    32
 73
    28
 74
     0
 42
0.00000001
 43
0.00000001
 12
1.0
 22
0.0
 32
0.0
 13
1.0
 23
0.0
 33
0.0
 40
0.0
 40
0.0
 40
0.0
 40
0.0
 40
0.0027621892490425
 40
0.0448185571463811
 40
0.0868555024667882
 40
0.1288993913364191
 40
0.1709615491947928
 40
0.2130206235571543
 40
0.2550599103018103
 40
0.2971006266052931
 40
0.3391608749567054
 40
0.3812221478730604
 40
0.4232643983998394
 40
0.4653024236108954
 40
0.5073602083651642
 40
0.5494230864472032
 40
0.5914686585019555
 40
0.6335047562902645
 40
0.6755596212297328
 40
0.7176234507628645
 40
0.7596724835960308
 40
0.8017076363349059
 40
0.8437592520452448
 40
0.8858233462531144
 40
0.9278757822204726
 40
0.9699110608775502
 40
1.0
 40
1.0
 40
1.0
 40
1.0
 10
130.5597417551504
 20
123.8342727252214
 30
0.0
 10
130.5574416955772
 20
123.8332204541824
 30
0.0
 10
130.5201215331511
 20
123.8161465807272
 30
0.0
 10
130.4477924060728
 20
123.8791474396107
 30
0.0
 10
130.3426746323973
 20
124.0321711178563
 30
0.0
 10
130.2375814042446
 20
124.2997569283911
 30
0.0
 10
130.1325331337875
 20
124.6596862259382
 30
0.0
 10
130.0274796476542
 20
125.1091464001675
 30
0.0
 10
129.9223706178692
 20
125.6404381089392
 30
0.0
 10
129.8172665797005
 20
126.246506422749
 30
0.0
 10
129.7122151950458
 20
126.9145244303482
 30
0.0
 10
129.6071655413928
 20
127.6325607670824
 30
0.0
 10
129.5020667499473
 20
128.3886929591515
 30
0.0
 10
129.3969532596363
 20
129.1705376448086
 30
0.0
 10
129.2918972796719
 20
129.9637230154645
 30
0.0
 10
129.1868501362394
 20
130.7545854086947
 30
0.0
 10
129.0817622041922
 20
131.5296111492618
 30
0.0
 10
128.9766418054561
 20
132.2744812855962
 30
0.0
 10
128.8715795192647
 20
132.976418534656
 30
0.0
 10
128.7665337505771
 20
133.6243099482158
 30
0.0
 10
128.6614562666922
 20
134.2069912310022
 30
0.0
 10
128.5563324120177
 20
134.7123640133645
 30
0.0
 10
128.4512621546833
 20
135.131384890627
 30
0.0
 10
128.3462163701011
 20
135.4602919332475
 30
0.0
 10
128.2411496046655
 20
135.6888097084618
 30
0.0
 10
128.1459883561069
 20
135.8149011440651
 30
0.0
 10
128.0859143591716
 20
135.8171149422692
 30
0.0
 10
128.0608525575704
 20
135.8180384994521
 30
0.0
  0
SPLINE
  5
F6
330
1F
100
AcDbEntity
  8
0
  6
Continuous
 62
     8
370
    15
100
AcDbSpline
210
0.0
220
0.0
230
1.0
 70
     8
 71
     3
 72
    12
 73
     8
 74
     0
 42
0.00000001
 43
0.00000001
 12
1.0
 22
0.0
 32
0.0
 13
1.0
 23
0.0
 33
0.0
 40
0.0
 40
0.0
 40
0.0
 40
0.0
 40
0.2010333267817511
 40
0.4020547293500897
 40
0.6030594765529658
 40
0.8040525147481459
 40
1.0
 40
1.0
 40
1.0
 40
1.0
 10
125.8243260950764
 20
125.1046975440948
 30
0.0
 10
125.8896018172498
 20
125.0973212877396
 30
0.0
 10
126.0201493897927
 20
125.0825692125491
 30
0.0
 10
126.1876407385924
 20
124.9743280804532
 30
0.0
 10
126.2963404198951
 20
124.8178984177875
 30
0.0
 10
126.3407439217101
 20
124.6324815825259
 30
0.0
 10
126.3045329791969
 20
124.5144233354426
 30
0.0
 10
126.2866576484989
 20
124.4561445373287
 30
0.0
  0
LINE
  5
F7
330
1F
100
AcDbEntity
  8
0
  6
Continuous
 62
     8
370
    15
100
AcDbLine
 10
125.8243258684
 20
125.104696967
 30
0.0
 11
125.6586503613
 21
125.0730692653
 31
0.0
  0
SPLINE
  5
F8
330
1F
100
AcDbEntity
  8
0
  6
Continuous
 62
     8
370
    15
100
AcDbSpline
210
0.0
220
0.0
230
1.0
 70
     8
 71
     3
 72
    32
 73
    28
 74
     0
 42
0.00000001
 43
0.00000001
 12
1.0
 22
0.0
 32
0.0
 13
1.0
 23
0.0
 33
0.0
 40
0.0
 40
0.0
 40
0.0
 40
0.0
 40
0.0207993935223856
 40
0.0628098042389012
 40
0.1048161014572696
 40
0.146802678438704
 40
0.1887921008225571
 40
0.230800774351915
 40
0.272809406876262
 40
0.3147987325746882
 40
0.3567852387031052
 40
0.3987915717194978
 40
0.4408020331131521
 40
0.4827947190252453
 40
0.5247791584192013
 40
0.566782688892439
 40
0.6087942354778777
 40
0.6507903167980007
 40
0.6927735256410602
 40
0.7347738705413447
 40
0.7767858592408783
 40
0.8187853849002074
 40
0.8607684679810369
 40
0.9027654139626516
 40
0.9447771383153103
 40
0.9867799091788999
 40
1.0
 40
1.0
 40
1.0
 40
1.0
 10
113.0578267615779
 20
135.8159636897244
 30
0.0
 10
113.0751767143179
 20
135.8186570691656
 30
0.0
 10
113.1275699311674
 20
135.8267905099441
 30
0.0
 10
113.2149438808871
 20
135.7276808515486
 30
0.0
 10
113.3200006296085
 20
135.5280608372103
 30
0.0
 10
113.425111354598
 20
135.2237646720652
 30
0.0
 10
113.53021288138
 20
134.824776400668
 30
0.0
 10
113.635263310913
 20
134.3390232934606
 30
0.0
 10
113.7403138199277
 20
133.7760056641728
 30
0.0
 10
113.8454153077201
 20
133.1445730766633
 30
0.0
 10
113.9505266746375
 20
132.4540154520705
 30
0.0
 10
114.0555813570217
 20
131.7179456833931
 30
0.0
 10
114.160628983507
 20
130.9494901827327
 30
0.0
 10
114.2657195562354
 20
130.1616145949794
 30
0.0
 10
114.3708385421752
 20
129.3677796417774
 30
0.0
 10
114.4758991162282
 20
128.5821502190291
 30
0.0
 10
114.5809451337556
 20
127.817967369103
 30
0.0
 10
114.6860251225716
 20
127.088308844927
 30
0.0
 10
114.7911484632136
 20
126.4071366296874
 30
0.0
 10
114.8962166746094
 20
125.7862560534491
 30
0.0
 10
115.0012620786495
 20
125.2348998200339
 30
0.0
 10
115.1063324116738
 20
124.7622860854474
 30
0.0
 10
115.2114563440013
 20
124.3794316929946
 30
0.0
 10
115.3165334414791
 20
124.0910017518705
 30
0.0
 10
115.4215806786133
 20
123.9088817618883
 30
0.0
 10
115.5026542843258
 20
123.8248683592033
 30
0.0
 10
115.5487273813687
 20
123.8380832480616
 30
0.0
 10
115.559757061989
 20
123.8412468296937
 30
0.0
  0
SPLINE
  5
F9
330
1F
100
AcDbEntity
  8
0
  6
Continuous
 62
     8
370
    15
100
AcDbSpline
210
0.0
220
0.0
230
1.0
 70
     8
 71
     3
 72
    31
 73
    27
 74
     0
 42
0.00000001
 43
0.00000001
 12
1.0
 22
0.0
 32
0.0
 13
1.0
 23
0.0
 33
0.0
 40
0.0
 40
0.0
 40
0.0
 40
0.0
 40
0.0376500991374647
 40
0.0796998603888925
 40
0.1217602994991283
 40
0.1638374882895817
 40
0.2059085845394398
 40
0.24796004323608
 40
0.2900171052512244
 40
0.3320928479011415
 40
0.37416653332084
 40
0.416220518455365
 40
0.4582745035898881
 40
0.5003481890095857
 40
0.5424239316595009
 40
0.5844809936746453
 40
0.6265324523712889
 40
0.668603548621152
 40
0.7106807374116118
 40
0.7527411765218534
 40
0.7947909377732868
 40
0.8368590174144684
 40
0.8789369874399412
 40
0.9210008913847173
 40
0.9630499721826968
 40
1.0
 40
1.0
 40
1.0
 40
1.0
 10
118.0595799924654
 20
135.8233769068379
 30
0.0
 10
118.0909238250015
 20
135.8176104562233
 30
0.0
 10
118.1572742233911
 20
135.8054037072517
 30
0.0
 10
118.2587177617897
 20
135.6584043236238
 30
0.0
 10
118.3638022663733
 20
135.4120956595096
 30
0.0
 10
118.4688491596303
 20
135.0671357210364
 30
0.0
 10
118.5739065030046
 20
134.6329672246443
 30
0.0
 10
118.6790220269956
 20
134.1147892828962
 30
0.0
 10
118.7841180998027
 20
133.5203398533021
 30
0.0
 10
118.8891670074233
 20
132.8622249735104
 30
0.0
 10
118.9942193990517
 20
132.1520717353659
 30
0.0
 10
119.0993259817448
 20
131.4015172494599
 30
0.0
 10
119.2044325643466
 20
130.6229215355822
 30
0.0
 10
119.3094849562491
 20
129.8306986832856
 30
0.0
 10
119.4145338628647
 20
129.0384653547925
 30
0.0
 10
119.5196299394153
 20
128.2597784584752
 30
0.0
 10
119.6247454494378
 20
127.5090248744705
 30
0.0
 10
119.7298028449678
 20
126.7988548018488
 30
0.0
 10
119.8348495435568
 20
126.140712836853
 30
0.0
 10
119.9399347743286
 20
125.5460366619862
 30
0.0
 10
120.0450564052305
 20
125.0273164340518
 30
0.0
 10
120.1501204908328
 20
124.5930874581817
 30
0.0
 10
120.2551663235853
 20
124.2480706131655
 30
0.0
 10
120.3602404153911
 20
124.0016161843183
 30
0.0
 10
120.4611065399944
 20
123.8544478052338
 30
0.0
 10
120.5268793677852
 20
123.8421503427379
 30
0.0
 10
120.5576431049853
 20
123.8363984856693
 30
0.0
  0
SPLINE
  5
FA
330
1F
100
AcDbEntity
  8
0
  6
Continuous
 62
     8
370
    15
100
AcDbSpline
210
0.0
220
0.0
230
1.0
 70
     8
 71
     3
 72
    32
 73
    28
 74
     0
 42
0.00000001
 43
0.00000001
 12
1.0
 22
0.0
 32
0.0
 13
1.0
 23
0.0
 33
0.0
 40
0.0
 40
0.0
 40
0.0
 40
0.0
 40
0.0138700069403523
 40
0.0556865150589591
 40
0.0975154319087045
 40
0.1393327556983313
 40
0.1811330181029789
 40
0.2229460968914561
 40
0.2647745735536571
 40
0.3065950690347461
 40
0.3483965566280295
 40
0.3902062548043458
 40
0.432033651003616
 40
0.4738569368154826
 40
0.5156604821372105
 40
0.5574668347423601
 40
0.5992924100418159
 40
0.6411180261675977
 40
0.6829244750368552
 40
0.7247280909028477
 40
0.7665513410726784
 40
0.8083786868156386
 40
0.8501885963914126
 40
0.8919909330256371
 40
0.9338126005525937
 40
0.9756415360057111
 40
1.0
 40
1.0
 40
1.0
 40
1.0
 10
123.0574280759747
 20
135.8177134503286
 30
0.0
 10
123.0690508058223
 20
135.8211623692566
 30
0.0
 10
123.1157147565664
 20
135.8350093901447
 30
0.0
 10
123.1973892995861
 20
135.7509432976356
 30
0.0
 10
123.3024354456332
 20
135.568698403799
 30
0.0
 10
123.40750345826
 20
135.2804718536146
 30
0.0
 10
123.5126268521393
 20
134.898287728049
 30
0.0
 10
123.617706826687
 20
134.4258326921066
 30
0.0
 10
123.722752848039
 20
133.8745040387493
 30
0.0
 10
123.8278134210683
 20
133.2536869669818
 30
0.0
 10
123.9329324072788
 20
132.5728983127462
 30
0.0
 10
124.0380229799474
 20
131.8433522906952
 30
0.0
 10
124.1430706064011
 20
131.0791844253574
 30
0.0
 10
124.2481252889717
 20
130.2935585789569
 30
0.0
 10
124.3532366551755
 20
129.4997324831002
 30
0.0
 10
124.4583381456363
 20
128.7118079711276
 30
0.0
 10
124.5633886446861
 20
127.9433514882787
 30
0.0
 10
124.6684391114071
 20
127.2072581294124
 30
0.0
 10
124.7735404994667
 20
126.5164291811239
 30
0.0
 10
124.8786517421727
 20
125.8846586970532
 30
0.0
 10
124.9837065578284
 20
125.3216019029323
 30
0.0
 10
125.0887544756281
 20
124.835821758226
 30
0.0
 10
125.1938457632885
 20
124.4364476336091
 30
0.0
 10
125.2989637715299
 20
124.1317385506739
 30
0.0
 10
125.4040251402377
 20
123.9314646072937
 30
0.0
 10
125.494449898487
 20
123.830901428383
 30
0.0
 10
125.5499008545703
 20
123.8401225653652
 30
0.0
 10
125.5703080639255
 20
123.8435161528915
 30
0.0
  0
SPLINE
  5
FB
330
1F
100
AcDbEntity
  8
0
  6
Continuous
 62
     8
370
    15
100
AcDbSpline
210
0.0
220
0.0
230
1.0
 70
     8
 71
     3
 72
     9
 73
     5
 74
     0
 42
0.00000001
 43
0.00000001
 12
1.0
 22
0.0
 32
0.0
 13
1.0
 23
0.0
 33
0.0
 40
0.0
 40
0.0
 40
0.0
 40
0.0
 40
0.9230046403508304
 40
1.0
 40
1.0
 40
1.0
 40
1.0
 10
125.824325868388
 20
125.104696977761
 30
0.0
 10
125.7893057260185
 20
125.0332948429525
 30
0.0
 10
125.7513642673969
 20
124.9559364725966
 30
0.0
 10
125.7134020371577
 20
124.925123579388
 30
0.0
 10
125.7104791215874
 20
124.9227511295935
 30
0.0
  0
SPLINE
  5
FC
330
1F
100
AcDbEntity
  8
0
  6
Continuous
 62
     8
370
    15
100
AcDbSpline
210
0.0
220
0.0
230
1.0
 70
     8
 71
     3
 72
    14
 73
    10
 74
     0
 42
0.00000001
 43
0.00000001
 12
1.0
 22
0.0
 32
0.0
 13
1.0
 23
0.0
 33
0.0
 40
0.0
 40
0.0
 40
0.0
 40
0.0
 40
0.0500422504296356
 40
0.228594100542672
 40
0.4071081854687037
 40
0.5855432101200531
 40
0.7640181469203686
 40
0.9425659888367012
 40
1.0
 40
1.0
 40
1.0
 40
1.0
 10
122.9115986679349
 20
134.7339609241542
 30
0.0
 10
122.9017781379484
 20
134.725010522427
 30
0.0
 10
122.8569177409869
 20
134.6841248904905
 30
0.0
 10
122.7770746855375
 20
134.526030971572
 30
0.0
 10
122.6720090357994
 20
134.2615539347821
 30
0.0
 10
122.5668903909945
 20
133.9138538932561
 30
0.0
 10
122.4618000611845
 20
133.4917198378137
 30
0.0
 10
122.3805113812479
 20
133.1263410885631
 30
0.0
 10
122.3342115492493
 20
132.8876909595646
 30
0.0
 10
122.3229429494261
 20
132.8296075349531
 30
0.0
  0
SPLINE
  5
FD
330
1F
100
AcDbEntity
  8
0
  6
Continuous
 62
     8
370
    15
100
AcDbSpline
210
0.0
220
0.0
230
1.0
 70
     8
 71
     3
 72
    13
 73
     9
 74
     0
 42
0.00000001
 43
0.00000001
 12
1.0
 22
0.0
 32
0.0
 13
1.0
 23
0.0
 33
0.0
 40
0.0
 40
0.0
 40
0.0
 40
0.0
 40
0.1635520613846924
 40
0.3422502348705564
 40
0.520978233369848
 40
0.6996381932510791
 40
0.8782483297786717
 40
1.0
 40
1.0
 40
1.0
 40
1.0
 10
121.2971044494818
 20
126.8296075349531
 30
0.0
 10
121.2650292010121
 20
126.6719454081591
 30
0.0
 10
121.1979083024473
 20
126.3420204933117
 30
0.0
 10
121.0958008442664
 20
125.9130574279352
 30
0.0
 10
120.9907541635842
 20
125.5333339724562
 30
0.0
 10
120.8856729727205
 20
125.2320072018774
 30
0.0
 10
120.7917129167948
 20
125.0245032041489
 30
0.0
 10
120.73284171914
 20
124.9555543148882
 30
0.0
 10
120.7089782768469
 20
124.9276058799048
 30
0.0
  0
SPLINE
  5
FE
330
1F
100
AcDbEntity
  8
0
  6
Continuous
 62
     8
370
    15
100
AcDbSpline
210
0.0
220
0.0
230
1.0
 70
     8
 71
     3
 72
    13
 73
     9
 74
     0
 42
0.00000001
 43
0.00000001
 12
1.0
 22
0.0
 32
0.0
 13
1.0
 23
0.0
 33
0.0
 40
0.0
 40
0.0
 40
0.0
 40
0.0
 40
0.1222358949127345
 40
0.3008496602398498
 40
0.4795295459944767
 40
0.658265467448225
 40
0.8369559091182518
 40
0.9999999999999999
 40
0.9999999999999999
 40
0.9999999999999999
 40
0.9999999999999999
 10
117.9102744875314
 20
134.7317557917114
 30
0.0
 10
117.8863147336534
 20
134.7036763196189
 30
0.0
 10
117.8273444629421
 20
134.6345665082596
 30
0.0
 10
117.7332858029623
 20
134.4263231229254
 30
0.0
 10
117.6282144695781
 20
134.124832859321
 30
0.0
 10
117.5231689354464
 20
133.7450801205533
 30
0.0
 10
117.4211528015939
 20
133.3164938555036
 30
0.0
 10
117.3541337229912
 20
132.9868723908952
 30
0.0
 10
117.3221584213998
 20
132.8296075349531
 30
0.0
  0
SPLINE
  5
FF
330
1F
100
AcDbEntity
  8
0
  6
Continuous
 62
     8
370
    15
100
AcDbSpline
210
0.0
220
0.0
230
1.0
 70
     8
 71
     3
 72
    10
 73
     6
 74
     0
 42
0.00000001
 43
0.00000001
 12
1.0
 22
0.0
 32
0.0
 13
1.0
 23
0.0
 33
0.0
 40
0.0
 40
0.0
 40
0.0
 40
0.0
 40
0.3531821300661335
 40
0.8594580195810354
 40
0.9999999999999999
 40
0.9999999999999999
 40
0.9999999999999999
 40
0.9999999999999999
 10
115.9152163151988
 20
125.3296075349531
 30
0.0
 10
115.8907773414849
 20
125.2645071736199
 30
0.0
 10
115.8313058389353
 20
125.1060874154771
 30
0.0
 10
115.7621421698551
 20
124.9750012905734
 30
0.0
 10
115.7173721952982
 20
124.933993116289
 30
0.0
 10
115.7076444787646
 20
124.9250827718239
 30
0.0
  0
SPLINE
  5
100
330
1F
100
AcDbEntity
  8
0
  6
Continuous
 62
     8
370
    15
100
AcDbSpline
210
0.0
220
0.0
230
1.0
 70
     8
 71
     3
 72
    10
 73
     6
 74
     0
 42
0.00000001
 43
0.00000001
 12
1.0
 22
0.0
 32
0.0
 13
1.0
 23
0.0
 33
0.0
 40
0.0
 40
0.0
 40
0.0
 40
0.0
 40
0.0437342036741295
 40
0.5538401013327111
 40
1.0
 40
1.0
 40
1.0
 40
1.0
 10
112.9087297752044
 20
134.7361608311185
 30
0.0
 10
112.9057253647254
 20
134.7336941366675
 30
0.0
 10
112.8676781873588
 20
134.7024564739238
 30
0.0
 10
112.7990296316101
 20
134.5746038428771
 30
0.0
 10
112.7333789970214
 20
134.4075492956521
 30
0.0
 10
112.702748726036
 20
134.3296075349531
 30
0.0
  0
DIMENSION
  5
101
330
1F
100
AcDbEntity
  8
0
  6
Continuous
 62
     7
370
     0
100
AcDbDimension
  2
_D
 10
176.1234751324
 20
126.829607535
 30
0.0
 11
176.1234751324
 21
140.8366350879
 31
0.0
 70
   160
  1
%%c<>
 71
     2
 42
-1.0
  3
SLDDIMSTYLE0
100
AcDbAlignedDimension
 13
164.3450382847
 23
132.829607535
 33
0.0
 14
164.3450382847
 24
126.829607535
 34
0.0
 50
90.0
100
AcDbRotatedDimension
  0
DIMENSION
  5
110
330
1F
100
AcDbEntity
  8
0
  6
Continuous
 62
     7
370
     0
100
AcDbDimension
  2
_D_1
 10
188.4719257811
 20
123.829607535
 30
0.0
 11
188.4719257811
 21
129.829607535
 31
0.0
 70
   160
  1
%%c<>
 71
     2
 42
-1.0
  3
SLDDIMSTYLE0
100
AcDbAlignedDimension
 13
162.4450382847
 23
135.829607535
 33
0.0
 14
162.4450382847
 24
123.829607535
 34
0.0
 50
90.0
100
AcDbRotatedDimension
  0
DIMENSION
  5
11D
330
1F
100
AcDbEntity
  8
0
  6
Continuous
 62
     7
370
     0
100
AcDbDimension
  2
_D_2
 10
116.8450382847
 20
102.2824297272
 30
0.0
 11
126.8450382847
 21
102.2824297272
 31
0.0
 70
   160
  1
<>st
 71
     2
 42
-1.0
  3
SLDDIMSTYLE1
100
AcDbAlignedDimension
 13
136.8450382847
 23
125.729607535
 33
0.0
 14
116.8450382847
 24
125.329607535
 34
0.0
100
AcDbRotatedDimension
  0
DIMENSION
  5
129
330
1F
100
AcDbEntity
  8
0
  6
Continuous
 62
     7
370
     0
100
AcDbDimension
  2
_D_3
 10
86.0327029784
 20
124.329607535
 30
0.0
 11
86.0327029784
 21
129.7480262586
 31
0.0
 70
   160
  1
%%c<>
 71
     2
 42
-1.0
  3
SLDDIMSTYLE0
100
AcDbAlignedDimension
 13
94.8450382847
 23
135.329607535
 33
0.0
 14
94.8450382847
 24
124.329607535
 34
0.0
 50
90.0
100
AcDbRotatedDimension
  0
DIMENSION
  5
136
330
1F
100
AcDbEntity
  8
0
  6
Continuous
 62
     7
370
     0
100
AcDbDimension
  2
_D_4
 10
164.8450382847
 20
161.129607535
 30
0.0
 11
125.6633205895
 21
161.129607535
 31
0.0
 70
   160
  1
<>
 71
     2
 42
-1.0
  3
SLDDIMSTYLE1
100
AcDbAlignedDimension
 13
94.8450382847
 23
135.329607535
 33
0.0
 14
164.8450382847
 24
132.329607535
 34
0.0
100
AcDbRotatedDimension
  0
DIMENSION
  5
140
330
1F
100
AcDbEntity
  8
0
  6
Continuous
 62
     7
370
     0
100
AcDbDimension
  2
_D_5
 10
103.8450382847
 20
147.9862568364
 30
0.0
 11
99.3450382847
 21
147.9862568364
 31
0.0
 70
   160
  1
<>
 71
     2
 42
-1.0
  3
SLDDIMSTYLE0
100
AcDbAlignedDimension
 13
94.8450382847
 23
135.329607535
 33
0.0
 14
103.8450382847
 24
135.829607535
 34
0.0
100
AcDbRotatedDimension
  0
DIMENSION
  5
14C
330
1F
100
AcDbEntity
  8
0
  6
Continuous
 62
     7
370
     0
100
AcDbDimension
  2
_D_6
 10
162.8450382847
 20
102.2824297272
 30
0.0
 11
152.3450382847
 21
102.2824297272
 31
0.0
 70
   160
  1
<>
 71
     2
 42
-1.0
  3
SLDDIMSTYLE1
100
AcDbAlignedDimension
 13
141.8450382847
 23
122.229607535
 33
0.0
 14
162.8450382847
 24
124.229607535
 34
0.0
100
AcDbRotatedDimension
  0
INSERT
  5
160
330
1F
100
AcDbEntity
  8
0
  6
Continuous
 62
     7
370
     0
100
AcDbBlockReference
  2
SW_NOTE_0
 10
87.9390173793
 20
101.2567353047
 30
0.0
  0
SOLID
  5
161
330
1F
100
AcDbEntity
  8
0
  6
Continuous
 62
     7
370
     0
100
AcDbTrace
 10
105.7908690325
 20
113.6568129718
 30
0.0
 11
104.0073934864
 21
112.4813492436
 31
0.0
 12
105.2200622369
 22
111.5984933655
 32
0.0
 13
105.2200622369
 23
111.5984933655
 33
0.0
  0
LINE
  5
162
330
1F
100
AcDbEntity
  8
0
  6
Continuous
 62
     7
370
     0
100
AcDbLine
 10
105.7908690325
 20
113.6568129718
 30
0.0
 11
96.9519343494
 21
101.515873388
 31
0.0
  0
LINE
  5
163
330
1F
100
AcDbEntity
  8
0
  6
CENTERX2
 62
     7
370
     0
100
AcDbLine
 10
171.0692725884
 20
129.829607535
 30
0.0
 11
91.3850917745
 21
129.829607535
 31
0.0
  0
LINE
  5
164
330
1F
100
AcDbEntity
  8
0
  6
CENTERX2
 62
     7
370
     0
100
AcDbLine
 10
107.8450382847
 20
111.0764840918
 30
0.0
 11
107.8450382847
 21
142.7406732322
 31
0.0
  0
LINE
  5
165
330
1F
100
AcDbEntity
  8
0
  6
CENTERX2
 62
     7
370
     0
100
AcDbLine
 10
164.3450382847
 20
129.829607535
 30
0.0
 11
166.8450382847
 21
129.829607535
 31
0.0
  0
LINE
  5
166
330
1F
100
AcDbEntity
  8
0
  6
CENTERX2
 62
     7
370
     0
100
AcDbLine
 10
164.3450382847
 20
129.829607535
 30
0.0
 11
163.5450382847
 21
129.829607535
 31
0.0
  0
LINE
  5
167
330
1F
100
AcDbEntity
  8
0
  6
CENTERX2
 62
     7
370
     0
100
AcDbLine
 10
163.5450382847
 20
129.829607535
 30
0.0
 11
160.8450382847
 21
129.829607535
 31
0.0
  0
LINE
  5
168
330
1F
100
AcDbEntity
  8
0
  6
CENTERX2
 62
     7
370
     0
100
AcDbLine
 10
107.8450382847
 20
135.829607535
 30
0.0
 11
107.8450382847
 21
127.829607535
 31
0.0
  0
LINE
  5
169
330
1F
100
AcDbEntity
  8
0
  6
Continuous
 62
     7
370
    15
100
AcDbLine
 10
55.4509653266
 20
115.529607535
 30
0.0
 11
55.8009653266
 21
113.029607535
 31
0.0
  0
LINE
  5
16A
330
1F
100
AcDbEntity
  8
0
  6
Continuous
 62
     7
370
    15
100
AcDbLine
 10
59.8009653266
 20
113.029607535
 30
0.0
 11
60.1509653266
 21
115.529607535
 31
0.0
  0
LINE
  5
16B
330
1F
100
AcDbEntity
  8
0
  6
Continuous
 62
     7
370
    15
100
AcDbLine
 10
55.4509653266
 20
118.029607535
 30
0.0
 11
55.8009653266
 21
115.529607535
 31
0.0
  0
LINE
  5
16C
330
1F
100
AcDbEntity
  8
0
  6
Continuous
 62
     7
370
    15
100
AcDbLine
 10
59.8009653266
 20
115.529607535
 30
0.0
 11
60.1509653266
 21
118.029607535
 31
0.0
  0
LINE
  5
16D
330
1F
100
AcDbEntity
  8
0
  6
Continuous
 62
     7
370
    15
100
AcDbLine
 10
59.9009653266
 20
118.029607535
 30
0.0
 11
59.9009653266
 21
120.529607535
 31
0.0
  0
LINE
  5
16E
330
1F
100
AcDbEntity
  8
0
  6
Continuous
 62
     7
370
    15
100
AcDbLine
 10
55.7009653266
 20
120.529607535
 30
0.0
 11
55.7009653266
 21
118.029607535
 31
0.0
  0
LINE
  5
16F
330
1F
100
AcDbEntity
  8
0
  6
Continuous
 62
     7
370
    15
100
AcDbLine
 10
53.8009653266
 20
136.629607535
 30
0.0
 11
53.8009653266
 21
135.829607535
 31
0.0
  0
LINE
  5
170
330
1F
100
AcDbEntity
  8
0
  6
Continuous
 62
     7
370
    15
100
AcDbLine
 10
61.8009653266
 20
135.829607535
 30
0.0
 11
61.8009653266
 21
136.629607535
 31
0.0
  0
LINE
  5
171
330
1F
100
AcDbEntity
  8
0
  6
Continuous
 62
     7
370
    15
100
AcDbLine
 10
53.8009653266
 20
123.829607535
 30
0.0
 11
53.8009653266
 21
123.029607535
 31
0.0
  0
LINE
  5
172
330
1F
100
AcDbEntity
  8
0
  6
Continuous
 62
     7
370
    15
100
AcDbLine
 10
61.8009653266
 20
123.029607535
 30
0.0
 11
61.8009653266
 21
123.829607535
 31
0.0
  0
CIRCLE
  5
173
330
1F
100
AcDbEntity
  8
0
  6
Continuous
 62
     7
370
    15
100
AcDbCircle
 10
57.8009653266
 20
129.829607535
 30
0.0
 40
2.100000000000001
  0
CIRCLE
  5
174
330
1F
100
AcDbEntity
  8
0
  6
Continuous
 62
     7
370
    15
100
AcDbCircle
 10
57.8009653266
 20
129.829607535
 30
0.0
 40
5.5
  0
LINE
  5
175
330
1F
100
AcDbEntity
  8
0
  6
Continuous
 62
     7
370
    15
100
AcDbLine
 10
50.8727620963
 20
129.829607535
 30
0.0
 11
54.3368637115
 21
135.829607535
 31
0.0
  0
LINE
  5
176
330
1F
100
AcDbEntity
  8
0
  6
Continuous
 62
     7
370
    15
100
AcDbLine
 10
54.3368637115
 20
135.829607535
 30
0.0
 11
61.2650669417
 21
135.829607535
 31
0.0
  0
LINE
  5
177
330
1F
100
AcDbEntity
  8
0
  6
Continuous
 62
     7
370
    15
100
AcDbLine
 10
61.2650669417
 20
135.829607535
 30
0.0
 11
64.7291685569
 21
129.829607535
 31
0.0
  0
LINE
  5
178
330
1F
100
AcDbEntity
  8
0
  6
Continuous
 62
     7
370
    15
100
AcDbLine
 10
64.7291685569
 20
129.829607535
 30
0.0
 11
61.2650669417
 21
123.829607535
 31
0.0
  0
LINE
  5
179
330
1F
100
AcDbEntity
  8
0
  6
Continuous
 62
     7
370
    15
100
AcDbLine
 10
61.2650669417
 20
123.829607535
 30
0.0
 11
54.3368637115
 21
123.829607535
 31
0.0
  0
LINE
  5
17A
330
1F
100
AcDbEntity
  8
0
  6
Continuous
 62
     7
370
    15
100
AcDbLine
 10
54.3368637115
 20
123.829607535
 30
0.0
 11
50.8727620963
 21
129.829607535
 31
0.0
  0
ARC
  5
17B
330
1F
100
AcDbEntity
  8
0
  6
Continuous
 62
     7
370
    15
100
AcDbCircle
 10
57.8009653266
 20
129.829607535
 30
0.0
 40
7.600000000000005
100
AcDbArc
 50
121.7568638593
 51
238.2431361407
  0
ARC
  5
17C
330
1F
100
AcDbEntity
  8
0
  6
Continuous
 62
     7
370
    15
100
AcDbCircle
 10
57.8009653266
 20
129.829607535
 30
0.0
 40
7.600000000000003
100
AcDbArc
 50
301.7568638593
 51
58.2431361407
  0
ARC
  5
17D
330
1F
100
AcDbEntity
  8
0
  6
Continuous
 62
     7
370
    15
100
AcDbCircle
 10
57.8009653266
 20
129.829607535
 30
0.0
 40
8.000000000000009
100
AcDbArc
 50
120.4143653546
 51
239.5856346455
  0
ARC
  5
17E
330
1F
100
AcDbEntity
  8
0
  6
Continuous
 62
     7
370
    15
100
AcDbCircle
 10
57.8009653266
 20
129.829607535
 30
0.0
 40
8.000000000000018
100
AcDbArc
 50
300.4143653546
 51
59.5856346455
  0
LINE
  5
17F
330
1F
100
AcDbEntity
  8
0
  6
Continuous
 62
     7
370
    15
100
AcDbLine
 10
55.7759653266
 20
136.629607535
 30
0.0
 11
55.7759653266
 21
139.129607535
 31
0.0
  0
LINE
  5
180
330
1F
100
AcDbEntity
  8
0
  6
Continuous
 62
     7
370
    15
100
AcDbLine
 10
53.7509653266
 20
136.629607535
 30
0.0
 11
53.8019398459
 21
136.629607535
 31
0.0
  0
LINE
  5
181
330
1F
100
AcDbEntity
  8
0
  6
Continuous
 62
     7
370
    15
100
AcDbLine
 10
55.7249908073
 20
136.629607535
 30
0.0
 11
55.7759653266
 21
136.629607535
 31
0.0
  0
LINE
  5
182
330
1F
100
AcDbEntity
  8
0
  6
Continuous
 62
     7
370
    15
100
AcDbLine
 10
53.7509653266
 20
136.629607535
 30
0.0
 11
53.7509653267
 21
139.129607535
 31
0.0
  0
LINE
  5
183
330
1F
100
AcDbEntity
  8
0
  6
Continuous
 62
     7
370
    15
100
AcDbLine
 10
53.7509653267
 20
139.129607535
 30
0.0
 11
55.7759653266
 21
139.129607535
 31
0.0
  0
LINE
  5
184
330
1F
100
AcDbEntity
  8
0
  6
Continuous
 62
     7
370
    15
100
AcDbLine
 10
59.8259653266
 20
136.629607535
 30
0.0
 11
59.8259653266
 21
139.129607535
 31
0.0
  0
LINE
  5
185
330
1F
100
AcDbEntity
  8
0
  6
Continuous
 62
     7
370
    15
100
AcDbLine
 10
55.7759653266
 20
136.629607535
 30
0.0
 11
55.8779143652
 21
136.629607535
 31
0.0
  0
LINE
  5
186
330
1F
100
AcDbEntity
  8
0
  6
Continuous
 62
     7
370
    15
100
AcDbLine
 10
59.724016288
 20
136.629607535
 30
0.0
 11
59.8259653266
 21
136.629607535
 31
0.0
  0
LINE
  5
187
330
1F
100
AcDbEntity
  8
0
  6
Continuous
 62
     7
370
    15
100
AcDbLine
 10
55.7759653266
 20
139.129607535
 30
0.0
 11
59.8259653266
 21
139.129607535
 31
0.0
  0
LINE
  5
188
330
1F
100
AcDbEntity
  8
0
  6
Continuous
 62
     7
370
    15
100
AcDbLine
 10
61.8509653266
 20
136.629607535
 30
0.0
 11
61.8509653265
 21
139.129607535
 31
0.0
  0
LINE
  5
189
330
1F
100
AcDbEntity
  8
0
  6
Continuous
 62
     7
370
    15
100
AcDbLine
 10
59.8259653266
 20
136.629607535
 30
0.0
 11
59.8769398459
 21
136.629607535
 31
0.0
  0
LINE
  5
18A
330
1F
100
AcDbEntity
  8
0
  6
Continuous
 62
     7
370
    15
100
AcDbLine
 10
61.7999908073
 20
136.629607535
 30
0.0
 11
61.8509653266
 21
136.629607535
 31
0.0
  0
LINE
  5
18B
330
1F
100
AcDbEntity
  8
0
  6
Continuous
 62
     7
370
    15
100
AcDbLine
 10
59.8259653266
 20
139.129607535
 30
0.0
 11
61.8509653265
 21
139.129607535
 31
0.0
  0
LINE
  5
18C
330
1F
100
AcDbEntity
  8
0
  6
Continuous
 62
     7
370
    15
100
AcDbLine
 10
55.7759653265
 20
123.029607535
 30
0.0
 11
55.7759653267
 21
120.529607535
 31
0.0
  0
LINE
  5
18D
330
1F
100
AcDbEntity
  8
0
  6
Continuous
 62
     7
370
    15
100
AcDbLine
 10
55.7759653267
 20
120.529607535
 30
0.0
 11
53.7509653266
 21
120.529607535
 31
0.0
  0
LINE
  5
18E
330
1F
100
AcDbEntity
  8
0
  6
Continuous
 62
     7
370
    15
100
AcDbLine
 10
53.7509653266
 20
120.529607535
 30
0.0
 11
53.7509653266
 21
123.029607535
 31
0.0
  0
LINE
  5
18F
330
1F
100
AcDbEntity
  8
0
  6
Continuous
 62
     7
370
    15
100
AcDbLine
 10
55.7759653265
 20
123.029607535
 30
0.0
 11
55.7249908073
 21
123.029607535
 31
0.0
  0
LINE
  5
190
330
1F
100
AcDbEntity
  8
0
  6
Continuous
 62
     7
370
    15
100
AcDbLine
 10
53.8019398459
 20
123.029607535
 30
0.0
 11
53.7509653266
 21
123.029607535
 31
0.0
  0
LINE
  5
191
330
1F
100
AcDbEntity
  8
0
  6
Continuous
 62
     7
370
    15
100
AcDbLine
 10
59.8259653266
 20
123.029607535
 30
0.0
 11
59.8259653266
 21
120.529607535
 31
0.0
  0
LINE
  5
192
330
1F
100
AcDbEntity
  8
0
  6
Continuous
 62
     7
370
    15
100
AcDbLine
 10
59.8259653266
 20
123.029607535
 30
0.0
 11
59.724016288
 21
123.029607535
 31
0.0
  0
LINE
  5
193
330
1F
100
AcDbEntity
  8
0
  6
Continuous
 62
     7
370
    15
100
AcDbLine
 10
55.8779143652
 20
123.029607535
 30
0.0
 11
55.7759653265
 21
123.029607535
 31
0.0
  0
LINE
  5
194
330
1F
100
AcDbEntity
  8
0
  6
Continuous
 62
     7
370
    15
100
AcDbLine
 10
59.8259653266
 20
120.529607535
 30
0.0
 11
55.7759653267
 21
120.529607535
 31
0.0
  0
LINE
  5
195
330
1F
100
AcDbEntity
  8
0
  6
Continuous
 62
     7
370
    15
100
AcDbLine
 10
61.8509653266
 20
123.029607535
 30
0.0
 11
61.8509653266
 21
120.529607535
 31
0.0
  0
LINE
  5
196
330
1F
100
AcDbEntity
  8
0
  6
Continuous
 62
     7
370
    15
100
AcDbLine
 10
61.8509653266
 20
123.029607535
 30
0.0
 11
61.7999908073
 21
123.029607535
 31
0.0
  0
LINE
  5
197
330
1F
100
AcDbEntity
  8
0
  6
Continuous
 62
     7
370
    15
100
AcDbLine
 10
59.8769398459
 20
123.029607535
 30
0.0
 11
59.8259653266
 21
123.029607535
 31
0.0
  0
LINE
  5
198
330
1F
100
AcDbEntity
  8
0
  6
Continuous
 62
     7
370
    15
100
AcDbLine
 10
61.8509653266
 20
120.529607535
 30
0.0
 11
59.8259653266
 21
120.529607535
 31
0.0
  0
LINE
  5
199
330
1F
100
AcDbEntity
  8
0
  6
Continuous
 62
     7
370
    15
100
AcDbLine
 10
56.6259653266
 20
115.529607535
 30
0.0
 11
55.4509653266
 21
115.529607535
 31
0.0
  0
LINE
  5
19A
330
1F
100
AcDbEntity
  8
0
  6
Continuous
 62
     7
370
    15
100
AcDbLine
 10
60.1509653266
 20
115.529607535
 30
0.0
 11
56.6259653266
 21
115.529607535
 31
0.0
  0
LINE
  5
19B
330
1F
100
AcDbEntity
  8
0
  6
Continuous
 62
     7
370
    15
100
AcDbLine
 10
59.8009653266
 20
113.029607535
 30
0.0
 11
55.8009653266
 21
113.029607535
 31
0.0
  0
LINE
  5
19C
330
1F
100
AcDbEntity
  8
0
  6
Continuous
 62
     7
370
    15
100
AcDbLine
 10
56.6259653266
 20
118.029607535
 30
0.0
 11
55.4509653266
 21
118.029607535
 31
0.0
  0
LINE
  5
19D
330
1F
100
AcDbEntity
  8
0
  6
Continuous
 62
     7
370
    15
100
AcDbLine
 10
60.1509653266
 20
118.029607535
 30
0.0
 11
56.6259653266
 21
118.029607535
 31
0.0
  0
LINE
  5
19E
330
1F
100
AcDbEntity
  8
0
  6
Continuous
 62
     7
370
    15
100
AcDbLine
 10
61.7999908073
 20
136.629607535
 30
0.0
 11
59.8769398459
 21
136.629607535
 31
0.0
  0
LINE
  5
19F
330
1F
100
AcDbEntity
  8
0
  6
Continuous
 62
     7
370
    15
100
AcDbLine
 10
59.724016288
 20
136.629607535
 30
0.0
 11
55.8779143652
 21
136.629607535
 31
0.0
  0
LINE
  5
1A0
330
1F
100
AcDbEntity
  8
0
  6
Continuous
 62
     7
370
    15
100
AcDbLine
 10
55.7249908073
 20
136.629607535
 30
0.0
 11
53.8019398459
 21
136.629607535
 31
0.0
  0
LINE
  5
1A1
330
1F
100
AcDbEntity
  8
0
  6
Continuous
 62
     7
370
    15
100
AcDbLine
 10
61.8009653266
 20
135.829607535
 30
0.0
 11
61.2650669417
 21
135.829607535
 31
0.0
  0
LINE
  5
1A2
330
1F
100
AcDbEntity
  8
0
  6
Continuous
 62
     7
370
    15
100
AcDbLine
 10
54.3368637115
 20
135.829607535
 30
0.0
 11
53.8009653266
 21
135.829607535
 31
0.0
  0
LINE
  5
1A3
330
1F
100
AcDbEntity
  8
0
  6
Continuous
 62
     7
370
    15
100
AcDbLine
 10
54.3368637115
 20
123.829607535
 30
0.0
 11
53.8009653266
 21
123.829607535
 31
0.0
  0
LINE
  5
1A4
330
1F
100
AcDbEntity
  8
0
  6
Continuous
 62
     7
370
    15
100
AcDbLine
 10
61.8009653266
 20
123.829607535
 30
0.0
 11
61.2650669417
 21
123.829607535
 31
0.0
  0
LINE
  5
1A5
330
1F
100
AcDbEntity
  8
0
  6
Continuous
 62
     7
370
    15
100
AcDbLine
 10
54.8359317119
 20
123.029607535
 30
0.0
 11
53.8019398459
 21
123.029607535
 31
0.0
  0
LINE
  5
1A6
330
1F
100
AcDbEntity
  8
0
  6
Continuous
 62
     7
370
    15
100
AcDbLine
 10
61.7999908073
 20
123.029607535
 30
0.0
 11
59.8769398459
 21
123.029607535
 31
0.0
  0
LINE
  5
1A7
330
1F
100
AcDbEntity
  8
0
  6
Continuous
 62
     7
370
    15
100
AcDbLine
 10
59.724016288
 20
123.029607535
 30
0.0
 11
55.8779143652
 21
123.029607535
 31
0.0
  0
LINE
  5
1A8
330
1F
100
AcDbEntity
  8
0
  6
Continuous
 62
     7
370
    15
100
AcDbLine
 10
55.7249908073
 20
123.029607535
 30
0.0
 11
54.8359317119
 21
123.029607535
 31
0.0
  0
DIMENSION
  5
1A9
330
1F
100
AcDbEntity
  8
0
  6
Continuous
 62
     7
370
     0
100
AcDbDimension
  2
_D_7
 10
65.8009653266
 20
147.263123573
 30
0.0
 11
57.8009653266
 21
147.263123573
 31
0.0
 70
   160
  1
%%c<>
 71
     2
 42
-1.0
  3
SLDDIMSTYLE0
100
AcDbAlignedDimension
 13
49.8009653266
 23
129.829607535
 33
0.0
 14
65.8009653266
 24
129.829607535
 34
0.0
100
AcDbRotatedDimension
  0
DIMENSION
  5
1B6
330
1F
100
AcDbEntity
  8
0
  6
Continuous
 62
     7
370
     0
100
AcDbDimension
  2
_D_8
 10
42.1187968947
 20
120.529607535
 30
0.0
 11
42.1187968947
 21
129.829607535
 31
0.0
 70
   160
  1
<>
 71
     2
 42
-1.0
  3
SLDDIMSTYLE2
100
AcDbAlignedDimension
 13
53.7509653267
 23
139.129607535
 33
0.0
 14
53.7509653266
 24
120.529607535
 34
0.0
 50
90.0
100
AcDbRotatedDimension
  0
INSERT
  5
1CB
330
1F
100
AcDbEntity
  8
0
  6
Continuous
 62
     7
370
     0
100
AcDbBlockReference
  2
SW_NOTE_1
 10
37.631887456
 20
147.245017585
 30
0.0
  0
LEADER
  5
1CD
330
1F
100
AcDbEntity
  8
0
  6
Continuous
 62
     7
370
     0
100
AcDbLeader
  3
SLDDIMSTYLE3
 76
     2
 10
56.5282436707
 20
131.4999906008
 30
0.0
 10
37.631887456
 20
147.245017585
 30
0.0
  0
INSERT
  5
1D9
330
1F
100
AcDbEntity
  8
0
  6
Continuous
 62
     7
370
     0
100
AcDbBlockReference
  2
SW_CENTERMARKSYMBOL_0
 10
57.8009653266
 20
129.829607535
 30
0.0
  0
ENDSEC
  0
SECTION
  2
OBJECTS
  0
DICTIONARY
  5
C
330
0
100
AcDbDictionary
281
     1
  3
ACAD_GROUP
350
D
  3
ACAD_LAYOUT
350
1A
  3
ACAD_MLINESTYLE
350
17
  3
ACAD_PLOTSETTINGS
350
19
  3
ACAD_PLOTSTYLENAME
350
E
  0
DICTIONARY
  5
D
102
{ACAD_REACTORS
330
C
102
}
330
C
100
AcDbDictionary
281
     1
  0
DICTIONARY
  5
1A
102
{ACAD_REACTORS
330
C
102
}
330
C
100
AcDbDictionary
281
     1
  3
Layout1
350
1E
  3
Layout2
350
26
  3
Model
350
22
  0
DICTIONARY
  5
17
102
{ACAD_REACTORS
330
C
102
}
330
C
100
AcDbDictionary
281
     1
  3
Standard
350
18
  0
DICTIONARY
  5
19
102
{ACAD_REACTORS
330
C
102
}
330
C
100
AcDbDictionary
281
     1
  0
ACDBDICTIONARYWDFLT
  5
E
102
{ACAD_REACTORS
330
C
102
}
330
C
100
AcDbDictionary
281
     1
  3
Normal
350
F
100
AcDbDictionaryWithDefault
340
F
  0
LAYOUT
  5
1E
102
{ACAD_REACTORS
330
1A
102
}
330
1A
100
AcDbPlotSettings
  1

  2
none_device
  4

  6

 40
0.0
 41
0.0
 42
0.0
 43
0.0
 44
0.0
 45
0.0
 46
0.0
 47
0.0
 48
0.0
 49
0.0
140
0.0
141
0.0
142
1.0
143
1.0
 70
   688
 72
     0
 73
     0
 74
     5
  7

 75
    16
147
1.0
148
0.0
149
0.0
100
AcDbLayout
  1
Layout1
 70
     1
 71
     1
 10
0.0
 20
0.0
 11
420.0
 21
297.0
 12
0.0
 22
0.0
 32
0.0
 14
1.0000000000E+20
 24
1.0000000000E+20
 34
1.0000000000E+20
 15
-1.0000000000E+20
 25
-1.0000000000E+20
 35
-1.0000000000E+20
146
0.0
 13
0.0
 23
0.0
 33
0.0
 16
1.0
 26
0.0
 36
0.0
 17
0.0
 27
1.0
 37
0.0
 76
     0
330
1B
  0
LAYOUT
  5
26
102
{ACAD_REACTORS
330
1A
102
}
330
1A
100
AcDbPlotSettings
  1

  2
none_device
  4

  6

 40
0.0
 41
0.0
 42
0.0
 43
0.0
 44
0.0
 45
0.0
 46
0.0
 47
0.0
 48
0.0
 49
0.0
140
0.0
141
0.0
142
1.0
143
1.0
 70
   688
 72
     0
 73
     0
 74
     5
  7

 75
    16
147
1.0
148
0.0
149
0.0
100
AcDbLayout
  1
Layout2
 70
     1
 71
     2
 10
0.0
 20
0.0
 11
0.0
 21
0.0
 12
0.0
 22
0.0
 32
0.0
 14
0.0
 24
0.0
 34
0.0
 15
0.0
 25
0.0
 35
0.0
146
0.0
 13
0.0
 23
0.0
 33
0.0
 16
1.0
 26
0.0
 36
0.0
 17
0.0
 27
1.0
 37
0.0
 76
     0
330
23
  0
LAYOUT
  5
22
102
{ACAD_REACTORS
330
1A
102
}
330
1A
100
AcDbPlotSettings
  1

  2
none_device
  4

  6

 40
0.0
 41
0.0
 42
0.0
 43
0.0
 44
0.0
 45
0.0
 46
0.0
 47
0.0
 48
0.0
 49
0.0
140
0.0
141
0.0
142
1.0
143
1.0
 70
  1712
 72
     0
 73
     0
 74
     0
  7

 75
     0
147
1.0
148
0.0
149
0.0
100
AcDbLayout
  1
Model
 70
     1
 71
     0
 10
0.0
 20
0.0
 11
210.0
 21
297.0
 12
0.0
 22
0.0
 32
0.0
 14
0.0
 24
0.0
 34
0.0
 15
210.0
 25
297.0
 35
0.0
146
0.0
 13
0.0
 23
0.0
 33
0.0
 16
1.0
 26
0.0
 36
0.0
 17
0.0
 27
1.0
 37
0.0
 76
     0
330
1F
331
29
  0
MLINESTYLE
  5
18
102
{ACAD_REACTORS
330
17
102
}
330
17
100
AcDbMlineStyle
  2
Standard
 70
     0
  3

 62
   256
 51
90.0
 52
90.0
 71
     2
 49
0.5
 62
   256
  6
BYLAYER
 49
-0.5
 62
   256
  6
BYLAYER
  0
ACDBPLACEHOLDER
  5
F
102
{ACAD_REACTORS
330
E
102
}
330
E
  0
ENDSEC
  0
EOF
