  0
SECTION
  2
HEADER
  9
$ACADVER
  1
AC1015
  9
$ACADMAINTVER
 70
     6
  9
$DWGCODEPAGE
  3
DOS932
  9
$INSBASE
 10
0.0
 20
0.0
 30
0.0
  9
$EXTMIN
 10
0.0
 20
0.0
 30
0.0
  9
$EXTMAX
 10
210.0
 20
297.0
 30
0.0
  9
$LIMMIN
 10
0.0
 20
0.0
  9
$LIMMAX
 10
210.0
 20
297.0
  9
$ORTHOMODE
 70
     0
  9
$REGENMODE
 70
     1
  9
$FILLMODE
 70
     1
  9
$QTEXTMODE
 70
     0
  9
$MIRRTEXT
 70
     1
  9
$LTSCALE
 40
1.0
  9
$ATTMODE
 70
     1
  9
$TEXTSIZE
 40
3.5
  9
$TRACEWID
 40
1.0
  9
$TEXTSTYLE
  7
Standard
  9
$CLAYER
  8
0
  9
$CELTYPE
  6
ByLayer
  9
$CECOLOR
 62
   256
  9
$CELTSCALE
 40
1.0
  9
$DISPSILH
 70
     0
  9
$DIMSCALE
 40
1.0
  9
$DIMASZ
 40
2.0
  9
$DIMEXO
 40
1.0
  9
$DIMDLI
 40
3.75
  9
$DIMRND
 40
0.0
  9
$DIMDLE
 40
0.0
  9
$DIMEXE
 40
1.0
  9
$DIMTP
 40
0.0
  9
$DIMTM
 40
0.0
  9
$DIMTXT
 40
3.5
  9
$DIMCEN
 40
2.5
  9
$DIMTSZ
 40
0.0
  9
$DIMTOL
 70
     0
  9
$DIMLIM
 70
     0
  9
$DIMTIH
 70
     1
  9
$DIMTOH
 70
     1
  9
$DIMSE1
 70
     0
  9
$DIMSE2
 70
     0
  9
$DIMTAD
 70
     1
  9
$DIMZIN
 70
     0
  9
$DIMBLK
  1

  9
$DIMASO
 70
     1
  9
$DIMSHO
 70
     1
  9
$DIMPOST
  1

  9
$DIMAPOST
  1

  9
$DIMALT
 70
     0
  9
$DIMALTD
 70
     3
  9
$DIMALTF
 40
0.0393700787
  9
$DIMLFAC
 40
1.0
  9
$DIMTOFL
 70
     1
  9
$DIMTVP
 40
0.0
  9
$DIMTIX
 70
     0
  9
$DIMSOXD
 70
     0
  9
$DIMSAH
 70
     0
  9
$DIMBLK1
  1

  9
$DIMBLK2
  1

  9
$DIMSTYLE
  2
ISO-25
  9
$DIMCLRD
 70
     0
  9
$DIMCLRE
 70
     0
  9
$DIMCLRT
 70
     0
  9
$DIMTFAC
 40
1.0
  9
$DIMGAP
 40
1.524
  9
$DIMJUST
 70
     0
  9
$DIMSD1
 70
     0
  9
$DIMSD2
 70
     0
  9
$DIMTOLJ
 70
     0
  9
$DIMTZIN
 70
     0
  9
$DIMALTZ
 70
     0
  9
$DIMALTTZ
 70
     0
  9
$DIMUPT
 70
     0
  9
$DIMDEC
 70
     2
  9
$DIMTDEC
 70
     2
  9
$DIMALTU
 70
     2
  9
$DIMALTTD
 70
     3
  9
$DIMTXSTY
  7
Standard
  9
$DIMAUNIT
 70
     0
  9
$DIMADEC
 70
     2
  9
$DIMALTRND
 40
0.0
  9
$DIMAZIN
 70
     0
  9
$DIMDSEP
 70
    44
  9
$DIMATFIT
 70
     3
  9
$DIMFRAC
 70
     0
  9
$DIMLDRBLK
  1

  9
$DIMLUNIT
 70
     2
  9
$DIMLWD
 70
    -2
  9
$DIMLWE
 70
    -2
  9
$DIMTMOVE
 70
     0
  9
$LUNITS
 70
     2
  9
$LUPREC
 70
     2
  9
$SKETCHINC
 40
1.0
  9
$FILLETRAD
 40
10.0
  9
$AUNITS
 70
     0
  9
$AUPREC
 70
     2
  9
$MENU
  1
.
  9
$ELEVATION
 40
0.0
  9
$PELEVATION
 40
0.0
  9
$THICKNESS
 40
0.0
  9
$LIMCHECK
 70
     0
  9
$CHAMFERA
 40
10.0
  9
$CHAMFERB
 40
10.0
  9
$CHAMFERC
 40
20.0
  9
$CHAMFERD
 40
0.0
  9
$SKPOLY
 70
     0
  9
$TDCREATE
 40
2456909.761424467
  9
$TDUCREATE
 40
2456909.386424467
  9
$TDUPDATE
 40
2456909.761425914
  9
$TDUUPDATE
 40
2456909.386425914
  9
$TDINDWG
 40
0.0000000116
  9
$TDUSRTIMER
 40
0.0000000116
  9
$USRTIMER
 70
     1
  9
$ANGBASE
 50
0.0
  9
$ANGDIR
 70
     0
  9
$PDMODE
 70
     0
  9
$PDSIZE
 40
-1.0
  9
$PLINEWID
 40
0.0
  9
$SPLFRAME
 70
     0
  9
$SPLINETYPE
 70
     6
  9
$SPLINESEGS
 70
     8
  9
$HANDSEED
  5
1AB
  9
$SURFTAB1
 70
     6
  9
$SURFTAB2
 70
     6
  9
$SURFTYPE
 70
     6
  9
$SURFU
 70
     6
  9
$SURFV
 70
     6
  9
$UCSBASE
  2

  9
$UCSNAME
  2

  9
$UCSORG
 10
0.0
 20
0.0
 30
0.0
  9
$UCSXDIR
 10
1.0
 20
0.0
 30
0.0
  9
$UCSYDIR
 10
0.0
 20
1.0
 30
0.0
  9
$UCSORTHOREF
  2

  9
$UCSORTHOVIEW
 70
     0
  9
$UCSORGTOP
 10
0.0
 20
0.0
 30
0.0
  9
$UCSORGBOTTOM
 10
0.0
 20
0.0
 30
0.0
  9
$UCSORGLEFT
 10
0.0
 20
0.0
 30
0.0
  9
$UCSORGRIGHT
 10
0.0
 20
0.0
 30
0.0
  9
$UCSORGFRONT
 10
0.0
 20
0.0
 30
0.0
  9
$UCSORGBACK
 10
0.0
 20
0.0
 30
0.0
  9
$PUCSBASE
  2

  9
$PUCSNAME
  2

  9
$PUCSORG
 10
0.0
 20
0.0
 30
0.0
  9
$PUCSXDIR
 10
1.0
 20
0.0
 30
0.0
  9
$PUCSYDIR
 10
0.0
 20
1.0
 30
0.0
  9
$PUCSORTHOREF
  2

  9
$PUCSORTHOVIEW
 70
     0
  9
$PUCSORGTOP
 10
0.0
 20
0.0
 30
0.0
  9
$PUCSORGBOTTOM
 10
0.0
 20
0.0
 30
0.0
  9
$PUCSORGLEFT
 10
0.0
 20
0.0
 30
0.0
  9
$PUCSORGRIGHT
 10
0.0
 20
0.0
 30
0.0
  9
$PUCSORGFRONT
 10
0.0
 20
0.0
 30
0.0
  9
$PUCSORGBACK
 10
0.0
 20
0.0
 30
0.0
  9
$USERI1
 70
     0
  9
$USERI2
 70
     0
  9
$USERI3
 70
     0
  9
$USERI4
 70
     0
  9
$USERI5
 70
     0
  9
$USERR1
 40
0.0
  9
$USERR2
 40
0.0
  9
$USERR3
 40
0.0
  9
$USERR4
 40
0.0
  9
$USERR5
 40
0.0
  9
$WORLDVIEW
 70
     1
  9
$SHADEDGE
 70
     3
  9
$SHADEDIF
 70
    70
  9
$TILEMODE
 70
     1
  9
$MAXACTVP
 70
    64
  9
$PINSBASE
 10
0.0
 20
0.0
 30
0.0
  9
$PLIMCHECK
 70
     0
  9
$PEXTMIN
 10
1.0000000000E+20
 20
1.0000000000E+20
 30
1.0000000000E+20
  9
$PEXTMAX
 10
-1.0000000000E+20
 20
-1.0000000000E+20
 30
-1.0000000000E+20
  9
$PLIMMIN
 10
0.0
 20
0.0
  9
$PLIMMAX
 10
420.0
 20
297.0
  9
$UNITMODE
 70
     0
  9
$VISRETAIN
 70
     1
  9
$PLINEGEN
 70
     0
  9
$PSLTSCALE
 70
     1
  9
$TREEDEPTH
 70
  3020
  9
$CMLSTYLE
  2
Standard
  9
$CMLJUST
 70
     0
  9
$CMLSCALE
 40
20.0
  9
$PROXYGRAPHICS
 70
     1
  9
$MEASUREMENT
 70
     1
  9
$CELWEIGHT
370
    -1
  9
$ENDCAPS
280
     0
  9
$JOINSTYLE
280
     0
  9
$LWDISPLAY
290
     1
  9
$INSUNITS
 70
     4
  9
$HYPERLINKBASE
  1

  9
$STYLESHEET
  1

  9
$XEDIT
290
     1
  9
$CEPSNTYPE
380
     0
  9
$PSTYLEMODE
290
     1
  9
$FINGERPRINTGUID
  2
{73EE4F83-31F2-4362-8525-CC4178343705}
  9
$VERSIONGUID
  2
{FAEB1C32-E019-11D5-929B-00C0DF256EC4}
  9
$EXTNAMES
290
     1
  9
$PSVPSCALE
 40
0.0
  9
$OLESTARTUP
290
     0
  0
ENDSEC
  0
SECTION
  2
CLASSES
  0
CLASS
  1
ACDBDICTIONARYWDFLT
  2
AcDbDictionaryWithDefault
  3
ObjectDBX Classes
 90
        0
280
     0
281
     0
  0
CLASS
  1
VISUALSTYLE
  2
AcDbVisualStyle
  3
ObjectDBX Classes
 90
     4095
280
     0
281
     0
  0
CLASS
  1
MATERIAL
  2
AcDbMaterial
  3
ObjectDBX Classes
 90
     1153
280
     0
281
     0
  0
CLASS
  1
ACDBPLACEHOLDER
  2
AcDbPlaceHolder
  3
ObjectDBX Classes
 90
        0
280
     0
281
     0
  0
CLASS
  1
LAYOUT
  2
AcDbLayout
  3
ObjectDBX Classes
 90
        0
280
     0
281
     0
  0
ENDSEC
  0
SECTION
  2
TABLES
  0
TABLE
  2
VPORT
  5
8
330
0
100
AcDbSymbolTable
 70
     1
  0
VPORT
  5
29
330
8
100
AcDbSymbolTableRecord
100
AcDbViewportTableRecord
  2
*Active
 70
     0
 10
0.0
 20
0.0
 11
1.0
 21
1.0
 12
105.0
 22
148.5
 13
0.0
 23
0.0
 14
10.0
 24
10.0
 15
10.0
 25
10.0
 16
0.0
 26
0.0
 36
1.0
 17
0.0
 27
0.0
 37
0.0
 40
297.0
 41
0.7070707071
 42
50.0
 43
0.0
 44
0.0
 50
0.0
 51
0.0
 71
     0
 72
  2000
 73
     1
 74
     3
 75
     0
 76
     0
 77
     0
 78
     0
281
     0
 65
     1
110
0.0
120
0.0
130
0.0
111
1.0
121
0.0
131
0.0
112
0.0
122
1.0
132
0.0
 79
     0
146
0.0
  0
ENDTAB
  0
TABLE
  2
LTYPE
  5
5
330
0
100
AcDbSymbolTable
 70
     6
  0
LTYPE
  5
14
330
5
100
AcDbSymbolTableRecord
100
AcDbLinetypeTableRecord
  2
ByBlock
 70
     0
  3

 72
    65
 73
     0
 40
0.0
  0
LTYPE
  5
15
330
5
100
AcDbSymbolTableRecord
100
AcDbLinetypeTableRecord
  2
ByLayer
 70
     0
  3

 72
    65
 73
     0
 40
0.0
  0
LTYPE
  5
16
330
5
100
AcDbSymbolTableRecord
100
AcDbLinetypeTableRecord
  2
Continuous
 70
     0
  3
Solid line
 72
    65
 73
     0
 40
0.0
  0
LTYPE
  5
3F
330
5
100
AcDbSymbolTableRecord
100
AcDbLinetypeTableRecord
  2
HIDDEN
 70
     0
  3
Hidden __ __ __ __ __ __ __ __ __ __ __ __ __ __
 72
    65
 73
     2
 40
1.905
 49
1.27
 74
     0
 49
-0.635
 74
     0
  0
LTYPE
  5
40
330
5
100
AcDbSymbolTableRecord
100
AcDbLinetypeTableRecord
  2
PHANTOM
 70
     0
  3
Phantom ______  __  __  ______  __  __  ______
 72
    65
 73
     6
 40
12.7
 49
6.35
 74
     0
 49
-1.27
 74
     0
 49
1.27
 74
     0
 49
-1.27
 74
     0
 49
1.27
 74
     0
 49
-1.27
 74
     0
  0
LTYPE
  5
41
330
5
100
AcDbSymbolTableRecord
100
AcDbLinetypeTableRecord
  2
CENTER
 70
     0
  3
Center ____ _ ____ _ ____ _ ____ _ ____ _ ____
 72
    65
 73
     4
 40
10.16
 49
6.35
 74
     0
 49
-1.27
 74
     0
 49
1.27
 74
     0
 49
-1.27
 74
     0
  0
LTYPE
  5
42
330
5
100
AcDbSymbolTableRecord
100
AcDbLinetypeTableRecord
  2
CENTERX2
 70
     0
  3
Center (2x) ________  __  ________  __  _____
 72
    65
 73
     4
 40
20.32
 49
12.7
 74
     0
 49
-2.54
 74
     0
 49
2.54
 74
     0
 49
-2.54
 74
     0
  0
LTYPE
  5
43
330
5
100
AcDbSymbolTableRecord
100
AcDbLinetypeTableRecord
  2
DOT2
 70
     0
  3
Dot (.5x) ........................................
 72
    65
 73
     2
 40
0.635
 49
0.0
 74
     0
 49
-0.635
 74
     0
  0
ENDTAB
  0
TABLE
  2
LAYER
  5
2
330
0
100
AcDbSymbolTable
 70
     1
  0
LAYER
  5
10
330
2
100
AcDbSymbolTableRecord
100
AcDbLayerTableRecord
  2
0
 70
     0
 62
     7
  6
Continuous
370
    -3
390
F
  0
ENDTAB
  0
TABLE
  2
STYLE
  5
3
330
0
100
AcDbSymbolTable
 70
     3
  0
STYLE
  5
11
330
3
100
AcDbSymbolTableRecord
100
AcDbTextStyleTableRecord
  2
Standard
 70
     0
 40
0.0
 41
1.0
 50
0.0
 71
     0
 42
3.5
  3
txt
  4
bigfont
  0
STYLE
  5
4C
330
3
100
AcDbSymbolTableRecord
100
AcDbTextStyleTableRecord
  2
SLDTEXTSTYLE0
 70
     0
 40
0.0
 41
0.7
 50
0.0
 71
     0
 42
0.2
  3
TXT
  4
bigfont
  0
STYLE
  5
89
330
3
100
AcDbSymbolTableRecord
100
AcDbTextStyleTableRecord
  2
SLDTEXTSTYLE1
 70
     0
 40
0.0
 41
0.75
 50
0.0
 71
     0
 42
0.2
  3
TXT
  4
bigfont
  0
ENDTAB
  0
TABLE
  2
VIEW
  5
6
330
0
100
AcDbSymbolTable
 70
     0
  0
ENDTAB
  0
TABLE
  2
UCS
  5
7
330
0
100
AcDbSymbolTable
 70
     0
  0
ENDTAB
  0
TABLE
  2
APPID
  5
9
330
0
100
AcDbSymbolTable
 70
     1
  0
APPID
  5
12
330
9
100
AcDbSymbolTableRecord
100
AcDbRegAppTableRecord
  2
ACAD
 70
     0
  0
ENDTAB
  0
TABLE
  2
DIMSTYLE
  5
A
330
0
100
AcDbSymbolTable
 70
     4
100
AcDbDimStyleTable
  0
DIMSTYLE
105
27
330
A
100
AcDbSymbolTableRecord
100
AcDbDimStyleTableRecord
  2
ISO-25
 70
     0
 41
2.5
 42
0.625
 43
3.75
 44
1.25
 73
     0
 74
     0
 77
     1
 78
     8
140
2.5
141
2.5
143
0.0393700787
147
0.625
171
     3
172
     1
178
     0
271
     2
272
     2
274
     3
278
    44
283
     0
284
     8
340
11
  0
DIMSTYLE
105
8A
102
{ACAD_REACTORS
330
88
330
94
330
157
330
16F
330
186
330
191
102
}
330
A
100
AcDbSymbolTableRecord
100
AcDbDimStyleTableRecord
  2
SLDDIMSTYLE0
 70
     0
 41
2.0
 44
0.0
 45
0.000000001
 73
     0
 74
     0
 77
     3
 78
    12
 79
     3
140
3.5
147
0.875
173
     1
178
     0
271
     2
272
     2
276
     2
284
    12
340
89
  0
DIMSTYLE
105
A0
330
A
100
AcDbSymbolTableRecord
100
AcDbDimStyleTableRecord
  2
SLDDIMSTYLE1
 70
     0
 41
2.0
 44
0.0
 45
0.000000001
140
0.0
146
2.0
147
0.0
173
     1
178
     0
271
     0
272
     0
276
     2
340
11
  0
DIMSTYLE
105
162
102
{ACAD_REACTORS
330
161
330
17A
330
19B
102
}
330
A
100
AcDbSymbolTableRecord
100
AcDbDimStyleTableRecord
  2
SLDDIMSTYLE2
 70
     0
 41
2.0
 44
0.0
 45
0.000000001
 73
     0
 74
     0
 77
     3
 78
    12
 79
     3
140
3.5
147
0.875
172
     1
173
     1
178
     0
271
     2
272
     2
276
     2
284
    12
289
     0
340
89
  0
ENDTAB
  0
TABLE
  2
BLOCK_RECORD
  5
1
330
0
100
AcDbSymbolTable
 70
    11
  0
BLOCK_RECORD
  5
1F
330
1
100
AcDbSymbolTableRecord
100
AcDbBlockTableRecord
  2
*Model_Space
340
22
  0
BLOCK_RECORD
  5
1B
330
1
100
AcDbSymbolTableRecord
100
AcDbBlockTableRecord
  2
*Paper_Space
340
1E
  0
BLOCK_RECORD
  5
23
330
1
100
AcDbSymbolTableRecord
100
AcDbBlockTableRecord
  2
*Paper_Space0
340
26
  0
BLOCK_RECORD
  5
8B
330
1
100
AcDbSymbolTableRecord
100
AcDbBlockTableRecord
  2
_D
340
0
  0
BLOCK_RECORD
  5
95
330
1
100
AcDbSymbolTableRecord
100
AcDbBlockTableRecord
  2
_D_1
340
0
  0
BLOCK_RECORD
  5
A2
330
1
100
AcDbSymbolTableRecord
100
AcDbBlockTableRecord
  2
SW_CENTERMARKSYMBOL_0
340
0
102
{BLKREFS
331
AD
102
}
  0
BLOCK_RECORD
  5
158
330
1
100
AcDbSymbolTableRecord
100
AcDbBlockTableRecord
  2
_D_2
340
0
  0
BLOCK_RECORD
  5
163
330
1
100
AcDbSymbolTableRecord
100
AcDbBlockTableRecord
  2
_D_3
340
0
  0
BLOCK_RECORD
  5
170
330
1
100
AcDbSymbolTableRecord
100
AcDbBlockTableRecord
  2
_D_4
340
0
  0
BLOCK_RECORD
  5
17B
330
1
100
AcDbSymbolTableRecord
100
AcDbBlockTableRecord
  2
_D_5
340
0
  0
BLOCK_RECORD
  5
187
330
1
100
AcDbSymbolTableRecord
100
AcDbBlockTableRecord
  2
_D_6
340
0
  0
BLOCK_RECORD
  5
192
330
1
100
AcDbSymbolTableRecord
100
AcDbBlockTableRecord
  2
_D_7
340
0
  0
BLOCK_RECORD
  5
19C
330
1
100
AcDbSymbolTableRecord
100
AcDbBlockTableRecord
  2
_D_8
340
0
  0
ENDTAB
  0
ENDSEC
  0
SECTION
  2
BLOCKS
  0
BLOCK
  5
20
330
1F
100
AcDbEntity
  8
0
100
AcDbBlockBegin
  2
*Model_Space
 70
     0
 10
0.0
 20
0.0
 30
0.0
  3
*Model_Space
  1

  0
ENDBLK
  5
21
330
1F
100
AcDbEntity
  8
0
100
AcDbBlockEnd
  0
BLOCK
  5
1C
330
1B
100
AcDbEntity
 67
     1
  8
0
100
AcDbBlockBegin
  2
*Paper_Space
 70
     0
 10
0.0
 20
0.0
 30
0.0
  3
*Paper_Space
  1

  0
ENDBLK
  5
1D
330
1B
100
AcDbEntity
 67
     1
  8
0
100
AcDbBlockEnd
  0
BLOCK
  5
24
330
23
100
AcDbEntity
  8
0
100
AcDbBlockBegin
  2
*Paper_Space0
 70
     0
 10
0.0
 20
0.0
 30
0.0
  3
*Paper_Space0
  1

  0
ENDBLK
  5
25
330
23
100
AcDbEntity
  8
0
100
AcDbBlockEnd
  0
BLOCK
  5
8C
330
8B
100
AcDbEntity
  8
0
100
AcDbBlockBegin
  2
_D
 70
     0
 10
0.0
 20
0.0
 30
0.0
  3
_D
  1

  0
SOLID
  5
8E
330
8B
100
AcDbEntity
  8
0
  6
Continuous
 62
     7
370
     0
100
AcDbTrace
 10
39.6127737226
 20
164.522080292
 30
0.0
 11
38.8627737226
 21
162.522080292
 31
0.0
 12
40.3627737226
 22
162.522080292
 32
0.0
 13
40.3627737226
 23
162.522080292
 33
0.0
  0
SOLID
  5
8F
330
8B
100
AcDbEntity
  8
0
  6
Continuous
 62
     7
370
     0
100
AcDbTrace
 10
39.6127737226
 20
152.522080292
 30
0.0
 11
40.3627737226
 21
154.522080292
 31
0.0
 12
38.8627737226
 22
154.522080292
 32
0.0
 13
38.8627737226
 23
154.522080292
 33
0.0
  0
LINE
  5
90
330
8B
100
AcDbEntity
  8
0
  6
Continuous
 62
     7
370
     0
100
AcDbLine
 10
57.1486721075
 20
164.522080292
 30
0.0
 11
38.6127737226
 21
164.522080292
 31
0.0
  0
LINE
  5
91
330
8B
100
AcDbEntity
  8
0
  6
Continuous
 62
     7
370
     0
100
AcDbLine
 10
57.1486721075
 20
152.522080292
 30
0.0
 11
38.6127737226
 21
152.522080292
 31
0.0
  0
LINE
  5
92
330
8B
100
AcDbEntity
  8
0
  6
Continuous
 62
     7
370
     0
100
AcDbLine
 10
39.6127737226
 20
164.522080292
 30
0.0
 11
39.6127737226
 21
152.522080292
 31
0.0
  0
MTEXT
  5
93
330
8B
100
AcDbEntity
  8
0
  6
Continuous
 62
     7
370
     0
100
AcDbMText
 10
35.101036808
 20
155.9359690984
 30
35.1
 40
3.5
 41
0.0
 71
     1
 72
     1
  1
12
  7
SLDTEXTSTYLE1
 11
-7.044195017643634E-15
 21
1.0
 31
0.0
 73
     1
 44
1.0
  0
ENDBLK
  5
8D
330
8B
100
AcDbEntity
  8
0
100
AcDbBlockEnd
  0
BLOCK
  5
96
330
95
100
AcDbEntity
  8
0
100
AcDbBlockBegin
  2
_D_1
 70
     0
 10
0.0
 20
0.0
 30
0.0
  3
_D_1
  1

  0
SOLID
  5
98
330
95
100
AcDbEntity
  8
0
  6
Continuous
 62
     7
370
     0
100
AcDbTrace
 10
49.6127737226
 20
180.522080292
 30
0.0
 11
51.6127737226
 21
179.772080292
 31
0.0
 12
51.6127737226
 22
181.272080292
 32
0.0
 13
51.6127737226
 23
181.272080292
 33
0.0
  0
SOLID
  5
99
330
95
100
AcDbEntity
  8
0
  6
Continuous
 62
     7
370
     0
100
AcDbTrace
 10
73.6127737226
 20
180.522080292
 30
0.0
 11
71.6127737226
 21
181.272080292
 31
0.0
 12
71.6127737226
 22
179.772080292
 32
0.0
 13
71.6127737226
 23
179.772080292
 33
0.0
  0
LINE
  5
9A
330
95
100
AcDbEntity
  8
0
  6
Continuous
 62
     7
370
     0
100
AcDbLine
 10
49.6127737226
 20
159.522080292
 30
0.0
 11
49.6127737226
 21
181.522080292
 31
0.0
  0
LINE
  5
9B
330
95
100
AcDbEntity
  8
0
  6
Continuous
 62
     7
370
     0
100
AcDbLine
 10
73.6127737226
 20
159.522080292
 30
0.0
 11
73.6127737226
 21
181.522080292
 31
0.0
  0
LINE
  5
9C
330
95
100
AcDbEntity
  8
0
  6
Continuous
 62
     7
370
     0
100
AcDbLine
 10
49.6127737226
 20
180.522080292
 30
0.0
 11
73.6127737226
 21
180.522080292
 31
0.0
  0
MTEXT
  5
9D
330
95
100
AcDbEntity
  8
0
  6
Continuous
 62
     7
370
     0
100
AcDbMText
 10
56.3874435971
 20
185.0338173812
 30
35.1
 40
3.5
 41
0.0
 71
     1
 72
     1
  1
%%c
  7
SLDTEXTSTYLE1
 73
     1
 44
1.0
  0
MTEXT
  5
9E
330
95
100
AcDbEntity
  8
0
  6
Continuous
 62
     7
370
     0
100
AcDbMText
 10
61.6658809955
 20
185.0872895578
 30
35.1
 40
3.5
 41
0.0
 71
     1
 72
     1
  1
24
  7
SLDTEXTSTYLE1
 73
     1
 44
1.0
  0
ENDBLK
  5
97
330
95
100
AcDbEntity
  8
0
100
AcDbBlockEnd
  0
BLOCK
  5
A3
330
A2
100
AcDbEntity
  8
0
100
AcDbBlockBegin
  2
SW_CENTERMARKSYMBOL_0
 70
     0
 10
0.0
 20
0.0
 30
0.0
  3
SW_CENTERMARKSYMBOL_0
  1

  0
LINE
  5
A5
330
A2
100
AcDbEntity
  8
0
  6
Continuous
 62
     0
370
     0
100
AcDbLine
 10
0.0
 20
0.0
 30
0.0
 11
0.0
 21
2.5
 31
0.0
  0
LINE
  5
A6
330
A2
100
AcDbEntity
  8
0
  6
Continuous
 62
     0
370
     0
100
AcDbLine
 10
0.0
 20
0.0
 30
0.0
 11
-2.5
 21
0.0
 31
0.0
  0
LINE
  5
A7
330
A2
100
AcDbEntity
  8
0
  6
Continuous
 62
     0
370
     0
100
AcDbLine
 10
0.0
 20
0.0
 30
0.0
 11
0.0
 21
-2.5
 31
0.0
  0
LINE
  5
A8
330
A2
100
AcDbEntity
  8
0
  6
Continuous
 62
     0
370
     0
100
AcDbLine
 10
0.0
 20
0.0
 30
0.0
 11
2.5
 21
0.0
 31
0.0
  0
LINE
  5
A9
330
A2
100
AcDbEntity
  8
0
  6
Continuous
 62
     0
370
     0
100
AcDbLine
 10
0.0
 20
5.0
 30
0.0
 11
0.0
 21
14.5
 31
0.0
  0
LINE
  5
AA
330
A2
100
AcDbEntity
  8
0
  6
Continuous
 62
     0
370
     0
100
AcDbLine
 10
-5.0
 20
0.0
 30
0.0
 11
-14.5
 21
0.0
 31
0.0
  0
LINE
  5
AB
330
A2
100
AcDbEntity
  8
0
  6
Continuous
 62
     0
370
     0
100
AcDbLine
 10
0.0
 20
-5.0
 30
0.0
 11
0.0
 21
-20.659840152
 31
0.0
  0
LINE
  5
AC
330
A2
100
AcDbEntity
  8
0
  6
Continuous
 62
     0
370
     0
100
AcDbLine
 10
5.0
 20
0.0
 30
0.0
 11
14.5
 21
0.0
 31
0.0
  0
ENDBLK
  5
A4
330
A2
100
AcDbEntity
  8
0
100
AcDbBlockEnd
  0
BLOCK
  5
159
330
158
100
AcDbEntity
  8
0
100
AcDbBlockBegin
  2
_D_2
 70
     0
 10
0.0
 20
0.0
 30
0.0
  3
_D_2
  1

  0
SOLID
  5
15B
330
158
100
AcDbEntity
  8
0
  6
Continuous
 62
     7
370
     0
100
AcDbTrace
 10
103.2244525547
 20
192.522080292
 30
0.0
 11
105.2244525547
 21
191.772080292
 31
0.0
 12
105.2244525547
 22
193.272080292
 32
0.0
 13
105.2244525547
 23
193.272080292
 33
0.0
  0
SOLID
  5
15C
330
158
100
AcDbEntity
  8
0
  6
Continuous
 62
     7
370
     0
100
AcDbTrace
 10
173.2244525547
 20
192.522080292
 30
0.0
 11
171.2244525547
 21
193.272080292
 31
0.0
 12
171.2244525547
 22
191.772080292
 32
0.0
 13
171.2244525547
 23
191.772080292
 33
0.0
  0
LINE
  5
15D
330
158
100
AcDbEntity
  8
0
  6
Continuous
 62
     7
370
     0
100
AcDbLine
 10
103.2244525547
 20
165.022080292
 30
0.0
 11
103.2244525547
 21
193.522080292
 31
0.0
  0
LINE
  5
15E
330
158
100
AcDbEntity
  8
0
  6
Continuous
 62
     7
370
     0
100
AcDbLine
 10
173.2244525547
 20
162.022080292
 30
0.0
 11
173.2244525547
 21
193.522080292
 31
0.0
  0
LINE
  5
15F
330
158
100
AcDbEntity
  8
0
  6
Continuous
 62
     7
370
     0
100
AcDbLine
 10
103.2244525547
 20
192.522080292
 30
0.0
 11
173.2244525547
 21
192.522080292
 31
0.0
  0
MTEXT
  5
160
330
158
100
AcDbEntity
  8
0
  6
Continuous
 62
     7
370
     0
100
AcDbMText
 10
135.6383413612
 20
197.0338172065
 30
0.1
 40
3.5
 41
0.0
 71
     1
 72
     1
  1
70
  7
SLDTEXTSTYLE1
 73
     1
 44
1.0
  0
ENDBLK
  5
15A
330
158
100
AcDbEntity
  8
0
100
AcDbBlockEnd
  0
BLOCK
  5
164
330
163
100
AcDbEntity
  8
0
100
AcDbBlockBegin
  2
_D_3
 70
     0
 10
0.0
 20
0.0
 30
0.0
  3
_D_3
  1

  0
SOLID
  5
166
330
163
100
AcDbEntity
  8
0
  6
Continuous
 62
     7
370
     0
100
AcDbTrace
 10
181.6324342564
 20
161.522080292
 30
0.0
 11
182.3824342564
 21
163.522080292
 31
0.0
 12
180.8824342564
 22
163.522080292
 32
0.0
 13
180.8824342564
 23
163.522080292
 33
0.0
  0
SOLID
  5
167
330
163
100
AcDbEntity
  8
0
  6
Continuous
 62
     7
370
     0
100
AcDbTrace
 10
181.6324342564
 20
155.522080292
 30
0.0
 11
180.8824342564
 21
153.522080292
 31
0.0
 12
182.3824342564
 22
153.522080292
 32
0.0
 13
182.3824342564
 23
153.522080292
 33
0.0
  0
LINE
  5
168
330
163
100
AcDbEntity
  8
0
  6
Continuous
 62
     7
370
     0
100
AcDbLine
 10
173.7244525547
 20
161.522080292
 30
0.0
 11
182.6324342564
 21
161.522080292
 31
0.0
  0
LINE
  5
169
330
163
100
AcDbEntity
  8
0
  6
Continuous
 62
     7
370
     0
100
AcDbLine
 10
173.7244525547
 20
155.522080292
 30
0.0
 11
182.6324342564
 21
155.522080292
 31
0.0
  0
LINE
  5
16A
330
163
100
AcDbEntity
  8
0
  6
Continuous
 62
     7
370
     0
100
AcDbLine
 10
181.6324342564
 20
161.522080292
 30
0.0
 11
181.6324342564
 21
177.7684481313
 31
0.0
  0
LINE
  5
16B
330
163
100
AcDbEntity
  8
0
  6
Continuous
 62
     7
370
     0
100
AcDbLine
 10
181.6324342564
 20
161.522080292
 30
0.0
 11
181.6324342564
 21
155.522080292
 31
0.0
  0
LINE
  5
16C
330
163
100
AcDbEntity
  8
0
  6
Continuous
 62
     7
370
     0
100
AcDbLine
 10
181.6324342564
 20
155.522080292
 30
0.0
 11
181.6324342564
 21
150.522080292
 31
0.0
  0
MTEXT
  5
16D
330
163
100
AcDbEntity
  8
0
  6
Continuous
 62
     7
370
     0
100
AcDbMText
 10
177.1206971672
 20
169.9038993066
 30
0.1
 40
3.5
 41
0.0
 71
     1
 72
     1
  1
%%c
  7
SLDTEXTSTYLE1
 11
-7.044195017643634E-15
 21
1.0
 31
0.0
 73
     1
 44
1.0
  0
MTEXT
  5
16E
330
163
100
AcDbEntity
  8
0
  6
Continuous
 62
     7
370
     0
100
AcDbMText
 10
177.0672249905
 20
175.1823367049
 30
0.1
 40
3.5
 41
0.0
 71
     1
 72
     1
  1
6
  7
SLDTEXTSTYLE1
 11
-7.044195017643634E-15
 21
1.0
 31
0.0
 73
     1
 44
1.0
  0
ENDBLK
  5
165
330
163
100
AcDbEntity
  8
0
100
AcDbBlockEnd
  0
BLOCK
  5
171
330
170
100
AcDbEntity
  8
0
100
AcDbBlockBegin
  2
_D_4
 70
     0
 10
0.0
 20
0.0
 30
0.0
  3
_D_4
  1

  0
SOLID
  5
173
330
170
100
AcDbEntity
  8
0
  6
Continuous
 62
     7
370
     0
100
AcDbTrace
 10
192.1435521967
 20
168.522080292
 30
0.0
 11
191.3935521967
 21
166.522080292
 31
0.0
 12
192.8935521967
 22
166.522080292
 32
0.0
 13
192.8935521967
 23
166.522080292
 33
0.0
  0
SOLID
  5
174
330
170
100
AcDbEntity
  8
0
  6
Continuous
 62
     7
370
     0
100
AcDbTrace
 10
192.1435521967
 20
148.522080292
 30
0.0
 11
192.8935521967
 21
150.522080292
 31
0.0
 12
191.3935521967
 22
150.522080292
 32
0.0
 13
191.3935521967
 23
150.522080292
 33
0.0
  0
LINE
  5
175
330
170
100
AcDbEntity
  8
0
  6
Continuous
 62
     7
370
     0
100
AcDbLine
 10
171.8244525547
 20
168.522080292
 30
0.0
 11
193.1435521967
 21
168.522080292
 31
0.0
  0
LINE
  5
176
330
170
100
AcDbEntity
  8
0
  6
Continuous
 62
     7
370
     0
100
AcDbLine
 10
171.8244525547
 20
148.522080292
 30
0.0
 11
193.1435521967
 21
148.522080292
 31
0.0
  0
LINE
  5
177
330
170
100
AcDbEntity
  8
0
  6
Continuous
 62
     7
370
     0
100
AcDbLine
 10
192.1435521967
 20
168.522080292
 30
0.0
 11
192.1435521967
 21
148.522080292
 31
0.0
  0
MTEXT
  5
178
330
170
100
AcDbEntity
  8
0
  6
Continuous
 62
     7
370
     0
100
AcDbMText
 10
187.6318151075
 20
153.2967501664
 30
0.1
 40
3.5
 41
0.0
 71
     1
 72
     1
  1
%%c
  7
SLDTEXTSTYLE1
 11
-7.044195017643634E-15
 21
1.0
 31
0.0
 73
     1
 44
1.0
  0
MTEXT
  5
179
330
170
100
AcDbEntity
  8
0
  6
Continuous
 62
     7
370
     0
100
AcDbMText
 10
187.5783429309
 20
158.5751875648
 30
0.1
 40
3.5
 41
0.0
 71
     1
 72
     1
  1
20
  7
SLDTEXTSTYLE1
 11
-7.044195017643634E-15
 21
1.0
 31
0.0
 73
     1
 44
1.0
  0
ENDBLK
  5
172
330
170
100
AcDbEntity
  8
0
100
AcDbBlockEnd
  0
BLOCK
  5
17C
330
17B
100
AcDbEntity
  8
0
100
AcDbBlockBegin
  2
_D_5
 70
     0
 10
0.0
 20
0.0
 30
0.0
  3
_D_5
  1

  0
SOLID
  5
17E
330
17B
100
AcDbEntity
  8
0
  6
Continuous
 62
     7
370
     0
100
AcDbTrace
 10
103.2244525547
 20
178.800036668
 30
0.0
 11
101.2244525547
 21
179.550036668
 31
0.0
 12
101.2244525547
 22
178.050036668
 32
0.0
 13
101.2244525547
 23
178.050036668
 33
0.0
  0
SOLID
  5
17F
330
17B
100
AcDbEntity
  8
0
  6
Continuous
 62
     7
370
     0
100
AcDbTrace
 10
112.2244525547
 20
178.800036668
 30
0.0
 11
114.2244525547
 21
178.050036668
 31
0.0
 12
114.2244525547
 22
179.550036668
 32
0.0
 13
114.2244525547
 23
179.550036668
 33
0.0
  0
LINE
  5
180
330
17B
100
AcDbEntity
  8
0
  6
Continuous
 62
     7
370
     0
100
AcDbLine
 10
103.2244525547
 20
165.022080292
 30
0.0
 11
103.2244525547
 21
179.800036668
 31
0.0
  0
LINE
  5
181
330
17B
100
AcDbEntity
  8
0
  6
Continuous
 62
     7
370
     0
100
AcDbLine
 10
112.2244525547
 20
165.522080292
 30
0.0
 11
112.2244525547
 21
179.800036668
 31
0.0
  0
LINE
  5
182
330
17B
100
AcDbEntity
  8
0
  6
Continuous
 62
     7
370
     0
100
AcDbLine
 10
103.2244525547
 20
178.800036668
 30
0.0
 11
98.2244525547
 21
178.800036668
 31
0.0
  0
LINE
  5
183
330
17B
100
AcDbEntity
  8
0
  6
Continuous
 62
     7
370
     0
100
AcDbLine
 10
103.2244525547
 20
178.800036668
 30
0.0
 11
112.2244525547
 21
178.800036668
 31
0.0
  0
LINE
  5
184
330
17B
100
AcDbEntity
  8
0
  6
Continuous
 62
     7
370
     0
100
AcDbLine
 10
112.2244525547
 20
178.800036668
 30
0.0
 11
117.2244525547
 21
178.800036668
 31
0.0
  0
MTEXT
  5
185
330
17B
100
AcDbEntity
  8
0
  6
Continuous
 62
     7
370
     0
100
AcDbMText
 10
106.431396958
 20
183.3117735826
 30
0.1
 40
3.5
 41
0.0
 71
     1
 72
     1
  1
9
  7
SLDTEXTSTYLE1
 73
     1
 44
1.0
  0
ENDBLK
  5
17D
330
17B
100
AcDbEntity
  8
0
100
AcDbBlockEnd
  0
BLOCK
  5
188
330
187
100
AcDbEntity
  8
0
100
AcDbBlockBegin
  2
_D_6
 70
     0
 10
0.0
 20
0.0
 30
0.0
  3
_D_6
  1

  0
SOLID
  5
18A
330
187
100
AcDbEntity
  8
0
  6
Continuous
 62
     7
370
     0
100
AcDbTrace
 10
145.2244525547
 20
131.722080292
 30
0.0
 11
143.2244525547
 21
132.472080292
 31
0.0
 12
143.2244525547
 22
130.972080292
 32
0.0
 13
143.2244525547
 23
130.972080292
 33
0.0
  0
SOLID
  5
18B
330
187
100
AcDbEntity
  8
0
  6
Continuous
 62
     7
370
     0
100
AcDbTrace
 10
125.2244525547
 20
131.722080292
 30
0.0
 11
127.2244525547
 21
130.972080292
 31
0.0
 12
127.2244525547
 22
132.472080292
 32
0.0
 13
127.2244525547
 23
132.472080292
 33
0.0
  0
LINE
  5
18C
330
187
100
AcDbEntity
  8
0
  6
Continuous
 62
     7
370
     0
100
AcDbLine
 10
145.2244525547
 20
153.422080292
 30
0.0
 11
145.2244525547
 21
130.722080292
 31
0.0
  0
LINE
  5
18D
330
187
100
AcDbEntity
  8
0
  6
Continuous
 62
     7
370
     0
100
AcDbLine
 10
125.2244525547
 20
153.022080292
 30
0.0
 11
125.2244525547
 21
130.722080292
 31
0.0
  0
LINE
  5
18E
330
187
100
AcDbEntity
  8
0
  6
Continuous
 62
     7
370
     0
100
AcDbLine
 10
145.2244525547
 20
131.722080292
 30
0.0
 11
125.2244525547
 21
131.722080292
 31
0.0
  0
MTEXT
  5
18F
330
187
100
AcDbEntity
  8
0
  6
Continuous
 62
     7
370
     0
100
AcDbMText
 10
130.9418136585
 20
136.2338172065
 30
0.1
 40
3.5
 41
0.0
 71
     1
 72
     1
  1
20
  7
SLDTEXTSTYLE1
 73
     1
 44
1.0
  0
MTEXT
  5
190
330
187
100
AcDbEntity
  8
0
  6
Continuous
 62
     7
370
     0
100
AcDbMText
 10
136.1140360455
 20
136.2338172065
 30
0.1
 40
3.5
 41
0.0
 71
     1
 72
     1
  1
st
  7
SLDTEXTSTYLE1
 73
     1
 44
1.0
  0
ENDBLK
  5
189
330
187
100
AcDbEntity
  8
0
100
AcDbBlockEnd
  0
BLOCK
  5
193
330
192
100
AcDbEntity
  8
0
100
AcDbBlockBegin
  2
_D_7
 70
     0
 10
0.0
 20
0.0
 30
0.0
  3
_D_7
  1

  0
SOLID
  5
195
330
192
100
AcDbEntity
  8
0
  6
Continuous
 62
     7
370
     0
100
AcDbTrace
 10
171.2244525547
 20
131.722080292
 30
0.0
 11
169.2244525547
 21
132.472080292
 31
0.0
 12
169.2244525547
 22
130.972080292
 32
0.0
 13
169.2244525547
 23
130.972080292
 33
0.0
  0
SOLID
  5
196
330
192
100
AcDbEntity
  8
0
  6
Continuous
 62
     7
370
     0
100
AcDbTrace
 10
150.2244525547
 20
131.722080292
 30
0.0
 11
152.2244525547
 21
130.972080292
 31
0.0
 12
152.2244525547
 22
132.472080292
 32
0.0
 13
152.2244525547
 23
132.472080292
 33
0.0
  0
LINE
  5
197
330
192
100
AcDbEntity
  8
0
  6
Continuous
 62
     7
370
     0
100
AcDbLine
 10
171.2244525547
 20
147.922080292
 30
0.0
 11
171.2244525547
 21
130.722080292
 31
0.0
  0
LINE
  5
198
330
192
100
AcDbEntity
  8
0
  6
Continuous
 62
     7
370
     0
100
AcDbLine
 10
150.2244525547
 20
145.922080292
 30
0.0
 11
150.2244525547
 21
130.722080292
 31
0.0
  0
LINE
  5
199
330
192
100
AcDbEntity
  8
0
  6
Continuous
 62
     7
370
     0
100
AcDbLine
 10
171.2244525547
 20
131.722080292
 30
0.0
 11
150.2244525547
 21
131.722080292
 31
0.0
  0
MTEXT
  5
19A
330
192
100
AcDbEntity
  8
0
  6
Continuous
 62
     7
370
     0
100
AcDbMText
 10
158.1383413612
 20
136.2338172065
 30
0.1
 40
3.5
 41
0.0
 71
     1
 72
     1
  1
21
  7
SLDTEXTSTYLE1
 73
     1
 44
1.0
  0
ENDBLK
  5
194
330
192
100
AcDbEntity
  8
0
100
AcDbBlockEnd
  0
BLOCK
  5
19D
330
19C
100
AcDbEntity
  8
0
100
AcDbBlockBegin
  2
_D_8
 70
     0
 10
0.0
 20
0.0
 30
0.0
  3
_D_8
  1

  0
SOLID
  5
19F
330
19C
100
AcDbEntity
  8
0
  6
Continuous
 62
     7
370
     0
100
AcDbTrace
 10
93.2244525547
 20
164.022080292
 30
0.0
 11
93.9744525547
 21
166.022080292
 31
0.0
 12
92.4744525547
 22
166.022080292
 32
0.0
 13
92.4744525547
 23
166.022080292
 33
0.0
  0
SOLID
  5
1A0
330
19C
100
AcDbEntity
  8
0
  6
Continuous
 62
     7
370
     0
100
AcDbTrace
 10
93.2244525547
 20
153.022080292
 30
0.0
 11
92.4744525547
 21
151.022080292
 31
0.0
 12
93.9744525547
 22
151.022080292
 32
0.0
 13
93.9744525547
 23
151.022080292
 33
0.0
  0
LINE
  5
1A1
330
19C
100
AcDbEntity
  8
0
  6
Continuous
 62
     7
370
     0
100
AcDbLine
 10
102.2244525547
 20
164.022080292
 30
0.0
 11
92.2244525547
 21
164.022080292
 31
0.0
  0
LINE
  5
1A2
330
19C
100
AcDbEntity
  8
0
  6
Continuous
 62
     7
370
     0
100
AcDbLine
 10
102.2244525547
 20
153.022080292
 30
0.0
 11
92.2244525547
 21
153.022080292
 31
0.0
  0
LINE
  5
1A3
330
19C
100
AcDbEntity
  8
0
  6
Continuous
 62
     7
370
     0
100
AcDbLine
 10
93.2244525547
 20
164.022080292
 30
0.0
 11
93.2244525547
 21
169.022080292
 31
0.0
  0
LINE
  5
1A4
330
19C
100
AcDbEntity
  8
0
  6
Continuous
 62
     7
370
     0
100
AcDbLine
 10
93.2244525547
 20
164.022080292
 30
0.0
 11
93.2244525547
 21
153.022080292
 31
0.0
  0
LINE
  5
1A5
330
19C
100
AcDbEntity
  8
0
  6
Continuous
 62
     7
370
     0
100
AcDbLine
 10
93.2244525547
 20
153.022080292
 30
0.0
 11
93.2244525547
 21
148.022080292
 31
0.0
  0
MTEXT
  5
1A6
330
19C
100
AcDbEntity
  8
0
  6
Continuous
 62
     7
370
     0
100
AcDbMText
 10
88.7127154655
 20
153.2967501664
 30
0.1
 40
3.5
 41
0.0
 71
     1
 72
     1
  1
%%c
  7
SLDTEXTSTYLE1
 11
-7.044195017643634E-15
 21
1.0
 31
0.0
 73
     1
 44
1.0
  0
MTEXT
  5
1A7
330
19C
100
AcDbEntity
  8
0
  6
Continuous
 62
     7
370
     0
100
AcDbMText
 10
88.6592432889
 20
158.5751875648
 30
0.1
 40
3.5
 41
0.0
 71
     1
 72
     1
  1
11
  7
SLDTEXTSTYLE1
 11
-7.044195017643634E-15
 21
1.0
 31
0.0
 73
     1
 44
1.0
  0
ENDBLK
  5
19E
330
19C
100
AcDbEntity
  8
0
100
AcDbBlockEnd
  0
ENDSEC
  0
SECTION
  2
ENTITIES
  0
LINE
  5
44
330
1F
100
AcDbEntity
  8
0
  6
Continuous
 62
     7
370
     0
100
AcDbLine
 10
20.2604743903
 20
285.0
 30
0.0
 11
196.7604743903
 21
285.0
 31
0.0
  0
LINE
  5
45
330
1F
100
AcDbEntity
  8
0
  6
Continuous
 62
     7
370
     0
100
AcDbLine
 10
20.2604743903
 20
285.0
 30
0.0
 11
20.2604743903
 21
10.0
 31
0.0
  0
LINE
  5
46
330
1F
100
AcDbEntity
  8
0
  6
Continuous
 62
     7
370
     0
100
AcDbLine
 10
20.2604743903
 20
10.0
 30
0.0
 11
196.7604743903
 21
10.0
 31
0.0
  0
LINE
  5
47
330
1F
100
AcDbEntity
  8
0
  6
Continuous
 62
     7
370
     0
100
AcDbLine
 10
196.7604743903
 20
285.0
 30
0.0
 11
196.7604743903
 21
10.0
 31
0.0
  0
LINE
  5
48
330
1F
100
AcDbEntity
  8
0
  6
Continuous
 62
     7
370
     0
100
AcDbLine
 10
127.0104743903
 20
50.75
 30
0.0
 11
196.7604743903
 21
50.75
 31
0.0
  0
LINE
  5
49
330
1F
100
AcDbEntity
  8
0
  6
Continuous
 62
     7
370
     0
100
AcDbLine
 10
127.0104743903
 20
50.75
 30
0.0
 11
127.0104743903
 21
10.0
 31
0.0
  0
LINE
  5
4A
330
1F
100
AcDbEntity
  8
0
  6
Continuous
 62
     7
370
     0
100
AcDbLine
 10
127.0104743903
 20
22.75
 30
0.0
 11
196.7604743903
 21
22.75
 31
0.0
  0
LINE
  5
4B
330
1F
100
AcDbEntity
  8
0
  6
Continuous
 62
     7
370
     0
100
AcDbLine
 10
127.0104743903
 20
36.75
 30
0.0
 11
196.7604743903
 21
36.75
 31
0.0
  0
MTEXT
  5
4D
330
1F
100
AcDbEntity
  8
0
  6
Continuous
 62
     7
370
     0
100
AcDbMText
 10
161.1397382606
 20
30.4171582345
 30
0.0
 40
4.2333333333
 41
0.0
 71
     2
 72
     1
  1
VFIL1-S-20-P20
  7
SLDTEXTSTYLE0
 73
     1
 44
1.0
  0
MTEXT
  5
4E
330
1F
100
AcDbEntity
  8
0
  6
Continuous
 62
     7
370
     0
100
AcDbMText
 10
160.5582442015
 20
43.9409718514
 30
0.0
 40
4.2333333333
 41
0.0
 71
     2
 72
     1
  1
吸着金具・スモール用
  7
SLDTEXTSTYLE0
 73
     1
 44
1.0
  0
MTEXT
  5
4F
330
1F
100
AcDbEntity
  8
0
  6
Continuous
 62
     7
370
     0
100
AcDbMText
 10
162.785302455
 20
16.8228189052
 30
0.0
 40
4.2333333333
 41
0.0
 71
     2
 72
     1
  1
211011
  7
SLDTEXTSTYLE0
 73
     1
 44
1.0
  0
LINE
  5
50
330
1F
100
AcDbEntity
  8
0
  6
Continuous
 62
     7
370
    15
100
AcDbLine
 10
57.6127737226
 20
165.322080292
 30
0.0
 11
57.6127737226
 21
164.522080292
 31
0.0
  0
LINE
  5
51
330
1F
100
AcDbEntity
  8
0
  6
Continuous
 62
     7
370
    15
100
AcDbLine
 10
65.6127737226
 20
164.522080292
 30
0.0
 11
65.6127737226
 21
165.322080292
 31
0.0
  0
LINE
  5
52
330
1F
100
AcDbEntity
  8
0
  6
Continuous
 62
     7
370
    15
100
AcDbLine
 10
57.6127737226
 20
152.522080292
 30
0.0
 11
57.6127737226
 21
151.722080292
 31
0.0
  0
LINE
  5
53
330
1F
100
AcDbEntity
  8
0
  6
Continuous
 62
     7
370
    15
100
AcDbLine
 10
65.6127737226
 20
151.722080292
 30
0.0
 11
65.6127737226
 21
152.522080292
 31
0.0
  0
LINE
  5
54
330
1F
100
AcDbEntity
  8
0
  6
Continuous
 62
     7
370
    15
100
AcDbLine
 10
59.2627737226
 20
144.222080292
 30
0.0
 11
59.6127737226
 21
141.722080292
 31
0.0
  0
LINE
  5
55
330
1F
100
AcDbEntity
  8
0
  6
Continuous
 62
     7
370
    15
100
AcDbLine
 10
63.6127737226
 20
141.722080292
 30
0.0
 11
63.9627737226
 21
144.222080292
 31
0.0
  0
LINE
  5
56
330
1F
100
AcDbEntity
  8
0
  6
Continuous
 62
     7
370
    15
100
AcDbLine
 10
59.2627737226
 20
146.722080292
 30
0.0
 11
59.6127737226
 21
144.222080292
 31
0.0
  0
LINE
  5
57
330
1F
100
AcDbEntity
  8
0
  6
Continuous
 62
     7
370
    15
100
AcDbLine
 10
63.6127737226
 20
144.222080292
 30
0.0
 11
63.9627737226
 21
146.722080292
 31
0.0
  0
LINE
  5
58
330
1F
100
AcDbEntity
  8
0
  6
Continuous
 62
     7
370
    15
100
AcDbLine
 10
63.7127737226
 20
146.722080292
 30
0.0
 11
63.7127737226
 21
149.222080292
 31
0.0
  0
LINE
  5
59
330
1F
100
AcDbEntity
  8
0
  6
Continuous
 62
     7
370
    15
100
AcDbLine
 10
59.5127737226
 20
149.222080292
 30
0.0
 11
59.5127737226
 21
146.722080292
 31
0.0
  0
ARC
  5
5A
330
1F
100
AcDbEntity
  8
0
  6
Continuous
 62
     7
370
    15
100
AcDbCircle
 10
61.6127737226
 20
158.522080292
 30
0.0
 40
11.99999999999999
100
AcDbArc
 50
280.4753138432
 51
259.5246861568
  0
ARC
  5
5B
330
1F
100
AcDbEntity
  8
0
  6
Continuous
 62
     7
370
    15
100
AcDbCircle
 10
61.6127737226
 20
158.522080292
 30
0.0
 40
11.6
100
AcDbArc
 50
280.4300212911
 51
259.569978709
  0
LINE
  5
5C
330
1F
100
AcDbEntity
  8
0
  6
Continuous
 62
     7
370
    15
100
AcDbLine
 10
65.6127737226
 20
164.522080292
 30
0.0
 11
65.0768753378
 21
164.522080292
 31
0.0
  0
LINE
  5
5D
330
1F
100
AcDbEntity
  8
0
  6
Continuous
 62
     7
370
    15
100
AcDbLine
 10
58.1486721075
 20
164.522080292
 30
0.0
 11
57.6127737226
 21
164.522080292
 31
0.0
  0
LINE
  5
5E
330
1F
100
AcDbEntity
  8
0
  6
Continuous
 62
     7
370
    15
100
AcDbLine
 10
58.1486721075
 20
152.522080292
 30
0.0
 11
57.6127737226
 21
152.522080292
 31
0.0
  0
LINE
  5
5F
330
1F
100
AcDbEntity
  8
0
  6
Continuous
 62
     7
370
    15
100
AcDbLine
 10
65.6127737226
 20
152.522080292
 30
0.0
 11
65.0768753378
 21
152.522080292
 31
0.0
  0
LINE
  5
60
330
1F
100
AcDbEntity
  8
0
  6
Continuous
 62
     7
370
    15
100
AcDbLine
 10
58.6477401079
 20
151.722080292
 30
0.0
 11
57.6127737226
 21
151.722080292
 31
0.0
  0
LINE
  5
61
330
1F
100
AcDbEntity
  8
0
  6
Continuous
 62
     7
370
    15
100
AcDbLine
 10
59.5877737226
 20
151.722080292
 30
0.0
 11
58.6477401079
 21
151.722080292
 31
0.0
  0
LINE
  5
62
330
1F
100
AcDbEntity
  8
0
  6
Continuous
 62
     7
370
    15
100
AcDbLine
 10
65.6627737226
 20
149.222080292
 30
0.0
 11
63.6377737226
 21
149.222080292
 31
0.0
  0
LINE
  5
63
330
1F
100
AcDbEntity
  8
0
  6
Continuous
 62
     7
370
    15
100
AcDbLine
 10
59.5877737228
 20
149.222080292
 30
0.0
 11
57.5627737226
 21
149.222080292
 31
0.0
  0
LINE
  5
64
330
1F
100
AcDbEntity
  8
0
  6
Continuous
 62
     7
370
    15
100
AcDbLine
 10
63.6377737226
 20
149.222080292
 30
0.0
 11
59.5877737228
 21
149.222080292
 31
0.0
  0
LINE
  5
65
330
1F
100
AcDbEntity
  8
0
  6
Continuous
 62
     7
370
    15
100
AcDbLine
 10
63.6377737226
 20
151.722080292
 30
0.0
 11
63.6377737226
 21
149.222080292
 31
0.0
  0
LINE
  5
66
330
1F
100
AcDbEntity
  8
0
  6
Continuous
 62
     7
370
    15
100
AcDbLine
 10
59.5877737226
 20
151.722080292
 30
0.0
 11
59.5877737228
 21
149.222080292
 31
0.0
  0
LINE
  5
67
330
1F
100
AcDbEntity
  8
0
  6
Continuous
 62
   144
370
     0
100
AcDbLine
 10
63.6377737226
 20
151.722080292
 30
0.0
 11
59.5877737226
 21
151.722080292
 31
0.0
  0
LINE
  5
68
330
1F
100
AcDbEntity
  8
0
  6
Continuous
 62
     7
370
    15
100
AcDbLine
 10
57.5627737226
 20
149.222080292
 30
0.0
 11
57.5627737226
 21
151.722080292
 31
0.0
  0
LINE
  5
69
330
1F
100
AcDbEntity
  8
0
  6
Continuous
 62
   144
370
     0
100
AcDbLine
 10
59.5877737226
 20
151.722080292
 30
0.0
 11
58.6748476787
 21
151.722080292
 31
0.0
  0
LINE
  5
6A
330
1F
100
AcDbEntity
  8
0
  6
Continuous
 62
   144
370
     0
100
AcDbLine
 10
57.6137482419
 20
151.722080292
 30
0.0
 11
57.5627737226
 21
151.722080292
 31
0.0
  0
LINE
  5
6B
330
1F
100
AcDbEntity
  8
0
  6
Continuous
 62
     7
370
    15
100
AcDbLine
 10
65.6627737226
 20
151.722080292
 30
0.0
 11
65.6627737226
 21
149.222080292
 31
0.0
  0
LINE
  5
6C
330
1F
100
AcDbEntity
  8
0
  6
Continuous
 62
   144
370
     0
100
AcDbLine
 10
65.6627737226
 20
151.722080292
 30
0.0
 11
65.6117992033
 21
151.722080292
 31
0.0
  0
LINE
  5
6D
330
1F
100
AcDbEntity
  8
0
  6
Continuous
 62
   144
370
     0
100
AcDbLine
 10
63.6887482419
 20
151.722080292
 30
0.0
 11
63.6377737226
 21
151.722080292
 31
0.0
  0
LINE
  5
6E
330
1F
100
AcDbEntity
  8
0
  6
Continuous
 62
     7
370
    15
100
AcDbLine
 10
60.4377737226
 20
144.222080292
 30
0.0
 11
59.2627737226
 21
144.222080292
 31
0.0
  0
LINE
  5
6F
330
1F
100
AcDbEntity
  8
0
  6
Continuous
 62
     7
370
    15
100
AcDbLine
 10
63.9627737226
 20
144.222080292
 30
0.0
 11
60.4377737226
 21
144.222080292
 31
0.0
  0
LINE
  5
70
330
1F
100
AcDbEntity
  8
0
  6
Continuous
 62
     7
370
    15
100
AcDbLine
 10
63.6127737226
 20
141.722080292
 30
0.0
 11
59.6127737226
 21
141.722080292
 31
0.0
  0
LINE
  5
71
330
1F
100
AcDbEntity
  8
0
  6
Continuous
 62
     7
370
    15
100
AcDbLine
 10
60.4377737226
 20
146.722080292
 30
0.0
 11
59.2627737226
 21
146.722080292
 31
0.0
  0
LINE
  5
72
330
1F
100
AcDbEntity
  8
0
  6
Continuous
 62
     7
370
    15
100
AcDbLine
 10
63.9627737226
 20
146.722080292
 30
0.0
 11
60.4377737226
 21
146.722080292
 31
0.0
  0
LINE
  5
73
330
1F
100
AcDbEntity
  8
0
  6
Continuous
 62
     7
370
    15
100
AcDbLine
 10
59.5877737226
 20
165.322080292
 30
0.0
 11
59.5877737226
 21
167.822080292
 31
0.0
  0
LINE
  5
74
330
1F
100
AcDbEntity
  8
0
  6
Continuous
 62
   144
370
     0
100
AcDbLine
 10
57.5627737226
 20
165.322080292
 30
0.0
 11
57.6137482419
 21
165.322080292
 31
0.0
  0
LINE
  5
75
330
1F
100
AcDbEntity
  8
0
  6
Continuous
 62
   144
370
     0
100
AcDbLine
 10
59.5367992033
 20
165.322080292
 30
0.0
 11
59.5877737226
 21
165.322080292
 31
0.0
  0
LINE
  5
76
330
1F
100
AcDbEntity
  8
0
  6
Continuous
 62
     7
370
    15
100
AcDbLine
 10
57.5627737226
 20
165.322080292
 30
0.0
 11
57.5627737227
 21
167.822080292
 31
0.0
  0
LINE
  5
77
330
1F
100
AcDbEntity
  8
0
  6
Continuous
 62
     7
370
    15
100
AcDbLine
 10
57.5627737227
 20
167.822080292
 30
0.0
 11
59.5877737226
 21
167.822080292
 31
0.0
  0
LINE
  5
78
330
1F
100
AcDbEntity
  8
0
  6
Continuous
 62
     7
370
    15
100
AcDbLine
 10
63.6377737226
 20
167.822080292
 30
0.0
 11
65.6627737226
 21
167.822080292
 31
0.0
  0
LINE
  5
79
330
1F
100
AcDbEntity
  8
0
  6
Continuous
 62
     7
370
    15
100
AcDbLine
 10
59.5877737226
 20
167.822080292
 30
0.0
 11
63.6377737226
 21
167.822080292
 31
0.0
  0
LINE
  5
7A
330
1F
100
AcDbEntity
  8
0
  6
Continuous
 62
     7
370
    15
100
AcDbLine
 10
63.6377737226
 20
165.322080292
 30
0.0
 11
63.6377737226
 21
167.822080292
 31
0.0
  0
LINE
  5
7B
330
1F
100
AcDbEntity
  8
0
  6
Continuous
 62
   144
370
     0
100
AcDbLine
 10
59.5877737226
 20
165.322080292
 30
0.0
 11
63.6377737226
 21
165.322080292
 31
0.0
  0
LINE
  5
7C
330
1F
100
AcDbEntity
  8
0
  6
Continuous
 62
     7
370
    15
100
AcDbLine
 10
65.6627737226
 20
165.322080292
 30
0.0
 11
65.6627737226
 21
167.822080292
 31
0.0
  0
LINE
  5
7D
330
1F
100
AcDbEntity
  8
0
  6
Continuous
 62
   144
370
     0
100
AcDbLine
 10
63.6377737226
 20
165.322080292
 30
0.0
 11
63.6887482419
 21
165.322080292
 31
0.0
  0
LINE
  5
7E
330
1F
100
AcDbEntity
  8
0
  6
Continuous
 62
   144
370
     0
100
AcDbLine
 10
65.6117992033
 20
165.322080292
 30
0.0
 11
65.6627737226
 21
165.322080292
 31
0.0
  0
CIRCLE
  5
7F
330
1F
100
AcDbEntity
  8
0
  6
Continuous
 62
     7
370
    15
100
AcDbCircle
 10
61.6127737226
 20
158.522080292
 30
0.0
 40
5.499999999999993
  0
CIRCLE
  5
80
330
1F
100
AcDbEntity
  8
0
  6
Continuous
 62
     7
370
    15
100
AcDbCircle
 10
61.6127737226
 20
158.522080292
 30
0.0
 40
2.100000000000009
  0
LINE
  5
81
330
1F
100
AcDbEntity
  8
0
  6
Continuous
 62
     7
370
    15
100
AcDbLine
 10
58.1486721075
 20
152.522080292
 30
0.0
 11
54.6845704924
 21
158.522080292
 31
0.0
  0
LINE
  5
82
330
1F
100
AcDbEntity
  8
0
  6
Continuous
 62
     7
370
    15
100
AcDbLine
 10
58.1486721075
 20
164.522080292
 30
0.0
 11
65.0768753378
 21
164.522080292
 31
0.0
  0
LINE
  5
83
330
1F
100
AcDbEntity
  8
0
  6
Continuous
 62
     7
370
    15
100
AcDbLine
 10
54.6845704924
 20
158.522080292
 30
0.0
 11
58.1486721075
 21
164.522080292
 31
0.0
  0
LINE
  5
84
330
1F
100
AcDbEntity
  8
0
  6
Continuous
 62
     7
370
    15
100
AcDbLine
 10
65.0768753378
 20
164.522080292
 30
0.0
 11
68.5409769529
 21
158.522080292
 31
0.0
  0
LINE
  5
85
330
1F
100
AcDbEntity
  8
0
  6
Continuous
 62
     7
370
    15
100
AcDbLine
 10
68.5409769529
 20
158.522080292
 30
0.0
 11
65.0768753378
 21
152.522080292
 31
0.0
  0
LINE
  5
86
330
1F
100
AcDbEntity
  8
0
  6
Continuous
 62
     7
370
    15
100
AcDbLine
 10
65.0768753378
 20
152.522080292
 30
0.0
 11
58.1486721075
 21
152.522080292
 31
0.0
  0
CIRCLE
  5
87
330
1F
100
AcDbEntity
  8
0
  6
Continuous
 62
   144
370
     0
100
AcDbCircle
 10
61.6127737226
 20
158.522080292
 30
0.0
 40
2.0
  0
DIMENSION
  5
88
330
1F
100
AcDbEntity
  8
0
  6
Continuous
 62
     7
370
     0
100
AcDbDimension
  2
_D
 10
39.6127737226
 20
152.522080292
 30
0.0
 11
39.6127737226
 21
158.522080292
 31
0.0
 70
   160
  1
<>
 71
     2
 42
-1.0
  3
SLDDIMSTYLE0
100
AcDbAlignedDimension
 13
58.1486721075
 23
164.522080292
 33
0.0
 14
58.1486721075
 24
152.522080292
 34
0.0
 50
90.0
100
AcDbRotatedDimension
  0
DIMENSION
  5
94
330
1F
100
AcDbEntity
  8
0
  6
Continuous
 62
     7
370
     0
100
AcDbDimension
  2
_D_1
 10
73.6127737226
 20
180.522080292
 30
0.0
 11
61.6127737226
 21
180.522080292
 31
0.0
 70
   160
  1
%%c<>
 71
     2
 42
-1.0
  3
SLDDIMSTYLE0
100
AcDbAlignedDimension
 13
49.6127737226
 23
158.522080292
 33
0.0
 14
73.6127737226
 24
158.522080292
 34
0.0
100
AcDbRotatedDimension
  0
MTEXT
  5
9F
330
1F
100
AcDbEntity
  8
0
  6
Continuous
 62
     7
370
     0
100
AcDbMText
 10
33.2627958898
 20
178.313050835
 30
0.0
 40
3.5
 41
0.0
 71
     1
 72
     1
  1
M5
  7
SLDTEXTSTYLE1
 73
     1
 44
1.0
  0
LEADER
  5
A1
330
1F
100
AcDbEntity
  8
0
  6
Continuous
 62
     7
370
     0
100
AcDbLeader
  3
SLDDIMSTYLE1
 76
     3
 10
60.2025228143
 20
160.0780984074
 30
0.0
 10
40.4635036496
 20
173.6313868613
 30
0.0
 10
33.2116788321
 20
173.6313868613
 30
0.0
  0
INSERT
  5
AD
330
1F
100
AcDbEntity
  8
0
  6
Continuous
 62
     7
370
     0
100
AcDbBlockReference
  2
SW_CENTERMARKSYMBOL_0
 10
61.6127737226
 20
158.522080292
 30
0.0
  0
LINE
  5
AE
330
1F
100
AcDbEntity
  8
0
  6
Continuous
 62
     7
370
    15
100
AcDbLine
 10
149.8244525547
 20
146.522080292
 30
0.0
 11
150.2244525547
 21
146.922080292
 31
0.0
  0
LINE
  5
AF
330
1F
100
AcDbEntity
  8
0
  6
Continuous
 62
     7
370
    15
100
AcDbLine
 10
150.2244525547
 20
170.122080292
 30
0.0
 11
149.8244525547
 21
170.522080292
 31
0.0
  0
LINE
  5
B0
330
1F
100
AcDbEntity
  8
0
  6
Continuous
 62
     7
370
    15
100
AcDbLine
 10
149.8244525547
 20
170.522080292
 30
0.0
 11
148.6244525547
 21
170.522080292
 31
0.0
  0
LINE
  5
B1
330
1F
100
AcDbEntity
  8
0
  6
Continuous
 62
     7
370
    15
100
AcDbLine
 10
148.6244525547
 20
146.522080292
 30
0.0
 11
149.8244525547
 21
146.522080292
 31
0.0
  0
LINE
  5
B2
330
1F
100
AcDbEntity
  8
0
  6
Continuous
 62
     7
370
    15
100
AcDbLine
 10
148.6244525547
 20
170.522080292
 30
0.0
 11
148.2244525547
 21
170.122080292
 31
0.0
  0
LINE
  5
B3
330
1F
100
AcDbEntity
  8
0
  6
Continuous
 62
     7
370
    15
100
AcDbLine
 10
148.2244525547
 20
146.922080292
 30
0.0
 11
148.6244525547
 21
146.522080292
 31
0.0
  0
LINE
  5
B4
330
1F
100
AcDbEntity
  8
0
  6
Continuous
 62
     7
370
    15
100
AcDbLine
 10
170.8244525547
 20
148.522080292
 30
0.0
 11
171.2244525547
 21
148.922080292
 31
0.0
  0
LINE
  5
B5
330
1F
100
AcDbEntity
  8
0
  6
Continuous
 62
     7
370
    15
100
AcDbLine
 10
171.2244525547
 20
168.122080292
 30
0.0
 11
170.8244525547
 21
168.522080292
 31
0.0
  0
LINE
  5
B6
330
1F
100
AcDbEntity
  8
0
  6
Continuous
 62
     7
370
    15
100
AcDbLine
 10
170.8244525547
 20
168.522080292
 30
0.0
 11
150.2244525547
 21
168.522080292
 31
0.0
  0
LINE
  5
B7
330
1F
100
AcDbEntity
  8
0
  6
Continuous
 62
     7
370
    15
100
AcDbLine
 10
150.2244525547
 20
148.522080292
 30
0.0
 11
170.8244525547
 21
148.522080292
 31
0.0
  0
LINE
  5
B8
330
1F
100
AcDbEntity
  8
0
  6
Continuous
 62
     7
370
    15
100
AcDbLine
 10
148.2244525547
 20
163.022080292
 30
0.0
 11
147.4331141548
 21
163.022080292
 31
0.0
  0
LINE
  5
B9
330
1F
100
AcDbEntity
  8
0
  6
Continuous
 62
     7
370
    15
100
AcDbLine
 10
146.4255243281
 20
163.022080292
 30
0.0
 11
145.6244525547
 21
163.022080292
 31
0.0
  0
LINE
  5
BA
330
1F
100
AcDbEntity
  8
0
  6
Continuous
 62
     7
370
    15
100
AcDbLine
 10
145.6244525547
 20
154.022080292
 30
0.0
 11
148.2244525547
 21
154.022080292
 31
0.0
  0
LINE
  5
BB
330
1F
100
AcDbEntity
  8
0
  6
Continuous
 62
     7
370
    15
100
AcDbLine
 10
145.6244525547
 20
163.022080292
 30
0.0
 11
145.2244525547
 21
162.622080292
 31
0.0
  0
LINE
  5
BC
330
1F
100
AcDbEntity
  8
0
  6
Continuous
 62
     7
370
    15
100
AcDbLine
 10
145.2244525547
 20
154.422080292
 30
0.0
 11
145.6244525547
 21
154.022080292
 31
0.0
  0
SPLINE
  5
BD
330
1F
100
AcDbEntity
  8
0
  6
Continuous
 62
     7
370
    15
100
AcDbSpline
210
0.0
220
0.0
230
1.0
 70
     8
 71
     3
 72
    13
 73
     9
 74
     0
 42
0.00000001
 43
0.00000001
 12
1.0
 22
0.0
 32
0.0
 13
1.0
 23
0.0
 33
0.0
 40
0.0
 40
0.0
 40
0.0
 40
0.0
 40
0.1872996396015715
 40
0.3637888300421317
 40
0.5297037324448545
 40
0.7588969469964543
 40
0.964815663166639
 40
1.0
 40
1.0
 40
1.0
 40
1.0
 10
134.6664488373703
 20
153.1471839351597
 30
0.0
 10
134.7023089984511
 20
153.2385573249921
 30
0.0
 10
134.771959565171
 20
153.4160302697071
 30
0.0
 10
134.8724935235277
 20
153.7665415144947
 30
0.0
 10
134.9802269654154
 20
154.2066878944816
 30
0.0
 10
135.0925660795986
 20
154.7501774210931
 30
0.0
 10
135.1798922185812
 20
155.2172014555483
 30
0.0
 10
135.2242840571647
 20
155.4832549236455
 30
0.0
 10
135.2307621891581
 20
155.5220802919708
 30
0.0
  0
SPLINE
  5
BE
330
1F
100
AcDbEntity
  8
0
  6
Continuous
 62
     7
370
    15
100
AcDbSpline
210
0.0
220
0.0
230
1.0
 70
     8
 71
     3
 72
    11
 73
     7
 74
     0
 42
0.00000001
 43
0.00000001
 12
1.0
 22
0.0
 32
0.0
 13
1.0
 23
0.0
 33
0.0
 40
0.0
 40
0.0
 40
0.0
 40
0.0
 40
0.2324882421727764
 40
0.5792512506259682
 40
0.8925593479925372
 40
1.0
 40
1.0
 40
1.0
 40
1.0
 10
136.1514604813081
 20
161.5220802919708
 30
0.0
 10
136.1742357696471
 20
161.6531857120446
 30
0.0
 10
136.2309810662284
 20
161.9798386981562
 30
0.0
 10
136.3172525975894
 20
162.4082846381746
 30
0.0
 10
136.3908908023451
 20
162.7459234712182
 30
0.0
 10
136.429831013908
 20
162.8929296268225
 30
0.0
 10
136.4397746244971
 20
162.9304685077596
 30
0.0
  0
SPLINE
  5
BF
330
1F
100
AcDbEntity
  8
0
  6
Continuous
 62
     7
370
    15
100
AcDbSpline
210
0.0
220
0.0
230
1.0
 70
     8
 71
     3
 72
    20
 73
    16
 74
     0
 42
0.00000001
 43
0.00000001
 12
1.0
 22
0.0
 32
0.0
 13
1.0
 23
0.0
 33
0.0
 40
0.0
 40
0.0
 40
0.0
 40
0.0
 40
0.0485344634703862
 40
0.0917791835255632
 40
0.136694865798194
 40
0.1755369338257525
 40
0.2299247464395773
 40
0.3079030212941481
 40
0.4092017387845264
 40
0.509832281506251
 40
0.6226294475551178
 40
0.7474702987743211
 40
0.884304580436879
 40
0.9822944591430576
 40
1.0
 40
1.0
 40
1.0
 40
1.0
 10
138.9274355524903
 20
152.523689675525
 30
0.0
 10
138.9832690688636
 20
152.5273656145098
 30
0.0
 10
139.0888508385936
 20
152.5343168539918
 30
0.0
 10
139.2286179934553
 20
152.5917047119538
 30
0.0
 10
139.3395629030721
 20
152.6645128804095
 30
0.0
 10
139.4329203960258
 20
152.7532750746319
 30
0.0
 10
139.5100497833033
 20
152.8503139377792
 30
0.0
 10
139.6020628670917
 20
153.0016335075375
 30
0.0
 10
139.6992756401009
 20
153.2201302192261
 30
0.0
 10
139.8014690113191
 20
153.5168157628989
 30
0.0
 10
139.9053028032021
 20
153.8901740085379
 30
0.0
 10
140.0164210734936
 20
154.3676550120317
 30
0.0
 10
140.1207940527118
 20
154.8953340706111
 30
0.0
 10
140.1933432072451
 20
155.2935471349385
 30
0.0
 10
140.2263261044083
 20
155.491748402783
 30
0.0
 10
140.2313736683958
 20
155.5220802919708
 30
0.0
  0
SPLINE
  5
C0
330
1F
100
AcDbEntity
  8
0
  6
Continuous
 62
     7
370
    15
100
AcDbSpline
210
0.0
220
0.0
230
1.0
 70
     8
 71
     3
 72
    11
 73
     7
 74
     0
 42
0.00000001
 43
0.00000001
 12
1.0
 22
0.0
 32
0.0
 13
1.0
 23
0.0
 33
0.0
 40
0.0
 40
0.0
 40
0.0
 40
0.0
 40
0.1947906603136728
 40
0.4972131037737561
 40
0.7704343036190853
 40
1.0
 40
1.0
 40
1.0
 40
1.0
 10
141.151373518826
 20
161.5220802919708
 30
0.0
 10
141.1703726289473
 20
161.6314227514965
 30
0.0
 10
141.2188688273645
 20
161.9105249609531
 30
0.0
 10
141.2933953778559
 20
162.2915679869763
 30
0.0
 10
141.3711943125035
 20
162.65833594239
 30
0.0
 10
141.4182503321335
 20
162.8472801370366
 30
0.0
 10
141.439735474241
 20
162.9335495007505
 30
0.0
  0
SPLINE
  5
C1
330
1F
100
AcDbEntity
  8
0
  6
Continuous
 62
     7
370
    15
100
AcDbSpline
210
0.0
220
0.0
230
1.0
 70
     8
 71
     3
 72
    17
 73
    13
 74
     0
 42
0.00000001
 43
0.00000001
 12
1.0
 22
0.0
 32
0.0
 13
1.0
 23
0.0
 33
0.0
 40
0.0
 40
0.0
 40
0.0
 40
0.0
 40
0.0871941952454867
 40
0.1727085137175284
 40
0.2570429371063482
 40
0.3396720071020012
 40
0.4479205005066413
 40
0.5609836224047586
 40
0.6882843426422293
 40
0.7932254754375783
 40
0.9062407726370451
 40
1.0
 40
1.0
 40
1.0
 40
1.0
 10
143.9282103289075
 20
152.522439566958
 30
0.0
 10
144.0219293454311
 20
152.5347833632318
 30
0.0
 10
144.2075617949916
 20
152.5592331411337
 30
0.0
 10
144.3995851883737
 20
152.7112291213006
 30
0.0
 10
144.5307414759729
 20
152.8770500927333
 30
0.0
 10
144.6475956182536
 20
153.093142722639
 30
0.0
 10
144.7500084257058
 20
153.3539191510273
 30
0.0
 10
144.853750934362
 20
153.6909548132112
 30
0.0
 10
144.9560517256542
 20
154.097354394786
 30
0.0
 10
145.0559524132052
 20
154.5631962274367
 30
0.0
 10
145.1454227195968
 20
155.0250974163736
 30
0.0
 10
145.204292037454
 20
155.3670337119108
 30
0.0
 10
145.2309855664047
 20
155.5220802919708
 30
0.0
  0
SPLINE
  5
C2
330
1F
100
AcDbEntity
  8
0
  6
Continuous
 62
     7
370
    15
100
AcDbSpline
210
0.0
220
0.0
230
1.0
 70
     8
 71
     3
 72
    21
 73
    17
 74
     0
 42
0.00000001
 43
0.00000001
 12
1.0
 22
0.0
 32
0.0
 13
1.0
 23
0.0
 33
0.0
 40
0.0
 40
0.0
 40
0.0
 40
0.0
 40
0.0999454452314638
 40
0.1938107566004637
 40
0.2816418004385013
 40
0.3633756986917339
 40
0.4626922888604087
 40
0.5509633045135715
 40
0.6281485925356441
 40
0.6941223049950463
 40
0.7487542386769066
 40
0.7970374064649978
 40
0.8387032355669456
 40
0.8862112546412185
 40
0.9399805942385627
 40
1.0
 40
1.0
 40
1.0
 40
1.0
 10
148.153778867232
 20
158.7660707403865
 30
0.0
 10
148.1113658051635
 20
159.0585949286849
 30
0.0
 10
148.0291198595859
 20
159.6258477347206
 30
0.0
 10
147.909160883034
 20
160.4260408217935
 30
0.0
 10
147.7966285251906
 20
161.1385704056105
 30
0.0
 10
147.6811826505547
 20
161.8195675158156
 30
0.0
 10
147.5644164897851
 20
162.4415427400853
 30
0.0
 10
147.4478937451863
 20
162.9762126197343
 30
0.0
 10
147.344064315365
 20
163.3786551025044
 30
0.0
 10
147.2523130900074
 20
163.6740032020005
 30
0.0
 10
147.171340446277
 20
163.8883722233465
 30
0.0
 10
147.0941916224965
 20
164.0545304228144
 30
0.0
 10
146.991656434599
 20
164.2203622090076
 30
0.0
 10
146.8566411251045
 20
164.3680736336611
 30
0.0
 10
146.6680002297638
 20
164.4942407906947
 30
0.0
 10
146.5106381780205
 20
164.5114681761482
 30
0.0
 10
146.4276354451469
 20
164.5205549925506
 30
0.0
  0
SPLINE
  5
C3
330
1F
100
AcDbEntity
  8
0
  6
Continuous
 62
     7
370
    15
100
AcDbSpline
210
0.0
220
0.0
230
1.0
 70
     8
 71
     3
 72
    38
 73
    34
 74
     0
 42
0.00000001
 43
0.00000001
 12
1.0
 22
0.0
 32
0.0
 13
1.0
 23
0.0
 33
0.0
 40
0.0
 40
0.0
 40
0.0
 40
0.0
 40
0.0029245912968268
 40
0.0213304725702238
 40
0.0512654639991673
 40
0.0808179970554706
 40
0.1101573762333463
 40
0.139313076553264
 40
0.1699750268033567
 40
0.2028482203721658
 40
0.2379255515593254
 40
0.2752053714286463
 40
0.3147085999216778
 40
0.3537121797208341
 40
0.3860179608203135
 40
0.4113479514170019
 40
0.4296761041938533
 40
0.4428720056760491
 40
0.4612101339391897
 40
0.4862616652329813
 40
0.5180586076628595
 40
0.5566342845054801
 40
0.6019992488925555
 40
0.6488293259369877
 40
0.692763111853795
 40
0.7338228184148735
 40
0.7840642826284201
 40
0.8291586010040465
 40
0.8704023326161733
 40
0.9015908517921387
 40
0.9335042307060236
 40
0.966325940513919
 40
0.9999999999999999
 40
0.9999999999999999
 40
0.9999999999999999
 40
0.9999999999999999
 10
144.1437392870859
 20
153.4757866881345
 30
0.0
 10
144.1447307320635
 20
153.4754595022428
 30
0.0
 10
144.1519618244636
 20
153.4730731757515
 30
0.0
 10
144.1350767190252
 20
153.5007813024626
 30
0.0
 10
144.0884639770013
 20
153.6114307599268
 30
0.0
 10
144.0314441002079
 20
153.7775254981693
 30
0.0
 10
143.9687757594314
 20
153.9931810224417
 30
0.0
 10
143.9016904152674
 20
154.2581117143279
 30
0.0
 10
143.8308352345825
 20
154.5728543929104
 30
0.0
 10
143.7548608657343
 20
154.9466765567952
 30
0.0
 10
143.6732132602366
 20
155.3860738677334
 30
0.0
 10
143.5859870810254
 20
155.893744060469
 30
0.0
 10
143.4954335036863
 20
156.4568204182872
 30
0.0
 10
143.4086804719916
 20
157.0233357116493
 30
0.0
 10
143.3330191497264
 20
157.5326652873387
 30
0.0
 10
143.2735094784323
 20
157.9396325780423
 30
0.0
 10
143.2289497272578
 20
158.2465167532228
 30
0.0
 10
143.1898602573283
 20
158.5164275520835
 30
0.0
 10
143.1454907710163
 20
158.8230437013757
 30
0.0
 10
143.0865135580427
 20
159.2296504505057
 30
0.0
 10
143.0116363329334
 20
159.741164973917
 30
0.0
 10
142.9207494363024
 20
160.3490090697649
 30
0.0
 10
142.8179624279904
 20
161.0094209614132
 30
0.0
 10
142.7105630471954
 20
161.6549494636607
 30
0.0
 10
142.6056861031017
 20
162.2298666753919
 30
0.0
 10
142.4966974247543
 20
162.7649932289853
 30
0.0
 10
142.3840803383338
 20
163.2404084829192
 30
0.0
 10
142.2661107001883
 20
163.641057554238
 30
0.0
 10
142.1574919878459
 20
163.9262546676885
 30
0.0
 10
142.0308215373224
 20
164.1629376406124
 30
0.0
 10
141.8800186094442
 20
164.3464763346694
 30
0.0
 10
141.6819137634564
 20
164.4905603588176
 30
0.0
 10
141.5131517694647
 20
164.5111101368666
 30
0.0
 10
141.4276891680842
 20
164.5215167304859
 30
0.0
  0
SPLINE
  5
C4
330
1F
100
AcDbEntity
  8
0
  6
Continuous
 62
     7
370
    15
100
AcDbSpline
210
0.0
220
0.0
230
1.0
 70
     8
 71
     3
 72
    33
 73
    29
 74
     0
 42
0.00000001
 43
0.00000001
 12
1.0
 22
0.0
 32
0.0
 13
1.0
 23
0.0
 33
0.0
 40
0.0
 40
0.0
 40
0.0
 40
0.0
 40
0.0169767256287816
 40
0.0430416891100598
 40
0.0711356072828719
 40
0.1021659413265485
 40
0.136414795628951
 40
0.1738781346919864
 40
0.2145554900578162
 40
0.2584706969053904
 40
0.3021030428366867
 40
0.3400527135707164
 40
0.3816270230894911
 40
0.4128522985013058
 40
0.4406923762928883
 40
0.4738139596768614
 40
0.511942142033496
 40
0.5514401817131342
 40
0.6112909697444115
 40
0.6719874022255965
 40
0.7138974235335552
 40
0.7610212085389336
 40
0.8141469972702208
 40
0.8582204909983183
 40
0.9060822219692896
 40
0.9544097182722261
 40
0.9774772342731054
 40
1.0
 40
1.0
 40
1.0
 40
1.0
 10
139.1546195803082
 20
153.4567333092981
 30
0.0
 10
139.1551928295049
 20
153.4579993545316
 30
0.0
 10
139.1566462083393
 20
153.4612092035053
 30
0.0
 10
139.1220731125225
 20
153.528405762656
 30
0.0
 10
139.0677111232607
 20
153.6677277557464
 30
0.0
 10
139.0019123568974
 20
153.8726181566232
 30
0.0
 10
138.9264361162079
 20
154.1525649196739
 30
0.0
 10
138.8410634617788
 20
154.5199950411027
 30
0.0
 10
138.7464705518434
 20
154.9850416765547
 30
0.0
 10
138.6458487279359
 20
155.5387424063497
 30
0.0
 10
138.5468807361159
 20
156.132877386412
 30
0.0
 10
138.4496453165651
 20
156.7525622746923
 30
0.0
 10
138.3619421050512
 20
157.3355973374738
 30
0.0
 10
138.2821767294367
 20
157.8792347570776
 30
0.0
 10
138.2091056035936
 20
158.3829619063368
 30
0.0
 10
138.1305725761437
 20
158.9265433810777
 30
0.0
 10
138.0427670597619
 20
159.5307039210712
 30
0.0
 10
137.933671692336
 20
160.2664418287123
 30
0.0
 10
137.8063250159598
 20
161.0872024143266
 30
0.0
 10
137.6767026547359
 20
161.850457623448
 30
0.0
 10
137.5570266869522
 20
162.4814069600679
 30
0.0
 10
137.4372614590311
 20
163.0305639181367
 30
0.0
 10
137.3063205853141
 20
163.5106347634403
 30
0.0
 10
137.1593975263056
 20
163.9100223800787
 30
0.0
 10
137.0102512205877
 20
164.2006566674636
 30
0.0
 10
136.8466698568245
 20
164.3863636648568
 30
0.0
 10
136.6332610843001
 20
164.5028451083899
 30
0.0
 10
136.4957740188711
 20
164.5149984867086
 30
0.0
 10
136.4278518905626
 20
164.5210025665758
 30
0.0
  0
SPLINE
  5
C5
330
1F
100
AcDbEntity
  8
0
  6
Continuous
 62
     7
370
    15
100
AcDbSpline
210
0.0
220
0.0
230
1.0
 70
     8
 71
     3
 72
    37
 73
    33
 74
     0
 42
0.00000001
 43
0.00000001
 12
1.0
 22
0.0
 32
0.0
 13
1.0
 23
0.0
 33
0.0
 40
0.0
 40
0.0
 40
0.0
 40
0.0
 40
0.0137593595206227
 40
0.0382825054851381
 40
0.0695307792883121
 40
0.098430857139966
 40
0.134471982135921
 40
0.1778039683163933
 40
0.2285038162987294
 40
0.2664549402330831
 40
0.3077038847972697
 40
0.3482625162444847
 40
0.3827687485140345
 40
0.4111641751243289
 40
0.433407985939087
 40
0.4519358225305638
 40
0.4669194288463503
 40
0.4877518073876776
 40
0.5146137974757307
 40
0.5475243532092349
 40
0.593978463870521
 40
0.6375575053336612
 40
0.6776682146019081
 40
0.7142893523877475
 40
0.7582161236449162
 40
0.8010199763689267
 40
0.8438392409426576
 40
0.8763406218045783
 40
0.912356918494252
 40
0.9534216035807092
 40
0.9760458514238484
 40
1.0
 40
1.0
 40
1.0
 40
1.0
 10
136.2120385548619
 20
163.6023560529701
 30
0.0
 10
136.2126970869405
 20
163.6009547393778
 30
0.0
 10
136.2145293130608
 20
163.597055880917
 30
0.0
 10
136.2476473072058
 20
163.5375458586531
 30
0.0
 10
136.2946686839978
 20
163.4220730023453
 30
0.0
 10
136.3585019051943
 20
163.2323990728416
 30
0.0
 10
136.4370828934135
 20
162.9535974112657
 30
0.0
 10
136.535856401027
 20
162.5355995648232
 30
0.0
 10
136.6387492060398
 20
162.0229456497748
 30
0.0
 10
136.7410172992653
 20
161.4534475821562
 30
0.0
 10
136.8359708960562
 20
160.8824861136387
 30
0.0
 10
136.9285055271675
 20
160.2914804876527
 30
0.0
 10
137.0108865447752
 20
159.7436224321561
 30
0.0
 10
137.0787231188805
 20
159.282312587707
 30
0.0
 10
137.13385138679
 20
158.9032787847786
 30
0.0
 10
137.1783128706854
 20
158.5961622187543
 30
0.0
 10
137.2216550804501
 20
158.296459542432
 30
0.0
 10
137.2716617389457
 20
157.951131439298
 30
0.0
 10
137.3360131980136
 20
157.5095383866853
 30
0.0
 10
137.42087799901
 20
156.9361720059798
 30
0.0
 10
137.5191593465159
 20
156.2935130999988
 30
0.0
 10
137.6233027300508
 20
155.6501645118466
 30
0.0
 10
137.7198501180541
 20
155.0958114875225
 30
0.0
 10
137.8171869506445
 20
154.5840785624956
 30
0.0
 10
137.9171965387682
 20
154.1168408832292
 30
0.0
 10
138.0257051956093
 20
153.6845365246255
 30
0.0
 10
138.1321791329882
 20
153.3440724394799
 30
0.0
 10
138.2366058828874
 20
153.0796033724834
 30
0.0
 10
138.3779124763519
 20
152.8211328162686
 30
0.0
 10
138.5645215148492
 20
152.637223641287
 30
0.0
 10
138.7674458310765
 20
152.5379237035096
 30
0.0
 10
138.8883972698131
 20
152.5285311043921
 30
0.0
 10
138.950599684596
 20
152.5237007166572
 30
0.0
  0
SPLINE
  5
C6
330
1F
100
AcDbEntity
  8
0
  6
Continuous
 62
     7
370
    15
100
AcDbSpline
210
0.0
220
0.0
230
1.0
 70
     8
 71
     3
 72
    35
 73
    31
 74
     0
 42
0.00000001
 43
0.00000001
 12
1.0
 22
0.0
 32
0.0
 13
1.0
 23
0.0
 33
0.0
 40
0.0
 40
0.0
 40
0.0
 40
0.0
 40
0.0087512061284999
 40
0.0457778221187393
 40
0.0825671206600951
 40
0.1186514980149008
 40
0.1539604450556927
 40
0.1883995718912476
 40
0.2218717216056861
 40
0.2647756176530225
 40
0.3055307168109438
 40
0.3441221334245259
 40
0.3978389790864
 40
0.447362576151725
 40
0.4788650507288857
 40
0.5105342322231414
 40
0.547782912451745
 40
0.5797676797589302
 40
0.6152304405825155
 40
0.65419727943611
 40
0.6942061688782568
 40
0.7448333787063016
 40
0.7923880423651614
 40
0.8368985640508213
 40
0.8684962010260963
 40
0.9042688686297673
 40
0.925034527832872
 40
0.9478960700408028
 40
0.9729072627477882
 40
1.0
 40
1.0
 40
1.0
 40
1.0
 10
141.2620302620383
 20
163.5493903371301
 30
0.0
 10
141.257962194567
 20
163.5502493653674
 30
0.0
 10
141.2366820114318
 20
163.5547429678789
 30
0.0
 10
141.2923243834652
 20
163.4584424758083
 30
0.0
 10
141.3472365493875
 20
163.2796334732878
 30
0.0
 10
141.4184675794413
 20
163.0286263974753
 30
0.0
 10
141.4924788977432
 20
162.7217557298646
 30
0.0
 10
141.5694864623759
 20
162.3667465106618
 30
0.0
 10
141.6550918651101
 20
161.9319505087215
 30
0.0
 10
141.747464484413
 20
161.4169143930257
 30
0.0
 10
141.8437370347765
 20
160.8333689767883
 30
0.0
 10
141.9487898029505
 20
160.1595852239094
 30
0.0
 10
142.0610430996798
 20
159.4052834722783
 30
0.0
 10
142.1678309522954
 20
158.6688970403585
 30
0.0
 10
142.257084627683
 20
158.0518058711739
 30
0.0
 10
142.3365933582435
 20
157.5057334270553
 30
0.0
 10
142.4165517769603
 20
156.9658571829255
 30
0.0
 10
142.499604032158
 20
156.4212693440608
 30
0.0
 10
142.5842041005776
 20
155.887990665387
 30
0.0
 10
142.6753556145821
 20
155.346290786338
 30
0.0
 10
142.7789324416016
 20
154.7779890363395
 30
0.0
 10
142.8911717151006
 20
154.2307599693217
 30
0.0
 10
143.0095467747133
 20
153.7426503127051
 30
0.0
 10
143.1189528317939
 20
153.3840176272878
 30
0.0
 10
143.2171836735887
 20
153.125105247232
 30
0.0
 10
143.3233331410004
 20
152.9168960154634
 30
0.0
 10
143.4511299918011
 20
152.7499078985217
 30
0.0
 10
143.583703822089
 20
152.6324754078935
 30
0.0
 10
143.7515207302163
 20
152.5402386291188
 30
0.0
 10
143.8829313765503
 20
152.5285237159911
 30
0.0
 10
143.9512616179747
 20
152.5224322548758
 30
0.0
  0
SPLINE
  5
C7
330
1F
100
AcDbEntity
  8
0
  6
Continuous
 62
     7
370
    15
100
AcDbSpline
210
0.0
220
0.0
230
1.0
 70
     8
 71
     3
 72
    20
 73
    16
 74
     0
 42
0.00000001
 43
0.00000001
 12
1.0
 22
0.0
 32
0.0
 13
1.0
 23
0.0
 33
0.0
 40
0.0
 40
0.0
 40
0.0
 40
0.0
 40
0.002726185320991
 40
0.0426522045960213
 40
0.0995587838934722
 40
0.1738041995272677
 40
0.2410807199266048
 40
0.3184060946515906
 40
0.4058697760739174
 40
0.5035929765097885
 40
0.6117678539103328
 40
0.7304893599020982
 40
0.8155576648874094
 40
0.9053636228120598
 40
0.9999999999999999
 40
0.9999999999999999
 40
0.9999999999999999
 40
0.9999999999999999
 10
146.2361547344121
 20
163.5808402538392
 30
0.0
 10
146.2357634890692
 20
163.5810207512322
 30
0.0
 10
146.2296423071074
 20
163.5838447014885
 30
0.0
 10
146.2495450598226
 20
163.5564351196699
 30
0.0
 10
146.2804298936339
 20
163.4863769522533
 30
0.0
 10
146.3333461395082
 20
163.348218385453
 30
0.0
 10
146.3953679390982
 20
163.1443386204853
 30
0.0
 10
146.4659555401586
 20
162.8738298266436
 30
0.0
 10
146.5491598642774
 20
162.5039779602826
 30
0.0
 10
146.6452757422092
 20
162.0161151884479
 30
0.0
 10
146.7541068703778
 20
161.3982406886908
 30
0.0
 10
146.8606394256644
 20
160.7378165503972
 30
0.0
 10
146.962033658071
 20
160.0746013524574
 30
0.0
 10
147.0558878987263
 20
159.4407160291645
 30
0.0
 10
147.1205982575102
 20
158.9946560509998
 30
0.0
 10
147.1538007970362
 20
158.7657850582514
 30
0.0
  0
SPLINE
  5
C8
330
1F
100
AcDbEntity
  8
0
  6
Continuous
 62
     7
370
    15
100
AcDbSpline
210
0.0
220
0.0
230
1.0
 70
     8
 71
     3
 72
    16
 73
    12
 74
     0
 42
0.00000001
 43
0.00000001
 12
1.0
 22
0.0
 32
0.0
 13
1.0
 23
0.0
 33
0.0
 40
0.0
 40
0.0
 40
0.0
 40
0.0
 40
0.115005563260886
 40
0.2166724415687118
 40
0.3440606355686397
 40
0.4437090239133497
 40
0.5284800287338178
 40
0.612793660448064
 40
0.7620557373118607
 40
0.911214150467569
 40
1.0
 40
1.0
 40
1.0
 40
1.0
 10
146.4507537795391
 20
164.5205722478063
 30
0.0
 10
146.3732564393393
 20
164.512659225463
 30
0.0
 10
146.2272501293829
 20
164.4977509564829
 30
0.0
 10
146.0254160246887
 20
164.3751605295728
 30
0.0
 10
145.8710601761575
 20
164.2053907621683
 30
0.0
 10
145.7689355413118
 20
164.0260480593228
 30
0.0
 10
145.7031878274123
 20
163.8807421997665
 30
0.0
 10
145.6254019949723
 20
163.6794581436945
 30
0.0
 10
145.5396677856776
 20
163.4045740918713
 30
0.0
 10
145.4577640440616
 20
163.0961826881853
 30
0.0
 10
145.4086058422712
 20
162.8716662544452
 30
0.0
 10
145.3902630898209
 20
162.7878908270472
 30
0.0
  0
SPLINE
  5
C9
330
1F
100
AcDbEntity
  8
0
  6
Continuous
 62
     7
370
    15
100
AcDbSpline
210
0.0
220
0.0
230
1.0
 70
     8
 71
     3
 72
     9
 73
     5
 74
     0
 42
0.00000001
 43
0.00000001
 12
1.0
 22
0.0
 32
0.0
 13
1.0
 23
0.0
 33
0.0
 40
0.0
 40
0.0
 40
0.0
 40
0.0
 40
0.5331050179380101
 40
1.0
 40
1.0
 40
1.0
 40
1.0
 10
145.2244525547445
 20
161.9614962013289
 30
0.0
 10
145.2106274942197
 20
161.8874770729469
 30
0.0
 10
145.1846944040038
 20
161.7486317687545
 30
0.0
 10
145.1589223381168
 20
161.5941888948241
 30
0.0
 10
145.1468894898767
 20
161.5220802919708
 30
0.0
  0
SPLINE
  5
CA
330
1F
100
AcDbEntity
  8
0
  6
Continuous
 62
     7
370
    15
100
AcDbSpline
210
0.0
220
0.0
230
1.0
 70
     8
 71
     3
 72
    12
 73
     8
 74
     0
 42
0.00000001
 43
0.00000001
 12
1.0
 22
0.0
 32
0.0
 13
1.0
 23
0.0
 33
0.0
 40
0.0
 40
0.0
 40
0.0
 40
0.0
 40
0.0403097419248611
 40
0.3826766886048518
 40
0.7023389546710966
 40
0.999186461539215
 40
1.0
 40
1.0
 40
1.0
 40
1.0
 10
144.2273915128389
 20
155.5220802919708
 30
0.0
 10
144.22340904013
 20
155.4984285613099
 30
0.0
 10
144.1856018154756
 20
155.2738931131313
 30
0.0
 10
144.1170525816574
 20
154.9119755923696
 30
0.0
 10
144.0254159316037
 20
154.467857681185
 30
0.0
 10
143.9668041502941
 20
154.2075721981383
 30
0.0
 10
143.9404130453869
 20
154.1110349740068
 30
0.0
 10
143.9403409157644
 20
154.1107711277764
 30
0.0
  0
SPLINE
  5
CB
330
1F
100
AcDbEntity
  8
0
  6
Continuous
 62
     7
370
    15
100
AcDbSpline
210
0.0
220
0.0
230
1.0
 70
     8
 71
     3
 72
    18
 73
    14
 74
     0
 42
0.00000001
 43
0.00000001
 12
1.0
 22
0.0
 32
0.0
 13
1.0
 23
0.0
 33
0.0
 40
0.0
 40
0.0
 40
0.0
 40
0.0
 40
0.0909122815630833
 40
0.1712618947881759
 40
0.2720747447859304
 40
0.3514882272617955
 40
0.4217746877527891
 40
0.4907120570678661
 40
0.6101650009598625
 40
0.7265005437976082
 40
0.8533549934821529
 40
0.9598961413607657
 40
1.0
 40
1.0
 40
1.0
 40
1.0
 10
141.4507629414312
 20
164.5214673978714
 30
0.0
 10
141.3668623607843
 20
164.5122442342686
 30
0.0
 10
141.2088092114368
 20
164.4948695028527
 30
0.0
 10
140.9949304051617
 20
164.3512610011418
 30
0.0
 10
140.8355739589477
 20
164.1527206614626
 30
0.0
 10
140.7339136082524
 20
163.9520411093171
 30
0.0
 10
140.6614777874129
 20
163.774554715938
 30
0.0
 10
140.5767865826368
 20
163.5298809738284
 30
0.0
 10
140.4835711531152
 20
163.2011408435887
 30
0.0
 10
140.3780127130301
 20
162.7531146435427
 30
0.0
 10
140.2779476303914
 20
162.2579949983524
 30
0.0
 10
140.2000566883311
 20
161.8381710607823
 30
0.0
 10
140.1584631070294
 20
161.5899600057185
 30
0.0
 10
140.1470882696283
 20
161.5220802919708
 30
0.0
  0
SPLINE
  5
CC
330
1F
100
AcDbEntity
  8
0
  6
Continuous
 62
     7
370
    15
100
AcDbSpline
210
0.0
220
0.0
230
1.0
 70
     8
 71
     3
 72
    10
 73
     6
 74
     0
 42
0.00000001
 43
0.00000001
 12
1.0
 22
0.0
 32
0.0
 13
1.0
 23
0.0
 33
0.0
 40
0.0
 40
0.0
 40
0.0
 40
0.0
 40
0.3405568561227801
 40
0.7134569702284874
 40
1.0
 40
1.0
 40
1.0
 40
1.0
 10
139.2270202184175
 20
155.5220802919708
 30
0.0
 10
139.193550258001
 20
155.3332101702535
 30
0.0
 10
139.1234316386777
 20
154.9375326133804
 30
0.0
 10
139.0266456794735
 20
154.4673835599812
 30
0.0
 10
138.9656459315134
 20
154.2202435021348
 30
0.0
 10
138.9391401549987
 20
154.1128555315255
 30
0.0
  0
SPLINE
  5
CD
330
1F
100
AcDbEntity
  8
0
  6
Continuous
 62
     7
370
    15
100
AcDbSpline
210
0.0
220
0.0
230
1.0
 70
     8
 71
     3
 72
    17
 73
    13
 74
     0
 42
0.00000001
 43
0.00000001
 12
1.0
 22
0.0
 32
0.0
 13
1.0
 23
0.0
 33
0.0
 40
0.0
 40
0.0
 40
0.0
 40
0.0
 40
0.0788174107251241
 40
0.1546808265720639
 40
0.2634135730393449
 40
0.3647737370405328
 40
0.4606636702475589
 40
0.5700256973928614
 40
0.6843884090759332
 40
0.8147460067969241
 40
0.9609508331466415
 40
1.0
 40
1.0
 40
1.0
 40
1.0
 10
136.4509931234943
 20
164.5210291835125
 30
0.0
 10
136.3659656219667
 20
164.5110777414974
 30
0.0
 10
136.1990973615576
 20
164.4915478272017
 30
0.0
 10
135.9886385000273
 20
164.346040270235
 30
0.0
 10
135.838791151042
 20
164.1602417657733
 30
0.0
 10
135.712937594193
 20
163.9127980519733
 30
0.0
 10
135.614785861788
 20
163.6504386169319
 30
0.0
 10
135.5183626311596
 20
163.3300788479332
 30
0.0
 10
135.4142192420292
 20
162.9134032992674
 30
0.0
 10
135.3013016221059
 20
162.3808511676839
 30
0.0
 10
135.2108791617041
 20
161.9032613561662
 30
0.0
 10
135.1581755029451
 20
161.5884404938215
 30
0.0
 10
135.1470662473275
 20
161.5220802919708
 30
0.0
  0
SPLINE
  5
CE
330
1F
100
AcDbEntity
  8
0
  6
Continuous
 62
     7
370
    15
100
AcDbSpline
210
0.0
220
0.0
230
1.0
 70
     8
 71
     3
 72
    11
 73
     7
 74
     0
 42
0.00000001
 43
0.00000001
 12
1.0
 22
0.0
 32
0.0
 13
1.0
 23
0.0
 33
0.0
 40
0.0
 40
0.0
 40
0.0
 40
0.0
 40
0.1716995787113949
 40
0.5163830268641044
 40
0.79276786898024
 40
1.0
 40
1.0
 40
1.0
 40
1.0
 10
134.2266897102961
 20
155.5220802919708
 30
0.0
 10
134.2098792200432
 20
155.4248770564687
 30
0.0
 10
134.1593220089829
 20
155.132540282283
 30
0.0
 10
134.0820642561593
 20
154.7399147529493
 30
0.0
 10
134.0026354741472
 20
154.3666462426278
 30
0.0
 10
133.9577009067705
 20
154.1897698750636
 30
0.0
 10
133.9384462348479
 20
154.1139775257181
 30
0.0
  0
SPLINE
  5
CF
330
1F
100
AcDbEntity
  8
0
  6
Continuous
 62
     7
370
    15
100
AcDbSpline
210
0.0
220
0.0
230
1.0
 70
     8
 71
     3
 72
    37
 73
    33
 74
     0
 42
0.00000001
 43
0.00000001
 12
1.0
 22
0.0
 32
0.0
 13
1.0
 23
0.0
 33
0.0
 40
0.0
 40
0.0
 40
0.0
 40
0.0
 40
0.0280145942806624
 40
0.0543931689642805
 40
0.0784188300962869
 40
0.1041570324350084
 40
0.134162756811989
 40
0.1684680981621544
 40
0.2070863975283046
 40
0.2500155879762661
 40
0.2961835016906502
 40
0.3379139567357781
 40
0.373645650915531
 40
0.4033187032041819
 40
0.4268960617676353
 40
0.4463899172256198
 40
0.4776271331998422
 40
0.515915062600552
 40
0.559373889919955
 40
0.6036895060526024
 40
0.6487107805780837
 40
0.6944905108912892
 40
0.7400928584344102
 40
0.7838851282540019
 40
0.8258480490207336
 40
0.8477620011638816
 40
0.8759290053265497
 40
0.9108655052063186
 40
0.9368490235499075
 40
0.9603821046774804
 40
0.9814374296164525
 40
1.0
 40
1.0
 40
1.0
 40
1.0
 10
121.2290593409957
 20
163.5817819176229
 30
0.0
 10
121.2300362307239
 20
163.5757011790344
 30
0.0
 10
121.2319329609608
 20
163.5638948098914
 30
0.0
 10
121.2668519745553
 20
163.4878753747025
 30
0.0
 10
121.3160477105592
 20
163.3580331585173
 30
0.0
 10
121.3743965725753
 20
163.1755600482011
 30
0.0
 10
121.4415492994228
 20
162.929704154081
 30
0.0
 10
121.5204297061509
 20
162.5975916006851
 30
0.0
 10
121.6104456520131
 20
162.1667646031837
 30
0.0
 10
121.7107462706859
 20
161.6293653307711
 30
0.0
 10
121.8141784288356
 20
161.018303181408
 30
0.0
 10
121.9119849158713
 20
160.3984908398415
 30
0.0
 10
121.9968561062667
 20
159.8372648834671
 30
0.0
 10
122.0674364367924
 20
159.3590643518257
 30
0.0
 10
122.1252003925909
 20
158.9627915267394
 30
0.0
 10
122.1842369861894
 20
158.5554955091847
 30
0.0
 10
122.2549837655272
 20
158.0662627853285
 30
0.0
 10
122.3447629261687
 20
157.4493574375442
 30
0.0
 10
122.4449467683155
 20
156.7756357206744
 30
0.0
 10
122.5506749917213
 20
156.0934272935012
 30
0.0
 10
122.6585810100627
 20
155.4403765554306
 30
0.0
 10
122.7678362330423
 20
154.8353659234894
 30
0.0
 10
122.8765630932154
 20
154.2986068489359
 30
0.0
 10
122.9837934002964
 20
153.841684415886
 30
0.0
 10
123.0725814721787
 20
153.5277720920603
 30
0.0
 10
123.1515286595313
 20
153.2928220596365
 30
0.0
 10
123.2412859135411
 20
153.0699330797192
 30
0.0
 10
123.3524092526856
 20
152.8698414635682
 30
0.0
 10
123.4832398839454
 20
152.7111774768445
 30
0.0
 10
123.6213692628127
 20
152.6059357861553
 30
0.0
 10
123.7720546608058
 20
152.5355459926066
 30
0.0
 10
123.894339623622
 20
152.5265842380453
 30
0.0
 10
123.9516350253754
 20
152.5223852971766
 30
0.0
  0
LWPOLYLINE
  5
D0
330
1F
100
AcDbEntity
  8
0
  6
Continuous
 62
     7
370
    15
100
AcDbPolyline
 90
       30
 70
   128
 43
0.0
 10
126.2481855187
 20
163.5635690501
 10
126.2379779754
 20
163.5659827527
 10
126.2680999962
 20
163.4831945684
 10
126.3156948206
 20
163.353197423
 10
126.3665444718
 20
163.1947629275
 10
126.4283144815
 20
162.9736237447
 10
126.5012494531
 20
162.674981596
 10
126.5852616534
 20
162.2843988857
 10
126.6802653692
 20
161.7889599027
 10
126.7860773626
 20
161.1804819372
 10
126.8891069412
 20
160.5414359632
 10
126.9796974374
 20
159.9501763252
 10
127.0576937004
 20
159.4250448632
 10
127.1229659998
 20
158.9781159208
 10
127.1754110807
 20
158.6163131959
 10
127.218368675
 20
158.3193651995
 10
127.2883591561
 20
157.8367918661
 10
127.3766425103
 20
157.2354536553
 10
127.4784472727
 20
156.561359449
 10
127.6289664825
 20
155.62390368
 10
127.7754001909
 20
154.8060232927
 10
127.8742178564
 20
154.3209048354
 10
127.9837921323
 20
153.8568168963
 10
128.1076807955
 20
153.4300394694
 10
128.2134236234
 20
153.1466719308
 10
128.3610586311
 20
152.8710704342
 10
128.596818298
 20
152.6306391481
 10
128.7590862467
 20
152.5518523672
 10
128.9498504062
 20
152.5234280163
 10
128.9498504062
 20
152.5234280163
  0
LWPOLYLINE
  5
D1
330
1F
100
AcDbEntity
  8
0
  6
Continuous
 62
     7
370
    15
100
AcDbPolyline
 90
       31
 70
   128
 43
0.0
 10
131.2523049847
 20
163.5579816103
 10
131.2512651111
 20
163.5410924744
 10
131.279411623
 20
163.459902977
 10
131.3176892108
 20
163.3494737794
 10
131.3559989482
 20
163.230351186
 10
131.4113618616
 20
163.0378690495
 10
131.4776817693
 20
162.7753052835
 10
131.5553527056
 20
162.4276038688
 10
131.6443345625
 20
161.9816012311
 10
131.7445874024
 20
161.4256693146
 10
131.8530965174
 20
160.7697706984
 10
131.9489687524
 20
160.1531375977
 10
132.0280110329
 20
159.6257756148
 10
132.0900649328
 20
159.2035341146
 10
132.1350107542
 20
158.8947986898
 10
132.1694540065
 20
158.6572404042
 10
132.2186028955
 20
158.3177432892
 10
132.2849367567
 20
157.8606375296
 10
132.3685314943
 20
157.2907479164
 10
132.4640397471
 20
156.6553430325
 10
132.5547590359
 20
156.0752151682
 10
132.6664663477
 20
155.4037823558
 10
132.7676427125
 20
154.8469595661
 10
132.8592821066
 20
154.3912398221
 10
133.0046003258
 20
153.7766503345
 10
133.1731897619
 20
153.2443221
 10
133.2807940059
 20
153.0057123886
 10
133.4347980461
 20
152.7758633952
 10
133.6592849353
 20
152.5934688187
 10
133.9632646459
 20
152.5238123263
 10
133.9632646459
 20
152.5238123263
  0
SPLINE
  5
D2
330
1F
100
AcDbEntity
  8
0
  6
Continuous
 62
     7
370
    15
100
AcDbSpline
210
0.0
220
0.0
230
1.0
 70
     8
 71
     3
 72
    18
 73
    14
 74
     0
 42
0.00000001
 43
0.00000001
 12
1.0
 22
0.0
 32
0.0
 13
1.0
 23
0.0
 33
0.0
 40
0.0
 40
0.0
 40
0.0
 40
0.0
 40
0.0898568118387951
 40
0.1919920401059927
 40
0.302320721072365
 40
0.3944047371808198
 40
0.4653472434908335
 40
0.536228324148092
 40
0.6193609723851282
 40
0.7147075447490691
 40
0.8222317773093273
 40
0.9418520165224957
 40
1.0
 40
1.0
 40
1.0
 40
1.0
 10
131.4496281999287
 20
164.5218975024346
 30
0.0
 10
131.353926180677
 20
164.5083117652198
 30
0.0
 10
131.1494450117772
 20
164.4792838779532
 30
0.0
 10
130.9456469591143
 20
164.301097465797
 30
0.0
 10
130.7981911810512
 20
164.0889696086645
 30
0.0
 10
130.6876453563463
 20
163.8471898248936
 30
0.0
 10
130.6115418371034
 20
163.6350239745107
 30
0.0
 10
130.5448612100373
 20
163.4197348473369
 30
0.0
 10
130.471220657164
 20
163.1469123611662
 30
0.0
 10
130.3883808940993
 20
162.7955343139143
 30
0.0
 10
130.2958128330435
 20
162.3490247993208
 30
0.0
 10
130.2144703062413
 20
161.9197814355284
 30
0.0
 10
130.1640065993635
 20
161.6201045858511
 30
0.0
 10
130.1474999214583
 20
161.5220802919708
 30
0.0
  0
SPLINE
  5
D3
330
1F
100
AcDbEntity
  8
0
  6
Continuous
 62
     7
370
    15
100
AcDbSpline
210
0.0
220
0.0
230
1.0
 70
     8
 71
     3
 72
    12
 73
     8
 74
     0
 42
0.00000001
 43
0.00000001
 12
1.0
 22
0.0
 32
0.0
 13
1.0
 23
0.0
 33
0.0
 40
0.0
 40
0.0
 40
0.0
 40
0.0
 40
0.1774203793675879
 40
0.4259412580925926
 40
0.6808056326837955
 40
0.9491482534225716
 40
1.0
 40
1.0
 40
1.0
 40
1.0
 10
129.2256751329584
 20
155.5220802919708
 30
0.0
 10
129.2082485545508
 20
155.4188221513098
 30
0.0
 10
129.1664117669301
 20
155.1709255878021
 30
0.0
 10
129.0998131187498
 20
154.8292367381545
 30
0.0
 10
129.0256913247642
 20
154.4745820071123
 30
0.0
 10
128.9714632251916
 20
154.2347381896778
 30
0.0
 10
128.9433847767618
 20
154.1300724779176
 30
0.0
 10
128.9389115206833
 20
154.1133978909112
 30
0.0
  0
SPLINE
  5
D4
330
1F
100
AcDbEntity
  8
0
  6
Continuous
 62
     7
370
    15
100
AcDbSpline
210
0.0
220
0.0
230
1.0
 70
     8
 71
     3
 72
    18
 73
    14
 74
     0
 42
0.00000001
 43
0.00000001
 12
1.0
 22
0.0
 32
0.0
 13
1.0
 23
0.0
 33
0.0
 40
0.0
 40
0.0
 40
0.0
 40
0.0
 40
0.1043245202718558
 40
0.1974511268555054
 40
0.3031857965632936
 40
0.4060800015906549
 40
0.4898563818537891
 40
0.5737200824085925
 40
0.6538685337671686
 40
0.7478873722365414
 40
0.8556739243217512
 40
0.9771244226888476
 40
0.9999999999999999
 40
0.9999999999999999
 40
0.9999999999999999
 40
0.9999999999999999
 10
126.4511657303314
 20
164.5206143189776
 30
0.0
 10
126.3530675549371
 20
164.5066232343189
 30
0.0
 10
126.1674007987077
 20
164.480142830435
 30
0.0
 10
125.982220385671
 20
164.3326489959513
 30
0.0
 10
125.8389103135693
 20
164.153802127601
 30
0.0
 10
125.7256058564091
 20
163.9365889692586
 30
0.0
 10
125.6327181396167
 20
163.7002351894714
 30
0.0
 10
125.5611797196638
 20
163.4751906620703
 30
0.0
 10
125.4928947319987
 20
163.2290656287662
 30
0.0
 10
125.4180426865214
 20
162.9254355480593
 30
0.0
 10
125.3335001507157
 20
162.5350121815214
 30
0.0
 10
125.267771615814
 20
162.2081473224355
 30
0.0
 10
125.2303792218128
 20
161.9955466960268
 30
0.0
 10
125.2244525547445
 20
161.9618496524194
 30
0.0
  0
SPLINE
  5
D5
330
1F
100
AcDbEntity
  8
0
  6
Continuous
 62
     7
370
    15
100
AcDbSpline
210
0.0
220
0.0
230
1.0
 70
     8
 71
     3
 72
    15
 73
    11
 74
     0
 42
0.00000001
 43
0.00000001
 12
1.0
 22
0.0
 32
0.0
 13
1.0
 23
0.0
 33
0.0
 40
0.0
 40
0.0
 40
0.0
 40
0.0
 40
0.0557485188228791
 40
0.1428635922978517
 40
0.2614453488608654
 40
0.4110082350380487
 40
0.5906430743104965
 40
0.7990325434646931
 40
0.9532493431211172
 40
1.0
 40
1.0
 40
1.0
 40
1.0
 10
121.4502818750565
 20
164.5214241598613
 30
0.0
 10
121.4145774580897
 20
164.5199399568463
 30
0.0
 10
121.3230797577655
 20
164.516136473294
 30
0.0
 10
121.2106641203984
 20
164.4769195887239
 30
0.0
 10
121.0710146184805
 20
164.3902926699954
 30
0.0
 10
120.9202419080687
 20
164.2230486749039
 30
0.0
 10
120.7575430876118
 20
163.9466717804275
 30
0.0
 10
120.612009589868
 20
163.5760749516974
 30
0.0
 10
120.5092878513419
 20
163.253582001495
 30
0.0
 10
120.4634428834033
 20
163.0657705043645
 30
0.0
 10
120.4527780603386
 20
163.0220802919708
 30
0.0
  0
SPLINE
  5
D6
330
1F
100
AcDbEntity
  8
0
  6
Continuous
 62
     7
370
    15
100
AcDbSpline
210
0.0
220
0.0
230
1.0
 70
     8
 71
     3
 72
    15
 73
    11
 74
     0
 42
0.00000001
 43
0.00000001
 12
1.0
 22
0.0
 32
0.0
 13
1.0
 23
0.0
 33
0.0
 40
0.0
 40
0.0
 40
0.0
 40
0.0
 40
0.1368495163689091
 40
0.2924855253968541
 40
0.4607010024701864
 40
0.6011487956076025
 40
0.7093941210953845
 40
0.8175638165231548
 40
0.9444237814865878
 40
1.0
 40
1.0
 40
1.0
 40
1.0
 10
123.9285421046252
 20
152.5223753406848
 30
0.0
 10
124.0241961304287
 20
152.5358930966633
 30
0.0
 10
124.2286354206492
 20
152.5647843055214
 30
0.0
 10
124.4322691382836
 20
152.7426969326567
 30
0.0
 10
124.5796204404682
 20
152.9545680495385
 30
0.0
 10
124.6901216348175
 20
153.1963547474566
 30
0.0
 10
124.7662292437302
 20
153.4080323190281
 30
0.0
 10
124.8328685567011
 20
153.6246782521567
 30
0.0
 10
124.889268154881
 20
153.8276522543131
 30
0.0
 10
124.9238941449382
 20
153.9766810816118
 30
0.0
 10
124.9344423900998
 20
154.0220802919708
 30
0.0
  0
LINE
  5
D7
330
1F
100
AcDbEntity
  8
0
  6
Continuous
 62
     7
370
    15
100
AcDbLine
 10
125.2244525547
 20
155.4862024502
 30
0.0
 11
125.2305694651
 21
155.522080292
 31
0.0
  0
SPLINE
  5
D8
330
1F
100
AcDbEntity
  8
0
  6
Continuous
 62
     7
370
    15
100
AcDbSpline
210
0.0
220
0.0
230
1.0
 70
     8
 71
     3
 72
    12
 73
     8
 74
     0
 42
0.00000001
 43
0.00000001
 12
1.0
 22
0.0
 32
0.0
 13
1.0
 23
0.0
 33
0.0
 40
0.0
 40
0.0
 40
0.0
 40
0.0
 40
0.1768725394366591
 40
0.4257135454758664
 40
0.6809116627489831
 40
0.9496203170746139
 40
1.0
 40
1.0
 40
1.0
 40
1.0
 10
126.1524059896389
 20
161.5220802919708
 30
0.0
 10
126.1697641243978
 20
161.6249543193243
 30
0.0
 10
126.211543323784
 20
161.8725612517602
 30
0.0
 10
126.2781085162044
 20
162.2142881045962
 30
0.0
 10
126.3522803656055
 20
162.5691762988523
 30
0.0
 10
126.4064965746879
 20
162.8089281922753
 30
0.0
 10
126.4345466581345
 20
162.9134661276017
 30
0.0
 10
126.4389753825506
 20
162.9299712373804
 30
0.0
  0
SPLINE
  5
D9
330
1F
100
AcDbEntity
  8
0
  6
Continuous
 62
     7
370
    15
100
AcDbSpline
210
0.0
220
0.0
230
1.0
 70
     8
 71
     3
 72
    18
 73
    14
 74
     0
 42
0.00000001
 43
0.00000001
 12
1.0
 22
0.0
 32
0.0
 13
1.0
 23
0.0
 33
0.0
 40
0.0
 40
0.0
 40
0.0
 40
0.0
 40
0.0949933388602611
 40
0.1796426227403086
 40
0.2756406142565364
 40
0.3690189034309009
 40
0.4450646663978444
 40
0.52123708494655
 40
0.5940702964357019
 40
0.679512027298916
 40
0.7774709964091725
 40
0.8878476837220997
 40
1.0
 40
1.0
 40
1.0
 40
1.0
 10
128.9267355500761
 20
152.5234245927381
 30
0.0
 10
129.0248692382354
 20
152.5374229611154
 30
0.0
 10
129.2104505993249
 20
152.5638953815982
 30
0.0
 10
129.3957612675517
 20
152.7115356973983
 30
0.0
 10
129.539020064252
 20
152.8903482044976
 30
0.0
 10
129.6522529110576
 20
153.1071603976122
 30
0.0
 10
129.745085980014
 20
153.3429852291527
 30
0.0
 10
129.8165997676784
 20
153.5678211744608
 30
0.0
 10
129.8848863631914
 20
153.8137541790265
 30
0.0
 10
129.9597410589981
 20
154.1178835864653
 30
0.0
 10
130.0443074159011
 20
154.5060020569965
 30
0.0
 10
130.1361532010876
 20
154.9728929196078
 30
0.0
 10
130.1995600568785
 20
155.3380466091072
 30
0.0
 10
130.2315164564044
 20
155.5220802919708
 30
0.0
  0
SPLINE
  5
DA
330
1F
100
AcDbEntity
  8
0
  6
Continuous
 62
     7
370
    15
100
AcDbSpline
210
0.0
220
0.0
230
1.0
 70
     8
 71
     3
 72
    12
 73
     8
 74
     0
 42
0.00000001
 43
0.00000001
 12
1.0
 22
0.0
 32
0.0
 13
1.0
 23
0.0
 33
0.0
 40
0.0
 40
0.0
 40
0.0
 40
0.0
 40
0.189048158509845
 40
0.4299722835495616
 40
0.6579224765711318
 40
0.8956348855022438
 40
1.0
 40
1.0
 40
1.0
 40
1.0
 10
131.150898544805
 20
161.5220802919708
 30
0.0
 10
131.1694664170128
 20
161.627925646572
 30
0.0
 10
131.2116972986927
 20
161.8686609659727
 30
0.0
 10
131.2760602883203
 20
162.2036797096817
 30
0.0
 10
131.3446388929269
 20
162.533698113384
 30
0.0
 10
131.3988591001042
 20
162.7755485768209
 30
0.0
 10
131.4295248315372
 20
162.8930667593648
 30
0.0
 10
131.4388807007568
 20
162.9289206162737
 30
0.0
  0
SPLINE
  5
DB
330
1F
100
AcDbEntity
  8
0
  6
Continuous
 62
     7
370
    15
100
AcDbSpline
210
0.0
220
0.0
230
1.0
 70
     8
 71
     3
 72
    18
 73
    14
 74
     0
 42
0.00000001
 43
0.00000001
 12
1.0
 22
0.0
 32
0.0
 13
1.0
 23
0.0
 33
0.0
 40
0.0
 40
0.0
 40
0.0
 40
0.0
 40
0.0204540466955902
 40
0.0292982114699957
 40
0.0379046526742322
 40
0.0468845581575371
 40
0.0567773887887005
 40
0.0807368035281535
 40
0.1505835584391408
 40
0.2534276116735571
 40
0.4432489655920571
 40
0.6926902761962144
 40
1.0
 40
1.0
 40
1.0
 40
1.0
 10
133.9404948775037
 20
152.5233836196948
 30
0.0
 10
133.9508088529817
 20
152.5232398802003
 30
0.0
 10
133.9655825082464
 20
152.5230339889081
 30
0.0
 10
133.9912152633623
 20
152.525056619836
 30
0.0
 10
134.010122428233
 20
152.527267722399
 30
0.0
 10
134.029527781657
 20
152.53024546501
 30
0.0
 10
134.0575779007391
 20
152.5354978959216
 30
0.0
 10
134.1148079346103
 20
152.5493471282011
 30
0.0
 10
134.1900422872185
 20
152.5764053266228
 30
0.0
 10
134.2948797468251
 20
152.630005509702
 30
0.0
 10
134.4134876694488
 20
152.7256818752107
 30
0.0
 10
134.5450364728119
 20
152.8902195742332
 30
0.0
 10
134.623523202278
 20
153.0562395573421
 30
0.0
 10
134.6668455019486
 20
153.1478775642825
 30
0.0
  0
SPLINE
  5
DC
330
1F
100
AcDbEntity
  8
0
  6
Continuous
 62
     7
370
    15
100
AcDbSpline
210
0.0
220
0.0
230
1.0
 70
     8
 71
     3
 72
    37
 73
    33
 74
     0
 42
0.00000001
 43
0.00000001
 12
1.0
 22
0.0
 32
0.0
 13
1.0
 23
0.0
 33
0.0
 40
0.0
 40
0.0
 40
0.0
 40
0.0
 40
0.0194027261526059
 40
0.0437558773854248
 40
0.0673941330303565
 40
0.0934236336417236
 40
0.1237818664120513
 40
0.1584988294331609
 40
0.1975859901945562
 40
0.2410425295041869
 40
0.2877901619179449
 40
0.3300457913413832
 40
0.3662223569894719
 40
0.3962606794336114
 40
0.4201254671434279
 40
0.439854900683532
 40
0.4714716854785568
 40
0.5102252728796896
 40
0.5542051051028476
 40
0.5990355301393095
 40
0.6445699105095983
 40
0.6908619165298078
 40
0.7369794070321103
 40
0.7813077867649256
 40
0.8238343158338621
 40
0.8460525319524194
 40
0.8745741088058016
 40
0.9099179709423645
 40
0.9361917239625809
 40
0.9599786498341639
 40
0.9812524771101182
 40
1.0
 40
1.0
 40
1.0
 40
1.0
 10
134.131782933526
 20
153.4893234713681
 30
0.0
 10
134.1335441048662
 20
153.4924557581201
 30
0.0
 10
134.1375157940303
 20
153.4995195054503
 30
0.0
 10
134.1084650689359
 20
153.5628541504677
 30
0.0
 10
134.0615149536683
 20
153.6878806113112
 30
0.0
 10
134.0035426855114
 20
153.8691657567628
 30
0.0
 10
133.936450858448
 20
154.114932099405
 30
0.0
 10
133.8575623044665
 20
154.4469826087002
 30
0.0
 10
133.7675365256278
 20
154.8777729598918
 30
0.0
 10
133.6671941695459
 20
155.4154641578262
 30
0.0
 10
133.5637294173468
 20
156.0270259076103
 30
0.0
 10
133.4658872242505
 20
156.6471001327897
 30
0.0
 10
133.3809822864158
 20
157.208543771983
 30
0.0
 10
133.3103778935471
 20
157.6868855863007
 30
0.0
 10
133.2526009403692
 20
158.0832378127142
 30
0.0
 10
133.1935584285434
 20
158.4905842044443
 30
0.0
 10
133.1228133617627
 20
158.9798354594628
 30
0.0
 10
133.0330407897285
 20
159.5967317090415
 30
0.0
 10
132.9328730636211
 20
160.2703345028608
 30
0.0
 10
132.8271754844458
 20
160.9522279292231
 30
0.0
 10
132.7193408546433
 20
161.6045303309917
 30
0.0
 10
132.6101825768062
 20
162.2090613085499
 30
0.0
 10
132.5015081569683
 20
162.7457084469368
 30
0.0
 10
132.3942364070538
 20
163.2028793722587
 30
0.0
 10
132.3053412455241
 20
163.5168117792076
 30
0.0
 10
132.2262980919994
 20
163.7518661153221
 30
0.0
 10
132.136507088843
 20
163.9747195577989
 30
0.0
 10
132.0254140508685
 20
164.1747297705239
 30
0.0
 10
131.8946609333565
 20
164.3332971720551
 30
0.0
 10
131.7566245962559
 20
164.4384530468157
 30
0.0
 10
131.6060462604154
 20
164.5087736758556
 30
0.0
 10
131.4837975126006
 20
164.5176997673022
 30
0.0
 10
131.4265315485984
 20
164.5218810880976
 30
0.0
  0
LWPOLYLINE
  5
DD
330
1F
100
AcDbEntity
  8
0
  6
Continuous
 62
     7
370
    15
100
AcDbPolyline
 90
       32
 70
   128
 43
0.0
 10
129.1297681445
 20
153.4806627622
 10
129.1401147804
 20
153.478281312
 10
129.1093382666
 20
153.5626573785
 10
129.0602147344
 20
153.6973261833
 10
129.0070768447
 20
153.8643230252
 10
128.9425487204
 20
154.0982671097
 10
128.8664174385
 20
154.4149738818
 10
128.778785811
 20
154.8297766555
 10
128.6797538822
 20
155.3554142207
 10
128.5719232066
 20
155.9851475923
 10
128.4759634774
 20
156.5862503885
 10
128.3966240054
 20
157.1057839852
 10
128.3340843014
 20
157.5261542444
 10
128.2884800323
 20
157.8370267783
 10
128.2546686192
 20
158.0691761208
 10
128.2085777623
 20
158.3870835444
 10
128.1471628021
 20
158.8115585105
 10
128.0703646471
 20
159.3401537629
 10
127.9817570275
 20
159.9408919898
 10
127.8956615552
 20
160.5084285793
 10
127.7870254149
 20
161.1921647894
 10
127.6853842252
 20
161.7893721869
 10
127.5906903171
 20
162.3002065276
 10
127.4976108375
 20
162.7518622253
 10
127.3921128086
 20
163.1957257724
 10
127.2704002607
 20
163.6141868136
 10
127.165043812
 20
163.8967250656
 10
127.0174213842
 20
164.1725527215
 10
126.7815022636
 20
164.4131928045
 10
126.6190584818
 20
164.4921218973
 10
126.4280488397
 20
164.5206102974
 10
126.4280488397
 20
164.5206102974
  0
LWPOLYLINE
  5
DE
330
1F
100
AcDbEntity
  8
0
  6
Continuous
 62
     7
370
    15
100
AcDbPolyline
 90
       31
 70
   128
 43
0.0
 10
124.1256425415
 20
153.4863958459
 10
124.1266560259
 20
153.5033274997
 10
124.0984707538
 20
153.584604889
 10
124.060158824
 20
153.6952254681
 10
124.0218290798
 20
153.8145896186
 10
123.9664564942
 20
154.0073622545
 10
123.9001294422
 20
154.2701196432
 10
123.8224531653
 20
154.6179179441
 10
123.7334674841
 20
155.0639706459
 10
123.6332120557
 20
155.6200314235
 10
123.5247011966
 20
156.2762110233
 10
123.4288277955
 20
156.8929637871
 10
123.3497848896
 20
157.4203491794
 10
123.287730771
 20
157.8425803474
 10
123.2427850404
 20
158.1513000962
 10
123.2083415682
 20
158.3888482301
 10
123.1591924316
 20
158.7283350566
 10
123.0928586468
 20
159.1854441393
 10
123.0092643018
 20
159.7553525733
 10
122.9137564541
 20
160.3907527977
 10
122.8230370648
 20
160.9707999692
 10
122.7113286032
 20
161.6419591025
 10
122.6101495716
 20
162.1986037817
 10
122.5185118521
 20
162.6542640909
 10
122.3733569456
 20
163.2680953892
 10
122.2051722921
 20
163.7989541517
 10
122.0984848864
 20
164.0358301321
 10
121.9467961995
 20
164.2633058205
 10
121.7260231727
 20
164.4457535801
 10
121.4271519772
 20
164.5214542205
 10
121.4271519772
 20
164.5214542205
  0
LINE
  5
DF
330
1F
100
AcDbEntity
  8
0
  6
Continuous
 62
     7
370
    15
100
AcDbLine
 10
112.2244525547
 20
165.322080292
 30
0.0
 11
112.2244525547
 21
164.522080292
 31
0.0
  0
LINE
  5
E0
330
1F
100
AcDbEntity
  8
0
  6
Continuous
 62
     7
370
    15
100
AcDbLine
 10
120.2244525547
 20
164.522080292
 30
0.0
 11
120.2244525547
 21
165.322080292
 31
0.0
  0
LINE
  5
E1
330
1F
100
AcDbEntity
  8
0
  6
Continuous
 62
     7
370
    15
100
AcDbLine
 10
112.2244525547
 20
152.522080292
 30
0.0
 11
112.2244525547
 21
151.722080292
 31
0.0
  0
LINE
  5
E2
330
1F
100
AcDbEntity
  8
0
  6
Continuous
 62
     7
370
    15
100
AcDbLine
 10
120.2244525547
 20
151.722080292
 30
0.0
 11
120.2244525547
 21
152.522080292
 31
0.0
  0
LINE
  5
E3
330
1F
100
AcDbEntity
  8
0
  6
Continuous
 62
     7
370
    15
100
AcDbLine
 10
171.3244525547
 20
154.022080292
 30
0.0
 11
171.9244525547
 21
154.022080292
 31
0.0
  0
LINE
  5
E4
330
1F
100
AcDbEntity
  8
0
  6
Continuous
 62
     7
370
    15
100
AcDbLine
 10
171.9244525547
 20
162.2507178959
 30
0.0
 11
171.3244525547
 21
162.2507178959
 31
0.0
  0
LINE
  5
E5
330
1F
100
AcDbEntity
  8
0
  6
Continuous
 62
     7
370
    15
100
AcDbLine
 10
113.8744525547
 20
144.222080292
 30
0.0
 11
114.2244525547
 21
141.722080292
 31
0.0
  0
LINE
  5
E6
330
1F
100
AcDbEntity
  8
0
  6
Continuous
 62
     7
370
    15
100
AcDbLine
 10
118.2244525547
 20
141.722080292
 30
0.0
 11
118.5744525547
 21
144.222080292
 31
0.0
  0
LINE
  5
E7
330
1F
100
AcDbEntity
  8
0
  6
Continuous
 62
     7
370
    15
100
AcDbLine
 10
113.8744525547
 20
146.722080292
 30
0.0
 11
114.2244525547
 21
144.222080292
 31
0.0
  0
LINE
  5
E8
330
1F
100
AcDbEntity
  8
0
  6
Continuous
 62
     7
370
    15
100
AcDbLine
 10
118.2244525547
 20
144.222080292
 30
0.0
 11
118.5744525547
 21
146.722080292
 31
0.0
  0
LINE
  5
E9
330
1F
100
AcDbEntity
  8
0
  6
Continuous
 62
     7
370
    15
100
AcDbLine
 10
118.3244525547
 20
146.722080292
 30
0.0
 11
118.3244525547
 21
149.222080292
 31
0.0
  0
LINE
  5
EA
330
1F
100
AcDbEntity
  8
0
  6
Continuous
 62
     7
370
    15
100
AcDbLine
 10
114.1244525547
 20
149.222080292
 30
0.0
 11
114.1244525547
 21
146.722080292
 31
0.0
  0
LINE
  5
EB
330
1F
100
AcDbEntity
  8
0
  6
Continuous
 62
     7
370
    15
100
AcDbLine
 10
172.7244525547
 20
155.522080292
 30
0.0
 11
173.2244525547
 21
156.022080292
 31
0.0
  0
LINE
  5
EC
330
1F
100
AcDbEntity
  8
0
  6
Continuous
 62
     7
370
    15
100
AcDbLine
 10
173.2244525547
 20
161.022080292
 30
0.0
 11
172.7244525547
 21
161.522080292
 31
0.0
  0
LINE
  5
ED
330
1F
100
AcDbEntity
  8
0
  6
Continuous
 62
     7
370
    15
100
AcDbLine
 10
171.9244525547
 20
155.522080292
 30
0.0
 11
172.7244525547
 21
155.522080292
 31
0.0
  0
LINE
  5
EE
330
1F
100
AcDbEntity
  8
0
  6
Continuous
 62
     7
370
    15
100
AcDbLine
 10
172.7244525547
 20
161.522080292
 30
0.0
 11
171.9244525547
 21
161.522080292
 31
0.0
  0
LINE
  5
EF
330
1F
100
AcDbEntity
  8
0
  6
Continuous
 62
     7
370
    15
100
AcDbLine
 10
103.2244525547
 20
153.022080292
 30
0.0
 11
105.2244525547
 21
153.022080292
 31
0.0
  0
LINE
  5
F0
330
1F
100
AcDbEntity
  8
0
  6
Continuous
 62
     7
370
    15
100
AcDbLine
 10
105.2244525547
 20
164.022080292
 30
0.0
 11
103.2244525547
 21
164.022080292
 31
0.0
  0
LINE
  5
F1
330
1F
100
AcDbEntity
  8
0
  6
Continuous
 62
     7
370
    15
100
AcDbLine
 10
120.2244525547
 20
154.022080292
 30
0.0
 11
122.9444437292
 21
154.022080292
 31
0.0
  0
LINE
  5
F2
330
1F
100
AcDbEntity
  8
0
  6
Continuous
 62
     7
370
    15
100
AcDbLine
 10
123.9627412645
 20
154.022080292
 30
0.0
 11
125.2244525547
 21
154.022080292
 31
0.0
  0
LINE
  5
F3
330
1F
100
AcDbEntity
  8
0
  6
Continuous
 62
     7
370
    15
100
AcDbLine
 10
125.2244525547
 20
163.022080292
 30
0.0
 11
122.4315330252
 21
163.022080292
 31
0.0
  0
LINE
  5
F4
330
1F
100
AcDbEntity
  8
0
  6
Continuous
 62
     7
370
    15
100
AcDbLine
 10
121.4146680091
 20
163.022080292
 30
0.0
 11
120.2244525547
 21
163.022080292
 31
0.0
  0
LINE
  5
F5
330
1F
100
AcDbEntity
  8
0
  6
Continuous
 62
     7
370
    15
100
AcDbLine
 10
105.2244525547
 20
154.622080292
 30
0.0
 11
112.2244525547
 21
154.622080292
 31
0.0
  0
LINE
  5
F6
330
1F
100
AcDbEntity
  8
0
  6
Continuous
 62
     7
370
    15
100
AcDbLine
 10
112.2244525547
 20
162.422080292
 30
0.0
 11
105.2244525547
 21
162.422080292
 31
0.0
  0
LINE
  5
F7
330
1F
100
AcDbEntity
  8
0
  6
Continuous
 62
     7
370
    15
100
AcDbLine
 10
125.2244525547
 20
155.522080292
 30
0.0
 11
127.6471969922
 21
155.522080292
 31
0.0
  0
LINE
  5
F8
330
1F
100
AcDbEntity
  8
0
  6
Continuous
 62
     7
370
    15
100
AcDbLine
 10
128.6512152722
 20
155.522080292
 30
0.0
 11
132.6467849377
 21
155.522080292
 31
0.0
  0
LINE
  5
F9
330
1F
100
AcDbEntity
  8
0
  6
Continuous
 62
     7
370
    15
100
AcDbLine
 10
133.650849652
 20
155.522080292
 30
0.0
 11
137.6468332931
 21
155.522080292
 31
0.0
  0
LINE
  5
FA
330
1F
100
AcDbEntity
  8
0
  6
Continuous
 62
     7
370
    15
100
AcDbLine
 10
138.650471222
 20
155.522080292
 30
0.0
 11
142.6468969155
 21
155.522080292
 31
0.0
  0
LINE
  5
FB
330
1F
100
AcDbEntity
  8
0
  6
Continuous
 62
     7
370
    15
100
AcDbLine
 10
143.6509254545
 20
155.522080292
 30
0.0
 11
145.2244525547
 21
155.522080292
 31
0.0
  0
LINE
  5
FC
330
1F
100
AcDbEntity
  8
0
  6
Continuous
 62
     7
370
    15
100
AcDbLine
 10
145.2244525547
 20
161.522080292
 30
0.0
 11
142.7310611629
 21
161.522080292
 31
0.0
  0
LINE
  5
FD
330
1F
100
AcDbEntity
  8
0
  6
Continuous
 62
     7
370
    15
100
AcDbLine
 10
141.7270607868
 20
161.522080292
 30
0.0
 11
137.7297974622
 21
161.522080292
 31
0.0
  0
LINE
  5
FE
330
1F
100
AcDbEntity
  8
0
  6
Continuous
 62
     7
370
    15
100
AcDbLine
 10
136.7275194563
 20
161.522080292
 30
0.0
 11
132.7314949212
 21
161.522080292
 31
0.0
  0
LINE
  5
FF
330
1F
100
AcDbEntity
  8
0
  6
Continuous
 62
     7
370
    15
100
AcDbLine
 10
131.7272013269
 20
161.522080292
 30
0.0
 11
127.730875735
 21
161.522080292
 31
0.0
  0
LINE
  5
100
330
1F
100
AcDbEntity
  8
0
  6
Continuous
 62
     7
370
    15
100
AcDbLine
 10
126.7266747138
 20
161.522080292
 30
0.0
 11
125.2244525547
 21
161.522080292
 31
0.0
  0
LINE
  5
101
330
1F
100
AcDbEntity
  8
0
  6
Continuous
 62
     7
370
    15
100
AcDbLine
 10
150.2244525547
 20
146.9334917353
 30
0.0
 11
150.2244525547
 21
146.922080292
 31
0.0
  0
LINE
  5
102
330
1F
100
AcDbEntity
  8
0
  6
Continuous
 62
     7
370
    15
100
AcDbLine
 10
150.2244525547
 20
170.122080292
 30
0.0
 11
150.2244525547
 21
146.9334917353
 31
0.0
  0
LINE
  5
103
330
1F
100
AcDbEntity
  8
0
  6
Continuous
 62
     7
370
    15
100
AcDbLine
 10
149.8244525547
 20
146.5338852334
 30
0.0
 11
149.8244525547
 21
146.522080292
 31
0.0
  0
LINE
  5
104
330
1F
100
AcDbEntity
  8
0
  6
Continuous
 62
     7
370
    15
100
AcDbLine
 10
149.8244525547
 20
170.522080292
 30
0.0
 11
149.8244525547
 21
146.5338852334
 31
0.0
  0
LINE
  5
105
330
1F
100
AcDbEntity
  8
0
  6
Continuous
 62
     7
370
    15
100
AcDbLine
 10
148.6244525547
 20
146.5338852334
 30
0.0
 11
148.6244525547
 21
146.522080292
 31
0.0
  0
LINE
  5
106
330
1F
100
AcDbEntity
  8
0
  6
Continuous
 62
     7
370
    15
100
AcDbLine
 10
148.6244525547
 20
170.522080292
 30
0.0
 11
148.6244525547
 21
146.5338852334
 31
0.0
  0
LINE
  5
107
330
1F
100
AcDbEntity
  8
0
  6
Continuous
 62
     7
370
    15
100
AcDbLine
 10
148.2244525547
 20
146.9334917353
 30
0.0
 11
148.2244525547
 21
146.922080292
 31
0.0
  0
LINE
  5
108
330
1F
100
AcDbEntity
  8
0
  6
Continuous
 62
     7
370
    15
100
AcDbLine
 10
148.2244525547
 20
170.122080292
 30
0.0
 11
148.2244525547
 21
146.9334917353
 31
0.0
  0
LINE
  5
109
330
1F
100
AcDbEntity
  8
0
  6
Continuous
 62
     7
370
    15
100
AcDbLine
 10
171.2244525547
 20
148.9315242451
 30
0.0
 11
171.2244525547
 21
148.922080292
 31
0.0
  0
LINE
  5
10A
330
1F
100
AcDbEntity
  8
0
  6
Continuous
 62
     7
370
    15
100
AcDbLine
 10
171.2244525547
 20
168.122080292
 30
0.0
 11
171.2244525547
 21
148.9315242451
 31
0.0
  0
LINE
  5
10B
330
1F
100
AcDbEntity
  8
0
  6
Continuous
 62
     7
370
    15
100
AcDbLine
 10
170.8244525547
 20
148.5319177431
 30
0.0
 11
170.8244525547
 21
148.522080292
 31
0.0
  0
LINE
  5
10C
330
1F
100
AcDbEntity
  8
0
  6
Continuous
 62
     7
370
    15
100
AcDbLine
 10
170.8244525547
 20
168.522080292
 30
0.0
 11
170.8244525547
 21
148.5319177431
 31
0.0
  0
LINE
  5
10D
330
1F
100
AcDbEntity
  8
0
  6
Continuous
 62
     7
370
    15
100
AcDbLine
 10
145.6244525547
 20
154.026507145
 30
0.0
 11
145.6244525547
 21
154.022080292
 31
0.0
  0
LINE
  5
10E
330
1F
100
AcDbEntity
  8
0
  6
Continuous
 62
     7
370
    15
100
AcDbLine
 10
145.6244525547
 20
163.022080292
 30
0.0
 11
145.6244525547
 21
154.026507145
 31
0.0
  0
LINE
  5
10F
330
1F
100
AcDbEntity
  8
0
  6
Continuous
 62
     7
370
    15
100
AcDbLine
 10
145.2244525547
 20
154.426113647
 30
0.0
 11
145.2244525547
 21
154.422080292
 31
0.0
  0
LINE
  5
110
330
1F
100
AcDbEntity
  8
0
  6
Continuous
 62
     7
370
    15
100
AcDbLine
 10
145.2244525547
 20
162.622080292
 30
0.0
 11
145.2244525547
 21
154.426113647
 31
0.0
  0
SPLINE
  5
111
330
1F
100
AcDbEntity
  8
0
  6
Continuous
 62
     7
370
    15
100
AcDbSpline
210
0.0
220
0.0
230
1.0
 70
     8
 71
     3
 72
    12
 73
     8
 74
     0
 42
0.00000001
 43
0.00000001
 12
1.0
 22
0.0
 32
0.0
 13
1.0
 23
0.0
 33
0.0
 40
0.0
 40
0.0
 40
0.0
 40
0.0
 40
0.2168024107401715
 40
0.4333263872260443
 40
0.6529261720198148
 40
0.8633715160569269
 40
1.0
 40
1.0
 40
1.0
 40
1.0
 10
147.6537403873026
 20
158.7880956836716
 30
0.0
 10
147.7101342250237
 20
158.7878360479316
 30
0.0
 10
147.822849475182
 20
158.7873171098956
 30
0.0
 10
147.9746123085387
 20
158.7834861117697
 30
0.0
 10
148.0851460302167
 20
158.7778021810794
 30
0.0
 10
148.1476021076887
 20
158.7716562854544
 30
0.0
 10
148.1467976864139
 20
158.7676353889765
 30
0.0
 10
148.1464810193235
 20
158.7660525298105
 30
0.0
  0
SPLINE
  5
112
330
1F
100
AcDbEntity
  8
0
  6
Continuous
 62
     7
370
    15
100
AcDbSpline
210
0.0
220
0.0
230
1.0
 70
     8
 71
     3
 72
    10
 73
     6
 74
     0
 42
0.00000001
 43
0.00000001
 12
1.0
 22
0.0
 32
0.0
 13
1.0
 23
0.0
 33
0.0
 40
0.7701429714273176
 40
0.7701429714273176
 40
0.7701429714273176
 40
0.7701429714273176
 40
0.875
 40
1.0
 40
1.000015861506629
 40
1.000015861506629
 40
1.000015861506629
 40
1.000015861506629
 10
148.1496418880724
 20
158.7631355925754
 30
0.0
 10
148.1353617232176
 20
158.7583152605712
 30
0.0
 10
148.0245499790222
 20
158.7481701774904
 30
0.0
 10
147.7843752204724
 20
158.7437594808081
 30
0.0
 10
147.6537567106413
 20
158.74375978519
 30
0.0
 10
147.6537401382935
 20
158.7437597852672
 30
0.0
  0
SPLINE
  5
113
330
1F
100
AcDbEntity
  8
0
  6
Continuous
 62
     7
370
    15
100
AcDbSpline
210
0.0
220
0.0
230
1.0
 70
     8
 71
     3
 72
    12
 73
     8
 74
     0
 42
0.00000001
 43
0.00000001
 12
1.0
 22
0.0
 32
0.0
 13
1.0
 23
0.0
 33
0.0
 40
0.0
 40
0.0
 40
0.0
 40
0.0
 40
0.2143707329972029
 40
0.4284666308288548
 40
0.6455775089925574
 40
0.8536495319483643
 40
0.9999999999999999
 40
0.9999999999999999
 40
0.9999999999999999
 40
0.9999999999999999
 10
147.6537403873025
 20
158.7880956836716
 30
0.0
 10
147.5973399192478
 20
158.7878355239566
 30
0.0
 10
147.4846112916654
 20
158.7873155380656
 30
0.0
 10
147.3329071495986
 20
158.7834824676499
 30
0.0
 10
147.2222289037103
 20
158.7777982705068
 30
0.0
 10
147.1591217758805
 20
158.7715244098405
 30
0.0
 10
147.1602209657942
 20
158.7673698560118
 30
0.0
 10
147.160674850529
 20
158.7656543302965
 30
0.0
  0
SPLINE
  5
114
330
1F
100
AcDbEntity
  8
0
  6
Continuous
 62
     7
370
    15
100
AcDbSpline
210
0.0
220
0.0
230
1.0
 70
     8
 71
     3
 72
     9
 73
     5
 74
     0
 42
0.00000001
 43
0.00000001
 12
1.0
 22
0.0
 32
0.0
 13
1.0
 23
0.0
 33
0.0
 40
0.0000158615057483
 40
0.0000158615057483
 40
0.0000158615057483
 40
0.0000158615057483
 40
0.1048328660716774
 40
0.2298170045659292
 40
0.2298170045659292
 40
0.2298170045659292
 40
0.2298170045659292
 10
147.1579541907003
 20
158.7631300728839
 30
0.0
 10
147.1722565817112
 20
158.758311727704
 30
0.0
 10
147.2830639011263
 20
158.7481701095278
 30
0.0
 10
147.5231547737781
 20
158.7437603938632
 30
0.0
 10
147.6537401382935
 20
158.7437597852648
 30
0.0
  0
LINE
  5
115
330
1F
100
AcDbEntity
  8
0
  6
Continuous
 62
     7
370
    15
100
AcDbLine
 10
120.2244525547
 20
165.322080292
 30
0.0
 11
119.7318554401
 21
165.322080292
 31
0.0
  0
LINE
  5
116
330
1F
100
AcDbEntity
  8
0
  6
Continuous
 62
     7
370
    15
100
AcDbLine
 10
112.7170496694
 20
165.322080292
 30
0.0
 11
112.2244525547
 21
165.322080292
 31
0.0
  0
LINE
  5
117
330
1F
100
AcDbEntity
  8
0
  6
Continuous
 62
     7
370
    15
100
AcDbLine
 10
120.2244525547
 20
151.722080292
 30
0.0
 11
119.7318554401
 21
151.722080292
 31
0.0
  0
LINE
  5
118
330
1F
100
AcDbEntity
  8
0
  6
Continuous
 62
     7
370
    15
100
AcDbLine
 10
112.7170496694
 20
151.722080292
 30
0.0
 11
112.2244525547
 21
151.722080292
 31
0.0
  0
LINE
  5
119
330
1F
100
AcDbEntity
  8
0
  6
Continuous
 62
     7
370
    15
100
AcDbLine
 10
171.9244525547
 20
162.2148405751
 30
0.0
 11
171.3244525547
 21
162.2148405751
 31
0.0
  0
LINE
  5
11A
330
1F
100
AcDbEntity
  8
0
  6
Continuous
 62
     7
370
    15
100
AcDbLine
 10
171.9244525547
 20
154.022080292
 30
0.0
 11
171.9244525547
 21
162.2148405751
 31
0.0
  0
LINE
  5
11B
330
1F
100
AcDbEntity
  8
0
  6
Continuous
 62
   144
370
     0
100
AcDbLine
 10
171.3244525547
 20
154.022080292
 30
0.0
 11
171.3244525547
 21
162.2148405751
 31
0.0
  0
LINE
  5
11C
330
1F
100
AcDbEntity
  8
0
  6
Continuous
 62
     7
370
    15
100
AcDbLine
 10
171.9244525547
 20
162.2507178959
 30
0.0
 11
171.9244525547
 21
162.2148405751
 31
0.0
  0
LINE
  5
11D
330
1F
100
AcDbEntity
  8
0
  6
Continuous
 62
   144
370
     0
100
AcDbLine
 10
171.3244525547
 20
162.2148405751
 30
0.0
 11
171.3244525547
 21
162.2507178959
 31
0.0
  0
LINE
  5
11E
330
1F
100
AcDbEntity
  8
0
  6
Continuous
 62
     7
370
    15
100
AcDbLine
 10
116.2244525547
 20
149.222080292
 30
0.0
 11
112.7170496694
 21
149.222080292
 31
0.0
  0
LINE
  5
11F
330
1F
100
AcDbEntity
  8
0
  6
Continuous
 62
     7
370
    15
100
AcDbLine
 10
119.7318554401
 20
149.222080292
 30
0.0
 11
116.2244525547
 21
149.222080292
 31
0.0
  0
LINE
  5
120
330
1F
100
AcDbEntity
  8
0
  6
Continuous
 62
     7
370
    15
100
AcDbLine
 10
119.7318554401
 20
151.722080292
 30
0.0
 11
119.7318554401
 21
149.222080292
 31
0.0
  0
LINE
  5
121
330
1F
100
AcDbEntity
  8
0
  6
Continuous
 62
     7
370
    15
100
AcDbLine
 10
116.2244525547
 20
151.722080292
 30
0.0
 11
116.2244525547
 21
149.222080292
 31
0.0
  0
LINE
  5
122
330
1F
100
AcDbEntity
  8
0
  6
Continuous
 62
   144
370
     0
100
AcDbLine
 10
119.7318554401
 20
151.722080292
 30
0.0
 11
119.6435649827
 21
151.722080292
 31
0.0
  0
LINE
  5
123
330
1F
100
AcDbEntity
  8
0
  6
Continuous
 62
   144
370
     0
100
AcDbLine
 10
116.3127430121
 20
151.722080292
 30
0.0
 11
116.2244525547
 21
151.722080292
 31
0.0
  0
LINE
  5
124
330
1F
100
AcDbEntity
  8
0
  6
Continuous
 62
     7
370
    15
100
AcDbLine
 10
112.7170496694
 20
151.722080292
 30
0.0
 11
112.7170496694
 21
149.222080292
 31
0.0
  0
LINE
  5
125
330
1F
100
AcDbEntity
  8
0
  6
Continuous
 62
   144
370
     0
100
AcDbLine
 10
116.2244525547
 20
151.722080292
 30
0.0
 11
116.1361620974
 21
151.722080292
 31
0.0
  0
LINE
  5
126
330
1F
100
AcDbEntity
  8
0
  6
Continuous
 62
   144
370
     0
100
AcDbLine
 10
112.8053401268
 20
151.722080292
 30
0.0
 11
112.7170496694
 21
151.722080292
 31
0.0
  0
LINE
  5
127
330
1F
100
AcDbEntity
  8
0
  6
Continuous
 62
     7
370
    15
100
AcDbLine
 10
118.5744525547
 20
144.222080292
 30
0.0
 11
118.2596122536
 21
144.222080292
 31
0.0
  0
LINE
  5
128
330
1F
100
AcDbEntity
  8
0
  6
Continuous
 62
     7
370
    15
100
AcDbLine
 10
118.2596122536
 20
144.222080292
 30
0.0
 11
113.8744525547
 21
144.222080292
 31
0.0
  0
LINE
  5
129
330
1F
100
AcDbEntity
  8
0
  6
Continuous
 62
     7
370
    15
100
AcDbLine
 10
117.9565033623
 20
141.722080292
 30
0.0
 11
114.2244525547
 21
141.722080292
 31
0.0
  0
LINE
  5
12A
330
1F
100
AcDbEntity
  8
0
  6
Continuous
 62
     7
370
    15
100
AcDbLine
 10
118.2244525547
 20
141.722080292
 30
0.0
 11
117.9565033623
 21
141.722080292
 31
0.0
  0
LINE
  5
12B
330
1F
100
AcDbEntity
  8
0
  6
Continuous
 62
     7
370
    15
100
AcDbLine
 10
118.5744525547
 20
146.722080292
 30
0.0
 11
118.2596122536
 21
146.722080292
 31
0.0
  0
LINE
  5
12C
330
1F
100
AcDbEntity
  8
0
  6
Continuous
 62
     7
370
    15
100
AcDbLine
 10
118.2596122536
 20
146.722080292
 30
0.0
 11
113.8744525547
 21
146.722080292
 31
0.0
  0
LINE
  5
12D
330
1F
100
AcDbEntity
  8
0
  6
Continuous
 62
     7
370
    15
100
AcDbLine
 10
119.7318554401
 20
165.322080292
 30
0.0
 11
119.7318554401
 21
167.822080292
 31
0.0
  0
LINE
  5
12E
330
1F
100
AcDbEntity
  8
0
  6
Continuous
 62
   144
370
     0
100
AcDbLine
 10
116.2244525547
 20
165.322080292
 30
0.0
 11
116.3127430121
 21
165.322080292
 31
0.0
  0
LINE
  5
12F
330
1F
100
AcDbEntity
  8
0
  6
Continuous
 62
   144
370
     0
100
AcDbLine
 10
119.6435649827
 20
165.322080292
 30
0.0
 11
119.7318554401
 21
165.322080292
 31
0.0
  0
LINE
  5
130
330
1F
100
AcDbEntity
  8
0
  6
Continuous
 62
     7
370
    15
100
AcDbLine
 10
116.2244525547
 20
165.322080292
 30
0.0
 11
116.2244525549
 21
167.822080292
 31
0.0
  0
LINE
  5
131
330
1F
100
AcDbEntity
  8
0
  6
Continuous
 62
     7
370
    15
100
AcDbLine
 10
116.2244525549
 20
167.822080292
 30
0.0
 11
119.7318554401
 21
167.822080292
 31
0.0
  0
LINE
  5
132
330
1F
100
AcDbEntity
  8
0
  6
Continuous
 62
     7
370
    15
100
AcDbLine
 10
112.7170496694
 20
165.322080292
 30
0.0
 11
112.7170496694
 21
167.822080292
 31
0.0
  0
LINE
  5
133
330
1F
100
AcDbEntity
  8
0
  6
Continuous
 62
     7
370
    15
100
AcDbLine
 10
112.7170496694
 20
167.822080292
 30
0.0
 11
116.2244525549
 21
167.822080292
 31
0.0
  0
LINE
  5
134
330
1F
100
AcDbEntity
  8
0
  6
Continuous
 62
   144
370
     0
100
AcDbLine
 10
112.7170496694
 20
165.322080292
 30
0.0
 11
112.8053401268
 21
165.322080292
 31
0.0
  0
LINE
  5
135
330
1F
100
AcDbEntity
  8
0
  6
Continuous
 62
   144
370
     0
100
AcDbLine
 10
116.1361620974
 20
165.322080292
 30
0.0
 11
116.2244525547
 21
165.322080292
 31
0.0
  0
LINE
  5
136
330
1F
100
AcDbEntity
  8
0
  6
Continuous
 62
     7
370
    15
100
AcDbLine
 10
173.2244525547
 20
161.022080292
 30
0.0
 11
173.2244525547
 21
156.022080292
 31
0.0
  0
LINE
  5
137
330
1F
100
AcDbEntity
  8
0
  6
Continuous
 62
     7
370
    15
100
AcDbLine
 10
172.7244525547
 20
155.522080292
 30
0.0
 11
172.7244525547
 21
161.522080292
 31
0.0
  0
LINE
  5
138
330
1F
100
AcDbEntity
  8
0
  6
Continuous
 62
     7
370
    15
100
AcDbLine
 10
120.2244525547
 20
158.522080292
 30
0.0
 11
112.2244525547
 21
158.522080292
 31
0.0
  0
LINE
  5
139
330
1F
100
AcDbEntity
  8
0
  6
Continuous
 62
     7
370
    15
100
AcDbLine
 10
120.2244525547
 20
158.522080292
 30
0.0
 11
120.2244525547
 21
152.522080292
 31
0.0
  0
LINE
  5
13A
330
1F
100
AcDbEntity
  8
0
  6
Continuous
 62
     7
370
    15
100
AcDbLine
 10
120.2244525547
 20
152.522080292
 30
0.0
 11
112.2244525547
 21
152.522080292
 31
0.0
  0
LINE
  5
13B
330
1F
100
AcDbEntity
  8
0
  6
Continuous
 62
     7
370
    15
100
AcDbLine
 10
112.2244525547
 20
158.522080292
 30
0.0
 11
112.2244525547
 21
152.522080292
 31
0.0
  0
LINE
  5
13C
330
1F
100
AcDbEntity
  8
0
  6
Continuous
 62
     7
370
    15
100
AcDbLine
 10
120.2244525547
 20
164.522080292
 30
0.0
 11
120.2244525547
 21
158.522080292
 31
0.0
  0
LINE
  5
13D
330
1F
100
AcDbEntity
  8
0
  6
Continuous
 62
     7
370
    15
100
AcDbLine
 10
120.2244525547
 20
164.522080292
 30
0.0
 11
118.2244525547
 21
164.522080292
 31
0.0
  0
LINE
  5
13E
330
1F
100
AcDbEntity
  8
0
  6
Continuous
 62
     7
370
    15
100
AcDbLine
 10
114.2244525547
 20
164.522080292
 30
0.0
 11
112.2244525547
 21
164.522080292
 31
0.0
  0
LINE
  5
13F
330
1F
100
AcDbEntity
  8
0
  6
Continuous
 62
     7
370
    15
100
AcDbLine
 10
112.2244525547
 20
164.522080292
 30
0.0
 11
112.2244525547
 21
158.522080292
 31
0.0
  0
LINE
  5
140
330
1F
100
AcDbEntity
  8
0
  6
Continuous
 62
     7
370
    15
100
AcDbLine
 10
105.2244525547
 20
164.022080292
 30
0.0
 11
105.2244525547
 21
153.022080292
 31
0.0
  0
LINE
  5
141
330
1F
100
AcDbEntity
  8
0
  6
Continuous
 62
     7
370
    15
100
AcDbLine
 10
103.2244525547
 20
164.022080292
 30
0.0
 11
103.2244525547
 21
153.022080292
 31
0.0
  0
LINE
  5
142
330
1F
100
AcDbEntity
  8
0
  6
Continuous
 62
     7
370
    15
100
AcDbLine
 10
125.2244525547
 20
163.022080292
 30
0.0
 11
125.2244525547
 21
154.022080292
 31
0.0
  0
SPLINE
  5
143
330
1F
100
AcDbEntity
  8
0
  6
Continuous
 62
     8
370
    15
100
AcDbSpline
210
0.0
220
0.0
230
1.0
 70
     8
 71
     3
 72
    12
 73
     8
 74
     0
 42
0.00000001
 43
0.00000001
 12
1.0
 22
0.0
 32
0.0
 13
1.0
 23
0.0
 33
0.0
 40
0.0
 40
0.0
 40
0.0
 40
0.0
 40
0.2226899324647309
 40
0.4452986316433866
 40
0.6679938974079913
 40
0.890781733981264
 40
1.0
 40
1.0
 40
1.0
 40
1.0
 10
134.2037403651369
 20
153.7971702903639
 30
0.0
 10
134.2387623265235
 20
153.876707665887
 30
0.0
 10
134.3087934739144
 20
154.0357534031277
 30
0.0
 10
134.4139208341323
 20
154.3743873547147
 30
0.0
 10
134.5189999713024
 20
154.7833668036511
 30
0.0
 10
134.6061915803328
 20
155.1689284326413
 30
0.0
 10
134.6583999486145
 20
155.4346630130052
 30
0.0
 10
134.675574655377
 20
155.5220802919708
 30
0.0
  0
SPLINE
  5
144
330
1F
100
AcDbEntity
  8
0
  6
Continuous
 62
     8
370
    15
100
AcDbSpline
210
0.0
220
0.0
230
1.0
 70
     8
 71
     3
 72
    13
 73
     9
 74
     0
 42
0.00000001
 43
0.00000001
 12
1.0
 22
0.0
 32
0.0
 13
1.0
 23
0.0
 33
0.0
 40
0.0
 40
0.0
 40
0.0
 40
0.0
 40
0.1321559763886967
 40
0.3109800311104897
 40
0.4898215278087734
 40
0.668587924985354
 40
0.8473194815727081
 40
1.0
 40
1.0
 40
1.0
 40
1.0
 10
135.7022201492736
 20
161.5220802919708
 30
0.0
 10
135.7281199976872
 20
161.6513095634423
 30
0.0
 10
135.7890656763128
 20
161.9554026809902
 30
0.0
 10
135.8849953575578
 20
162.3670006424256
 30
0.0
 10
135.9900438836378
 20
162.7592019847161
 30
0.0
 10
136.0951334818381
 20
163.0742775793908
 30
0.0
 10
136.1951329463651
 20
163.3055245240859
 30
0.0
 10
136.2600428667882
 20
163.3894559917771
 30
0.0
 10
136.2899466664636
 20
163.4281229594755
 30
0.0
  0
SPLINE
  5
145
330
1F
100
AcDbEntity
  8
0
  6
Continuous
 62
     8
370
    15
100
AcDbSpline
210
0.0
220
0.0
230
1.0
 70
     8
 71
     3
 72
    14
 73
    10
 74
     0
 42
0.00000001
 43
0.00000001
 12
1.0
 22
0.0
 32
0.0
 13
1.0
 23
0.0
 33
0.0
 40
0.0
 40
0.0
 40
0.0
 40
0.0
 40
0.0924720053653888
 40
0.2709431673176878
 40
0.449489220643965
 40
0.6280807170046517
 40
0.8066162229451045
 40
0.9850856618857445
 40
0.9999999999999999
 40
0.9999999999999999
 40
0.9999999999999999
 40
0.9999999999999999
 10
139.0879827750094
 20
153.6206648005077
 30
0.0
 10
139.1061246461203
 20
153.639788948343
 30
0.0
 10
139.159280366064
 20
153.6958227411248
 30
0.0
 10
139.2475183001784
 20
153.882334497353
 30
0.0
 10
139.3525821475622
 20
154.1701306536855
 30
0.0
 10
139.4576296297796
 20
154.5355617559085
 30
0.0
 10
139.5626975715468
 20
154.9736970725268
 30
0.0
 10
139.6357157779268
 20
155.3078872540873
 30
0.0
 10
139.6736548942991
 20
155.5067438719263
 30
0.0
 10
139.6765808729823
 20
155.5220802919708
 30
0.0
  0
SPLINE
  5
146
330
1F
100
AcDbEntity
  8
0
  6
Continuous
 62
     8
370
    15
100
AcDbSpline
210
0.0
220
0.0
230
1.0
 70
     8
 71
     3
 72
    14
 73
    10
 74
     0
 42
0.00000001
 43
0.00000001
 12
1.0
 22
0.0
 32
0.0
 13
1.0
 23
0.0
 33
0.0
 40
0.0
 40
0.0
 40
0.0
 40
0.0
 40
0.0280393259880877
 40
0.2050314420022781
 40
0.3819413109731112
 40
0.558851179943956
 40
0.7358432959581718
 40
0.9128440007533095
 40
1.0
 40
1.0
 40
1.0
 40
1.0
 10
140.7019381973172
 20
161.5220802919708
 30
0.0
 10
140.7074868292308
 20
161.5510003079672
 30
0.0
 10
140.7480599871901
 20
161.7624716031406
 30
0.0
 10
140.8236326580915
 20
162.1071817548674
 30
0.0
 10
140.9287406790912
 20
162.541305841646
 30
0.0
 10
141.0338461359181
 20
162.9002972389224
 30
0.0
 10
141.1389006890836
 20
163.1799722832908
 30
0.0
 10
141.2261824068815
 20
163.3598818416268
 30
0.0
 10
141.278482487779
 20
163.4126983763225
 30
0.0
 10
141.2957384034592
 20
163.4301246910354
 30
0.0
  0
SPLINE
  5
147
330
1F
100
AcDbEntity
  8
0
  6
Continuous
 62
     8
370
    15
100
AcDbSpline
210
0.0
220
0.0
230
1.0
 70
     8
 71
     3
 72
    13
 73
     9
 74
     0
 42
0.00000001
 43
0.00000001
 12
1.0
 22
0.0
 32
0.0
 13
1.0
 23
0.0
 33
0.0
 40
0.0
 40
0.0
 40
0.0
 40
0.0
 40
0.1652213840788802
 40
0.344491347101692
 40
0.5236881101501388
 40
0.7028447996284383
 40
0.8820808691337756
 40
1.0
 40
1.0
 40
1.0
 40
1.0
 10
144.0893068081237
 20
153.614617399548
 30
0.0
 10
144.1215936120795
 20
153.6587231141656
 30
0.0
 10
144.1889125287581
 20
153.7506848001679
 30
0.0
 10
144.2912152313375
 20
153.9930909604635
 30
0.0
 10
144.3963041515435
 20
154.312143692007
 30
0.0
 10
144.5014244442181
 20
154.7100945472709
 30
0.0
 10
144.5944961267234
 20
155.1143951697655
 30
0.0
 10
144.6525523962092
 20
155.4062603733211
 30
0.0
 10
144.6755906766449
 20
155.5220802919708
 30
0.0
  0
SPLINE
  5
148
330
1F
100
AcDbEntity
  8
0
  6
Continuous
 62
     8
370
    15
100
AcDbSpline
210
0.0
220
0.0
230
1.0
 70
     8
 71
     3
 72
    10
 73
     6
 74
     0
 42
0.00000001
 43
0.00000001
 12
1.0
 22
0.0
 32
0.0
 13
1.0
 23
0.0
 33
0.0
 40
0.0
 40
0.0
 40
0.0
 40
0.0
 40
0.4710005897761614
 40
0.9563285167468801
 40
1.0
 40
1.0
 40
1.0
 40
1.0
 10
146.0806634987915
 20
163.0220802919708
 30
0.0
 10
146.1146564528442
 20
163.1070332761283
 30
0.0
 10
146.1836763904722
 20
163.2795234239032
 30
0.0
 10
146.2558656459625
 20
163.4077983399153
 30
0.0
 10
146.2940252543111
 20
163.4361828871598
 30
0.0
 10
146.2971755162296
 20
163.4385261700741
 30
0.0
  0
SPLINE
  5
149
330
1F
100
AcDbEntity
  8
0
  6
Continuous
 62
     8
370
    15
100
AcDbSpline
210
0.0
220
0.0
230
1.0
 70
     8
 71
     3
 72
    16
 73
    12
 74
     0
 42
0.00000001
 43
0.00000001
 12
1.0
 22
0.0
 32
0.0
 13
1.0
 23
0.0
 33
0.0
 40
0.0
 40
0.0
 40
0.0
 40
0.0
 40
0.1250000000000001
 40
0.1250000000000001
 40
0.2500000000000002
 40
0.2500000000000002
 40
0.5000000000000001
 40
0.5000000000000001
 40
0.7500000000000001
 40
0.7500000000000001
 40
1.0
 40
1.0
 40
1.0
 40
1.0
 10
147.6537404562218
 20
158.7880962225533
 30
0.0
 10
147.6012013897853
 20
159.1838512035818
 30
0.0
 10
147.5486623233492
 20
159.5778005338549
 30
0.0
 10
147.4435841904767
 20
160.3464682502892
 30
0.0
 10
147.3910451240403
 20
160.7211279155988
 30
0.0
 10
147.2334279247305
 20
161.7956375452443
 30
0.0
 10
147.1283497918568
 20
162.4458896914215
 30
0.0
 10
146.9181935261095
 20
163.5062734912592
 30
0.0
 10
146.8131153932358
 20
163.9180794820126
 30
0.0
 10
146.6029591274884
 20
164.4456050453593
 30
0.0
 10
146.4978809946148
 20
164.5564147855268
 30
0.0
 10
146.3928028617411
 20
164.5104372512369
 30
0.0
  0
SPLINE
  5
14A
330
1F
100
AcDbEntity
  8
0
  6
Continuous
 62
     8
370
    15
100
AcDbSpline
210
0.0
220
0.0
230
1.0
 70
     8
 71
     3
 72
    32
 73
    28
 74
     0
 42
0.00000001
 43
0.00000001
 12
1.0
 22
0.0
 32
0.0
 13
1.0
 23
0.0
 33
0.0
 40
0.0
 40
0.0
 40
0.0
 40
0.0
 40
0.0280479398484604
 40
0.0700873988494355
 40
0.1121258338168312
 40
0.1541447468660534
 40
0.1961622310978471
 40
0.2381994926850435
 40
0.2802398361690818
 40
0.3222619201390828
 40
0.3642770641609417
 40
0.4063116206867536
 40
0.4483532462789694
 40
0.4903787454778984
 40
0.5323924356043103
 40
0.5744238902102051
 40
0.6164661240249358
 40
0.6584950767599174
 40
0.7005083581826778
 40
0.7425364501322353
 40
0.7845785961870348
 40
0.8266108602779304
 40
0.8686248215748251
 40
0.9106494516397051
 40
0.9526908171246068
 40
0.9947260952559263
 40
1.0
 40
1.0
 40
1.0
 40
1.0
 10
143.9410656899534
 20
152.5340244609749
 30
0.0
 10
143.9176842184254
 20
152.5336830126746
 30
0.0
 10
143.8592575913886
 20
152.5328297869711
 30
0.0
 10
143.7658519501474
 20
152.6508473295869
 30
0.0
 10
143.6607994097942
 20
152.8689700802151
 30
0.0
 10
143.5556956806043
 20
153.1891765105791
 30
0.0
 10
143.4505865700684
 20
153.6034124138091
 30
0.0
 10
143.3455330979941
 20
154.1032749866097
 30
0.0
 10
143.2404848520888
 20
154.6788704135611
 30
0.0
 10
143.1353915117195
 20
155.320900227499
 30
0.0
 10
143.0302741623288
 20
156.0199563052583
 30
0.0
 10
142.9252152386334
 20
156.7625815944086
 30
0.0
 10
142.8201689189393
 20
157.5353720137458
 30
0.0
 10
142.7150863385711
 20
158.3252386311661
 30
0.0
 10
142.6099637432519
 20
159.1186734466224
 30
0.0
 10
142.5048976126652
 20
159.901509869456
 30
0.0
 10
142.3998521529755
 20
160.6606086786204
 30
0.0
 10
142.2947795032959
 20
161.3830266423791
 30
0.0
 10
142.1896554229979
 20
162.055056973985
 30
0.0
 10
142.0845803990303
 20
162.6646028704609
 30
0.0
 10
141.9795348014408
 20
163.2028314099817
 30
0.0
 10
141.8744707077134
 20
163.6609341604609
 30
0.0
 10
141.7693488742741
 20
164.0282205046822
 30
0.0
 10
141.6642644620067
 20
164.3005198660578
 30
0.0
 10
141.5592146907883
 20
164.4628060195033
 30
0.0
 10
141.4847778611813
 20
164.5332498509142
 30
0.0
 10
141.4453378968706
 20
164.5175280557122
 30
0.0
 10
141.440941232159
 20
164.5157754308461
 30
0.0
  0
SPLINE
  5
14B
330
1F
100
AcDbEntity
  8
0
  6
Continuous
 62
     8
370
    15
100
AcDbSpline
210
0.0
220
0.0
230
1.0
 70
     8
 71
     3
 72
    32
 73
    28
 74
     0
 42
0.00000001
 43
0.00000001
 12
1.0
 22
0.0
 32
0.0
 13
1.0
 23
0.0
 33
0.0
 40
0.0
 40
0.0
 40
0.0
 40
0.0
 40
0.0027621892490437
 40
0.0448185571463823
 40
0.0868555024667893
 40
0.1288993913364201
 40
0.1709615491947938
 40
0.2130206235571552
 40
0.2550599103018112
 40
0.2971006266052939
 40
0.3391608749567062
 40
0.3812221478730611
 40
0.42326439839984
 40
0.465302423610896
 40
0.5073602083651647
 40
0.5494230864472037
 40
0.591468658501956
 40
0.6335047562902649
 40
0.6755596212297331
 40
0.7176234507628647
 40
0.759672483596031
 40
0.8017076363349062
 40
0.843759252045245
 40
0.8858233462531145
 40
0.9278757822204726
 40
0.9699110608775501
 40
1.0
 40
1.0
 40
1.0
 40
1.0
 10
138.939156025211
 20
152.5267454822391
 30
0.0
 10
138.9368559656376
 20
152.5256932112
 30
0.0
 10
138.8995358032116
 20
152.5086193377448
 30
0.0
 10
138.8272066761333
 20
152.5716201966283
 30
0.0
 10
138.7220889024578
 20
152.7246438748739
 30
0.0
 10
138.6169956743051
 20
152.9922296854087
 30
0.0
 10
138.5119474038481
 20
153.3521589829558
 30
0.0
 10
138.4068939177147
 20
153.8016191571851
 30
0.0
 10
138.3017848879297
 20
154.3329108659568
 30
0.0
 10
138.1966808497611
 20
154.9389791797666
 30
0.0
 10
138.0916294651063
 20
155.6069971873658
 30
0.0
 10
137.9865798114533
 20
156.3250335241001
 30
0.0
 10
137.8814810200078
 20
157.0811657161691
 30
0.0
 10
137.7763675296968
 20
157.8630104018263
 30
0.0
 10
137.6713115497324
 20
158.6561957724821
 30
0.0
 10
137.5662644062999
 20
159.4470581657123
 30
0.0
 10
137.4611764742527
 20
160.2220839062795
 30
0.0
 10
137.3560560755166
 20
160.9669540426138
 30
0.0
 10
137.2509937893252
 20
161.6688912916736
 30
0.0
 10
137.1459480206376
 20
162.3167827052334
 30
0.0
 10
137.0408705367527
 20
162.8994639880198
 30
0.0
 10
136.9357466820782
 20
163.4048367703821
 30
0.0
 10
136.8306764247439
 20
163.8238576476446
 30
0.0
 10
136.7256306401616
 20
164.1527646902652
 30
0.0
 10
136.6205638747259
 20
164.3812824654795
 30
0.0
 10
136.5254026261674
 20
164.5073739010828
 30
0.0
 10
136.4653286292321
 20
164.5095876992868
 30
0.0
 10
136.4402668276309
 20
164.5105112564697
 30
0.0
  0
SPLINE
  5
14C
330
1F
100
AcDbEntity
  8
0
  6
Continuous
 62
     8
370
    15
100
AcDbSpline
210
0.0
220
0.0
230
1.0
 70
     8
 71
     3
 72
    12
 73
     8
 74
     0
 42
0.00000001
 43
0.00000001
 12
1.0
 22
0.0
 32
0.0
 13
1.0
 23
0.0
 33
0.0
 40
0.0
 40
0.0
 40
0.0
 40
0.0
 40
0.2010590816884274
 40
0.4021062376357999
 40
0.6031367360839474
 40
0.8041555240243272
 40
1.0
 40
1.0
 40
1.0
 40
1.0
 10
134.2037403651369
 20
153.7971703011124
 30
0.0
 10
134.2690160525827
 20
153.789794047416
 30
0.0
 10
134.3995635556722
 20
153.7750419775428
 30
0.0
 10
134.5670554253334
 20
153.66680080557
 30
0.0
 10
134.6757531275837
 20
153.5103712944196
 30
0.0
 10
134.7201544483733
 20
153.3249936192191
 30
0.0
 10
134.6839585156958
 20
153.2069732160718
 30
0.0
 10
134.6660965110403
 20
153.1487323908043
 30
0.0
  0
LINE
  5
14D
330
1F
100
AcDbEntity
  8
0
  6
Continuous
 62
     8
370
    15
100
AcDbLine
 10
134.2037401384
 20
153.797169724
 30
0.0
 11
134.0380646313
 21
153.7655420223
 31
0.0
  0
SPLINE
  5
14E
330
1F
100
AcDbEntity
  8
0
  6
Continuous
 62
     8
370
    15
100
AcDbSpline
210
0.0
220
0.0
230
1.0
 70
     8
 71
     3
 72
    32
 73
    28
 74
     0
 42
0.00000001
 43
0.00000001
 12
1.0
 22
0.0
 32
0.0
 13
1.0
 23
0.0
 33
0.0
 40
0.0
 40
0.0
 40
0.0
 40
0.0
 40
0.0207993340607943
 40
0.0628096246773748
 40
0.1048158018075678
 40
0.1468022587572033
 40
0.188791561101123
 40
0.2308001145355122
 40
0.2728086269650076
 40
0.3147978326237767
 40
0.3567842187205974
 40
0.3987904316487123
 40
0.4408007729422866
 40
0.4827933388051168
 40
0.5247776581733847
 40
0.5667810685663567
 40
0.6087924950486131
 40
0.650788456309766
 40
0.6927715451306554
 40
0.7347717699597811
 40
0.7767836385548685
 40
0.8187830441453808
 40
0.8607660072043999
 40
0.9027628331245727
 40
0.9447744373735408
 40
0.9867770881590362
 40
1.0
 40
1.0
 40
1.0
 40
1.0
 10
121.4372410316384
 20
164.508436446742
 30
0.0
 10
121.4545909843784
 20
164.5111298261832
 30
0.0
 10
121.5069842012279
 20
164.5192632669617
 30
0.0
 10
121.5943581509477
 20
164.4201536085662
 30
0.0
 10
121.699414899669
 20
164.220533594228
 30
0.0
 10
121.8045256246585
 20
163.9162374290829
 30
0.0
 10
121.9096271514405
 20
163.5172491576856
 30
0.0
 10
122.0146775809735
 20
163.0314960504782
 30
0.0
 10
122.1197280899882
 20
162.4684784211904
 30
0.0
 10
122.2248295777806
 20
161.837045833681
 30
0.0
 10
122.329940944698
 20
161.1464882090881
 30
0.0
 10
122.4349956270822
 20
160.4104184404108
 30
0.0
 10
122.5400432535675
 20
159.6419629397503
 30
0.0
 10
122.6451338262959
 20
158.8540873519973
 30
0.0
 10
122.7502528122357
 20
158.060252398794
 30
0.0
 10
122.8553133862887
 20
157.2746229760506
 30
0.0
 10
122.9603594038161
 20
156.5104401261062
 30
0.0
 10
123.0654393926321
 20
155.7807816019986
 30
0.0
 10
123.170562733274
 20
155.0996093865037
 30
0.0
 10
123.2756309446703
 20
154.4787288112186
 30
0.0
 10
123.3806763487087
 20
153.9273725742447
 30
0.0
 10
123.4857466817392
 20
153.4547588529349
 30
0.0
 10
123.5908706140435
 20
153.0719044109492
 30
0.0
 10
123.6959477116081
 20
152.7834746547506
 30
0.0
 10
123.8009949484181
 20
152.6013539743808
 30
0.0
 10
123.8820709387323
 20
152.5173400894515
 30
0.0
 10
123.9281464212867
 20
152.5305564335732
 30
0.0
 10
123.939178487143
 20
152.533720883963
 30
0.0
  0
SPLINE
  5
14F
330
1F
100
AcDbEntity
  8
0
  6
Continuous
 62
     8
370
    15
100
AcDbSpline
210
0.0
220
0.0
230
1.0
 70
     8
 71
     3
 72
    31
 73
    27
 74
     0
 42
0.00000001
 43
0.00000001
 12
1.0
 22
0.0
 32
0.0
 13
1.0
 23
0.0
 33
0.0
 40
0.0
 40
0.0
 40
0.0
 40
0.0
 40
0.0377867512815434
 40
0.0798305415342443
 40
0.1218850081295142
 40
0.1639562220265741
 40
0.2060213442481696
 40
0.2480668317050483
 40
0.2901179216847689
 40
0.3321876896466421
 40
0.3742554006704201
 40
0.4163034142064334
 40
0.458351427742445
 40
0.500419138766222
 40
0.5424889067280932
 40
0.584539996707814
 40
0.626585484164696
 40
0.6686506063862966
 40
0.7107218202833628
 40
0.7527762868786386
 40
0.7948200771313451
 40
0.8368821831726176
 40
0.8789541781937628
 40
0.9210121091315722
 40
0.963055219027448
 40
1.0
 40
1.0
 40
1.0
 40
1.0
 10
126.4386395269431
 20
164.5159856387548
 30
0.0
 10
126.4701015833773
 20
164.5102090487042
 30
0.0
 10
126.536570197845
 20
164.4980050804791
 30
0.0
 10
126.6381320245898
 20
164.3508890761903
 30
0.0
 10
126.7432165383803
 20
164.1045652005405
 30
0.0
 10
126.8482634291692
 20
163.7596093397943
 30
0.0
 10
126.9533207732048
 20
163.3254397508948
 30
0.0
 10
127.0584362970187
 20
162.8072621017438
 30
0.0
 10
127.1635323698733
 20
162.2128125937432
 30
0.0
 10
127.2685812774811
 20
161.5546977349703
 30
0.0
 10
127.3736336691129
 20
160.8445444911939
 30
0.0
 10
127.4787402518051
 20
160.0939900067963
 30
0.0
 10
127.5838468344071
 20
159.3153942925144
 30
0.0
 10
127.6888992263095
 20
158.5231714403262
 30
0.0
 10
127.7939481329253
 20
157.730938111804
 30
0.0
 10
127.8990442094758
 20
156.9522512154945
 30
0.0
 10
128.0041597194983
 20
156.2014976314877
 30
0.0
 10
128.1092171150283
 20
155.4913275588665
 30
0.0
 10
128.2142638136173
 20
154.8331855938706
 30
0.0
 10
128.3193490443891
 20
154.2385094190038
 30
0.0
 10
128.424470675291
 20
153.7197891910694
 30
0.0
 10
128.5295347608933
 20
153.2855602151993
 30
0.0
 10
128.6345805936459
 20
152.9405433701831
 30
0.0
 10
128.7396546854516
 20
152.6940889413359
 30
0.0
 10
128.8405208100549
 20
152.5469205622514
 30
0.0
 10
128.9062936378457
 20
152.5346230997555
 30
0.0
 10
128.9370573750458
 20
152.5288712426869
 30
0.0
  0
SPLINE
  5
150
330
1F
100
AcDbEntity
  8
0
  6
Continuous
 62
     8
370
    15
100
AcDbSpline
210
0.0
220
0.0
230
1.0
 70
     8
 71
     3
 72
    32
 73
    28
 74
     0
 42
0.00000001
 43
0.00000001
 12
1.0
 22
0.0
 32
0.0
 13
1.0
 23
0.0
 33
0.0
 40
0.0
 40
0.0
 40
0.0
 40
0.0
 40
0.0138741597467198
 40
0.0557031881086063
 40
0.0975446289169185
 40
0.1393744731940444
 40
0.181187250977857
 40
0.2230128489828412
 40
0.264853849471813
 40
0.3066868663900342
 40
0.3485008697293153
 40
0.3903230861099526
 40
0.4321630058124929
 40
0.4739988138969423
 40
0.5158148755807705
 40
0.5576337453885466
 40
0.5994718436460785
 40
0.6413099827421604
 40
0.6831289488428668
 40
0.7249450810920811
 40
0.7667808535238231
 40
0.8086207227549463
 40
0.8504431505983363
 40
0.8922580032327692
 40
0.9340921925477792
 40
0.9759336519650333
 40
1.0
 40
1.0
 40
1.0
 40
1.0
 10
131.4368423460353
 20
164.5101862073463
 30
0.0
 10
131.4484650758828
 20
164.5136351262742
 30
0.0
 10
131.4951290266269
 20
164.5274821471623
 30
0.0
 10
131.5768035696466
 20
164.4434160546532
 30
0.0
 10
131.6818497156937
 20
164.2611711608166
 30
0.0
 10
131.7869177283206
 20
163.9729446106322
 30
0.0
 10
131.8920411221998
 20
163.5907604850666
 30
0.0
 10
131.9971210967475
 20
163.1183054491242
 30
0.0
 10
132.1021671180995
 20
162.5669767957669
 30
0.0
 10
132.2072276911288
 20
161.9461597239994
 30
0.0
 10
132.3123466773393
 20
161.2653710697642
 30
0.0
 10
132.4174372500079
 20
160.5358250477114
 30
0.0
 10
132.5224848764616
 20
159.7716571823802
 30
0.0
 10
132.6275395590322
 20
158.9860313359553
 30
0.0
 10
132.732650925236
 20
158.1922052401895
 30
0.0
 10
132.8377524156967
 20
157.4042807278774
 30
0.0
 10
132.9428029147471
 20
156.6358242462965
 30
0.0
 10
133.0478533814656
 20
155.8997308826981
 30
0.0
 10
133.1529547695349
 20
155.2089019520618
 30
0.0
 10
133.2580660122045
 20
154.5771314021126
 30
0.0
 10
133.363120827996
 20
154.0140748539709
 30
0.0
 10
133.4681687452887
 20
153.5282937912073
 30
0.0
 10
133.5732600348406
 20
153.1289230912946
 30
0.0
 10
133.6783780360233
 20
152.8242012285879
 30
0.0
 10
133.7834394310869
 20
152.6239750024316
 30
0.0
 10
133.8736135158071
 20
152.5235376040254
 30
0.0
 10
133.9288136705713
 20
152.5326531571263
 30
0.0
 10
133.9489701010079
 20
152.5359817168515
 30
0.0
  0
SPLINE
  5
151
330
1F
100
AcDbEntity
  8
0
  6
Continuous
 62
     8
370
    15
100
AcDbSpline
210
0.0
220
0.0
230
1.0
 70
     8
 71
     3
 72
     9
 73
     5
 74
     0
 42
0.00000001
 43
0.00000001
 12
1.0
 22
0.0
 32
0.0
 13
1.0
 23
0.0
 33
0.0
 40
0.0
 40
0.0
 40
0.0
 40
0.0
 40
0.9230046403508008
 40
1.0
 40
1.0
 40
1.0
 40
1.0
 10
134.2037401384485
 20
153.7971697347787
 30
0.0
 10
134.168719996079
 20
153.7257675999702
 30
0.0
 10
134.1307785374574
 20
153.6484092296142
 30
0.0
 10
134.0928163072182
 20
153.6175963364056
 30
0.0
 10
134.0898933916479
 20
153.6152238866112
 30
0.0
  0
SPLINE
  5
152
330
1F
100
AcDbEntity
  8
0
  6
Continuous
 62
     8
370
    15
100
AcDbSpline
210
0.0
220
0.0
230
1.0
 70
     8
 71
     3
 72
    14
 73
    10
 74
     0
 42
0.00000001
 43
0.00000001
 12
1.0
 22
0.0
 32
0.0
 13
1.0
 23
0.0
 33
0.0
 40
0.0
 40
0.0
 40
0.0
 40
0.0
 40
0.0500422504296236
 40
0.2285941005426622
 40
0.4071081854686962
 40
0.585543210120048
 40
0.7640181469203657
 40
0.9425659888367005
 40
1.0
 40
1.0
 40
1.0
 40
1.0
 10
131.2910129379954
 20
163.4264336811719
 30
0.0
 10
131.2811924080089
 20
163.4174832794446
 30
0.0
 10
131.2363320110474
 20
163.3765976475081
 30
0.0
 10
131.156488955598
 20
163.2185037285897
 30
0.0
 10
131.0514233058599
 20
162.9540266917997
 30
0.0
 10
130.946304661055
 20
162.6063266502738
 30
0.0
 10
130.8412143312449
 20
162.1841925948313
 30
0.0
 10
130.7599256513084
 20
161.8188138455807
 30
0.0
 10
130.7136258193098
 20
161.5801637165822
 30
0.0
 10
130.7023572194866
 20
161.5220802919708
 30
0.0
  0
SPLINE
  5
153
330
1F
100
AcDbEntity
  8
0
  6
Continuous
 62
     8
370
    15
100
AcDbSpline
210
0.0
220
0.0
230
1.0
 70
     8
 71
     3
 72
    13
 73
     9
 74
     0
 42
0.00000001
 43
0.00000001
 12
1.0
 22
0.0
 32
0.0
 13
1.0
 23
0.0
 33
0.0
 40
0.0
 40
0.0
 40
0.0
 40
0.0
 40
0.1635520613846906
 40
0.3422502348705526
 40
0.5209782333698422
 40
0.6996381932510712
 40
0.8782483297786619
 40
0.9999999999999999
 40
0.9999999999999999
 40
0.9999999999999999
 40
0.9999999999999999
 10
129.6765187195423
 20
155.5220802919708
 30
0.0
 10
129.6444434710726
 20
155.3644181651767
 30
0.0
 10
129.5773225725078
 20
155.0344932503293
 30
0.0
 10
129.4752151143269
 20
154.6055301849528
 30
0.0
 10
129.3701684336447
 20
154.2258067294739
 30
0.0
 10
129.265087242781
 20
153.924479958895
 30
0.0
 10
129.1711271868553
 20
153.7169759611666
 30
0.0
 10
129.1122559892005
 20
153.6480270719058
 30
0.0
 10
129.0883925469074
 20
153.6200786369224
 30
0.0
  0
SPLINE
  5
154
330
1F
100
AcDbEntity
  8
0
  6
Continuous
 62
     8
370
    15
100
AcDbSpline
210
0.0
220
0.0
230
1.0
 70
     8
 71
     3
 72
    13
 73
     9
 74
     0
 42
0.00000001
 43
0.00000001
 12
1.0
 22
0.0
 32
0.0
 13
1.0
 23
0.0
 33
0.0
 40
0.0
 40
0.0
 40
0.0
 40
0.0
 40
0.1222358949127278
 40
0.3008496602398445
 40
0.4795295459944727
 40
0.6582654674482223
 40
0.8369559091182506
 40
0.9999999999999999
 40
0.9999999999999999
 40
0.9999999999999999
 40
0.9999999999999999
 10
126.2896887575919
 20
163.424228548729
 30
0.0
 10
126.2657290037139
 20
163.3961490766365
 30
0.0
 10
126.2067587330026
 20
163.3270392652773
 30
0.0
 10
126.1127000730228
 20
163.1187958799431
 30
0.0
 10
126.0076287396386
 20
162.8173056163386
 30
0.0
 10
125.9025832055069
 20
162.437552877571
 30
0.0
 10
125.8005670716544
 20
162.0089666125212
 30
0.0
 10
125.7335479930517
 20
161.6793451479128
 30
0.0
 10
125.7015726914604
 20
161.5220802919708
 30
0.0
  0
SPLINE
  5
155
330
1F
100
AcDbEntity
  8
0
  6
Continuous
 62
     8
370
    15
100
AcDbSpline
210
0.0
220
0.0
230
1.0
 70
     8
 71
     3
 72
    10
 73
     6
 74
     0
 42
0.00000001
 43
0.00000001
 12
1.0
 22
0.0
 32
0.0
 13
1.0
 23
0.0
 33
0.0
 40
0.0
 40
0.0
 40
0.0
 40
0.0
 40
0.3531821300661234
 40
0.8594580195810106
 40
1.0
 40
1.0
 40
1.0
 40
1.0
 10
124.2946305852593
 20
154.0220802919708
 30
0.0
 10
124.2701916115454
 20
153.9569799306375
 30
0.0
 10
124.2107201089958
 20
153.7985601724947
 30
0.0
 10
124.1415564399156
 20
153.6674740475911
 30
0.0
 10
124.0967864653587
 20
153.6264658733066
 30
0.0
 10
124.0870587488251
 20
153.6175555288415
 30
0.0
  0
SPLINE
  5
156
330
1F
100
AcDbEntity
  8
0
  6
Continuous
 62
     8
370
    15
100
AcDbSpline
210
0.0
220
0.0
230
1.0
 70
     8
 71
     3
 72
    10
 73
     6
 74
     0
 42
0.00000001
 43
0.00000001
 12
1.0
 22
0.0
 32
0.0
 13
1.0
 23
0.0
 33
0.0
 40
0.0
 40
0.0
 40
0.0
 40
0.0
 40
0.0437342036741089
 40
0.5538401013327015
 40
1.0
 40
1.0
 40
1.0
 40
1.0
 10
121.2881440452649
 20
163.4286335881362
 30
0.0
 10
121.2851396347858
 20
163.4261668936851
 30
0.0
 10
121.2470924574193
 20
163.3949292309414
 30
0.0
 10
121.1784439016706
 20
163.2670765998947
 30
0.0
 10
121.1127932670819
 20
163.1000220526697
 30
0.0
 10
121.0821629960965
 20
163.0220802919708
 30
0.0
  0
DIMENSION
  5
157
330
1F
100
AcDbEntity
  8
0
  6
Continuous
 62
     7
370
     0
100
AcDbDimension
  2
_D_2
 10
173.2244525547
 20
192.522080292
 30
0.0
 11
138.2244525547
 21
192.522080292
 31
0.0
 70
   160
  1
<>
 71
     2
 42
-1.0
  3
SLDDIMSTYLE0
100
AcDbAlignedDimension
 13
103.2244525547
 23
164.022080292
 33
0.0
 14
173.2244525547
 24
161.022080292
 34
0.0
100
AcDbRotatedDimension
  0
DIMENSION
  5
161
330
1F
100
AcDbEntity
  8
0
  6
Continuous
 62
     7
370
     0
100
AcDbDimension
  2
_D_3
 10
181.6324342564
 20
155.522080292
 30
0.0
 11
181.6324342564
 21
173.8361737189
 31
0.0
 70
   160
  1
%%c<>
 71
     2
 42
-1.0
  3
SLDDIMSTYLE2
100
AcDbAlignedDimension
 13
172.7244525547
 23
161.522080292
 33
0.0
 14
172.7244525547
 24
155.522080292
 34
0.0
 50
90.0
100
AcDbRotatedDimension
  0
DIMENSION
  5
16F
330
1F
100
AcDbEntity
  8
0
  6
Continuous
 62
     7
370
     0
100
AcDbDimension
  2
_D_4
 10
192.1435521967
 20
148.522080292
 30
0.0
 11
192.1435521967
 21
158.522080292
 31
0.0
 70
   160
  1
%%c<>
 71
     2
 42
-1.0
  3
SLDDIMSTYLE0
100
AcDbAlignedDimension
 13
170.8244525547
 23
168.522080292
 33
0.0
 14
170.8244525547
 24
148.522080292
 34
0.0
 50
90.0
100
AcDbRotatedDimension
  0
DIMENSION
  5
17A
330
1F
100
AcDbEntity
  8
0
  6
Continuous
 62
     7
370
     0
100
AcDbDimension
  2
_D_5
 10
112.2244525547
 20
178.800036668
 30
0.0
 11
107.7244525547
 21
178.800036668
 31
0.0
 70
   160
  1
<>
 71
     2
 42
-1.0
  3
SLDDIMSTYLE2
100
AcDbAlignedDimension
 13
103.2244525547
 23
164.022080292
 33
0.0
 14
112.2244525547
 24
164.522080292
 34
0.0
100
AcDbRotatedDimension
  0
DIMENSION
  5
186
330
1F
100
AcDbEntity
  8
0
  6
Continuous
 62
     7
370
     0
100
AcDbDimension
  2
_D_6
 10
125.2244525547
 20
131.722080292
 30
0.0
 11
135.2244525547
 21
131.722080292
 31
0.0
 70
   160
  1
<>st
 71
     2
 42
-1.0
  3
SLDDIMSTYLE0
100
AcDbAlignedDimension
 13
145.2244525547
 23
154.422080292
 33
0.0
 14
125.2244525547
 24
154.022080292
 34
0.0
100
AcDbRotatedDimension
  0
DIMENSION
  5
191
330
1F
100
AcDbEntity
  8
0
  6
Continuous
 62
     7
370
     0
100
AcDbDimension
  2
_D_7
 10
150.2244525547
 20
131.722080292
 30
0.0
 11
160.7244525547
 21
131.722080292
 31
0.0
 70
   160
  1
<>
 71
     2
 42
-1.0
  3
SLDDIMSTYLE0
100
AcDbAlignedDimension
 13
171.2244525547
 23
148.922080292
 33
0.0
 14
150.2244525547
 24
146.922080292
 34
0.0
100
AcDbRotatedDimension
  0
DIMENSION
  5
19B
330
1F
100
AcDbEntity
  8
0
  6
Continuous
 62
     7
370
     0
100
AcDbDimension
  2
_D_8
 10
93.2244525547
 20
153.022080292
 30
0.0
 11
93.2244525547
 21
158.522080292
 31
0.0
 70
   160
  1
%%c<>
 71
     2
 42
-1.0
  3
SLDDIMSTYLE2
100
AcDbAlignedDimension
 13
103.2244525547
 23
164.022080292
 33
0.0
 14
103.2244525547
 24
153.022080292
 34
0.0
 50
90.0
100
AcDbRotatedDimension
  0
MTEXT
  5
1A8
330
1F
100
AcDbEntity
  8
0
  6
Continuous
 62
     7
370
     0
100
AcDbMText
 10
94.9307022171
 20
137.955141939
 30
0.0
 40
3.5
 41
0.0
 71
     1
 72
     1
  1
BF-6
  7
SLDTEXTSTYLE1
 73
     1
 44
1.0
  0
LEADER
  5
1A9
330
1F
100
AcDbEntity
  8
0
  6
Continuous
 62
     7
370
     0
100
AcDbLeader
  3
SLDDIMSTYLE1
 76
     3
 10
115.9738909515
 20
145.0789256524
 30
0.0
 10
104.3321167883
 20
133.302919708
 30
0.0
 10
94.8905109489
 20
133.302919708
 30
0.0
  0
LINE
  5
1AA
330
1F
100
AcDbEntity
  8
0
  6
CENTERX2
 62
     7
370
     0
100
AcDbLine
 10
100.499117831
 20
158.522080292
 30
0.0
 11
177.9861308741
 21
158.522080292
 31
0.0
  0
ENDSEC
  0
SECTION
  2
OBJECTS
  0
DICTIONARY
  5
C
330
0
100
AcDbDictionary
281
     1
  3
ACAD_GROUP
350
D
  3
ACAD_LAYOUT
350
1A
  3
ACAD_MLINESTYLE
350
17
  3
ACAD_PLOTSETTINGS
350
19
  3
ACAD_PLOTSTYLENAME
350
E
  0
DICTIONARY
  5
D
102
{ACAD_REACTORS
330
C
102
}
330
C
100
AcDbDictionary
281
     1
  0
DICTIONARY
  5
1A
102
{ACAD_REACTORS
330
C
102
}
330
C
100
AcDbDictionary
281
     1
  3
Layout1
350
1E
  3
Layout2
350
26
  3
Model
350
22
  0
DICTIONARY
  5
17
102
{ACAD_REACTORS
330
C
102
}
330
C
100
AcDbDictionary
281
     1
  3
Standard
350
18
  0
DICTIONARY
  5
19
102
{ACAD_REACTORS
330
C
102
}
330
C
100
AcDbDictionary
281
     1
  0
ACDBDICTIONARYWDFLT
  5
E
102
{ACAD_REACTORS
330
C
102
}
330
C
100
AcDbDictionary
281
     1
  3
Normal
350
F
100
AcDbDictionaryWithDefault
340
F
  0
LAYOUT
  5
1E
102
{ACAD_REACTORS
330
1A
102
}
330
1A
100
AcDbPlotSettings
  1

  2
none_device
  4

  6

 40
0.0
 41
0.0
 42
0.0
 43
0.0
 44
0.0
 45
0.0
 46
0.0
 47
0.0
 48
0.0
 49
0.0
140
0.0
141
0.0
142
1.0
143
1.0
 70
   688
 72
     0
 73
     0
 74
     5
  7

 75
    16
147
1.0
148
0.0
149
0.0
100
AcDbLayout
  1
Layout1
 70
     1
 71
     1
 10
0.0
 20
0.0
 11
420.0
 21
297.0
 12
0.0
 22
0.0
 32
0.0
 14
1.0000000000E+20
 24
1.0000000000E+20
 34
1.0000000000E+20
 15
-1.0000000000E+20
 25
-1.0000000000E+20
 35
-1.0000000000E+20
146
0.0
 13
0.0
 23
0.0
 33
0.0
 16
1.0
 26
0.0
 36
0.0
 17
0.0
 27
1.0
 37
0.0
 76
     0
330
1B
  0
LAYOUT
  5
26
102
{ACAD_REACTORS
330
1A
102
}
330
1A
100
AcDbPlotSettings
  1

  2
none_device
  4

  6

 40
0.0
 41
0.0
 42
0.0
 43
0.0
 44
0.0
 45
0.0
 46
0.0
 47
0.0
 48
0.0
 49
0.0
140
0.0
141
0.0
142
1.0
143
1.0
 70
   688
 72
     0
 73
     0
 74
     5
  7

 75
    16
147
1.0
148
0.0
149
0.0
100
AcDbLayout
  1
Layout2
 70
     1
 71
     2
 10
0.0
 20
0.0
 11
0.0
 21
0.0
 12
0.0
 22
0.0
 32
0.0
 14
0.0
 24
0.0
 34
0.0
 15
0.0
 25
0.0
 35
0.0
146
0.0
 13
0.0
 23
0.0
 33
0.0
 16
1.0
 26
0.0
 36
0.0
 17
0.0
 27
1.0
 37
0.0
 76
     0
330
23
  0
LAYOUT
  5
22
102
{ACAD_REACTORS
330
1A
102
}
330
1A
100
AcDbPlotSettings
  1

  2
none_device
  4

  6

 40
0.0
 41
0.0
 42
0.0
 43
0.0
 44
0.0
 45
0.0
 46
0.0
 47
0.0
 48
0.0
 49
0.0
140
0.0
141
0.0
142
1.0
143
1.0
 70
  1712
 72
     0
 73
     0
 74
     0
  7

 75
     0
147
1.0
148
0.0
149
0.0
100
AcDbLayout
  1
Model
 70
     1
 71
     0
 10
0.0
 20
0.0
 11
210.0
 21
297.0
 12
0.0
 22
0.0
 32
0.0
 14
0.0
 24
0.0
 34
0.0
 15
210.0
 25
297.0
 35
0.0
146
0.0
 13
0.0
 23
0.0
 33
0.0
 16
1.0
 26
0.0
 36
0.0
 17
0.0
 27
1.0
 37
0.0
 76
     0
330
1F
331
29
  0
MLINESTYLE
  5
18
102
{ACAD_REACTORS
330
17
102
}
330
17
100
AcDbMlineStyle
  2
Standard
 70
     0
  3

 62
   256
 51
90.0
 52
90.0
 71
     2
 49
0.5
 62
   256
  6
BYLAYER
 49
-0.5
 62
   256
  6
BYLAYER
  0
ACDBPLACEHOLDER
  5
F
102
{ACAD_REACTORS
330
E
102
}
330
E
  0
ENDSEC
  0
EOF
