  0
SECTION
  2
HEADER
  9
$ACADVER
  1
AC1015
  9
$ACADMAINTVER
 70
     6
  9
$DWGCODEPAGE
  3
DOS932
  9
$INSBASE
 10
0.0
 20
0.0
 30
0.0
  9
$EXTMIN
 10
0.0
 20
0.0
 30
0.0
  9
$EXTMAX
 10
210.0
 20
297.0
 30
0.0
  9
$LIMMIN
 10
0.0
 20
0.0
  9
$LIMMAX
 10
210.0
 20
297.0
  9
$ORTHOMODE
 70
     0
  9
$REGENMODE
 70
     1
  9
$FILLMODE
 70
     1
  9
$QTEXTMODE
 70
     0
  9
$MIRRTEXT
 70
     1
  9
$LTSCALE
 40
1.0
  9
$ATTMODE
 70
     1
  9
$TEXTSIZE
 40
3.5
  9
$TRACEWID
 40
1.0
  9
$TEXTSTYLE
  7
Standard
  9
$CLAYER
  8
0
  9
$CELTYPE
  6
ByLayer
  9
$CECOLOR
 62
   256
  9
$CELTSCALE
 40
1.0
  9
$DISPSILH
 70
     0
  9
$DIMSCALE
 40
1.0
  9
$DIMASZ
 40
3.302
  9
$DIMEXO
 40
1.0
  9
$DIMDLI
 40
3.75
  9
$DIMRND
 40
0.0
  9
$DIMDLE
 40
0.0
  9
$DIMEXE
 40
1.0
  9
$DIMTP
 40
0.0
  9
$DIMTM
 40
0.0
  9
$DIMTXT
 40
3.5
  9
$DIMCEN
 40
2.5
  9
$DIMTSZ
 40
0.0
  9
$DIMTOL
 70
     0
  9
$DIMLIM
 70
     0
  9
$DIMTIH
 70
     1
  9
$DIMTOH
 70
     1
  9
$DIMSE1
 70
     0
  9
$DIMSE2
 70
     0
  9
$DIMTAD
 70
     1
  9
$DIMZIN
 70
     0
  9
$DIMBLK
  1

  9
$DIMASO
 70
     1
  9
$DIMSHO
 70
     1
  9
$DIMPOST
  1

  9
$DIMAPOST
  1

  9
$DIMALT
 70
     0
  9
$DIMALTD
 70
     3
  9
$DIMALTF
 40
0.0393700787
  9
$DIMLFAC
 40
1.0
  9
$DIMTOFL
 70
     1
  9
$DIMTVP
 40
0.0
  9
$DIMTIX
 70
     0
  9
$DIMSOXD
 70
     0
  9
$DIMSAH
 70
     0
  9
$DIMBLK1
  1

  9
$DIMBLK2
  1

  9
$DIMSTYLE
  2
ISO-25
  9
$DIMCLRD
 70
     0
  9
$DIMCLRE
 70
     0
  9
$DIMCLRT
 70
     0
  9
$DIMTFAC
 40
1.0
  9
$DIMGAP
 40
1.524
  9
$DIMJUST
 70
     0
  9
$DIMSD1
 70
     0
  9
$DIMSD2
 70
     0
  9
$DIMTOLJ
 70
     0
  9
$DIMTZIN
 70
     0
  9
$DIMALTZ
 70
     0
  9
$DIMALTTZ
 70
     0
  9
$DIMUPT
 70
     0
  9
$DIMDEC
 70
     2
  9
$DIMTDEC
 70
     2
  9
$DIMALTU
 70
     2
  9
$DIMALTTD
 70
     3
  9
$DIMTXSTY
  7
Standard
  9
$DIMAUNIT
 70
     0
  9
$DIMADEC
 70
     2
  9
$DIMALTRND
 40
0.0
  9
$DIMAZIN
 70
     0
  9
$DIMDSEP
 70
    44
  9
$DIMATFIT
 70
     3
  9
$DIMFRAC
 70
     0
  9
$DIMLDRBLK
  1

  9
$DIMLUNIT
 70
     2
  9
$DIMLWD
 70
    -2
  9
$DIMLWE
 70
    -2
  9
$DIMTMOVE
 70
     0
  9
$LUNITS
 70
     2
  9
$LUPREC
 70
     2
  9
$SKETCHINC
 40
1.0
  9
$FILLETRAD
 40
10.0
  9
$AUNITS
 70
     0
  9
$AUPREC
 70
     2
  9
$MENU
  1
.
  9
$ELEVATION
 40
0.0
  9
$PELEVATION
 40
0.0
  9
$THICKNESS
 40
0.0
  9
$LIMCHECK
 70
     0
  9
$CHAMFERA
 40
10.0
  9
$CHAMFERB
 40
10.0
  9
$CHAMFERC
 40
20.0
  9
$CHAMFERD
 40
0.0
  9
$SKPOLY
 70
     0
  9
$TDCREATE
 40
2456735.403176285
  9
$TDUCREATE
 40
2456735.028176285
  9
$TDUPDATE
 40
2456735.40318441
  9
$TDUUPDATE
 40
2456735.02818441
  9
$TDINDWG
 40
0.0000000116
  9
$TDUSRTIMER
 40
0.0000000116
  9
$USRTIMER
 70
     1
  9
$ANGBASE
 50
0.0
  9
$ANGDIR
 70
     0
  9
$PDMODE
 70
     0
  9
$PDSIZE
 40
-1.0
  9
$PLINEWID
 40
0.0
  9
$SPLFRAME
 70
     0
  9
$SPLINETYPE
 70
     6
  9
$SPLINESEGS
 70
     8
  9
$HANDSEED
  5
1D7
  9
$SURFTAB1
 70
     6
  9
$SURFTAB2
 70
     6
  9
$SURFTYPE
 70
     6
  9
$SURFU
 70
     6
  9
$SURFV
 70
     6
  9
$UCSBASE
  2

  9
$UCSNAME
  2

  9
$UCSORG
 10
0.0
 20
0.0
 30
0.0
  9
$UCSXDIR
 10
1.0
 20
0.0
 30
0.0
  9
$UCSYDIR
 10
0.0
 20
1.0
 30
0.0
  9
$UCSORTHOREF
  2

  9
$UCSORTHOVIEW
 70
     0
  9
$UCSORGTOP
 10
0.0
 20
0.0
 30
0.0
  9
$UCSORGBOTTOM
 10
0.0
 20
0.0
 30
0.0
  9
$UCSORGLEFT
 10
0.0
 20
0.0
 30
0.0
  9
$UCSORGRIGHT
 10
0.0
 20
0.0
 30
0.0
  9
$UCSORGFRONT
 10
0.0
 20
0.0
 30
0.0
  9
$UCSORGBACK
 10
0.0
 20
0.0
 30
0.0
  9
$PUCSBASE
  2

  9
$PUCSNAME
  2

  9
$PUCSORG
 10
0.0
 20
0.0
 30
0.0
  9
$PUCSXDIR
 10
1.0
 20
0.0
 30
0.0
  9
$PUCSYDIR
 10
0.0
 20
1.0
 30
0.0
  9
$PUCSORTHOREF
  2

  9
$PUCSORTHOVIEW
 70
     0
  9
$PUCSORGTOP
 10
0.0
 20
0.0
 30
0.0
  9
$PUCSORGBOTTOM
 10
0.0
 20
0.0
 30
0.0
  9
$PUCSORGLEFT
 10
0.0
 20
0.0
 30
0.0
  9
$PUCSORGRIGHT
 10
0.0
 20
0.0
 30
0.0
  9
$PUCSORGFRONT
 10
0.0
 20
0.0
 30
0.0
  9
$PUCSORGBACK
 10
0.0
 20
0.0
 30
0.0
  9
$USERI1
 70
     0
  9
$USERI2
 70
     0
  9
$USERI3
 70
     0
  9
$USERI4
 70
     0
  9
$USERI5
 70
     0
  9
$USERR1
 40
0.0
  9
$USERR2
 40
0.0
  9
$USERR3
 40
0.0
  9
$USERR4
 40
0.0
  9
$USERR5
 40
0.0
  9
$WORLDVIEW
 70
     1
  9
$SHADEDGE
 70
     3
  9
$SHADEDIF
 70
    70
  9
$TILEMODE
 70
     1
  9
$MAXACTVP
 70
    64
  9
$PINSBASE
 10
0.0
 20
0.0
 30
0.0
  9
$PLIMCHECK
 70
     0
  9
$PEXTMIN
 10
1.0000000000E+20
 20
1.0000000000E+20
 30
1.0000000000E+20
  9
$PEXTMAX
 10
-1.0000000000E+20
 20
-1.0000000000E+20
 30
-1.0000000000E+20
  9
$PLIMMIN
 10
0.0
 20
0.0
  9
$PLIMMAX
 10
420.0
 20
297.0
  9
$UNITMODE
 70
     0
  9
$VISRETAIN
 70
     1
  9
$PLINEGEN
 70
     0
  9
$PSLTSCALE
 70
     1
  9
$TREEDEPTH
 70
  3020
  9
$CMLSTYLE
  2
Standard
  9
$CMLJUST
 70
     0
  9
$CMLSCALE
 40
20.0
  9
$PROXYGRAPHICS
 70
     1
  9
$MEASUREMENT
 70
     1
  9
$CELWEIGHT
370
    -1
  9
$ENDCAPS
280
     0
  9
$JOINSTYLE
280
     0
  9
$LWDISPLAY
290
     1
  9
$INSUNITS
 70
     4
  9
$HYPERLINKBASE
  1

  9
$STYLESHEET
  1

  9
$XEDIT
290
     1
  9
$CEPSNTYPE
380
     0
  9
$PSTYLEMODE
290
     1
  9
$FINGERPRINTGUID
  2
{E7D115E9-E707-4834-904C-32969F372B9C}
  9
$VERSIONGUID
  2
{FAEB1C32-E019-11D5-929B-00C0DF256EC4}
  9
$EXTNAMES
290
     1
  9
$PSVPSCALE
 40
0.0
  9
$OLESTARTUP
290
     0
  0
ENDSEC
  0
SECTION
  2
CLASSES
  0
CLASS
  1
ACDBDICTIONARYWDFLT
  2
AcDbDictionaryWithDefault
  3
ObjectDBX Classes
 90
        0
280
     0
281
     0
  0
CLASS
  1
VISUALSTYLE
  2
AcDbVisualStyle
  3
ObjectDBX Classes
 90
     4095
280
     0
281
     0
  0
CLASS
  1
MATERIAL
  2
AcDbMaterial
  3
ObjectDBX Classes
 90
     1153
280
     0
281
     0
  0
CLASS
  1
ACDBPLACEHOLDER
  2
AcDbPlaceHolder
  3
ObjectDBX Classes
 90
        0
280
     0
281
     0
  0
CLASS
  1
LAYOUT
  2
AcDbLayout
  3
ObjectDBX Classes
 90
        0
280
     0
281
     0
  0
ENDSEC
  0
SECTION
  2
TABLES
  0
TABLE
  2
VPORT
  5
8
330
0
100
AcDbSymbolTable
 70
     1
  0
VPORT
  5
29
330
8
100
AcDbSymbolTableRecord
100
AcDbViewportTableRecord
  2
*Active
 70
     0
 10
0.0
 20
0.0
 11
1.0
 21
1.0
 12
105.0
 22
148.5
 13
0.0
 23
0.0
 14
10.0
 24
10.0
 15
10.0
 25
10.0
 16
0.0
 26
0.0
 36
1.0
 17
0.0
 27
0.0
 37
0.0
 40
297.0
 41
0.7070707071
 42
50.0
 43
0.0
 44
0.0
 50
0.0
 51
0.0
 71
     0
 72
  2000
 73
     1
 74
     3
 75
     0
 76
     0
 77
     0
 78
     0
281
     0
 65
     1
110
0.0
120
0.0
130
0.0
111
1.0
121
0.0
131
0.0
112
0.0
122
1.0
132
0.0
 79
     0
146
0.0
  0
ENDTAB
  0
TABLE
  2
LTYPE
  5
5
330
0
100
AcDbSymbolTable
 70
     6
  0
LTYPE
  5
14
330
5
100
AcDbSymbolTableRecord
100
AcDbLinetypeTableRecord
  2
ByBlock
 70
     0
  3

 72
    65
 73
     0
 40
0.0
  0
LTYPE
  5
15
330
5
100
AcDbSymbolTableRecord
100
AcDbLinetypeTableRecord
  2
ByLayer
 70
     0
  3

 72
    65
 73
     0
 40
0.0
  0
LTYPE
  5
16
330
5
100
AcDbSymbolTableRecord
100
AcDbLinetypeTableRecord
  2
Continuous
 70
     0
  3
Solid line
 72
    65
 73
     0
 40
0.0
  0
LTYPE
  5
3F
330
5
100
AcDbSymbolTableRecord
100
AcDbLinetypeTableRecord
  2
HIDDEN
 70
     0
  3
Hidden __ __ __ __ __ __ __ __ __ __ __ __ __ __
 72
    65
 73
     2
 40
1.905
 49
1.27
 74
     0
 49
-0.635
 74
     0
  0
LTYPE
  5
40
330
5
100
AcDbSymbolTableRecord
100
AcDbLinetypeTableRecord
  2
PHANTOM
 70
     0
  3
Phantom ______  __  __  ______  __  __  ______
 72
    65
 73
     6
 40
12.7
 49
6.35
 74
     0
 49
-1.27
 74
     0
 49
1.27
 74
     0
 49
-1.27
 74
     0
 49
1.27
 74
     0
 49
-1.27
 74
     0
  0
LTYPE
  5
41
330
5
100
AcDbSymbolTableRecord
100
AcDbLinetypeTableRecord
  2
CENTER
 70
     0
  3
Center ____ _ ____ _ ____ _ ____ _ ____ _ ____
 72
    65
 73
     4
 40
10.16
 49
6.35
 74
     0
 49
-1.27
 74
     0
 49
1.27
 74
     0
 49
-1.27
 74
     0
  0
LTYPE
  5
42
330
5
100
AcDbSymbolTableRecord
100
AcDbLinetypeTableRecord
  2
CENTERX2
 70
     0
  3
Center (2x) ________  __  ________  __  _____
 72
    65
 73
     4
 40
20.32
 49
12.7
 74
     0
 49
-2.54
 74
     0
 49
2.54
 74
     0
 49
-2.54
 74
     0
  0
LTYPE
  5
43
330
5
100
AcDbSymbolTableRecord
100
AcDbLinetypeTableRecord
  2
DOT2
 70
     0
  3
Dot (.5x) ........................................
 72
    65
 73
     2
 40
0.635
 49
0.0
 74
     0
 49
-0.635
 74
     0
  0
ENDTAB
  0
TABLE
  2
LAYER
  5
2
330
0
100
AcDbSymbolTable
 70
     1
  0
LAYER
  5
10
330
2
100
AcDbSymbolTableRecord
100
AcDbLayerTableRecord
  2
0
 70
     0
 62
     7
  6
Continuous
370
    -3
390
F
  0
ENDTAB
  0
TABLE
  2
STYLE
  5
3
330
0
100
AcDbSymbolTable
 70
     3
  0
STYLE
  5
11
330
3
100
AcDbSymbolTableRecord
100
AcDbTextStyleTableRecord
  2
Standard
 70
     0
 40
0.0
 41
1.0
 50
0.0
 71
     0
 42
3.5
  3
txt
  4
bigfont
  0
STYLE
  5
4C
330
3
100
AcDbSymbolTableRecord
100
AcDbTextStyleTableRecord
  2
SLDTEXTSTYLE0
 70
     0
 40
0.0
 41
0.7
 50
0.0
 71
     0
 42
0.2
  3
TXT
  4
bigfont
  0
STYLE
  5
122
330
3
100
AcDbSymbolTableRecord
100
AcDbTextStyleTableRecord
  2
SLDTEXTSTYLE1
 70
     0
 40
0.0
 41
0.75
 50
0.0
 71
     0
 42
0.2
  3
TXT
  4
bigfont
  0
ENDTAB
  0
TABLE
  2
VIEW
  5
6
330
0
100
AcDbSymbolTable
 70
     0
  0
ENDTAB
  0
TABLE
  2
UCS
  5
7
330
0
100
AcDbSymbolTable
 70
     0
  0
ENDTAB
  0
TABLE
  2
APPID
  5
9
330
0
100
AcDbSymbolTable
 70
     1
  0
APPID
  5
12
330
9
100
AcDbSymbolTableRecord
100
AcDbRegAppTableRecord
  2
ACAD
 70
     0
  0
ENDTAB
  0
TABLE
  2
DIMSTYLE
  5
A
330
0
100
AcDbSymbolTable
 70
     5
100
AcDbDimStyleTable
  0
DIMSTYLE
105
27
330
A
100
AcDbSymbolTableRecord
100
AcDbDimStyleTableRecord
  2
ISO-25
 70
     0
 41
2.5
 42
0.625
 43
3.75
 44
1.25
 73
     0
 74
     0
 77
     1
 78
     8
140
2.5
141
2.5
143
0.0393700787
147
0.625
171
     3
172
     1
178
     0
271
     2
272
     2
274
     3
278
    44
283
     0
284
     8
340
11
  0
DIMSTYLE
105
123
102
{ACAD_REACTORS
330
121
330
130
330
147
102
}
330
A
100
AcDbSymbolTableRecord
100
AcDbDimStyleTableRecord
  2
SLDDIMSTYLE0
 70
     0
 41
3.302
 44
0.0
 45
0.000000001
 73
     0
 74
     0
 77
     3
 78
    12
 79
     3
140
3.5
147
0.875
172
     1
173
     1
178
     0
271
     2
272
     2
276
     2
284
    12
289
     0
340
122
  0
DIMSTYLE
105
13D
102
{ACAD_REACTORS
330
13C
330
154
330
15F
330
16A
330
1B8
102
}
330
A
100
AcDbSymbolTableRecord
100
AcDbDimStyleTableRecord
  2
SLDDIMSTYLE1
 70
     0
 41
3.302
 44
0.0
 45
0.000000001
 73
     0
 74
     0
 77
     3
 78
    12
 79
     3
140
3.5
147
0.875
173
     1
178
     0
271
     2
272
     2
276
     2
284
    12
340
122
  0
DIMSTYLE
105
175
330
A
100
AcDbSymbolTableRecord
100
AcDbDimStyleTableRecord
  2
SLDDIMSTYLE2
 70
     0
 41
3.302
 44
0.0
 45
0.000000001
140
0.0
146
3.302
147
0.0
173
     1
178
     0
271
     0
272
     0
276
     2
340
11
  0
DIMSTYLE
105
1C4
102
{ACAD_REACTORS
330
1C3
102
}
330
A
100
AcDbSymbolTableRecord
100
AcDbDimStyleTableRecord
  2
SLDDIMSTYLE3
 70
     0
  3
<>
 41
3.302
 44
0.0
 45
0.000000001
 73
     0
 74
     0
 77
     3
 78
    12
 79
     3
140
3.5
141
0.0
147
0.875
173
     1
178
     0
271
     2
272
     2
276
     2
284
    12
340
122
  0
ENDTAB
  0
TABLE
  2
BLOCK_RECORD
  5
1
330
0
100
AcDbSymbolTable
 70
    11
  0
BLOCK_RECORD
  5
1F
330
1
100
AcDbSymbolTableRecord
100
AcDbBlockTableRecord
  2
*Model_Space
340
22
  0
BLOCK_RECORD
  5
1B
330
1
100
AcDbSymbolTableRecord
100
AcDbBlockTableRecord
  2
*Paper_Space
340
1E
  0
BLOCK_RECORD
  5
23
330
1
100
AcDbSymbolTableRecord
100
AcDbBlockTableRecord
  2
*Paper_Space0
340
26
  0
BLOCK_RECORD
  5
124
330
1
100
AcDbSymbolTableRecord
100
AcDbBlockTableRecord
  2
_D
340
0
  0
BLOCK_RECORD
  5
131
330
1
100
AcDbSymbolTableRecord
100
AcDbBlockTableRecord
  2
_D_1
340
0
  0
BLOCK_RECORD
  5
13E
330
1
100
AcDbSymbolTableRecord
100
AcDbBlockTableRecord
  2
_D_2
340
0
  0
BLOCK_RECORD
  5
148
330
1
100
AcDbSymbolTableRecord
100
AcDbBlockTableRecord
  2
_D_3
340
0
  0
BLOCK_RECORD
  5
155
330
1
100
AcDbSymbolTableRecord
100
AcDbBlockTableRecord
  2
_D_4
340
0
  0
BLOCK_RECORD
  5
160
330
1
100
AcDbSymbolTableRecord
100
AcDbBlockTableRecord
  2
_D_5
340
0
  0
BLOCK_RECORD
  5
16B
330
1
100
AcDbSymbolTableRecord
100
AcDbBlockTableRecord
  2
_D_6
340
0
  0
BLOCK_RECORD
  5
1B9
330
1
100
AcDbSymbolTableRecord
100
AcDbBlockTableRecord
  2
_D_7
340
0
  0
BLOCK_RECORD
  5
1C5
330
1
100
AcDbSymbolTableRecord
100
AcDbBlockTableRecord
  2
_D_8
340
0
  0
BLOCK_RECORD
  5
1CB
330
1
100
AcDbSymbolTableRecord
100
AcDbBlockTableRecord
  2
SW_CENTERMARKSYMBOL_0
340
0
102
{BLKREFS
331
1D6
102
}
  0
ENDTAB
  0
ENDSEC
  0
SECTION
  2
BLOCKS
  0
BLOCK
  5
20
330
1F
100
AcDbEntity
  8
0
100
AcDbBlockBegin
  2
*Model_Space
 70
     0
 10
0.0
 20
0.0
 30
0.0
  3
*Model_Space
  1

  0
ENDBLK
  5
21
330
1F
100
AcDbEntity
  8
0
100
AcDbBlockEnd
  0
BLOCK
  5
1C
330
1B
100
AcDbEntity
 67
     1
  8
0
100
AcDbBlockBegin
  2
*Paper_Space
 70
     0
 10
0.0
 20
0.0
 30
0.0
  3
*Paper_Space
  1

  0
ENDBLK
  5
1D
330
1B
100
AcDbEntity
 67
     1
  8
0
100
AcDbBlockEnd
  0
BLOCK
  5
24
330
23
100
AcDbEntity
  8
0
100
AcDbBlockBegin
  2
*Paper_Space0
 70
     0
 10
0.0
 20
0.0
 30
0.0
  3
*Paper_Space0
  1

  0
ENDBLK
  5
25
330
23
100
AcDbEntity
  8
0
100
AcDbBlockEnd
  0
BLOCK
  5
125
330
124
100
AcDbEntity
  8
0
100
AcDbBlockBegin
  2
_D
 70
     0
 10
0.0
 20
0.0
 30
0.0
  3
_D
  1

  0
SOLID
  5
127
330
124
100
AcDbEntity
  8
0
  6
Continuous
 62
     7
370
     0
100
AcDbTrace
 10
76.0179531035
 20
150.8952286049
 30
0.0
 11
76.7679531035
 21
152.8952286049
 31
0.0
 12
75.2679531035
 22
152.8952286049
 32
0.0
 13
75.2679531035
 23
152.8952286049
 33
0.0
  0
SOLID
  5
128
330
124
100
AcDbEntity
  8
0
  6
Continuous
 62
     7
370
     0
100
AcDbTrace
 10
76.0179531035
 20
139.8952286049
 30
0.0
 11
75.2679531035
 21
137.8952286049
 31
0.0
 12
76.7679531035
 22
137.8952286049
 32
0.0
 13
76.7679531035
 23
137.8952286049
 33
0.0
  0
LINE
  5
129
330
124
100
AcDbEntity
  8
0
  6
Continuous
 62
     7
370
     0
100
AcDbLine
 10
85.9069519343
 20
150.8952286049
 30
0.0
 11
75.0179531035
 21
150.8952286049
 31
0.0
  0
LINE
  5
12A
330
124
100
AcDbEntity
  8
0
  6
Continuous
 62
     7
370
     0
100
AcDbLine
 10
85.9069519343
 20
139.8952286049
 30
0.0
 11
75.0179531035
 21
139.8952286049
 31
0.0
  0
LINE
  5
12B
330
124
100
AcDbEntity
  8
0
  6
Continuous
 62
     7
370
     0
100
AcDbLine
 10
76.0179531035
 20
150.8952286049
 30
0.0
 11
76.0179531035
 21
155.8952286049
 31
0.0
  0
LINE
  5
12C
330
124
100
AcDbEntity
  8
0
  6
Continuous
 62
     7
370
     0
100
AcDbLine
 10
76.0179531035
 20
150.8952286049
 30
0.0
 11
76.0179531035
 21
139.8952286049
 31
0.0
  0
LINE
  5
12D
330
124
100
AcDbEntity
  8
0
  6
Continuous
 62
     7
370
     0
100
AcDbLine
 10
76.0179531035
 20
139.8952286049
 30
0.0
 11
76.0179531035
 21
134.8952286049
 31
0.0
  0
MTEXT
  5
12E
330
124
100
AcDbEntity
  8
0
  6
Continuous
 62
     7
370
     0
100
AcDbMText
 10
71.5062160143
 20
140.1698984794
 30
0.1
 40
3.5
 41
0.0
 71
     1
 72
     1
  1
%%c
  7
SLDTEXTSTYLE1
 11
-7.044195017643634E-15
 21
1.0
 31
0.0
 73
     1
 44
1.0
  0
MTEXT
  5
12F
330
124
100
AcDbEntity
  8
0
  6
Continuous
 62
     7
370
     0
100
AcDbMText
 10
71.4527438377
 20
145.4483358778
 30
0.1
 40
3.5
 41
0.0
 71
     1
 72
     1
  1
11
  7
SLDTEXTSTYLE1
 11
-7.044195017643634E-15
 21
1.0
 31
0.0
 73
     1
 44
1.0
  0
ENDBLK
  5
126
330
124
100
AcDbEntity
  8
0
100
AcDbBlockEnd
  0
BLOCK
  5
132
330
131
100
AcDbEntity
  8
0
100
AcDbBlockBegin
  2
_D_1
 70
     0
 10
0.0
 20
0.0
 30
0.0
  3
_D_1
  1

  0
SOLID
  5
134
330
131
100
AcDbEntity
  8
0
  6
Continuous
 62
     7
370
     0
100
AcDbTrace
 10
86.9069519343
 20
163.8021529273
 30
0.0
 11
84.9069519343
 21
164.5521529273
 31
0.0
 12
84.9069519343
 22
163.0521529273
 32
0.0
 13
84.9069519343
 23
163.0521529273
 33
0.0
  0
SOLID
  5
135
330
131
100
AcDbEntity
  8
0
  6
Continuous
 62
     7
370
     0
100
AcDbTrace
 10
95.9069519343
 20
163.8021529273
 30
0.0
 11
97.9069519343
 21
163.0521529273
 31
0.0
 12
97.9069519343
 22
164.5521529273
 32
0.0
 13
97.9069519343
 23
164.5521529273
 33
0.0
  0
LINE
  5
136
330
131
100
AcDbEntity
  8
0
  6
Continuous
 62
     7
370
     0
100
AcDbLine
 10
86.9069519343
 20
151.8952286049
 30
0.0
 11
86.9069519343
 21
164.8021529273
 31
0.0
  0
LINE
  5
137
330
131
100
AcDbEntity
  8
0
  6
Continuous
 62
     7
370
     0
100
AcDbLine
 10
95.9069519343
 20
152.3952286049
 30
0.0
 11
95.9069519343
 21
164.8021529273
 31
0.0
  0
LINE
  5
138
330
131
100
AcDbEntity
  8
0
  6
Continuous
 62
     7
370
     0
100
AcDbLine
 10
86.9069519343
 20
163.8021529273
 30
0.0
 11
81.9069519343
 21
163.8021529273
 31
0.0
  0
LINE
  5
139
330
131
100
AcDbEntity
  8
0
  6
Continuous
 62
     7
370
     0
100
AcDbLine
 10
86.9069519343
 20
163.8021529273
 30
0.0
 11
95.9069519343
 21
163.8021529273
 31
0.0
  0
LINE
  5
13A
330
131
100
AcDbEntity
  8
0
  6
Continuous
 62
     7
370
     0
100
AcDbLine
 10
95.9069519343
 20
163.8021529273
 30
0.0
 11
100.9069519343
 21
163.8021529273
 31
0.0
  0
MTEXT
  5
13B
330
131
100
AcDbEntity
  8
0
  6
Continuous
 62
     7
370
     0
100
AcDbMText
 10
90.1138963376
 20
168.3138898418
 30
0.1
 40
3.5
 41
0.0
 71
     1
 72
     1
  1
9
  7
SLDTEXTSTYLE1
 73
     1
 44
1.0
  0
ENDBLK
  5
133
330
131
100
AcDbEntity
  8
0
100
AcDbBlockEnd
  0
BLOCK
  5
13F
330
13E
100
AcDbEntity
  8
0
100
AcDbBlockBegin
  2
_D_2
 70
     0
 10
0.0
 20
0.0
 30
0.0
  3
_D_2
  1

  0
SOLID
  5
141
330
13E
100
AcDbEntity
  8
0
  6
Continuous
 62
     7
370
     0
100
AcDbTrace
 10
86.9069519343
 20
179.3952286049
 30
0.0
 11
88.9069519343
 21
178.6452286049
 31
0.0
 12
88.9069519343
 22
180.1452286049
 32
0.0
 13
88.9069519343
 23
180.1452286049
 33
0.0
  0
SOLID
  5
142
330
13E
100
AcDbEntity
  8
0
  6
Continuous
 62
     7
370
     0
100
AcDbTrace
 10
168.9069519343
 20
179.3952286049
 30
0.0
 11
166.9069519343
 21
180.1452286049
 31
0.0
 12
166.9069519343
 22
178.6452286049
 32
0.0
 13
166.9069519343
 23
178.6452286049
 33
0.0
  0
LINE
  5
143
330
13E
100
AcDbEntity
  8
0
  6
Continuous
 62
     7
370
     0
100
AcDbLine
 10
86.9069519343
 20
151.8952286049
 30
0.0
 11
86.9069519343
 21
180.3952286049
 31
0.0
  0
LINE
  5
144
330
13E
100
AcDbEntity
  8
0
  6
Continuous
 62
     7
370
     0
100
AcDbLine
 10
168.9069519343
 20
148.8952286049
 30
0.0
 11
168.9069519343
 21
180.3952286049
 31
0.0
  0
LINE
  5
145
330
13E
100
AcDbEntity
  8
0
  6
Continuous
 62
     7
370
     0
100
AcDbLine
 10
86.9069519343
 20
179.3952286049
 30
0.0
 11
168.9069519343
 21
179.3952286049
 31
0.0
  0
MTEXT
  5
146
330
13E
100
AcDbEntity
  8
0
  6
Continuous
 62
     7
370
     0
100
AcDbMText
 10
125.3208407408
 20
183.9069655195
 30
0.1
 40
3.5
 41
0.0
 71
     1
 72
     1
  1
82
  7
SLDTEXTSTYLE1
 73
     1
 44
1.0
  0
ENDBLK
  5
140
330
13E
100
AcDbEntity
  8
0
100
AcDbBlockEnd
  0
BLOCK
  5
149
330
148
100
AcDbEntity
  8
0
100
AcDbBlockBegin
  2
_D_3
 70
     0
 10
0.0
 20
0.0
 30
0.0
  3
_D_3
  1

  0
SOLID
  5
14B
330
148
100
AcDbEntity
  8
0
  6
Continuous
 62
     7
370
     0
100
AcDbTrace
 10
178.9069519343
 20
148.3952286049
 30
0.0
 11
179.6569519343
 21
150.3952286049
 31
0.0
 12
178.1569519343
 22
150.3952286049
 32
0.0
 13
178.1569519343
 23
150.3952286049
 33
0.0
  0
SOLID
  5
14C
330
148
100
AcDbEntity
  8
0
  6
Continuous
 62
     7
370
     0
100
AcDbTrace
 10
178.9069519343
 20
142.3952286049
 30
0.0
 11
178.1569519343
 21
140.3952286049
 31
0.0
 12
179.6569519343
 22
140.3952286049
 32
0.0
 13
179.6569519343
 23
140.3952286049
 33
0.0
  0
LINE
  5
14D
330
148
100
AcDbEntity
  8
0
  6
Continuous
 62
     7
370
     0
100
AcDbLine
 10
169.4069519343
 20
148.3952286049
 30
0.0
 11
179.9069519343
 21
148.3952286049
 31
0.0
  0
LINE
  5
14E
330
148
100
AcDbEntity
  8
0
  6
Continuous
 62
     7
370
     0
100
AcDbLine
 10
169.4069519343
 20
142.3952286049
 30
0.0
 11
179.9069519343
 21
142.3952286049
 31
0.0
  0
LINE
  5
14F
330
148
100
AcDbEntity
  8
0
  6
Continuous
 62
     7
370
     0
100
AcDbLine
 10
178.9069519343
 20
148.3952286049
 30
0.0
 11
178.9069519343
 21
153.3952286049
 31
0.0
  0
LINE
  5
150
330
148
100
AcDbEntity
  8
0
  6
Continuous
 62
     7
370
     0
100
AcDbLine
 10
178.9069519343
 20
148.3952286049
 30
0.0
 11
178.9069519343
 21
142.3952286049
 31
0.0
  0
LINE
  5
151
330
148
100
AcDbEntity
  8
0
  6
Continuous
 62
     7
370
     0
100
AcDbLine
 10
178.9069519343
 20
142.3952286049
 30
0.0
 11
178.9069519343
 21
125.3600131773
 31
0.0
  0
MTEXT
  5
152
330
148
100
AcDbEntity
  8
0
  6
Continuous
 62
     7
370
     0
100
AcDbMText
 10
174.3952148451
 20
125.3600131773
 30
0.1
 40
3.5
 41
0.0
 71
     1
 72
     1
  1
%%c
  7
SLDTEXTSTYLE1
 11
-7.044195017643634E-15
 21
1.0
 31
0.0
 73
     1
 44
1.0
  0
MTEXT
  5
153
330
148
100
AcDbEntity
  8
0
  6
Continuous
 62
     7
370
     0
100
AcDbMText
 10
174.3417426685
 20
130.6384505757
 30
0.1
 40
3.5
 41
0.0
 71
     1
 72
     1
  1
6
  7
SLDTEXTSTYLE1
 11
-7.044195017643634E-15
 21
1.0
 31
0.0
 73
     1
 44
1.0
  0
ENDBLK
  5
14A
330
148
100
AcDbEntity
  8
0
100
AcDbBlockEnd
  0
BLOCK
  5
156
330
155
100
AcDbEntity
  8
0
100
AcDbBlockBegin
  2
_D_4
 70
     0
 10
0.0
 20
0.0
 30
0.0
  3
_D_4
  1

  0
SOLID
  5
158
330
155
100
AcDbEntity
  8
0
  6
Continuous
 62
     7
370
     0
100
AcDbTrace
 10
193.0668973936
 20
155.3952286049
 30
0.0
 11
192.3168973936
 21
153.3952286049
 31
0.0
 12
193.8168973936
 22
153.3952286049
 32
0.0
 13
193.8168973936
 23
153.3952286049
 33
0.0
  0
SOLID
  5
159
330
155
100
AcDbEntity
  8
0
  6
Continuous
 62
     7
370
     0
100
AcDbTrace
 10
193.0668973936
 20
135.3952286049
 30
0.0
 11
193.8168973936
 21
137.3952286049
 31
0.0
 12
192.3168973936
 22
137.3952286049
 32
0.0
 13
192.3168973936
 23
137.3952286049
 33
0.0
  0
LINE
  5
15A
330
155
100
AcDbEntity
  8
0
  6
Continuous
 62
     7
370
     0
100
AcDbLine
 10
167.5069519343
 20
155.3952286049
 30
0.0
 11
194.0668973936
 21
155.3952286049
 31
0.0
  0
LINE
  5
15B
330
155
100
AcDbEntity
  8
0
  6
Continuous
 62
     7
370
     0
100
AcDbLine
 10
167.5069519343
 20
135.3952286049
 30
0.0
 11
194.0668973936
 21
135.3952286049
 31
0.0
  0
LINE
  5
15C
330
155
100
AcDbEntity
  8
0
  6
Continuous
 62
     7
370
     0
100
AcDbLine
 10
193.0668973936
 20
155.3952286049
 30
0.0
 11
193.0668973936
 21
135.3952286049
 31
0.0
  0
MTEXT
  5
15D
330
155
100
AcDbEntity
  8
0
  6
Continuous
 62
     7
370
     0
100
AcDbMText
 10
188.5551603044
 20
140.1698984794
 30
0.1
 40
3.5
 41
0.0
 71
     1
 72
     1
  1
%%c
  7
SLDTEXTSTYLE1
 11
-7.044195017643634E-15
 21
1.0
 31
0.0
 73
     1
 44
1.0
  0
MTEXT
  5
15E
330
155
100
AcDbEntity
  8
0
  6
Continuous
 62
     7
370
     0
100
AcDbMText
 10
188.5016881277
 20
145.4483358778
 30
0.1
 40
3.5
 41
0.0
 71
     1
 72
     1
  1
20
  7
SLDTEXTSTYLE1
 11
-7.044195017643634E-15
 21
1.0
 31
0.0
 73
     1
 44
1.0
  0
ENDBLK
  5
157
330
155
100
AcDbEntity
  8
0
100
AcDbBlockEnd
  0
BLOCK
  5
161
330
160
100
AcDbEntity
  8
0
100
AcDbBlockBegin
  2
_D_5
 70
     0
 10
0.0
 20
0.0
 30
0.0
  3
_D_5
  1

  0
SOLID
  5
163
330
160
100
AcDbEntity
  8
0
  6
Continuous
 62
     7
370
     0
100
AcDbTrace
 10
140.9069519343
 20
126.4557604622
 30
0.0
 11
138.9069519343
 21
127.2057604622
 31
0.0
 12
138.9069519343
 22
125.7057604622
 32
0.0
 13
138.9069519343
 23
125.7057604622
 33
0.0
  0
SOLID
  5
164
330
160
100
AcDbEntity
  8
0
  6
Continuous
 62
     7
370
     0
100
AcDbTrace
 10
110.9069519343
 20
126.4557604622
 30
0.0
 11
112.9069519343
 21
125.7057604622
 31
0.0
 12
112.9069519343
 22
127.2057604622
 32
0.0
 13
112.9069519343
 23
127.2057604622
 33
0.0
  0
LINE
  5
165
330
160
100
AcDbEntity
  8
0
  6
Continuous
 62
     7
370
     0
100
AcDbLine
 10
140.9069519343
 20
140.2952286049
 30
0.0
 11
140.9069519343
 21
125.4557604622
 31
0.0
  0
LINE
  5
166
330
160
100
AcDbEntity
  8
0
  6
Continuous
 62
     7
370
     0
100
AcDbLine
 10
110.9069519343
 20
139.8952286049
 30
0.0
 11
110.9069519343
 21
125.4557604622
 31
0.0
  0
LINE
  5
167
330
160
100
AcDbEntity
  8
0
  6
Continuous
 62
     7
370
     0
100
AcDbLine
 10
140.9069519343
 20
126.4557604622
 30
0.0
 11
110.9069519343
 21
126.4557604622
 31
0.0
  0
MTEXT
  5
168
330
160
100
AcDbEntity
  8
0
  6
Continuous
 62
     7
370
     0
100
AcDbMText
 10
121.6243130381
 20
130.9674973767
 30
0.1
 40
3.5
 41
0.0
 71
     1
 72
     1
  1
30
  7
SLDTEXTSTYLE1
 73
     1
 44
1.0
  0
MTEXT
  5
169
330
160
100
AcDbEntity
  8
0
  6
Continuous
 62
     7
370
     0
100
AcDbMText
 10
126.7965354251
 20
130.9674973767
 30
0.1
 40
3.5
 41
0.0
 71
     1
 72
     1
  1
st
  7
SLDTEXTSTYLE1
 73
     1
 44
1.0
  0
ENDBLK
  5
162
330
160
100
AcDbEntity
  8
0
100
AcDbBlockEnd
  0
BLOCK
  5
16C
330
16B
100
AcDbEntity
  8
0
100
AcDbBlockBegin
  2
_D_6
 70
     0
 10
0.0
 20
0.0
 30
0.0
  3
_D_6
  1

  0
SOLID
  5
16E
330
16B
100
AcDbEntity
  8
0
  6
Continuous
 62
     7
370
     0
100
AcDbTrace
 10
145.9069519343
 20
126.4557604622
 30
0.0
 11
147.9069519343
 21
125.7057604622
 31
0.0
 12
147.9069519343
 22
127.2057604622
 32
0.0
 13
147.9069519343
 23
127.2057604622
 33
0.0
  0
SOLID
  5
16F
330
16B
100
AcDbEntity
  8
0
  6
Continuous
 62
     7
370
     0
100
AcDbTrace
 10
166.9069519343
 20
126.4557604622
 30
0.0
 11
164.9069519343
 21
127.2057604622
 31
0.0
 12
164.9069519343
 22
125.7057604622
 32
0.0
 13
164.9069519343
 23
125.7057604622
 33
0.0
  0
LINE
  5
170
330
16B
100
AcDbEntity
  8
0
  6
Continuous
 62
     7
370
     0
100
AcDbLine
 10
145.9069519343
 20
132.7952286049
 30
0.0
 11
145.9069519343
 21
125.4557604622
 31
0.0
  0
LINE
  5
171
330
16B
100
AcDbEntity
  8
0
  6
Continuous
 62
     7
370
     0
100
AcDbLine
 10
166.9069519343
 20
134.7952286049
 30
0.0
 11
166.9069519343
 21
125.4557604622
 31
0.0
  0
LINE
  5
172
330
16B
100
AcDbEntity
  8
0
  6
Continuous
 62
     7
370
     0
100
AcDbLine
 10
145.9069519343
 20
126.4557604622
 30
0.0
 11
166.9069519343
 21
126.4557604622
 31
0.0
  0
MTEXT
  5
173
330
16B
100
AcDbEntity
  8
0
  6
Continuous
 62
     7
370
     0
100
AcDbMText
 10
153.8208407408
 20
130.9674973767
 30
0.1
 40
3.5
 41
0.0
 71
     1
 72
     1
  1
21
  7
SLDTEXTSTYLE1
 73
     1
 44
1.0
  0
ENDBLK
  5
16D
330
16B
100
AcDbEntity
  8
0
100
AcDbBlockEnd
  0
BLOCK
  5
1BA
330
1B9
100
AcDbEntity
  8
0
100
AcDbBlockBegin
  2
_D_7
 70
     0
 10
0.0
 20
0.0
 30
0.0
  3
_D_7
  1

  0
SOLID
  5
1BC
330
1B9
100
AcDbEntity
  8
0
  6
Continuous
 62
     7
370
     0
100
AcDbTrace
 10
38.4850058617
 20
164.015930484
 30
0.0
 11
40.4850058617
 21
163.265930484
 31
0.0
 12
40.4850058617
 22
164.765930484
 32
0.0
 13
40.4850058617
 23
164.765930484
 33
0.0
  0
SOLID
  5
1BD
330
1B9
100
AcDbEntity
  8
0
  6
Continuous
 62
     7
370
     0
100
AcDbTrace
 10
62.4850058617
 20
164.015930484
 30
0.0
 11
60.4850058617
 21
164.765930484
 31
0.0
 12
60.4850058617
 22
163.265930484
 32
0.0
 13
60.4850058617
 23
163.265930484
 33
0.0
  0
LINE
  5
1BE
330
1B9
100
AcDbEntity
  8
0
  6
Continuous
 62
     7
370
     0
100
AcDbLine
 10
38.4850058617
 20
146.3952286049
 30
0.0
 11
38.4850058617
 21
165.015930484
 31
0.0
  0
LINE
  5
1BF
330
1B9
100
AcDbEntity
  8
0
  6
Continuous
 62
     7
370
     0
100
AcDbLine
 10
62.4850058617
 20
146.3952286049
 30
0.0
 11
62.4850058617
 21
165.015930484
 31
0.0
  0
LINE
  5
1C0
330
1B9
100
AcDbEntity
  8
0
  6
Continuous
 62
     7
370
     0
100
AcDbLine
 10
38.4850058617
 20
164.015930484
 30
0.0
 11
62.4850058617
 21
164.015930484
 31
0.0
  0
MTEXT
  5
1C1
330
1B9
100
AcDbEntity
  8
0
  6
Continuous
 62
     7
370
     0
100
AcDbMText
 10
45.2596757361
 20
168.5276675732
 30
41.1
 40
3.5
 41
0.0
 71
     1
 72
     1
  1
%%c
  7
SLDTEXTSTYLE1
 73
     1
 44
1.0
  0
MTEXT
  5
1C2
330
1B9
100
AcDbEntity
  8
0
  6
Continuous
 62
     7
370
     0
100
AcDbMText
 10
50.5381131345
 20
168.5811397498
 30
41.1
 40
3.5
 41
0.0
 71
     1
 72
     1
  1
24
  7
SLDTEXTSTYLE1
 73
     1
 44
1.0
  0
ENDBLK
  5
1BB
330
1B9
100
AcDbEntity
  8
0
100
AcDbBlockEnd
  0
BLOCK
  5
1C6
330
1C5
100
AcDbEntity
  8
0
100
AcDbBlockBegin
  2
_D_8
 70
     0
 10
0.0
 20
0.0
 30
0.0
  3
_D_8
  1

  0
SOLID
  5
1C8
330
1C5
100
AcDbEntity
  8
0
  6
Continuous
 62
     7
370
     0
100
AcDbTrace
 10
52.1403364932
 20
146.6874671666
 30
0.0
 11
54.1783556286
 21
147.3269810474
 31
0.0
 12
53.2553280846
 22
148.5093600699
 32
0.0
 13
53.2553280846
 23
148.5093600699
 33
0.0
  0
LINE
  5
1C9
330
1C5
100
AcDbEntity
  8
0
  6
Continuous
 62
     7
370
     0
100
AcDbLine
 10
52.1403364932
 20
146.6874671666
 30
0.0
 11
74.2565189257
 21
163.9525278327
 31
0.0
  0
MTEXT
  5
1CA
330
1C5
100
AcDbEntity
  8
0
  6
Continuous
 62
     7
370
     0
100
AcDbMText
 10
66.071140705
 20
163.2676105238
 30
41.1
 40
3.5
 41
0.0
 71
     1
 72
     1
  1
M5
  7
SLDTEXTSTYLE1
 11
0.7882526816887204
 21
0.6153516960328791
 31
0.0
 73
     1
 44
1.0
  0
ENDBLK
  5
1C7
330
1C5
100
AcDbEntity
  8
0
100
AcDbBlockEnd
  0
BLOCK
  5
1CC
330
1CB
100
AcDbEntity
  8
0
100
AcDbBlockBegin
  2
SW_CENTERMARKSYMBOL_0
 70
     0
 10
0.0
 20
0.0
 30
0.0
  3
SW_CENTERMARKSYMBOL_0
  1

  0
LINE
  5
1CE
330
1CB
100
AcDbEntity
  8
0
  6
Continuous
 62
     0
370
     0
100
AcDbLine
 10
0.0
 20
0.0
 30
0.0
 11
0.0
 21
2.5
 31
0.0
  0
LINE
  5
1CF
330
1CB
100
AcDbEntity
  8
0
  6
Continuous
 62
     0
370
     0
100
AcDbLine
 10
0.0
 20
0.0
 30
0.0
 11
-2.5
 21
0.0
 31
0.0
  0
LINE
  5
1D0
330
1CB
100
AcDbEntity
  8
0
  6
Continuous
 62
     0
370
     0
100
AcDbLine
 10
0.0
 20
0.0
 30
0.0
 11
0.0
 21
-2.5
 31
0.0
  0
LINE
  5
1D1
330
1CB
100
AcDbEntity
  8
0
  6
Continuous
 62
     0
370
     0
100
AcDbLine
 10
0.0
 20
0.0
 30
0.0
 11
2.5
 21
0.0
 31
0.0
  0
LINE
  5
1D2
330
1CB
100
AcDbEntity
  8
0
  6
Continuous
 62
     0
370
     0
100
AcDbLine
 10
0.0
 20
5.0
 30
0.0
 11
0.0
 21
14.5
 31
0.0
  0
LINE
  5
1D3
330
1CB
100
AcDbEntity
  8
0
  6
Continuous
 62
     0
370
     0
100
AcDbLine
 10
-5.0
 20
0.0
 30
0.0
 11
-14.5
 21
0.0
 31
0.0
  0
LINE
  5
1D4
330
1CB
100
AcDbEntity
  8
0
  6
Continuous
 62
     0
370
     0
100
AcDbLine
 10
0.0
 20
-5.0
 30
0.0
 11
0.0
 21
-14.5
 31
0.0
  0
LINE
  5
1D5
330
1CB
100
AcDbEntity
  8
0
  6
Continuous
 62
     0
370
     0
100
AcDbLine
 10
5.0
 20
0.0
 30
0.0
 11
14.5
 21
0.0
 31
0.0
  0
ENDBLK
  5
1CD
330
1CB
100
AcDbEntity
  8
0
100
AcDbBlockEnd
  0
ENDSEC
  0
SECTION
  2
ENTITIES
  0
LINE
  5
44
330
1F
100
AcDbEntity
  8
0
  6
Continuous
 62
     7
370
     0
100
AcDbLine
 10
20.2604743903
 20
285.0
 30
0.0
 11
196.7604743903
 21
285.0
 31
0.0
  0
LINE
  5
45
330
1F
100
AcDbEntity
  8
0
  6
Continuous
 62
     7
370
     0
100
AcDbLine
 10
20.2604743903
 20
285.0
 30
0.0
 11
20.2604743903
 21
10.0
 31
0.0
  0
LINE
  5
46
330
1F
100
AcDbEntity
  8
0
  6
Continuous
 62
     7
370
     0
100
AcDbLine
 10
20.2604743903
 20
10.0
 30
0.0
 11
196.7604743903
 21
10.0
 31
0.0
  0
LINE
  5
47
330
1F
100
AcDbEntity
  8
0
  6
Continuous
 62
     7
370
     0
100
AcDbLine
 10
196.7604743903
 20
285.0
 30
0.0
 11
196.7604743903
 21
10.0
 31
0.0
  0
LINE
  5
48
330
1F
100
AcDbEntity
  8
0
  6
Continuous
 62
     7
370
     0
100
AcDbLine
 10
127.0104743903
 20
50.75
 30
0.0
 11
196.7604743903
 21
50.75
 31
0.0
  0
LINE
  5
49
330
1F
100
AcDbEntity
  8
0
  6
Continuous
 62
     7
370
     0
100
AcDbLine
 10
127.0104743903
 20
50.75
 30
0.0
 11
127.0104743903
 21
10.0
 31
0.0
  0
LINE
  5
4A
330
1F
100
AcDbEntity
  8
0
  6
Continuous
 62
     7
370
     0
100
AcDbLine
 10
127.0104743903
 20
22.75
 30
0.0
 11
196.7604743903
 21
22.75
 31
0.0
  0
LINE
  5
4B
330
1F
100
AcDbEntity
  8
0
  6
Continuous
 62
     7
370
     0
100
AcDbLine
 10
127.0104743903
 20
36.75
 30
0.0
 11
196.7604743903
 21
36.75
 31
0.0
  0
MTEXT
  5
4D
330
1F
100
AcDbEntity
  8
0
  6
Continuous
 62
     7
370
     0
100
AcDbMText
 10
161.1397382606
 20
30.4171582345
 30
0.0
 40
4.2333333333
 41
0.0
 71
     2
 72
     1
  1
VFIL1-S-30-P20
  7
SLDTEXTSTYLE0
 73
     1
 44
1.0
  0
MTEXT
  5
4E
330
1F
100
AcDbEntity
  8
0
  6
Continuous
 62
     7
370
     0
100
AcDbMText
 10
160.5582442015
 20
43.9409718514
 30
0.0
 40
4.2333333333
 41
0.0
 71
     2
 72
     1
  1
吸着金具・スモール用
  7
SLDTEXTSTYLE0
 73
     1
 44
1.0
  0
MTEXT
  5
4F
330
1F
100
AcDbEntity
  8
0
  6
Continuous
 62
     7
370
     0
100
AcDbMText
 10
162.7176865735
 20
16.8228189052
 30
0.0
 40
4.2333333333
 41
0.0
 71
     2
 72
     1
  1
211013
  7
SLDTEXTSTYLE0
 73
     1
 44
1.0
  0
LINE
  5
50
330
1F
100
AcDbEntity
  8
0
  6
Continuous
 62
     7
370
    15
100
AcDbLine
 10
167.0069519343
 20
140.8952286049
 30
0.0
 11
167.6069519343
 21
140.8952286049
 31
0.0
  0
LINE
  5
51
330
1F
100
AcDbEntity
  8
0
  6
Continuous
 62
     7
370
    15
100
AcDbLine
 10
167.6069519343
 20
149.1238662088
 30
0.0
 11
167.0069519343
 21
149.1238662088
 31
0.0
  0
LINE
  5
52
330
1F
100
AcDbEntity
  8
0
  6
Continuous
 62
     7
370
    15
100
AcDbLine
 10
145.5069519343
 20
157.3952286049
 30
0.0
 11
144.3069519343
 21
157.3952286049
 31
0.0
  0
LINE
  5
53
330
1F
100
AcDbEntity
  8
0
  6
Continuous
 62
     7
370
    15
100
AcDbLine
 10
144.3069519343
 20
133.3952286049
 30
0.0
 11
145.5069519343
 21
133.3952286049
 31
0.0
  0
LINE
  5
54
330
1F
100
AcDbEntity
  8
0
  6
Continuous
 62
     7
370
    15
100
AcDbLine
 10
145.5069519343
 20
133.3952286049
 30
0.0
 11
145.9069519343
 21
133.7952286049
 31
0.0
  0
LINE
  5
55
330
1F
100
AcDbEntity
  8
0
  6
Continuous
 62
     7
370
    15
100
AcDbLine
 10
145.9069519343
 20
156.9952286049
 30
0.0
 11
145.5069519343
 21
157.3952286049
 31
0.0
  0
LINE
  5
56
330
1F
100
AcDbEntity
  8
0
  6
Continuous
 62
     7
370
    15
100
AcDbLine
 10
144.3069519343
 20
157.3952286049
 30
0.0
 11
143.9069519343
 21
156.9952286049
 31
0.0
  0
LINE
  5
57
330
1F
100
AcDbEntity
  8
0
  6
Continuous
 62
     7
370
    15
100
AcDbLine
 10
143.9069519343
 20
133.7952286049
 30
0.0
 11
144.3069519343
 21
133.3952286049
 31
0.0
  0
LINE
  5
58
330
1F
100
AcDbEntity
  8
0
  6
Continuous
 62
     7
370
    15
100
AcDbLine
 10
166.5069519343
 20
135.3952286049
 30
0.0
 11
166.9069519343
 21
135.7952286049
 31
0.0
  0
LINE
  5
59
330
1F
100
AcDbEntity
  8
0
  6
Continuous
 62
     7
370
    15
100
AcDbLine
 10
166.9069519343
 20
154.9952286049
 30
0.0
 11
166.5069519343
 21
155.3952286049
 31
0.0
  0
LINE
  5
5A
330
1F
100
AcDbEntity
  8
0
  6
Continuous
 62
     7
370
    15
100
AcDbLine
 10
166.5069519343
 20
155.3952286049
 30
0.0
 11
145.9069519343
 21
155.3952286049
 31
0.0
  0
LINE
  5
5B
330
1F
100
AcDbEntity
  8
0
  6
Continuous
 62
     7
370
    15
100
AcDbLine
 10
145.9069519343
 20
135.3952286049
 30
0.0
 11
166.5069519343
 21
135.3952286049
 31
0.0
  0
LINE
  5
5C
330
1F
100
AcDbEntity
  8
0
  6
Continuous
 62
     7
370
    15
100
AcDbLine
 10
143.9069519343
 20
149.8952286049
 30
0.0
 11
143.1141745413
 21
149.8952286049
 31
0.0
  0
LINE
  5
5D
330
1F
100
AcDbEntity
  8
0
  6
Continuous
 62
     7
370
    15
100
AcDbLine
 10
142.098781447
 20
149.8952286049
 30
0.0
 11
141.3069519343
 21
149.8952286049
 31
0.0
  0
LINE
  5
5E
330
1F
100
AcDbEntity
  8
0
  6
Continuous
 62
     7
370
    15
100
AcDbLine
 10
141.3069519343
 20
140.8952286049
 30
0.0
 11
143.9069519343
 21
140.8952286049
 31
0.0
  0
LINE
  5
5F
330
1F
100
AcDbEntity
  8
0
  6
Continuous
 62
     7
370
    15
100
AcDbLine
 10
141.3069519343
 20
149.8952286049
 30
0.0
 11
140.9069519343
 21
149.4952286049
 31
0.0
  0
LINE
  5
60
330
1F
100
AcDbEntity
  8
0
  6
Continuous
 62
     7
370
    15
100
AcDbLine
 10
140.9069519343
 20
141.2952286049
 30
0.0
 11
141.3069519343
 21
140.8952286049
 31
0.0
  0
LINE
  5
61
330
1F
100
AcDbEntity
  8
0
  6
Continuous
 62
     7
370
    15
100
AcDbLine
 10
86.9069519343
 20
139.8952286049
 30
0.0
 11
88.9069519343
 21
139.8952286049
 31
0.0
  0
LINE
  5
62
330
1F
100
AcDbEntity
  8
0
  6
Continuous
 62
     7
370
    15
100
AcDbLine
 10
88.9069519343
 20
150.8952286049
 30
0.0
 11
86.9069519343
 21
150.8952286049
 31
0.0
  0
LINE
  5
63
330
1F
100
AcDbEntity
  8
0
  6
Continuous
 62
     7
370
    15
100
AcDbLine
 10
103.9069519343
 20
140.8952286049
 30
0.0
 11
108.6252215043
 21
140.8952286049
 31
0.0
  0
LINE
  5
64
330
1F
100
AcDbEntity
  8
0
  6
Continuous
 62
     7
370
    15
100
AcDbLine
 10
109.6431912199
 20
140.8952286049
 30
0.0
 11
110.9069519343
 21
140.8952286049
 31
0.0
  0
LINE
  5
65
330
1F
100
AcDbEntity
  8
0
  6
Continuous
 62
     7
370
    15
100
AcDbLine
 10
110.9069519343
 20
149.8952286049
 30
0.0
 11
108.1148705799
 21
149.8952286049
 31
0.0
  0
LINE
  5
66
330
1F
100
AcDbEntity
  8
0
  6
Continuous
 62
     7
370
    15
100
AcDbLine
 10
107.0976163224
 20
149.8952286049
 30
0.0
 11
103.9069519343
 21
149.8952286049
 31
0.0
  0
LINE
  5
67
330
1F
100
AcDbEntity
  8
0
  6
Continuous
 62
     7
370
    15
100
AcDbLine
 10
88.9069519343
 20
141.4952286049
 30
0.0
 11
95.9069519343
 21
141.4952286049
 31
0.0
  0
LINE
  5
68
330
1F
100
AcDbEntity
  8
0
  6
Continuous
 62
     7
370
    15
100
AcDbLine
 10
95.9069519343
 20
149.2952286049
 30
0.0
 11
88.9069519343
 21
149.2952286049
 31
0.0
  0
LINE
  5
69
330
1F
100
AcDbEntity
  8
0
  6
Continuous
 62
     7
370
    15
100
AcDbLine
 10
167.6069519343
 20
142.3952286049
 30
0.0
 11
168.4069519343
 21
142.3952286049
 31
0.0
  0
LINE
  5
6A
330
1F
100
AcDbEntity
  8
0
  6
Continuous
 62
     7
370
    15
100
AcDbLine
 10
168.4069519343
 20
148.3952286049
 30
0.0
 11
167.6069519343
 21
148.3952286049
 31
0.0
  0
LINE
  5
6B
330
1F
100
AcDbEntity
  8
0
  6
Continuous
 62
     7
370
    15
100
AcDbLine
 10
168.4069519343
 20
142.3952286049
 30
0.0
 11
168.9069519343
 21
142.8952286049
 31
0.0
  0
LINE
  5
6C
330
1F
100
AcDbEntity
  8
0
  6
Continuous
 62
     7
370
    15
100
AcDbLine
 10
168.9069519343
 20
147.8952286049
 30
0.0
 11
168.4069519343
 21
148.3952286049
 31
0.0
  0
LINE
  5
6D
330
1F
100
AcDbEntity
  8
0
  6
Continuous
 62
     7
370
    15
100
AcDbLine
 10
110.9069519343
 20
142.3952286049
 30
0.0
 11
113.3284180486
 21
142.3952286049
 31
0.0
  0
LINE
  5
6E
330
1F
100
AcDbEntity
  8
0
  6
Continuous
 62
     7
370
    15
100
AcDbLine
 10
114.3322942876
 20
142.3952286049
 30
0.0
 11
118.3286585596
 21
142.3952286049
 31
0.0
  0
LINE
  5
6F
330
1F
100
AcDbEntity
  8
0
  6
Continuous
 62
     7
370
    15
100
AcDbLine
 10
119.3319207834
 20
142.3952286049
 30
0.0
 11
123.3279407575
 21
142.3952286049
 31
0.0
  0
LINE
  5
70
330
1F
100
AcDbEntity
  8
0
  6
Continuous
 62
     7
370
    15
100
AcDbLine
 10
124.3329679218
 20
142.3952286049
 30
0.0
 11
128.3286886463
 21
142.3952286049
 31
0.0
  0
LINE
  5
71
330
1F
100
AcDbEntity
  8
0
  6
Continuous
 62
     7
370
    15
100
AcDbLine
 10
129.3329925856
 20
142.3952286049
 30
0.0
 11
133.3282083761
 21
142.3952286049
 31
0.0
  0
LINE
  5
72
330
1F
100
AcDbEntity
  8
0
  6
Continuous
 62
     7
370
    15
100
AcDbLine
 10
134.3324732388
 20
142.3952286049
 30
0.0
 11
138.328883106
 21
142.3952286049
 31
0.0
  0
LINE
  5
73
330
1F
100
AcDbEntity
  8
0
  6
Continuous
 62
     7
370
    15
100
AcDbLine
 10
139.3332776587
 20
142.3952286049
 30
0.0
 11
140.9069519343
 21
142.3952286049
 31
0.0
  0
LINE
  5
74
330
1F
100
AcDbEntity
  8
0
  6
Continuous
 62
     7
370
    15
100
AcDbLine
 10
140.9069519343
 20
148.3952286049
 30
0.0
 11
138.4135352447
 21
148.3952286049
 31
0.0
  0
LINE
  5
75
330
1F
100
AcDbEntity
  8
0
  6
Continuous
 62
     7
370
    15
100
AcDbLine
 10
137.409156589
 20
148.3952286049
 30
0.0
 11
133.4128169261
 21
148.3952286049
 31
0.0
  0
LINE
  5
76
330
1F
100
AcDbEntity
  8
0
  6
Continuous
 62
     7
370
    15
100
AcDbLine
 10
132.4083509805
 20
148.3952286049
 30
0.0
 11
128.4132564244
 21
148.3952286049
 31
0.0
  0
LINE
  5
77
330
1F
100
AcDbEntity
  8
0
  6
Continuous
 62
     7
370
    15
100
AcDbLine
 10
127.4093859558
 20
148.3952286049
 30
0.0
 11
123.4130562045
 21
148.3952286049
 31
0.0
  0
LINE
  5
78
330
1F
100
AcDbEntity
  8
0
  6
Continuous
 62
     7
370
    15
100
AcDbLine
 10
122.4089967667
 20
148.3952286049
 30
0.0
 11
118.4133798826
 21
148.3952286049
 31
0.0
  0
LINE
  5
79
330
1F
100
AcDbEntity
  8
0
  6
Continuous
 62
     7
370
    15
100
AcDbLine
 10
117.4076222221
 20
148.3952286049
 30
0.0
 11
113.4129970746
 21
148.3952286049
 31
0.0
  0
LINE
  5
7A
330
1F
100
AcDbEntity
  8
0
  6
Continuous
 62
     7
370
    15
100
AcDbLine
 10
112.4086867706
 20
148.3952286049
 30
0.0
 11
110.9069519343
 21
148.3952286049
 31
0.0
  0
LINE
  5
7B
330
1F
100
AcDbEntity
  8
0
  6
Continuous
 62
     7
370
    15
100
AcDbLine
 10
166.9069519343
 20
143.3952286049
 30
0.0
 11
167.0069519343
 21
143.3952286049
 31
0.0
  0
LINE
  5
7C
330
1F
100
AcDbEntity
  8
0
  6
Continuous
 62
     7
370
    15
100
AcDbLine
 10
167.0069519343
 20
147.3952286049
 30
0.0
 11
166.9069519343
 21
147.3952286049
 31
0.0
  0
SPLINE
  5
7D
330
1F
100
AcDbEntity
  8
0
  6
Continuous
 62
     7
370
    15
100
AcDbSpline
210
0.0
220
0.0
230
1.0
 70
     8
 71
     3
 72
    15
 73
    11
 74
     0
 42
0.00000001
 43
0.00000001
 12
1.0
 22
0.0
 32
0.0
 13
1.0
 23
0.0
 33
0.0
 40
0.0
 40
0.0
 40
0.0
 40
0.0
 40
0.1472166474873064
 40
0.287777480973195
 40
0.421971448180845
 40
0.550045924672522
 40
0.6720748533897433
 40
0.7879608458675205
 40
0.8974292779727019
 40
1.0
 40
1.0
 40
1.0
 40
1.0
 10
123.4134983152092
 20
141.911361823149
 30
0.0
 10
123.4522962129216
 20
141.7076879507549
 30
0.0
 10
123.5281379160258
 20
141.3095485083887
 30
0.0
 10
123.6467521593788
 20
140.7989818843728
 30
0.0
 10
123.7707435448868
 20
140.3680138077837
 30
0.0
 10
123.9052103199768
 20
140.0171293354867
 30
0.0
 10
124.0550009356919
 20
139.741386175909
 30
0.0
 10
124.2255789954804
 20
139.5446601391217
 30
0.0
 10
124.4144571599963
 20
139.4183885593229
 30
0.0
 10
124.5612838838003
 20
139.4031285892784
 30
0.0
 10
124.6323090825902
 20
139.3957468104178
 30
0.0
  0
LWPOLYLINE
  5
7E
330
1F
100
AcDbEntity
  8
0
  6
Continuous
 62
     7
370
    15
100
AcDbPolyline
 90
       31
 70
   128
 43
0.0
 10
126.9149227285
 20
150.4431904021
 10
126.910883276
 20
150.4440200618
 10
126.922940574
 20
150.4165705344
 10
126.966484104
 20
150.3130845146
 10
127.0217424664
 20
150.1545728163
 10
127.086824114
 20
149.9340625314
 10
127.1601153912
 20
149.6457822534
 10
127.2382359946
 20
149.2956471362
 10
127.3196331852
 20
148.8887462247
 10
127.4041094057
 20
148.4263672847
 10
127.491488822
 20
147.9107122492
 10
127.5816187922
 20
147.3456945134
 10
127.6728258632
 20
146.7474747577
 10
127.7838956838
 20
145.9945650621
 10
127.8812875388
 20
145.3230602368
 10
127.9649433885
 20
144.7458828607
 10
128.0423196319
 20
144.2176025795
 10
128.1377995677
 20
143.5808268434
 10
128.2535171652
 20
142.8433992545
 10
128.3538068714
 20
142.2454743215
 10
128.4596367572
 20
141.6668525213
 10
128.5533653151
 20
141.2065863607
 10
128.6338992606
 20
140.8543998613
 10
128.7207360395
 20
140.5230012152
 10
128.7920198159
 20
140.2904300258
 10
128.8923795947
 20
140.0242334763
 10
128.9986777763
 20
139.8119184767
 10
129.1439138843
 20
139.6142159352
 10
129.3514064622
 20
139.4592690026
 10
129.6320493461
 20
139.3956273826
 10
129.6320493461
 20
139.3956273826
  0
SPLINE
  5
7F
330
1F
100
AcDbEntity
  8
0
  6
Continuous
 62
     7
370
    15
100
AcDbSpline
210
0.0
220
0.0
230
1.0
 70
     8
 71
     3
 72
    34
 73
    30
 74
     0
 42
0.00000001
 43
0.00000001
 12
1.0
 22
0.0
 32
0.0
 13
1.0
 23
0.0
 33
0.0
 40
0.0
 40
0.0
 40
0.0
 40
0.0
 40
0.0007143968612984
 40
0.0185129334971219
 40
0.0501212194413651
 40
0.0826436717420104
 40
0.1161338602982514
 40
0.1505528647329921
 40
0.1858622637353606
 40
0.2220298048840826
 40
0.27002746360699
 40
0.3136804610812706
 40
0.3526873667769244
 40
0.3870080647899304
 40
0.4166054997792111
 40
0.4422150295615807
 40
0.4715331434485289
 40
0.5065811525309287
 40
0.5473732068577051
 40
0.5934626675812475
 40
0.6405661060920221
 40
0.6876729513483157
 40
0.7348388573565902
 40
0.7821325163977916
 40
0.8299896698782118
 40
0.8683954002526422
 40
0.9099679647127473
 40
0.9551549690226664
 40
1.0
 40
1.0
 40
1.0
 40
1.0
 10
131.9146033765559
 20
150.4475519763494
 30
0.0
 10
131.9143310010241
 20
150.4476561149592
 30
0.0
 10
131.9072726411982
 20
150.4503547706531
 30
0.0
 10
131.9259308388787
 20
150.4211266448821
 30
0.0
 10
131.9717784067738
 20
150.3128385326679
 30
0.0
 10
132.0316956324722
 20
150.1362583062852
 30
0.0
 10
132.1001295004455
 20
149.8957288370261
 30
0.0
 10
132.1746819025821
 20
149.5929102956628
 30
0.0
 10
132.2542890349948
 20
149.2267016148689
 30
0.0
 10
132.3462803378946
 20
148.7564130946548
 30
0.0
 10
132.4462274541791
 20
148.1914706210047
 30
0.0
 10
132.5482856952228
 20
147.5640353541925
 30
0.0
 10
132.6398422336803
 20
146.9696990487353
 30
0.0
 10
132.720461624543
 20
146.428696275034
 30
0.0
 10
132.7906520149151
 20
145.9488118420875
 30
0.0
 10
132.85695082399
 20
145.4914581604121
 30
0.0
 10
132.9275282729503
 20
145.0032167880247
 30
0.0
 10
133.0100160648844
 20
144.4354126580835
 30
0.0
 10
133.1056968788593
 20
143.7882548815936
 30
0.0
 10
133.2108253491206
 20
143.1030080766121
 30
0.0
 10
133.3212429280465
 20
142.4250135562328
 30
0.0
 10
133.4334388438408
 20
141.7925917076159
 30
0.0
 10
133.5470261976411
 20
141.2227009615191
 30
0.0
 10
133.6644737713397
 20
140.7200601278391
 30
0.0
 10
133.7743434281935
 20
140.330221944086
 30
0.0
 10
133.90536389993
 20
139.9815980628181
 30
0.0
 10
134.071904001608
 20
139.6898244935475
 30
0.0
 10
134.303069068653
 20
139.4533879178908
 30
0.0
 10
134.5062121026271
 20
139.4195254039635
 30
0.0
 10
134.6073978152718
 20
139.4026584578683
 30
0.0
  0
SPLINE
  5
80
330
1F
100
AcDbEntity
  8
0
  6
Continuous
 62
     7
370
    15
100
AcDbSpline
210
0.0
220
0.0
230
1.0
 70
     8
 71
     3
 72
    30
 73
    26
 74
     0
 42
0.00000001
 43
0.00000001
 12
1.0
 22
0.0
 32
0.0
 13
1.0
 23
0.0
 33
0.0
 40
0.0
 40
0.0
 40
0.0
 40
0.0
 40
0.0192167618331876
 40
0.0511063917895688
 40
0.0849065291933365
 40
0.1194273712375783
 40
0.1545350546530398
 40
0.1901883549602391
 40
0.2262990237560916
 40
0.2615079099585936
 40
0.2952276220308229
 40
0.3274390897872066
 40
0.3872424891814154
 40
0.4469274259664432
 40
0.4896643778201715
 40
0.5347535743136306
 40
0.5813226417305057
 40
0.6511137474784557
 40
0.7209530458836788
 40
0.7889976547507641
 40
0.8532800513412266
 40
0.8852821398106264
 40
0.9200789471796157
 40
0.958278571952087
 40
1.0
 40
1.0
 40
1.0
 40
1.0
 10
136.9100249278468
 20
150.4539122874871
 30
0.0
 10
136.9085625767157
 20
150.4530641715974
 30
0.0
 10
136.904673498499
 20
150.450808633265
 30
0.0
 10
136.9536676216532
 20
150.3546492215916
 30
0.0
 10
137.0220022606208
 20
150.1625684017314
 30
0.0
 10
137.0963778057952
 20
149.907736548796
 30
0.0
 10
137.1750779280673
 20
149.5902276433648
 30
0.0
 10
137.2570200146436
 20
149.2134580551325
 30
0.0
 10
137.34053413854
 20
148.7849889251432
 30
0.0
 10
137.4228372191145
 20
148.3242648926221
 30
0.0
 10
137.5022889188371
 20
147.848795586074
 30
0.0
 10
137.6012565294453
 20
147.225681689948
 30
0.0
 10
137.7211164950347
 20
146.4284410182172
 30
0.0
 10
137.8493645104296
 20
145.5440857871445
 30
0.0
 10
137.9658896518835
 20
144.7378262409438
 30
0.0
 10
138.07205677381
 20
144.0131586365203
 30
0.0
 10
138.1995508564842
 20
143.1710311748233
 30
0.0
 10
138.3473419242781
 20
142.2605972808252
 30
0.0
 10
138.5128037626692
 20
141.3704923719624
 30
0.0
 10
138.677982268269
 20
140.6492667377632
 30
0.0
 10
138.8208072115137
 20
140.1870803923717
 30
0.0
 10
138.9529268979233
 20
139.8812218502417
 30
0.0
 10
139.100404231219
 20
139.6479367098792
 30
0.0
 10
139.3206785467537
 20
139.4435917159341
 30
0.0
 10
139.5249525045778
 20
139.4118955575227
 30
0.0
 10
139.6315902543653
 20
139.3953491164301
 30
0.0
  0
SPLINE
  5
81
330
1F
100
AcDbEntity
  8
0
  6
Continuous
 62
     7
370
    15
100
AcDbSpline
210
0.0
220
0.0
230
1.0
 70
     8
 71
     3
 72
    19
 73
    15
 74
     0
 42
0.00000001
 43
0.00000001
 12
1.0
 22
0.0
 32
0.0
 13
1.0
 23
0.0
 33
0.0
 40
0.0
 40
0.0
 40
0.0
 40
0.0
 40
0.0462779613061358
 40
0.0964221055040465
 40
0.156098742496634
 40
0.2306907698021154
 40
0.296545298374696
 40
0.3709521996831313
 40
0.4539578756344236
 40
0.5456222550043325
 40
0.646019371281899
 40
0.7551782944576294
 40
0.8731497711278087
 40
1.0
 40
1.0
 40
1.0
 40
1.0
 10
141.9264914436082
 20
150.4306837003748
 30
0.0
 10
141.9243274559755
 20
150.4284101339369
 30
0.0
 10
141.9198186954783
 20
150.423673061327
 30
0.0
 10
141.9619699357253
 20
150.3340941883463
 30
0.0
 10
142.014747350965
 20
150.1883436570054
 30
0.0
 10
142.0771329968359
 20
149.9839593286097
 30
0.0
 10
142.1460599295908
 20
149.7186626893454
 30
0.0
 10
142.2193671100101
 20
149.3993290410259
 30
0.0
 10
142.3024317056006
 20
148.9933547233496
 30
0.0
 10
142.3952587933636
 20
148.4900632682914
 30
0.0
 10
142.4977532024423
 20
147.883368693243
 30
0.0
 10
142.6099289638553
 20
147.1708020362174
 30
0.0
 10
142.7317109405813
 20
146.3556285201258
 30
0.0
 10
142.8162402277452
 20
145.7721499429133
 30
0.0
 10
142.8600376492172
 20
145.469830379795
 30
0.0
  0
SPLINE
  5
82
330
1F
100
AcDbEntity
  8
0
  6
Continuous
 62
     7
370
    15
100
AcDbSpline
210
0.0
220
0.0
230
1.0
 70
     8
 71
     3
 72
    13
 73
     9
 74
     0
 42
0.00000001
 43
0.00000001
 12
1.0
 22
0.0
 32
0.0
 13
1.0
 23
0.0
 33
0.0
 40
0.0
 40
0.0
 40
0.0
 40
0.0
 40
0.1544289060159272
 40
0.2970341190737661
 40
0.4288367657760312
 40
0.5544092763215887
 40
0.8122707107855645
 40
1.0
 40
1.0
 40
1.0
 40
1.0
 10
142.1324665508591
 20
151.395013549816
 30
0.0
 10
142.0262433200888
 20
151.3788778057892
 30
0.0
 10
141.8219297327494
 20
151.3478417346529
 30
0.0
 10
141.6099208433064
 20
151.1537047465182
 30
0.0
 10
141.4710660643364
 20
150.9423629875325
 30
0.0
 10
141.342243271426
 20
150.6567521952768
 30
0.0
 10
141.2079576721664
 20
150.2575814595012
 30
0.0
 10
141.1147446391525
 20
149.8397742380213
 30
0.0
 10
141.0754735872581
 20
149.6637502578325
 30
0.0
  0
LINE
  5
83
330
1F
100
AcDbEntity
  8
0
  6
Continuous
 62
     7
370
    15
100
AcDbLine
 10
140.9069519343
 20
148.842544857
 30
0.0
 11
140.8289300181
 21
148.3952286049
 31
0.0
  0
SPLINE
  5
84
330
1F
100
AcDbEntity
  8
0
  6
Continuous
 62
     7
370
    15
100
AcDbSpline
210
0.0
220
0.0
230
1.0
 70
     8
 71
     3
 72
    11
 73
     7
 74
     0
 42
0.00000001
 43
0.00000001
 12
1.0
 22
0.0
 32
0.0
 13
1.0
 23
0.0
 33
0.0
 40
0.0
 40
0.0
 40
0.0
 40
0.0
 40
0.2425208172215449
 40
0.7083789903179036
 40
0.9595133875614705
 40
1.0
 40
1.0
 40
1.0
 40
1.0
 10
139.9076889866611
 20
142.3952286049238
 30
0.0
 10
139.8839037454095
 20
142.2573022769494
 30
0.0
 10
139.8144294405835
 20
141.8544333023678
 30
0.0
 10
139.7215180626082
 20
141.4093582059282
 30
0.0
 10
139.6505886724255
 20
141.0963512605437
 30
0.0
 10
139.6249493998448
 20
141.0005961229417
 30
0.0
 10
139.6213898233475
 20
140.9873021522867
 30
0.0
  0
SPLINE
  5
85
330
1F
100
AcDbEntity
  8
0
  6
Continuous
 62
     7
370
    15
100
AcDbSpline
210
0.0
220
0.0
230
1.0
 70
     8
 71
     3
 72
    18
 73
    14
 74
     0
 42
0.00000001
 43
0.00000001
 12
1.0
 22
0.0
 32
0.0
 13
1.0
 23
0.0
 33
0.0
 40
0.0
 40
0.0
 40
0.0
 40
0.0
 40
0.1003563888745862
 40
0.1841598588877918
 40
0.263185577217967
 40
0.3205165643457569
 40
0.3692960233587093
 40
0.4186301302391134
 40
0.4685427806073137
 40
0.6392799494275743
 40
0.8182612631236644
 40
0.9435380742597409
 40
1.0
 40
1.0
 40
1.0
 40
1.0
 10
137.1325447184309
 20
151.3951025826304
 30
0.0
 10
137.0396171599512
 20
151.3834441117089
 30
0.0
 10
136.8690896404944
 20
151.3620501338683
 30
0.0
 10
136.6633165348599
 20
151.2094775057314
 30
0.0
 10
136.5274920531419
 20
151.0370919640405
 30
0.0
 10
136.4477305632317
 20
150.8909270324855
 30
0.0
 10
136.3950670100921
 20
150.7761728154353
 30
0.0
 10
136.344513895403
 20
150.6506928405036
 30
0.0
 10
136.2570220298596
 20
150.4035277020545
 30
0.0
 10
136.1361081287036
 20
149.9721507638017
 30
0.0
 10
135.9996312470903
 20
149.3409778190784
 30
0.0
 10
135.8965600086702
 20
148.7969845365456
 30
0.0
 10
135.8450644083393
 20
148.490458875603
 30
0.0
 10
135.8290659436652
 20
148.3952286049238
 30
0.0
  0
SPLINE
  5
86
330
1F
100
AcDbEntity
  8
0
  6
Continuous
 62
     7
370
    15
100
AcDbSpline
210
0.0
220
0.0
230
1.0
 70
     8
 71
     3
 72
    11
 73
     7
 74
     0
 42
0.00000001
 43
0.00000001
 12
1.0
 22
0.0
 32
0.0
 13
1.0
 23
0.0
 33
0.0
 40
0.0
 40
0.0
 40
0.0
 40
0.0
 40
0.2545162567017761
 40
0.5678370248618237
 40
0.8494826784376913
 40
1.0
 40
1.0
 40
1.0
 40
1.0
 10
134.9089158019301
 20
142.3952286049238
 30
0.0
 10
134.8841290988682
 20
142.2542853553845
 30
0.0
 10
134.8288288681277
 20
141.9398347323481
 30
0.0
 10
134.7467074236022
 20
141.528479924058
 30
0.0
 10
134.675108992196
 20
141.1997652521134
 30
0.0
 10
134.6345525214944
 20
141.04252677757
 30
0.0
 10
134.6204271759808
 20
140.9877624516181
 30
0.0
  0
SPLINE
  5
87
330
1F
100
AcDbEntity
  8
0
  6
Continuous
 62
     7
370
    15
100
AcDbSpline
210
0.0
220
0.0
230
1.0
 70
     8
 71
     3
 72
    18
 73
    14
 74
     0
 42
0.00000001
 43
0.00000001
 12
1.0
 22
0.0
 32
0.0
 13
1.0
 23
0.0
 33
0.0
 40
0.0
 40
0.0
 40
0.0
 40
0.0
 40
0.0879922974182794
 40
0.1650838744343306
 40
0.2603827220924488
 40
0.3334251010643092
 40
0.3981094548340404
 40
0.4645292093012429
 40
0.5869204253468783
 40
0.7150165720147923
 40
0.8489558139243585
 40
0.9879831561727885
 40
0.9999999999999999
 40
0.9999999999999999
 40
0.9999999999999999
 40
0.9999999999999999
 10
132.1319821433955
 20
151.3949380442707
 30
0.0
 10
132.0500482321448
 20
151.3859978466082
 30
0.0
 10
131.8963306010147
 20
151.3692249868052
 30
0.0
 10
131.6882302923047
 20
151.2338640518819
 30
0.0
 10
131.5336012389774
 20
151.0500292116428
 30
0.0
 10
131.4358711442889
 20
150.8677126323134
 30
0.0
 10
131.3688446134827
 20
150.712567581347
 30
0.0
 10
131.2847996568093
 20
150.4846865804135
 30
0.0
 10
131.1864653523737
 20
150.1544837190393
 30
0.0
 10
131.0718605525333
 20
149.6824803258507
 30
0.0
 10
130.9558106970549
 20
149.1133193049758
 30
0.0
 10
130.8746661912538
 20
148.676083761514
 30
0.0
 10
130.8317766424571
 20
148.4159263311483
 30
0.0
 10
130.8283644157233
 20
148.3952286049238
 30
0.0
  0
SPLINE
  5
88
330
1F
100
AcDbEntity
  8
0
  6
Continuous
 62
     7
370
    15
100
AcDbSpline
210
0.0
220
0.0
230
1.0
 70
     8
 71
     3
 72
    11
 73
     7
 74
     0
 42
0.00000001
 43
0.00000001
 12
1.0
 22
0.0
 32
0.0
 13
1.0
 23
0.0
 33
0.0
 40
0.0
 40
0.0
 40
0.0
 40
0.0
 40
0.2025498040582923
 40
0.4833005998650512
 40
0.7639080977543752
 40
1.0
 40
1.0
 40
1.0
 40
1.0
 10
129.908967885206
 20
142.3952286049238
 30
0.0
 10
129.8889988709462
 20
142.2812809459602
 30
0.0
 10
129.8413511498568
 20
142.009392398912
 30
0.0
 10
129.767155726096
 20
141.6283154505859
 30
0.0
 10
129.6907115911089
 20
141.2651526703228
 30
0.0
 10
129.6428715469339
 20
141.0729625852328
 30
0.0
 10
129.6210123246669
 20
140.9851464918334
 30
0.0
  0
SPLINE
  5
89
330
1F
100
AcDbEntity
  8
0
  6
Continuous
 62
     7
370
    15
100
AcDbSpline
210
0.0
220
0.0
230
1.0
 70
     8
 71
     3
 72
    17
 73
    13
 74
     0
 42
0.00000001
 43
0.00000001
 12
1.0
 22
0.0
 32
0.0
 13
1.0
 23
0.0
 33
0.0
 40
0.0
 40
0.0
 40
0.0
 40
0.0
 40
0.0783635255751815
 40
0.1626236983881233
 40
0.2527497526860467
 40
0.3432202822033337
 40
0.4606289688128001
 40
0.5824853456704356
 40
0.7121609496258368
 40
0.8146389099152628
 40
0.9208770619417406
 40
1.0
 40
1.0
 40
1.0
 40
1.0
 10
127.1325318722671
 20
151.3947402654458
 30
0.0
 10
127.0485723116813
 20
151.3849641182288
 30
0.0
 10
126.8743354564953
 20
151.3646761946731
 30
0.0
 10
126.6812550275123
 20
151.2275436835006
 30
0.0
 10
126.5320609395759
 20
151.0495683808072
 30
0.0
 10
126.4047388469557
 20
150.8107918204258
 30
0.0
 10
126.2985512677345
 20
150.5327016273685
 30
0.0
 10
126.187321869601
 20
150.1600138369816
 30
0.0
 10
126.0833158006805
 20
149.7306734187576
 30
0.0
 10
125.9858274734886
 20
149.2645663209578
 30
0.0
 10
125.9037119117145
 20
148.833203338919
 30
0.0
 10
125.8509927573453
 20
148.5262529544556
 30
0.0
 10
125.8284891435408
 20
148.3952286049238
 30
0.0
  0
SPLINE
  5
8A
330
1F
100
AcDbEntity
  8
0
  6
Continuous
 62
     7
370
    15
100
AcDbSpline
210
0.0
220
0.0
230
1.0
 70
     8
 71
     3
 72
    12
 73
     8
 74
     0
 42
0.00000001
 43
0.00000001
 12
1.0
 22
0.0
 32
0.0
 13
1.0
 23
0.0
 33
0.0
 40
0.0
 40
0.0
 40
0.0
 40
0.0
 40
0.1135177794022984
 40
0.3939766077557147
 40
0.6746821464377997
 40
0.9470766882429982
 40
1.0
 40
1.0
 40
1.0
 40
1.0
 10
124.9088549932841
 20
142.3952286049238
 30
0.0
 10
124.8975776450153
 20
142.329731691985
 30
0.0
 10
124.858438301039
 20
142.1024170659063
 30
0.0
 10
124.7918397107168
 20
141.7520593685336
 30
0.0
 10
124.7102679096352
 20
141.3590641846634
 30
0.0
 10
124.6511844139099
 20
141.0986357405424
 30
0.0
 10
124.6214446351187
 20
140.9889546664566
 30
0.0
 10
124.6166065127491
 20
140.9711115459082
 30
0.0
  0
SPLINE
  5
8B
330
1F
100
AcDbEntity
  8
0
  6
Continuous
 62
     7
370
    15
100
AcDbSpline
210
0.0
220
0.0
230
1.0
 70
     8
 71
     3
 72
    18
 73
    14
 74
     0
 42
0.00000001
 43
0.00000001
 12
1.0
 22
0.0
 32
0.0
 13
1.0
 23
0.0
 33
0.0
 40
0.0
 40
0.0
 40
0.0
 40
0.0
 40
0.0818698399453553
 40
0.1744820480462511
 40
0.2773665549108416
 40
0.3711462107570928
 40
0.4459342544781508
 40
0.5176988496588917
 40
0.6025964365788586
 40
0.700563483508454
 40
0.8115434544736695
 40
0.9354510326328463
 40
1.0
 40
1.0
 40
1.0
 40
1.0
 10
124.6093091750814
 20
139.3957463704034
 30
0.0
 10
124.6953230158831
 20
139.4062779638142
 30
0.0
 10
124.8786368114568
 20
139.4287230301381
 30
0.0
 10
125.0789949828539
 20
139.5796741727829
 30
0.0
 10
125.2327708384913
 20
139.7768140556815
 30
0.0
 10
125.3475400830849
 20
140.0086534468765
 30
0.0
 10
125.4293655821857
 20
140.2252564617447
 30
0.0
 10
125.4978903835783
 20
140.4389787121515
 30
0.0
 10
125.5736476984383
 20
140.7110894912852
 30
0.0
 10
125.6589883449262
 20
141.064943047167
 30
0.0
 10
125.7548073237217
 20
141.520263612023
 30
0.0
 10
125.8403830134294
 20
141.9681015820598
 30
0.0
 10
125.8939584740593
 20
142.2862562432342
 30
0.0
 10
125.9123088086164
 20
142.3952286049238
 30
0.0
  0
SPLINE
  5
8C
330
1F
100
AcDbEntity
  8
0
  6
Continuous
 62
     7
370
    15
100
AcDbSpline
210
0.0
220
0.0
230
1.0
 70
     8
 71
     3
 72
    12
 73
     8
 74
     0
 42
0.00000001
 43
0.00000001
 12
1.0
 22
0.0
 32
0.0
 13
1.0
 23
0.0
 33
0.0
 40
0.0
 40
0.0
 40
0.0
 40
0.0
 40
0.0009440718444156
 40
0.3174168919291784
 40
0.5970525267090887
 40
0.912731180676384
 40
1.0
 40
1.0
 40
1.0
 40
1.0
 10
126.8320281891695
 20
148.3952286049238
 30
0.0
 10
126.8321202871746
 20
148.3957778609295
 30
0.0
 10
126.8630855815081
 20
148.5804493297663
 30
0.0
 10
126.9211437914862
 20
148.8894827556661
 30
0.0
 10
127.0091120412904
 20
149.3297284200089
 30
0.0
 10
127.0753355225754
 20
149.6297424928574
 30
0.0
 10
127.1126953938061
 20
149.7700818164191
 30
0.0
 10
127.1207866515221
 20
149.8004759692149
 30
0.0
  0
SPLINE
  5
8D
330
1F
100
AcDbEntity
  8
0
  6
Continuous
 62
     7
370
    15
100
AcDbSpline
210
0.0
220
0.0
230
1.0
 70
     8
 71
     3
 72
    17
 73
    13
 74
     0
 42
0.00000001
 43
0.00000001
 12
1.0
 22
0.0
 32
0.0
 13
1.0
 23
0.0
 33
0.0
 40
0.0
 40
0.0
 40
0.0
 40
0.0
 40
0.0817188956301922
 40
0.1544960742216803
 40
0.2467631625615586
 40
0.3202386292051552
 40
0.3812020013325751
 40
0.4432178681949911
 40
0.6179389081247691
 40
0.806617750939556
 40
0.9404867378061629
 40
0.9999999999999999
 40
0.9999999999999999
 40
0.9999999999999999
 40
0.9999999999999999
 10
129.6090305957574
 20
139.3956250555407
 30
0.0
 10
129.6843832405278
 20
139.403058026023
 30
0.0
 10
129.8268434109628
 20
139.4171106481302
 30
0.0
 10
130.0263869310601
 20
139.5359545532508
 30
0.0
 10
130.1820665231645
 20
139.7025671466209
 30
0.0
 10
130.2892786874761
 20
139.8882739691578
 30
0.0
 10
130.3539945309709
 20
140.0325932543414
 30
0.0
 10
130.4535278129838
 20
140.2898782455806
 30
0.0
 10
130.5847431750651
 20
140.7336094405409
 30
0.0
 10
130.7310088996445
 20
141.3939171962927
 30
0.0
 10
130.8405675855062
 20
141.967853218635
 30
0.0
 10
130.8955195540523
 20
142.2946554342366
 30
0.0
 10
130.9124309868649
 20
142.3952286049238
 30
0.0
  0
SPLINE
  5
8E
330
1F
100
AcDbEntity
  8
0
  6
Continuous
 62
     7
370
    15
100
AcDbSpline
210
0.0
220
0.0
230
1.0
 70
     8
 71
     3
 72
    11
 73
     7
 74
     0
 42
0.00000001
 43
0.00000001
 12
1.0
 22
0.0
 32
0.0
 13
1.0
 23
0.0
 33
0.0
 40
0.0
 40
0.0
 40
0.0
 40
0.0
 40
0.254645695496484
 40
0.570780486391875
 40
0.8736825540813528
 40
1.0
 40
1.0
 40
1.0
 40
1.0
 10
131.83281893027
 20
148.3952286049238
 30
0.0
 10
131.8580830999392
 20
148.5389948558384
 30
0.0
 10
131.914711958416
 20
148.8612424809703
 30
0.0
 10
131.9995167276571
 20
149.284942207389
 30
0.0
 10
132.0707766997626
 20
149.6134811751167
 30
0.0
 10
132.1094126574885
 20
149.7616315588139
 30
0.0
 10
132.1207830526962
 20
149.8052315757917
 30
0.0
  0
SPLINE
  5
8F
330
1F
100
AcDbEntity
  8
0
  6
Continuous
 62
     7
370
    15
100
AcDbSpline
210
0.0
220
0.0
230
1.0
 70
     8
 71
     3
 72
    17
 73
    13
 74
     0
 42
0.00000001
 43
0.00000001
 12
1.0
 22
0.0
 32
0.0
 13
1.0
 23
0.0
 33
0.0
 40
0.0
 40
0.0
 40
0.0
 40
0.0
 40
0.087245581372659
 40
0.2250342889714953
 40
0.3608131887046268
 40
0.4583024461499469
 40
0.5396916959933354
 40
0.640832766678411
 40
0.734076825347089
 40
0.8421250256440936
 40
0.9637182850212672
 40
1.0
 40
1.0
 40
1.0
 40
1.0
 10
134.6100228486012
 20
139.3953975099568
 30
0.0
 10
134.7007193120375
 20
139.4078275562141
 30
0.0
 10
134.9346545307672
 20
139.4398886254098
 30
0.0
 10
135.1655858674294
 20
139.6688569071254
 30
0.0
 10
135.3228289888993
 20
139.9451539700264
 30
0.0
 10
135.4376847612346
 20
140.2454543270378
 30
0.0
 10
135.5217088570762
 20
140.5188266366802
 30
0.0
 10
135.6024906814432
 20
140.8249510019372
 30
0.0
 10
135.6897146264603
 20
141.204509988951
 30
0.0
 10
135.7821091955273
 20
141.6598010792119
 30
0.0
 10
135.8577955167864
 20
142.0659183342177
 30
0.0
 10
135.9025997521885
 20
142.3336909807385
 30
0.0
 10
135.9128963460935
 20
142.3952286049238
 30
0.0
  0
SPLINE
  5
90
330
1F
100
AcDbEntity
  8
0
  6
Continuous
 62
     7
370
    15
100
AcDbSpline
210
0.0
220
0.0
230
1.0
 70
     8
 71
     3
 72
    11
 73
     7
 74
     0
 42
0.00000001
 43
0.00000001
 12
1.0
 22
0.0
 32
0.0
 13
1.0
 23
0.0
 33
0.0
 40
0.0
 40
0.0
 40
0.0
 40
0.0
 40
0.2701381918027874
 40
0.5498899464052509
 40
0.8209275339434342
 40
1.0
 40
1.0
 40
1.0
 40
1.0
 10
136.8323268635502
 20
148.3952286049238
 30
0.0
 10
136.8587216142089
 20
148.5438773540247
 30
0.0
 10
136.9124504406595
 20
148.8464649005351
 30
0.0
 10
136.9918578250584
 20
149.2460255646864
 30
0.0
 10
137.0621419114979
 20
149.570886784911
 30
0.0
 10
137.1041461826397
 20
149.7357231605844
 30
0.0
 10
137.1208572255462
 20
149.8013019141623
 30
0.0
  0
SPLINE
  5
91
330
1F
100
AcDbEntity
  8
0
  6
Continuous
 62
     7
370
    15
100
AcDbSpline
210
0.0
220
0.0
230
1.0
 70
     8
 71
     3
 72
    16
 73
    12
 74
     0
 42
0.00000001
 43
0.00000001
 12
1.0
 22
0.0
 32
0.0
 13
1.0
 23
0.0
 33
0.0
 40
0.0
 40
0.0
 40
0.0
 40
0.0
 40
0.0852179046948223
 40
0.1628571752335797
 40
0.2649695980158445
 40
0.3515229666870877
 40
0.427967822070164
 40
0.5016342594080747
 40
0.6858887696999516
 40
0.8538210595082949
 40
1.0
 40
1.0
 40
1.0
 40
1.0
 10
139.6085854290717
 20
139.3953876970616
 30
0.0
 10
139.6868670790603
 20
139.4034236802939
 30
0.0
 10
139.8364686027709
 20
139.418780987354
 30
0.0
 10
140.0444677253069
 20
139.5496990149977
 30
0.0
 10
140.2081966705078
 20
139.739224449288
 30
0.0
 10
140.3219498155959
 20
139.9549691785685
 30
0.0
 10
140.398246993236
 20
140.1432319635056
 30
0.0
 10
140.5081134147648
 20
140.4628798803347
 30
0.0
 10
140.6379922303735
 20
140.9575417155049
 30
0.0
 10
140.7823110156998
 20
141.6458478550204
 30
0.0
 10
140.8716101707033
 20
142.1572402858221
 30
0.0
 10
140.9131676019761
 20
142.3952286049238
 30
0.0
  0
SPLINE
  5
92
330
1F
100
AcDbEntity
  8
0
  6
Continuous
 62
     7
370
    15
100
AcDbSpline
210
0.0
220
0.0
230
1.0
 70
     8
 71
     3
 72
    21
 73
    17
 74
     0
 42
0.00000001
 43
0.00000001
 12
1.0
 22
0.0
 32
0.0
 13
1.0
 23
0.0
 33
0.0
 40
0.0
 40
0.0
 40
0.0
 40
0.0
 40
0.1125547803544918
 40
0.2167684570409956
 40
0.3126014195300718
 40
0.399982144876709
 40
0.5031657972698144
 40
0.59108561576417
 40
0.6635601184100354
 40
0.7204331552621608
 40
0.7649481691245397
 40
0.8132704312885838
 40
0.8538320201673395
 40
0.8984218250030093
 40
0.9471835460922706
 40
1.0
 40
1.0
 40
1.0
 40
1.0
 10
143.8600355982881
 20
145.4698571055879
 30
0.0
 10
143.8113698368408
 20
145.8061647870589
 30
0.0
 10
143.7176447903661
 20
146.4538573770484
 30
0.0
 10
143.582053889565
 20
147.3594660084051
 30
0.0
 10
143.4569426533806
 20
148.1452475255338
 30
0.0
 10
143.3316453865208
 20
148.8695024279912
 30
0.0
 10
143.2086511221424
 20
149.4998677490657
 30
0.0
 10
143.0906128917222
 20
150.0129997823801
 30
0.0
 10
142.9911093225151
 20
150.3740698009091
 30
0.0
 10
142.9085692805605
 20
150.6211484638422
 30
0.0
 10
142.8330945446339
 20
150.8099700977054
 30
0.0
 10
142.7442043131822
 20
150.9837860444115
 30
0.0
 10
142.6329438153924
 20
151.1414948389329
 30
0.0
 10
142.4964123604572
 20
151.2719513944523
 30
0.0
 10
142.3210008337264
 20
151.3749903981648
 30
0.0
 10
142.1818073649241
 20
151.3881567464381
 30
0.0
 10
142.1094325124574
 20
151.3950027035222
 30
0.0
  0
SPLINE
  5
93
330
1F
100
AcDbEntity
  8
0
  6
Continuous
 62
     7
370
    15
100
AcDbSpline
210
0.0
220
0.0
230
1.0
 70
     8
 71
     3
 72
    36
 73
    32
 74
     0
 42
0.00000001
 43
0.00000001
 12
1.0
 22
0.0
 32
0.0
 13
1.0
 23
0.0
 33
0.0
 40
0.0
 40
0.0
 40
0.0
 40
0.0
 40
0.0343580231927463
 40
0.0641349028224128
 40
0.0887967336237707
 40
0.1174495744146501
 40
0.1508323046479021
 40
0.1889659472357215
 40
0.2318797023031857
 40
0.2795847790417353
 40
0.3260872261352519
 40
0.3663661699419919
 40
0.4003708028034909
 40
0.4280526020412761
 40
0.4493785021995037
 40
0.4670080793642312
 40
0.4903383907722315
 40
0.5202037236321637
 40
0.5566288767674874
 40
0.5996435783821981
 40
0.6443028186002023
 40
0.6845045436738786
 40
0.7202035162249201
 40
0.7513822564179713
 40
0.7861452090921054
 40
0.8202943807777056
 40
0.8572302023631106
 40
0.887353062379378
 40
0.9208837728803076
 40
0.9583952756351154
 40
1.0
 40
1.0
 40
1.0
 40
1.0
 10
139.8213559660745
 20
140.3477992044975
 30
0.0
 10
139.8200234159881
 20
140.3574081327935
 30
0.0
 10
139.8175359920224
 20
140.3753447783052
 30
0.0
 10
139.7718628307258
 20
140.4815646445796
 30
0.0
 10
139.7112330027007
 20
140.6579031031365
 30
0.0
 10
139.647321433052
 20
140.877147882236
 30
0.0
 10
139.5711022708393
 20
141.1798850010298
 30
0.0
 10
139.4828347038158
 20
141.5828480627775
 30
0.0
 10
139.3824487629197
 20
142.1021801375426
 30
0.0
 10
139.2748256635543
 20
142.7209917791223
 30
0.0
 10
139.1689639556976
 20
143.3811167736279
 30
0.0
 10
139.0737868251084
 20
144.0068692469818
 30
0.0
 10
138.9933566099677
 20
144.5513995006528
 30
0.0
 10
138.9278182169274
 20
145.0016090140739
 30
0.0
 10
138.8751748780871
 20
145.3652329634398
 30
0.0
 10
138.8259665478997
 20
145.7054083377143
 30
0.0
 10
138.7699989950785
 20
146.0914153035806
 30
0.0
 10
138.6991441456884
 20
146.5759377642546
 30
0.0
 10
138.6126521654034
 20
147.1559214644966
 30
0.0
 10
138.5143235963875
 20
147.7909647641949
 30
0.0
 10
138.4128961088969
 20
148.4076561577373
 30
0.0
 10
138.3170124282123
 20
148.9464594393319
 30
0.0
 10
138.2315588028758
 20
149.3849851527249
 30
0.0
 10
138.149829920065
 20
149.7642971561033
 30
0.0
 10
138.0692674369521
 20
150.0975393745728
 30
0.0
 10
137.9793270939093
 20
150.4173796830477
 30
0.0
 10
137.8875132056199
 20
150.6835076062141
 30
0.0
 10
137.7836415825733
 20
150.9193248748151
 30
0.0
 10
137.63851120751
 20
151.1462538939623
 30
0.0
 10
137.4186534938754
 20
151.3479440417294
 30
0.0
 10
137.216097228527
 20
151.378858682688
 30
0.0
 10
137.1095792878338
 20
151.3951157156982
 30
0.0
  0
SPLINE
  5
94
330
1F
100
AcDbEntity
  8
0
  6
Continuous
 62
     7
370
    15
100
AcDbSpline
210
0.0
220
0.0
230
1.0
 70
     8
 71
     3
 72
    36
 73
    32
 74
     0
 42
0.00000001
 43
0.00000001
 12
1.0
 22
0.0
 32
0.0
 13
1.0
 23
0.0
 33
0.0
 40
0.0
 40
0.0
 40
0.0
 40
0.0
 40
0.0152849252858142
 40
0.0352350134771014
 40
0.0539692754988255
 40
0.0734276533249476
 40
0.1039680620333932
 40
0.1361390871184966
 40
0.1699270274029526
 40
0.205311779939212
 40
0.2422801118269096
 40
0.279217926757144
 40
0.312305194014786
 40
0.3413520168016414
 40
0.373757714558123
 40
0.3989054836835103
 40
0.4197407315828746
 40
0.4489815345304584
 40
0.4880958166754493
 40
0.5371320235568726
 40
0.5803866963802425
 40
0.624632190612122
 40
0.6672805548552859
 40
0.7083601881708451
 40
0.7607122500469667
 40
0.8103870333206455
 40
0.8576551889748475
 40
0.8927151247349034
 40
0.9280095147543213
 40
0.963784338608219
 40
1.0
 40
1.0
 40
1.0
 40
1.0
 10
134.815945675992
 20
140.3585237196984
 30
0.0
 10
134.8187916156262
 20
140.3589283235954
 30
0.0
 10
134.8253521135999
 20
140.3598610218912
 30
0.0
 10
134.7961523571073
 20
140.4186408057868
 30
0.0
 10
134.7604646817096
 20
140.5098874140726
 30
0.0
 10
134.7160306516338
 20
140.6388215904718
 30
0.0
 10
134.6594549814696
 20
140.8293683042132
 30
0.0
 10
134.5897363908777
 20
141.1014071023929
 30
0.0
 10
134.5140037960516
 20
141.4365751326854
 30
0.0
 10
134.432897921194
 20
141.8370356352708
 30
0.0
 10
134.3481642491977
 20
142.2971403481017
 30
0.0
 10
134.2646163315141
 20
142.7871509164319
 30
0.0
 10
134.1872305290673
 20
143.2679839161223
 30
0.0
 10
134.1132639524581
 20
143.7462060505496
 30
0.0
 10
134.0454202046809
 20
144.1984441859497
 30
0.0
 10
133.9839693077346
 20
144.6160805930745
 30
0.0
 10
133.9249617103324
 20
145.0212328825379
 30
0.0
 10
133.8549799580971
 20
145.5048814449094
 30
0.0
 10
133.762824559211
 20
146.1418348613565
 30
0.0
 10
133.6596086098554
 20
146.8447243014128
 30
0.0
 10
133.5524519351974
 20
147.5489713497132
 30
0.0
 10
133.4500358807078
 20
148.1874488113685
 30
0.0
 10
133.3487038453972
 20
148.774568827842
 30
0.0
 10
133.2396657048155
 20
149.3499772848751
 30
0.0
 10
133.1227092967312
 20
149.8889632572696
 30
0.0
 10
132.9946657510524
 20
150.3673423814877
 30
0.0
 10
132.8780236708426
 20
150.7091819481223
 30
0.0
 10
132.7454362300893
 20
150.9854744177179
 30
0.0
 10
132.5886697863984
 20
151.1959580612436
 30
0.0
 10
132.3812301961752
 20
151.3597469328331
 30
0.0
 10
132.2000784009952
 20
151.3831607580487
 30
0.0
 10
132.1089478571134
 20
151.394939358554
 30
0.0
  0
SPLINE
  5
95
330
1F
100
AcDbEntity
  8
0
  6
Continuous
 62
     7
370
    15
100
AcDbSpline
210
0.0
220
0.0
230
1.0
 70
     8
 71
     3
 72
    35
 73
    31
 74
     0
 42
0.00000001
 43
0.00000001
 12
1.0
 22
0.0
 32
0.0
 13
1.0
 23
0.0
 33
0.0
 40
0.0
 40
0.0
 40
0.0
 40
0.0
 40
0.030764245543443
 40
0.059745326198462
 40
0.0842451491104859
 40
0.1057146551520186
 40
0.1315164431667118
 40
0.1625798633670196
 40
0.1989318527896198
 40
0.2405882311113808
 40
0.2824671351352703
 40
0.3199361926434705
 40
0.3629439175810302
 40
0.397965884424418
 40
0.4303921962642355
 40
0.4682734104924413
 40
0.511697355643385
 40
0.5606478835513726
 40
0.598344730708436
 40
0.634997589792903
 40
0.6706221262457591
 40
0.7052312328626199
 40
0.7713409033017762
 40
0.8333019563994513
 40
0.86277696377774
 40
0.8913784096259944
 40
0.909278089832487
 40
0.9331265228679484
 40
0.9633342695003786
 40
1.0
 40
1.0
 40
1.0
 40
1.0
 10
129.8191789822821
 20
140.3481529264354
 30
0.0
 10
129.8174375584759
 20
140.3580432705302
 30
0.0
 10
129.8140556477052
 20
140.3772506921237
 30
0.0
 10
129.7766224781221
 20
140.4697138399246
 30
0.0
 10
129.7328420960539
 20
140.5935030446158
 30
0.0
 10
129.6797310223745
 20
140.7636723803093
 30
0.0
 10
129.6208834208542
 20
140.9794848352122
 30
0.0
 10
129.5491769627494
 20
141.2773567726331
 30
0.0
 10
129.4643844017831
 20
141.6757324116738
 30
0.0
 10
129.3703546277013
 20
142.1706445960376
 30
0.0
 10
129.2751322048988
 20
142.7223722076108
 30
0.0
 10
129.1786877011907
 20
143.3202940209983
 30
0.0
 10
129.0873928070905
 20
143.9160367250356
 30
0.0
 10
128.9999674929112
 20
144.5059732368233
 30
0.0
 10
128.9165588798677
 20
145.0787998829502
 30
0.0
 10
128.8264833019745
 20
145.7023209541354
 30
0.0
 10
128.723270825189
 20
146.4133847015167
 30
0.0
 10
128.6202101994367
 20
147.1069803804299
 30
0.0
 10
128.5225210475473
 20
147.7378836864705
 30
0.0
 10
128.4351680244945
 20
148.274549456847
 30
0.0
 10
128.3499816980978
 20
148.7652894959724
 30
0.0
 10
128.2407728935662
 20
149.3477400547416
 30
0.0
 10
128.1089871917206
 20
149.9584858296532
 30
0.0
 10
127.9771579541988
 20
150.4329282590515
 30
0.0
 10
127.8644183679315
 20
150.7375931710761
 30
0.0
 10
127.7952023319618
 20
150.8919576363047
 30
0.0
 10
127.7030519369394
 20
151.0523398695946
 30
0.0
 10
127.5775173558548
 20
151.2085126615312
 30
0.0
 10
127.3787864486936
 20
151.3599525488048
 30
0.0
 10
127.20489601373
 20
151.3824319048622
 30
0.0
 10
127.1095544807595
 20
151.3947570006454
 30
0.0
  0
SPLINE
  5
96
330
1F
100
AcDbEntity
  8
0
  6
Continuous
 62
     7
370
    15
100
AcDbSpline
210
0.0
220
0.0
230
1.0
 70
     8
 71
     3
 72
    13
 73
     9
 74
     0
 42
0.00000001
 43
0.00000001
 12
1.0
 22
0.0
 32
0.0
 13
1.0
 23
0.0
 33
0.0
 40
0.0
 40
0.0
 40
0.0
 40
0.0
 40
0.0651071204270214
 40
0.2082945653549845
 40
0.3728472422591354
 40
0.5593699863609272
 40
0.768311963973369
 40
1.0
 40
1.0
 40
1.0
 40
1.0
 10
124.7345620783048
 20
140.4080291424672
 30
0.0
 10
124.7381448745664
 20
140.4125037511006
 30
0.0
 10
124.7496071690923
 20
140.4268191847169
 30
0.0
 10
124.7310699009499
 20
140.5080976575047
 30
0.0
 10
124.6882115263749
 20
140.6778737106211
 30
0.0
 10
124.6161858975891
 20
140.966471241915
 30
0.0
 10
124.5211406135226
 20
141.3907650499831
 30
0.0
 10
124.4459867526542
 20
141.7795759479866
 30
0.0
 10
124.4064700382102
 20
141.984016931478
 30
0.0
  0
SPLINE
  5
97
330
1F
100
AcDbEntity
  8
0
  6
Continuous
 62
     7
370
    15
100
AcDbSpline
210
0.0
220
0.0
230
1.0
 70
     8
 71
     3
 72
    14
 73
    10
 74
     0
 42
0.00000001
 43
0.00000001
 12
1.0
 22
0.0
 32
0.0
 13
1.0
 23
0.0
 33
0.0
 40
0.0
 40
0.0
 40
0.0
 40
0.0
 40
0.1180954086488552
 40
0.2683826130768462
 40
0.3901802540218771
 40
0.532767741048095
 40
0.6769771131804356
 40
0.9722275979041645
 40
1.0
 40
1.0
 40
1.0
 40
1.0
 10
104.6719532973625
 20
139.4126959491128
 30
0.0
 10
104.7562912332788
 20
139.4305310840741
 30
0.0
 10
104.9479569032799
 20
139.4710630588586
 30
0.0
 10
105.1571128768324
 20
139.665376063403
 30
0.0
 10
105.2872868238262
 20
139.8802366777987
 30
0.0
 10
105.3611294881665
 20
140.0446470623541
 30
0.0
 10
105.4753350470215
 20
140.3551559307867
 30
0.0
 10
105.5570934849097
 20
140.6234267433097
 30
0.0
 10
105.6114354798391
 20
140.8737100987475
 30
0.0
 10
105.6161076185496
 20
140.8952286049238
 30
0.0
  0
SPLINE
  5
98
330
1F
100
AcDbEntity
  8
0
  6
Continuous
 62
     7
370
    15
100
AcDbSpline
210
0.0
220
0.0
230
1.0
 70
     8
 71
     3
 72
    15
 73
    11
 74
     0
 42
0.00000001
 43
0.00000001
 12
1.0
 22
0.0
 32
0.0
 13
1.0
 23
0.0
 33
0.0
 40
0.0
 40
0.0
 40
0.0
 40
0.0
 40
0.134488054886075
 40
0.2522280458324361
 40
0.3976185658466679
 40
0.5088709324152211
 40
0.6073098881456139
 40
0.7084306764093814
 40
0.8948247654087641
 40
1.0
 40
1.0
 40
1.0
 40
1.0
 10
109.6094534112219
 20
139.3957357874539
 30
0.0
 10
109.6915456869021
 20
139.4047059359352
 30
0.0
 10
109.8455071245206
 20
139.4215291625347
 30
0.0
 10
110.0538935152381
 20
139.5567768864741
 30
0.0
 10
110.2085819198491
 20
139.7407942952392
 30
0.0
 10
110.3062349295763
 20
139.9235533896992
 30
0.0
 10
110.3731427240629
 20
140.0784862733858
 30
0.0
 10
110.4569680446825
 20
140.3076097689855
 30
0.0
 10
110.5372983016031
 20
140.5679978234909
 30
0.0
 10
110.5941123058285
 20
140.808481166319
 30
0.0
 10
110.6146063212788
 20
140.8952286049238
 30
0.0
  0
LINE
  5
99
330
1F
100
AcDbEntity
  8
0
  6
Continuous
 62
     7
370
    15
100
AcDbLine
 10
110.9069519343
 20
142.3566107313
 30
0.0
 11
110.9133364118
 21
142.3952286049
 31
0.0
  0
SPLINE
  5
9A
330
1F
100
AcDbEntity
  8
0
  6
Continuous
 62
     7
370
    15
100
AcDbSpline
210
0.0
220
0.0
230
1.0
 70
     8
 71
     3
 72
    11
 73
     7
 74
     0
 42
0.00000001
 43
0.00000001
 12
1.0
 22
0.0
 32
0.0
 13
1.0
 23
0.0
 33
0.0
 40
0.0
 40
0.0
 40
0.0
 40
0.0
 40
0.2035114199161038
 40
0.4841699882824357
 40
0.764722542129539
 40
1.0
 40
1.0
 40
1.0
 40
1.0
 10
111.8326936915354
 20
148.3952286049238
 30
0.0
 10
111.852764225233
 20
148.509757131423
 30
0.0
 10
111.9005136344267
 20
148.782229680413
 30
0.0
 10
111.9748005074029
 20
149.1633814072298
 30
0.0
 10
112.0511383597922
 20
149.5258270182773
 30
0.0
 10
112.0988892974846
 20
149.7178559120564
 30
0.0
 10
112.1206691842225
 20
149.8054430414201
 30
0.0
  0
SPLINE
  5
9B
330
1F
100
AcDbEntity
  8
0
  6
Continuous
 62
     7
370
    15
100
AcDbSpline
210
0.0
220
0.0
230
1.0
 70
     8
 71
     3
 72
    17
 73
    13
 74
     0
 42
0.00000001
 43
0.00000001
 12
1.0
 22
0.0
 32
0.0
 13
1.0
 23
0.0
 33
0.0
 40
0.0
 40
0.0
 40
0.0
 40
0.0
 40
0.0784215149912148
 40
0.1626817387963507
 40
0.2527282855291379
 40
0.3431544868936358
 40
0.4606810579483823
 40
0.5826988409414515
 40
0.7124677844696349
 40
0.8149900241943051
 40
0.9212681032578038
 40
1.0
 40
1.0
 40
1.0
 40
1.0
 10
114.6097375287083
 20
139.3956896054259
 30
0.0
 10
114.693692431566
 20
139.4056341235052
 30
0.0
 10
114.8678529228407
 20
139.4262635578231
 30
0.0
 10
115.060909491643
 20
139.5637587264123
 30
0.0
 10
115.2101164179845
 20
139.7415198437172
 30
0.0
 10
115.3373976071411
 20
139.9803815647658
 30
0.0
 10
115.4435320291411
 20
140.2591092782496
 30
0.0
 10
115.5547566920475
 20
140.6322291594633
 30
0.0
 10
115.6587882174362
 20
141.061329244328
 30
0.0
 10
115.7562674769873
 20
141.5279715537507
 30
0.0
 10
115.8382247011685
 20
141.9589142901025
 30
0.0
 10
115.8908064235698
 20
142.2649805967111
 30
0.0
 10
115.913182831764
 20
142.3952286049238
 30
0.0
  0
SPLINE
  5
9C
330
1F
100
AcDbEntity
  8
0
  6
Continuous
 62
     7
370
    15
100
AcDbSpline
210
0.0
220
0.0
230
1.0
 70
     8
 71
     3
 72
    12
 73
     8
 74
     0
 42
0.00000001
 43
0.00000001
 12
1.0
 22
0.0
 32
0.0
 13
1.0
 23
0.0
 33
0.0
 40
0.0
 40
0.0
 40
0.0
 40
0.0
 40
0.1161368583022044
 40
0.4007146471791278
 40
0.6855674418772219
 40
0.9619857610239667
 40
1.0
 40
1.0
 40
1.0
 40
1.0
 10
116.8328296158044
 20
148.3952286049238
 30
0.0
 10
116.8441972088594
 20
148.4612656812963
 30
0.0
 10
116.8834195634753
 20
148.6891177529485
 30
0.0
 10
116.9501245801032
 20
149.0400959050322
 30
0.0
 10
117.0316614418238
 20
149.4321785814161
 30
0.0
 10
117.0892893460951
 20
149.6866971081514
 30
0.0
 10
117.1176375022511
 20
149.7916259598468
 30
0.0
 10
117.1210647350704
 20
149.8043116386698
 30
0.0
  0
SPLINE
  5
9D
330
1F
100
AcDbEntity
  8
0
  6
Continuous
 62
     7
370
    15
100
AcDbSpline
210
0.0
220
0.0
230
1.0
 70
     8
 71
     3
 72
    18
 73
    14
 74
     0
 42
0.00000001
 43
0.00000001
 12
1.0
 22
0.0
 32
0.0
 13
1.0
 23
0.0
 33
0.0
 40
0.0
 40
0.0
 40
0.0
 40
0.0
 40
0.0864421465603074
 40
0.1650404027384695
 40
0.2681206501177524
 40
0.3552178028276892
 40
0.4319590787354431
 40
0.5045953018717818
 40
0.6240433743952933
 40
0.7315824921491275
 40
0.8278352859046516
 40
0.9732302795849284
 40
1.0
 40
1.0
 40
1.0
 40
1.0
 10
119.6087813501201
 20
139.3955080294096
 30
0.0
 10
119.6882299951806
 20
139.4039353228606
 30
0.0
 10
119.8399179957634
 20
139.4200252044807
 30
0.0
 10
120.049673527518
 20
139.5539578157309
 30
0.0
 10
120.2135368900843
 20
139.7469240910381
 30
0.0
 10
120.3258273820683
 20
139.9632195712244
 30
0.0
 10
120.4019370330744
 20
140.1532089414934
 30
0.0
 10
120.4903382289363
 20
140.4125826946705
 30
0.0
 10
120.5831264884847
 20
140.7451025906428
 30
0.0
 10
120.679533621255
 20
141.15649359771
 30
0.0
 10
120.7799425618019
 20
141.6477273059584
 30
0.0
 10
120.8563700088919
 20
142.0519818307847
 30
0.0
 10
120.9052244792313
 20
142.3490394160099
 30
0.0
 10
120.9128208123062
 20
142.3952286049238
 30
0.0
  0
SPLINE
  5
9E
330
1F
100
AcDbEntity
  8
0
  6
Continuous
 62
     7
370
    15
100
AcDbSpline
210
0.0
220
0.0
230
1.0
 70
     8
 71
     3
 72
    11
 73
     7
 74
     0
 42
0.00000001
 43
0.00000001
 12
1.0
 22
0.0
 32
0.0
 13
1.0
 23
0.0
 33
0.0
 40
0.0
 40
0.0
 40
0.0
 40
0.0
 40
0.1756671771856618
 40
0.5048030031682107
 40
0.8064878317481563
 40
1.0
 40
1.0
 40
1.0
 40
1.0
 10
121.8331367720763
 20
148.3952286049238
 30
0.0
 10
121.8504110022905
 20
148.495500188423
 30
0.0
 10
121.9000508008533
 20
148.7836439230339
 30
0.0
 10
121.9782859493194
 20
149.1824311907306
 30
0.0
 10
122.0573923762799
 20
149.5539674072228
 30
0.0
 10
122.1030320939876
 20
149.7339791175878
 30
0.0
 10
122.1208670986191
 20
149.8043237614494
 30
0.0
  0
SPLINE
  5
9F
330
1F
100
AcDbEntity
  8
0
  6
Continuous
 62
     7
370
    15
100
AcDbSpline
210
0.0
220
0.0
230
1.0
 70
     8
 71
     3
 72
    28
 73
    24
 74
     0
 42
0.00000001
 43
0.00000001
 12
1.0
 22
0.0
 32
0.0
 13
1.0
 23
0.0
 33
0.0
 40
0.0
 40
0.0
 40
0.0
 40
0.0
 40
0.0541794135614245
 40
0.1051359968616185
 40
0.1528433587381737
 40
0.1972932116908557
 40
0.2514438924615736
 40
0.2997239097411263
 40
0.342104665606055
 40
0.3785631320914417
 40
0.4116294534258271
 40
0.4455300754128266
 40
0.4980695873264803
 40
0.5527009748469028
 40
0.6094631437323019
 40
0.667383327464938
 40
0.7237522063931593
 40
0.7785471925150116
 40
0.8318847185173657
 40
0.8846411128641599
 40
0.9402298731005786
 40
0.9695995619759161
 40
0.9999999999999999
 40
0.9999999999999999
 40
0.9999999999999999
 40
0.9999999999999999
 10
124.4064600332073
 20
141.9839852658876
 30
0.0
 10
124.3732967050899
 20
142.1661394134604
 30
0.0
 10
124.3089427497464
 20
142.5196123772426
 30
0.0
 10
124.2153302429721
 20
143.0899557215408
 30
0.0
 10
124.1276154044477
 20
143.6510598238202
 30
0.0
 10
124.0379346581384
 20
144.2476153695411
 30
0.0
 10
123.9478369388471
 20
144.8628884132236
 30
0.0
 10
123.8589859968997
 20
145.4772327794908
 30
0.0
 10
123.7809775269026
 20
146.0161528641931
 30
0.0
 10
123.71233085
 20
146.4859098918341
 30
0.0
 10
123.6488986616666
 20
146.9134212450217
 30
0.0
 10
123.5755390152885
 20
147.397676340599
 30
0.0
 10
123.4887415292862
 20
147.950312661594
 30
0.0
 10
123.3875816105879
 20
148.5553987307443
 30
0.0
 10
123.2825867176309
 20
149.131800763818
 30
0.0
 10
123.1758016722834
 20
149.6540917779252
 30
0.0
 10
123.0663419094095
 20
150.1120169036754
 30
0.0
 10
122.9538154289033
 20
150.4981638895646
 30
0.0
 10
122.8334035135422
 20
150.8135045182208
 30
0.0
 10
122.6999240223985
 20
151.0707285688274
 30
0.0
 10
122.5140276615943
 20
151.2699261266097
 30
0.0
 10
122.3043360740129
 20
151.3783551391996
 30
0.0
 10
122.1752138283708
 20
151.3894307281147
 30
0.0
 10
122.1095393346094
 20
151.3950640230708
 30
0.0
  0
LWPOLYLINE
  5
A0
330
1F
100
AcDbEntity
  8
0
  6
Continuous
 62
     7
370
    15
100
AcDbPolyline
 90
       35
 70
   128
 43
0.0
 10
119.8216120071
 20
140.3461924201
 10
119.826372385
 20
140.3444584659
 10
119.8020090608
 20
140.4066005808
 10
119.7633251548
 20
140.5080073318
 10
119.7252956653
 20
140.6193120053
 10
119.6918613616
 20
140.7267267411
 10
119.648807176
 20
140.878545376
 10
119.5912679661
 20
141.1039583002
 10
119.5191874176
 20
141.4200727159
 10
119.4325053545
 20
141.8456816081
 10
119.3311575876
 20
142.3993983493
 10
119.2163017385
 20
143.0877100312
 10
119.1083042205
 20
143.7807471112
 10
119.0145633526
 20
144.4081543143
 10
118.9352466156
 20
144.9507728158
 10
118.8704927741
 20
145.3976746535
 10
118.8204107384
 20
145.7437050021
 10
118.7819881272
 20
146.0084746521
 10
118.7348761742
 20
146.3313085638
 10
118.6753013247
 20
146.7350553699
 10
118.6031820482
 20
147.2141506692
 10
118.5184157064
 20
147.7587707854
 10
118.4224731219
 20
148.3436642101
 10
118.3285265582
 20
148.8764004038
 10
118.2107284088
 20
149.4782036052
 10
118.1010452545
 20
149.9625359241
 10
117.9989753061
 20
150.3414710372
 10
117.9493855781
 20
150.4997276769
 10
117.8804804778
 20
150.6882389168
 10
117.7767743943
 20
150.9093314701
 10
117.6666340357
 20
151.0804080858
 10
117.5203167385
 20
151.2358501349
 10
117.3337119259
 20
151.3511698787
 10
117.1092623552
 20
151.3948484357
 10
117.1092623552
 20
151.3948484357
  0
LWPOLYLINE
  5
A1
330
1F
100
AcDbEntity
  8
0
  6
Continuous
 62
     7
370
    15
100
AcDbPolyline
 90
       31
 70
   128
 43
0.0
 10
114.8271880888
 20
140.3467054435
 10
114.8312356477
 20
140.3458942932
 10
114.8191349806
 20
140.3733077933
 10
114.7755223545
 20
140.4765883427
 10
114.7202241619
 20
140.6348247778
 10
114.6551263144
 20
140.8552867248
 10
114.5818382324
 20
141.1437004083
 10
114.5037247024
 20
141.4935826059
 10
114.4223319127
 20
141.9001053392
 10
114.3378580817
 20
142.362390028
 10
114.2504796079
 20
142.8781144909
 10
114.1603495933
 20
143.4429573582
 10
114.0691419007
 20
144.0409939921
 10
113.9580714537
 20
144.7939429167
 10
113.8606793913
 20
145.4654879015
 10
113.7770237628
 20
146.0426455813
 10
113.6996412336
 20
146.5709068362
 10
113.6041304749
 20
147.2079560099
 10
113.4883564957
 20
147.9459935077
 10
113.3880075548
 20
148.5441969644
 10
113.2821171726
 20
149.1231063075
 10
113.188361646
 20
149.5837885114
 10
113.1078369978
 20
149.9360073922
 10
113.0210708408
 20
150.266849973
 10
112.9499228881
 20
150.4990543838
 10
112.8497885174
 20
150.7652012999
 10
112.7438026707
 20
150.9775016066
 10
112.5988779359
 20
151.1751428117
 10
112.3911125631
 20
151.3305469536
 10
112.1092553137
 20
151.3947130504
 10
112.1092553137
 20
151.3947130504
  0
SPLINE
  5
A2
330
1F
100
AcDbEntity
  8
0
  6
Continuous
 62
     7
370
    15
100
AcDbSpline
210
0.0
220
0.0
230
1.0
 70
     8
 71
     3
 72
    34
 73
    30
 74
     0
 42
0.00000001
 43
0.00000001
 12
1.0
 22
0.0
 32
0.0
 13
1.0
 23
0.0
 33
0.0
 40
0.0
 40
0.0
 40
0.0
 40
0.0
 40
0.0006995811042384
 40
0.0184882925419253
 40
0.0501216271626902
 40
0.0826665592601548
 40
0.1161690475557314
 40
0.15059364946729
 40
0.1859108181678802
 40
0.2220789675234056
 40
0.2700629133093882
 40
0.3137125364721935
 40
0.3527179425350227
 40
0.3870337085680424
 40
0.4166299156388179
 40
0.4422458860844394
 40
0.4715730712403347
 40
0.5066266584907055
 40
0.5474223094188835
 40
0.5935255365302968
 40
0.6406374706190341
 40
0.6877484003839721
 40
0.7349290673444601
 40
0.7822315798793824
 40
0.8300918199802905
 40
0.8684933853333245
 40
0.910045158441624
 40
0.9551861408858829
 40
0.9999999999999999
 40
0.9999999999999999
 40
0.9999999999999999
 40
0.9999999999999999
 10
109.8268906794318
 20
140.3428934175855
 30
0.0
 10
109.8271588813427
 20
140.3427913026985
 30
0.0
 10
109.8342468306301
 20
140.3400926450418
 30
0.0
 10
109.8156348510893
 20
140.3695782252786
 30
0.0
 10
109.7699000249572
 20
140.4778172572697
 30
0.0
 10
109.7100399582893
 20
140.6539683515791
 30
0.0
 10
109.6416374580712
 20
140.8940631205189
 30
0.0
 10
109.5670934587239
 20
141.1971806220668
 30
0.0
 10
109.4875185962356
 20
141.563401008747
 30
0.0
 10
109.3955621813457
 20
142.0331019598486
 30
0.0
 10
109.2956221978692
 20
142.597807906278
 30
0.0
 10
109.1936132362661
 20
143.225237924227
 30
0.0
 10
109.1020918280874
 20
143.8191312792102
 30
0.0
 10
109.0214829907295
 20
144.3598989070812
 30
0.0
 10
108.9512980723121
 20
144.8397396910174
 30
0.0
 10
108.8850102663129
 20
145.2970769238425
 30
0.0
 10
108.8144390595674
 20
145.7853282978312
 30
0.0
 10
108.7319490306596
 20
146.3532000455451
 30
0.0
 10
108.6362497633608
 20
147.0003393311728
 30
0.0
 10
108.5311450739721
 20
147.6855183759017
 30
0.0
 10
108.4207266229783
 20
148.3640208430033
 30
0.0
 10
108.3085046028568
 20
148.9962875116125
 30
0.0
 10
108.1949378638765
 20
149.5662542822001
 30
0.0
 10
108.0774738552335
 20
150.0697444341811
 30
0.0
 10
107.9675779442924
 20
150.4592005030913
 30
0.0
 10
107.8365864820203
 20
150.8078854544677
 30
0.0
 10
107.6701332887542
 20
151.1002515716436
 30
0.0
 10
107.4390095612351
 20
151.3367785945339
 30
0.0
 10
107.2359552799695
 20
151.3706909858076
 30
0.0
 10
107.1347973456603
 20
151.3875855197585
 30
0.0
  0
LINE
  5
A3
330
1F
100
AcDbEntity
  8
0
  6
Continuous
 62
     7
370
    15
100
AcDbLine
 10
104.839483237
 20
140.3165305316
 30
0.0
 11
104.8605719931
 21
140.3001894557
 31
0.0
  0
SPLINE
  5
A4
330
1F
100
AcDbEntity
  8
0
  6
Continuous
 62
     7
370
    15
100
AcDbSpline
210
0.0
220
0.0
230
1.0
 70
     8
 71
     3
 72
     9
 73
     5
 74
     0
 42
0.00000001
 43
0.00000001
 12
1.0
 22
0.0
 32
0.0
 13
1.0
 23
0.0
 33
0.0
 40
0.0
 40
0.0
 40
0.0
 40
0.0
 40
0.4482563400579427
 40
1.0
 40
1.0
 40
1.0
 40
1.0
 10
104.183460088548
 20
139.6078587885308
 30
0.0
 10
104.2342121371543
 20
139.5509829588175
 30
0.0
 10
104.3474331762581
 20
139.424100582305
 30
0.0
 10
104.4890973467185
 20
139.4289888528208
 30
0.0
 10
104.567259654611
 20
139.431685925086
 30
0.0
  0
SPLINE
  5
A5
330
1F
100
AcDbEntity
  8
0
  6
Continuous
 62
     7
370
    15
100
AcDbSpline
210
0.0
220
0.0
230
1.0
 70
     8
 71
     3
 72
    36
 73
    32
 74
     0
 42
0.00000001
 43
0.00000001
 12
1.0
 22
0.0
 32
0.0
 13
1.0
 23
0.0
 33
0.0
 40
0.0
 40
0.0
 40
0.0
 40
0.0
 40
0.0153939188266106
 40
0.0353341258103999
 40
0.0540603890845376
 40
0.0735130115619644
 40
0.1040435303497549
 40
0.1362029291426234
 40
0.1699857921226343
 40
0.2053729479954846
 40
0.2423408551104787
 40
0.2792784906889973
 40
0.3123714762852918
 40
0.3414257870395304
 40
0.3738354630314554
 40
0.3989857606693005
 40
0.4198248720049291
 40
0.4490741412840828
 40
0.4882008634452779
 40
0.5372429014089016
 40
0.5805095087125938
 40
0.6247676074183454
 40
0.6674138700027102
 40
0.7084904201284113
 40
0.7608358613661187
 40
0.8104822535340778
 40
0.8577196065937012
 40
0.8927631006244904
 40
0.928039050555752
 40
0.9637947367414776
 40
1.0
 40
1.0
 40
1.0
 40
1.0
 10
106.9263671090508
 20
150.4312594785843
 30
0.0
 10
106.9234869978432
 20
150.4307772207503
 30
0.0
 10
106.9168761917904
 20
150.4296702798102
 30
0.0
 10
106.9460705910183
 20
150.3704873847857
 30
0.0
 10
106.9817327107141
 20
150.2789932854998
 30
0.0
 10
107.0261220139692
 20
150.1500389072179
 30
0.0
 10
107.0826588064291
 20
149.9598285482775
 30
0.0
 10
107.1523495901734
 20
149.687546353175
 30
0.0
 10
107.228051821594
 20
149.351989916907
 30
0.0
 10
107.3091171967517
 20
148.9514897993633
 30
0.0
 10
107.3938361427587
 20
148.4917388812909
 30
0.0
 10
107.4773800665908
 20
148.0014872832671
 30
0.0
 10
107.554751181931
 20
147.5204756644573
 30
0.0
 10
107.6286998852431
 20
147.0422860109089
 30
0.0
 10
107.6965429847775
 20
146.5901650975787
 30
0.0
 10
107.7579961989829
 20
146.1725093283357
 30
0.0
 10
107.8170035348949
 20
145.7673298330963
 30
0.0
 10
107.8869809335291
 20
145.2836544698611
 30
0.0
 10
107.9791193257561
 20
144.6467137322473
 30
0.0
 10
108.0823593070675
 20
143.9438065927868
 30
0.0
 10
108.1895070493245
 20
143.2399035218752
 30
0.0
 10
108.2918971023966
 20
142.6013408403148
 30
0.0
 10
108.3932326877452
 20
142.0143381314566
 30
0.0
 10
108.5022377781255
 20
141.4397204624666
 30
0.0
 10
108.6191089789484
 20
140.9007357096204
 30
0.0
 10
108.7471016979623
 20
140.4226558691928
 30
0.0
 10
108.8636625011889
 20
140.08168009237
 30
0.0
 10
108.9961516996435
 20
139.8051938791665
 30
0.0
 10
109.1528533769069
 20
139.594332429821
 30
0.0
 10
109.3602798805921
 20
139.4308025633819
 30
0.0
 10
109.5413733900168
 20
139.407473377081
 30
0.0
 10
109.6324858368892
 20
139.395735909216
 30
0.0
  0
SPLINE
  5
A6
330
1F
100
AcDbEntity
  8
0
  6
Continuous
 62
     7
370
    15
100
AcDbSpline
210
0.0
220
0.0
230
1.0
 70
     8
 71
     3
 72
    35
 73
    31
 74
     0
 42
0.00000001
 43
0.00000001
 12
1.0
 22
0.0
 32
0.0
 13
1.0
 23
0.0
 33
0.0
 40
0.0
 40
0.0
 40
0.0
 40
0.0
 40
0.0308532056248758
 40
0.0598121338007038
 40
0.0842816131679969
 40
0.105714604659428
 40
0.1314888527371915
 40
0.1625341026190734
 40
0.1988847305912944
 40
0.2405595026527568
 40
0.2824532608599025
 40
0.3199324508046767
 40
0.3629535500618889
 40
0.3979751205382436
 40
0.4303901182402335
 40
0.4682630770067953
 40
0.5116823205479604
 40
0.5606168621980513
 40
0.5983052065611145
 40
0.6349545203980225
 40
0.670570259049292
 40
0.7051679262876538
 40
0.7712694308796801
 40
0.8332204118640689
 40
0.8626962832689804
 40
0.8913057612087238
 40
0.9092168079555745
 40
0.9330834915381627
 40
0.9633101536396798
 40
1.0
 40
1.0
 40
1.0
 40
1.0
 10
111.9219190229794
 20
150.443013759015
 30
0.0
 10
111.9238223271913
 20
150.4330244809531
 30
0.0
 10
111.9275120794838
 20
150.4136592310897
 30
0.0
 10
111.9651707210136
 20
150.3203849843352
 30
0.0
 10
112.0089831544921
 20
150.1962785073699
 30
0.0
 10
112.062031228321
 20
150.0263037116629
 30
0.0
 10
112.1208402020028
 20
149.8110158445814
 30
0.0
 10
112.1925453194195
 20
149.5131191423299
 30
0.0
 10
112.2773639600414
 20
149.1142611224619
 30
0.0
 10
112.3714205311383
 20
148.6191311388169
 30
0.0
 10
112.4667134862992
 20
148.0673277170238
 30
0.0
 10
112.5632224322612
 20
147.4687290283776
 30
0.0
 10
112.6545396910702
 20
146.8726126733183
 30
0.0
 10
112.7419860445175
 20
146.2826433063687
 30
0.0
 10
112.82541365959
 20
145.7097174090416
 30
0.0
 10
112.9154903610617
 20
145.0861824357727
 30
0.0
 10
113.0186813012883
 20
144.3751322605814
 30
0.0
 10
113.1217665671614
 20
143.6814689286174
 30
0.0
 10
113.2194578060637
 20
143.0508525015122
 30
0.0
 10
113.3067983133214
 20
142.5142937774851
 30
0.0
 10
113.391990720357
 20
142.0232887992728
 30
0.0
 10
113.5012261309786
 20
141.4412318361768
 30
0.0
 10
113.6329920752916
 20
140.8309484780374
 30
0.0
 10
113.7648720310975
 20
140.3560911571026
 30
0.0
 10
113.8776369254786
 20
140.05209939021
 30
0.0
 10
113.946867945328
 20
139.8979978010997
 30
0.0
 10
114.0390475515071
 20
139.7375879664535
 30
0.0
 10
114.1646051912331
 20
139.5811863360302
 30
0.0
 10
114.3634179478084
 20
139.4298650474282
 30
0.0
 10
114.537350130783
 20
139.4078080053501
 30
0.0
 10
114.6327159114721
 20
139.395714285824
 30
0.0
  0
SPLINE
  5
A7
330
1F
100
AcDbEntity
  8
0
  6
Continuous
 62
     7
370
    15
100
AcDbSpline
210
0.0
220
0.0
230
1.0
 70
     8
 71
     3
 72
    29
 73
    25
 74
     0
 42
0.00000001
 43
0.00000001
 12
1.0
 22
0.0
 32
0.0
 13
1.0
 23
0.0
 33
0.0
 40
0.0
 40
0.0
 40
0.0
 40
0.0
 40
0.024996733008463
 40
0.0497938626899353
 40
0.0732808379072785
 40
0.0962380110770927
 40
0.1296165288273952
 40
0.161671681106026
 40
0.2217048460829566
 40
0.2796127869863085
 40
0.3365656414191164
 40
0.393544191238817
 40
0.4541350558699691
 40
0.5186670870281679
 40
0.5859124975312855
 40
0.6319203104112694
 40
0.6788672532050135
 40
0.7265990200503312
 40
0.7960794251638924
 40
0.8625593012383818
 40
0.8949289430988677
 40
0.9281471214359903
 40
0.9630956300686346
 40
1.0
 40
1.0
 40
1.0
 40
1.0
 10
116.9313608975736
 20
150.4259858171383
 30
0.0
 10
116.9298735360302
 20
150.4209573694664
 30
0.0
 10
116.9269106897881
 20
150.410940627165
 30
0.0
 10
116.9721982040033
 20
150.3082737469055
 30
0.0
 10
117.0166594504058
 20
150.1787209869487
 30
0.0
 10
117.0700635100821
 20
150.0031678586351
 30
0.0
 10
117.132318977976
 20
149.7682998996035
 30
0.0
 10
117.2248321091009
 20
149.3717374680462
 30
0.0
 10
117.3411674625365
 20
148.7924851863332
 30
0.0
 10
117.4776147315398
 20
148.0080244939349
 30
0.0
 10
117.6122705759625
 20
147.1559272619209
 30
0.0
 10
117.7492575392879
 20
146.2361287581087
 30
0.0
 10
117.8923227547563
 20
145.2465229504218
 30
0.0
 10
118.0433729661364
 20
144.2034298529122
 30
0.0
 10
118.1831826085943
 20
143.276049736989
 30
0.0
 10
118.3093400491879
 20
142.4959869526035
 30
0.0
 10
118.4207434462639
 20
141.8607432932778
 30
0.0
 10
118.5512902424365
 20
141.1961185134489
 30
0.0
 10
118.7018045757775
 20
140.5562457935945
 30
0.0
 10
118.8571858857859
 20
140.0930742301843
 30
0.0
 10
118.9899111831112
 20
139.8154288023276
 30
0.0
 10
119.1292255235965
 20
139.6156772589114
 30
0.0
 10
119.3351112284043
 20
139.4379429528189
 30
0.0
 10
119.5311320517272
 20
139.4099037531756
 30
0.0
 10
119.6318103421831
 20
139.3955025347848
 30
0.0
  0
SPLINE
  5
A8
330
1F
100
AcDbEntity
  8
0
  6
Continuous
 62
     7
370
    15
100
AcDbSpline
210
0.0
220
0.0
230
1.0
 70
     8
 71
     3
 72
    23
 73
    19
 74
     0
 42
0.00000001
 43
0.00000001
 12
1.0
 22
0.0
 32
0.0
 13
1.0
 23
0.0
 33
0.0
 40
0.0
 40
0.0
 40
0.0
 40
0.0
 40
0.0304157069255187
 40
0.0841738504376389
 40
0.1243887566118253
 40
0.153666089177665
 40
0.1903653728921481
 40
0.2375316805795569
 40
0.2952204663593974
 40
0.3635057171448393
 40
0.4408516924631311
 40
0.522855253780086
 40
0.609297488111623
 40
0.7001798378227194
 40
0.7955596542922873
 40
0.8954339197922045
 40
0.947146068660864
 40
1.0
 40
1.0
 40
1.0
 40
1.0
 10
121.9323931674669
 20
150.4303753297899
 30
0.0
 10
121.9270206717315
 20
150.4313345476855
 30
0.0
 10
121.9121525756646
 20
150.4339891321697
 30
0.0
 10
121.9662051435678
 20
150.3242223108969
 30
0.0
 10
122.0107591620716
 20
150.1901833364115
 30
0.0
 10
122.064379177579
 20
150.0177765155877
 30
0.0
 10
122.1223962060832
 20
149.8044449476646
 30
0.0
 10
122.1964554062626
 20
149.4969146263969
 30
0.0
 10
122.2878195240447
 20
149.0641347672651
 30
0.0
 10
122.3957913895672
 20
148.4862387034529
 30
0.0
 10
122.5171335105048
 20
147.7649365044941
 30
0.0
 10
122.6484151300296
 20
146.9181923078265
 30
0.0
 10
122.7871251030359
 20
145.9759709272552
 30
0.0
 10
122.9332736026515
 20
144.962067715656
 30
0.0
 10
123.0866977970067
 20
143.9097005983431
 30
0.0
 10
123.2194021474584
 20
143.0470760761288
 30
0.0
 10
123.3290169505046
 20
142.3818822093412
 30
0.0
 10
123.3851190570785
 20
142.069359499669
 30
0.0
 10
123.4134764066411
 20
141.9113918890813
 30
0.0
  0
SPLINE
  5
A9
330
1F
100
AcDbEntity
  8
0
  6
Continuous
 62
     7
370
    15
100
AcDbSpline
210
0.0
220
0.0
230
1.0
 70
     8
 71
     3
 72
    18
 73
    14
 74
     0
 42
0.00000001
 43
0.00000001
 12
1.0
 22
0.0
 32
0.0
 13
1.0
 23
0.0
 33
0.0
 40
0.0
 40
0.0
 40
0.0
 40
0.0
 40
0.0864942385471802
 40
0.1651326155278428
 40
0.2682617289928659
 40
0.3553732291946529
 40
0.4318691145207265
 40
0.5035934009541625
 40
0.619814699050927
 40
0.7220914529305829
 40
0.8111251252745122
 40
0.9031281610410539
 40
1.0
 40
1.0
 40
1.0
 40
1.0
 10
122.1325719289926
 20
151.3950426289673
 30
0.0
 10
122.0530431004311
 20
151.3866473785725
 30
0.0
 10
121.9012086697127
 20
151.3706193785695
 30
0.0
 10
121.6913026401056
 20
151.235974052539
 30
0.0
 10
121.527426642415
 20
151.0421047459544
 30
0.0
 10
121.4152965239638
 20
150.8255687444184
 30
0.0
 10
121.3394770848362
 20
150.6365701595971
 30
0.0
 10
121.2523329163251
 20
150.3811033662333
 30
0.0
 10
121.1621804727386
 20
150.0589674185187
 30
0.0
 10
121.0702010958907
 20
149.6687589830289
 30
0.0
 10
120.9885644107805
 20
149.2772691231181
 30
0.0
 10
120.9093663519736
 20
148.8638563203512
 30
0.0
 10
120.8556861529024
 20
148.5540994734466
 30
0.0
 10
120.828154171175
 20
148.3952286049238
 30
0.0
  0
SPLINE
  5
AA
330
1F
100
AcDbEntity
  8
0
  6
Continuous
 62
     7
370
    15
100
AcDbSpline
210
0.0
220
0.0
230
1.0
 70
     8
 71
     3
 72
    11
 73
     7
 74
     0
 42
0.00000001
 43
0.00000001
 12
1.0
 22
0.0
 32
0.0
 13
1.0
 23
0.0
 33
0.0
 40
0.0
 40
0.0
 40
0.0
 40
0.0
 40
0.0896293431702557
 40
0.4351905713931008
 40
0.7519722375040672
 40
1.0
 40
1.0
 40
1.0
 40
1.0
 10
119.9087838429238
 20
142.3952286049238
 30
0.0
 10
119.8999720230096
 20
142.3432936981131
 30
0.0
 10
119.8571866939219
 20
142.091126483998
 30
0.0
 10
119.7840943926116
 20
141.7116405785816
 30
0.0
 10
119.6964731009616
 20
141.2892600087218
 30
0.0
 10
119.6441930436301
 20
141.0789258888232
 30
0.0
 10
119.6212350245421
 20
140.9865607502602
 30
0.0
  0
SPLINE
  5
AB
330
1F
100
AcDbEntity
  8
0
  6
Continuous
 62
     7
370
    15
100
AcDbSpline
210
0.0
220
0.0
230
1.0
 70
     8
 71
     3
 72
    18
 73
    14
 74
     0
 42
0.00000001
 43
0.00000001
 12
1.0
 22
0.0
 32
0.0
 13
1.0
 23
0.0
 33
0.0
 40
0.0
 40
0.0
 40
0.0
 40
0.0
 40
0.0818071681512384
 40
0.1743203225689414
 40
0.277086619159724
 40
0.3707854319497108
 40
0.4455824213773718
 40
0.5174023556879634
 40
0.6023475299793495
 40
0.7003606640155702
 40
0.811360400870663
 40
0.9352573878383795
 40
1.0
 40
1.0
 40
1.0
 40
1.0
 10
117.1322596471993
 20
151.3948369692312
 30
0.0
 10
117.0462686934654
 20
151.3843632358033
 30
0.0
 10
116.8630332737379
 20
151.3620450865395
 30
0.0
 10
116.6627661842691
 20
151.2109011654701
 30
0.0
 10
116.5091322617675
 20
151.0136076763924
 30
0.0
 10
116.3944194224542
 20
150.7823433451384
 30
0.0
 10
116.3125897111653
 20
150.5661599264427
 30
0.0
 10
116.2440109849788
 20
150.352518045071
 30
0.0
 10
116.1682073004183
 20
150.0799044924892
 30
0.0
 10
116.0828541730405
 20
149.7259698017258
 30
0.0
 10
115.9870305229841
 20
149.2711196574284
 30
0.0
 10
115.9013857642844
 20
148.8230000910167
 30
0.0
 10
115.8477733359726
 20
148.5045300561851
 30
0.0
 10
115.829373123773
 20
148.3952286049238
 30
0.0
  0
SPLINE
  5
AC
330
1F
100
AcDbEntity
  8
0
  6
Continuous
 62
     7
370
    15
100
AcDbSpline
210
0.0
220
0.0
230
1.0
 70
     8
 71
     3
 72
    12
 73
     8
 74
     0
 42
0.00000001
 43
0.00000001
 12
1.0
 22
0.0
 32
0.0
 13
1.0
 23
0.0
 33
0.0
 40
0.0
 40
0.0
 40
0.0
 40
0.0
 40
0.0000348000360362
 40
0.3165277704483638
 40
0.5961537479407909
 40
0.9117778193528056
 40
1.0
 40
1.0
 40
1.0
 40
1.0
 10
114.9096533813446
 20
142.3952286049238
 30
0.0
 10
114.9096499861116
 20
142.3952083604791
 30
0.0
 10
114.8787682496036
 20
142.2110726624122
 30
0.0
 10
114.8208142232992
 20
141.9026261004613
 30
0.0
 10
114.7328479934736
 20
141.4618598656106
 30
0.0
 10
114.6665206581285
 20
141.1612326017654
 30
0.0
 10
114.629077068173
 20
141.0206913904742
 30
0.0
 10
114.6208973335828
 20
140.9899894783784
 30
0.0
  0
SPLINE
  5
AD
330
1F
100
AcDbEntity
  8
0
  6
Continuous
 62
     7
370
    15
100
AcDbSpline
210
0.0
220
0.0
230
1.0
 70
     8
 71
     3
 72
    16
 73
    12
 74
     0
 42
0.00000001
 43
0.00000001
 12
1.0
 22
0.0
 32
0.0
 13
1.0
 23
0.0
 33
0.0
 40
0.0
 40
0.0
 40
0.0
 40
0.0
 40
0.08992185909184
 40
0.1699911109371098
 40
0.2715028354038686
 40
0.3523393308307653
 40
0.4193905039102871
 40
0.4875890325206478
 40
0.6796876072721698
 40
0.8871600696864017
 40
1.0
 40
1.0
 40
1.0
 40
1.0
 10
112.1322756196131
 20
151.3947134209597
 30
0.0
 10
112.0569262268598
 20
151.3872988030875
 30
0.0
 10
111.9144833646688
 20
151.3732819762336
 30
0.0
 10
111.7149206831585
 20
151.2544409790419
 30
0.0
 10
111.5592496995203
 20
151.0874427230552
 30
0.0
 10
111.4520655110295
 20
150.9012307904547
 30
0.0
 10
111.3873728510593
 20
150.7567948191289
 30
0.0
 10
111.2878994542971
 20
150.5000499064051
 30
0.0
 10
111.1567904064329
 20
150.0534991072669
 30
0.0
 10
111.0196243641667
 20
149.4462787919226
 30
0.0
 10
110.9363040778161
 20
148.9951451064709
 30
0.0
 10
110.9069519343494
 20
148.8362193365531
 30
0.0
  0
SPLINE
  5
AE
330
1F
100
AcDbEntity
  8
0
  6
Continuous
 62
     7
370
    15
100
AcDbSpline
210
0.0
220
0.0
230
1.0
 70
     8
 71
     3
 72
    14
 73
    10
 74
     0
 42
0.00000001
 43
0.00000001
 12
1.0
 22
0.0
 32
0.0
 13
1.0
 23
0.0
 33
0.0
 40
0.0
 40
0.0
 40
0.0
 40
0.0
 40
0.1334725993599265
 40
0.3437796146257648
 40
0.5507511727291515
 40
0.69942270842936
 40
0.8235672230300443
 40
0.9777754551783021
 40
1.0
 40
1.0
 40
1.0
 40
1.0
 10
107.1323230903564
 20
151.3947856222431
 30
0.0
 10
107.0413618460912
 20
151.3824367939608
 30
0.0
 10
106.8070768943531
 20
151.3506304498248
 30
0.0
 10
106.57601298158
 20
151.1221485253783
 30
0.0
 10
106.4190681461847
 20
150.8453444679466
 30
0.0
 10
106.304263904683
 20
150.5461562731663
 30
0.0
 10
106.2202684112657
 20
150.2705221862095
 30
0.0
 10
106.1622983745785
 20
150.0600189143461
 30
0.0
 10
106.1289007981798
 20
149.9136643191724
 30
0.0
 10
106.1246938364896
 20
149.8952286049238
 30
0.0
  0
SPLINE
  5
AF
330
1F
100
AcDbEntity
  8
0
  6
Continuous
 62
     7
370
    15
100
AcDbSpline
210
0.0
220
0.0
230
1.0
 70
     8
 71
     3
 72
     9
 73
     5
 74
     0
 42
0.00000001
 43
0.00000001
 12
1.0
 22
0.0
 32
0.0
 13
1.0
 23
0.0
 33
0.0
 40
0.0
 40
0.0
 40
0.0
 40
0.0
 40
0.4849692968851362
 40
1.0
 40
1.0
 40
1.0
 40
1.0
 10
104.5974571697174
 20
140.8952286049238
 30
0.0
 10
104.5744208837774
 20
140.8113217277102
 30
0.0
 10
104.5269203799557
 20
140.6383069043956
 30
0.0
 10
104.488251659872
 20
140.5448396943143
 30
0.0
 10
104.4683360817788
 20
140.4967012113879
 30
0.0
  0
LINE
  5
B0
330
1F
100
AcDbEntity
  8
0
  6
Continuous
 62
     7
370
    15
100
AcDbLine
 10
97.5569519343
 20
131.0952286049
 30
0.0
 11
97.9069519343
 21
128.5952286049
 31
0.0
  0
LINE
  5
B1
330
1F
100
AcDbEntity
  8
0
  6
Continuous
 62
     7
370
    15
100
AcDbLine
 10
101.9069519343
 20
128.5952286049
 30
0.0
 11
102.2569519343
 21
131.0952286049
 31
0.0
  0
LINE
  5
B2
330
1F
100
AcDbEntity
  8
0
  6
Continuous
 62
     7
370
    15
100
AcDbLine
 10
97.5569519343
 20
133.5952286049
 30
0.0
 11
97.9069519343
 21
131.0952286049
 31
0.0
  0
LINE
  5
B3
330
1F
100
AcDbEntity
  8
0
  6
Continuous
 62
     7
370
    15
100
AcDbLine
 10
101.9069519343
 20
131.0952286049
 30
0.0
 11
102.2569519343
 21
133.5952286049
 31
0.0
  0
LINE
  5
B4
330
1F
100
AcDbEntity
  8
0
  6
Continuous
 62
     7
370
    15
100
AcDbLine
 10
102.0069519343
 20
133.5952286049
 30
0.0
 11
102.0069519343
 21
136.0952286049
 31
0.0
  0
LINE
  5
B5
330
1F
100
AcDbEntity
  8
0
  6
Continuous
 62
     7
370
    15
100
AcDbLine
 10
97.8069519343
 20
136.0952286049
 30
0.0
 11
97.8069519343
 21
133.5952286049
 31
0.0
  0
LINE
  5
B6
330
1F
100
AcDbEntity
  8
0
  6
Continuous
 62
     7
370
    15
100
AcDbLine
 10
95.9069519343
 20
152.1952286049
 30
0.0
 11
95.9069519343
 21
151.3952286049
 31
0.0
  0
LINE
  5
B7
330
1F
100
AcDbEntity
  8
0
  6
Continuous
 62
     7
370
    15
100
AcDbLine
 10
103.9069519343
 20
151.3952286049
 30
0.0
 11
103.9069519343
 21
152.1952286049
 31
0.0
  0
LINE
  5
B8
330
1F
100
AcDbEntity
  8
0
  6
Continuous
 62
     7
370
    15
100
AcDbLine
 10
95.9069519343
 20
139.3952286049
 30
0.0
 11
95.9069519343
 21
138.5952286049
 31
0.0
  0
LINE
  5
B9
330
1F
100
AcDbEntity
  8
0
  6
Continuous
 62
     7
370
    15
100
AcDbLine
 10
103.9069519343
 20
138.5952286049
 30
0.0
 11
103.9069519343
 21
139.3952286049
 31
0.0
  0
LINE
  5
BA
330
1F
100
AcDbEntity
  8
0
  6
Continuous
 62
     7
370
    15
100
AcDbLine
 10
167.6069519343
 20
149.0879888881
 30
0.0
 11
167.0069519343
 21
149.0879888881
 31
0.0
  0
LINE
  5
BB
330
1F
100
AcDbEntity
  8
0
  6
Continuous
 62
     7
370
    15
100
AcDbLine
 10
167.6069519343
 20
140.8952286049
 30
0.0
 11
167.6069519343
 21
149.0879888881
 31
0.0
  0
LINE
  5
BC
330
1F
100
AcDbEntity
  8
0
  6
Continuous
 62
     7
370
    15
100
AcDbLine
 10
167.0069519343
 20
140.8952286049
 30
0.0
 11
167.0069519343
 21
149.0879888881
 31
0.0
  0
LINE
  5
BD
330
1F
100
AcDbEntity
  8
0
  6
Continuous
 62
     7
370
    15
100
AcDbLine
 10
167.0069519343
 20
149.0879888881
 30
0.0
 11
167.0069519343
 21
149.1238662088
 31
0.0
  0
LINE
  5
BE
330
1F
100
AcDbEntity
  8
0
  6
Continuous
 62
     7
370
    15
100
AcDbLine
 10
167.6069519343
 20
149.1238662088
 30
0.0
 11
167.6069519343
 21
149.0879888881
 31
0.0
  0
LINE
  5
BF
330
1F
100
AcDbEntity
  8
0
  6
Continuous
 62
     7
370
    15
100
AcDbLine
 10
99.9069519343
 20
152.1952286049
 30
0.0
 11
99.9069519345
 21
154.6952286049
 31
0.0
  0
LINE
  5
C0
330
1F
100
AcDbEntity
  8
0
  6
Continuous
 62
     7
370
    15
100
AcDbLine
 10
96.399549049
 20
152.1952286049
 30
0.0
 11
96.4878395064
 21
152.1952286049
 31
0.0
  0
LINE
  5
C1
330
1F
100
AcDbEntity
  8
0
  6
Continuous
 62
     7
370
    15
100
AcDbLine
 10
99.818661477
 20
152.1952286049
 30
0.0
 11
99.9069519343
 21
152.1952286049
 31
0.0
  0
LINE
  5
C2
330
1F
100
AcDbEntity
  8
0
  6
Continuous
 62
     7
370
    15
100
AcDbLine
 10
96.399549049
 20
152.1952286049
 30
0.0
 11
96.399549049
 21
154.6952286049
 31
0.0
  0
LINE
  5
C3
330
1F
100
AcDbEntity
  8
0
  6
Continuous
 62
     7
370
    15
100
AcDbLine
 10
96.399549049
 20
154.6952286049
 30
0.0
 11
99.9069519345
 21
154.6952286049
 31
0.0
  0
LINE
  5
C4
330
1F
100
AcDbEntity
  8
0
  6
Continuous
 62
     7
370
    15
100
AcDbLine
 10
103.4143548197
 20
152.1952286049
 30
0.0
 11
103.4143548197
 21
154.6952286049
 31
0.0
  0
LINE
  5
C5
330
1F
100
AcDbEntity
  8
0
  6
Continuous
 62
     7
370
    15
100
AcDbLine
 10
99.9069519343
 20
152.1952286049
 30
0.0
 11
99.9952423917
 21
152.1952286049
 31
0.0
  0
LINE
  5
C6
330
1F
100
AcDbEntity
  8
0
  6
Continuous
 62
     7
370
    15
100
AcDbLine
 10
103.3260643623
 20
152.1952286049
 30
0.0
 11
103.4143548197
 21
152.1952286049
 31
0.0
  0
LINE
  5
C7
330
1F
100
AcDbEntity
  8
0
  6
Continuous
 62
     7
370
    15
100
AcDbLine
 10
99.9069519345
 20
154.6952286049
 30
0.0
 11
103.4143548197
 21
154.6952286049
 31
0.0
  0
LINE
  5
C8
330
1F
100
AcDbEntity
  8
0
  6
Continuous
 62
     7
370
    15
100
AcDbLine
 10
145.5069519343
 20
133.3963330173
 30
0.0
 11
145.5069519343
 21
133.3952286049
 31
0.0
  0
LINE
  5
C9
330
1F
100
AcDbEntity
  8
0
  6
Continuous
 62
     7
370
    15
100
AcDbLine
 10
145.5069519343
 20
157.3952286049
 30
0.0
 11
145.5069519343
 21
133.3963330173
 31
0.0
  0
LINE
  5
CA
330
1F
100
AcDbEntity
  8
0
  6
Continuous
 62
     7
370
    15
100
AcDbLine
 10
144.3069519343
 20
133.3963330173
 30
0.0
 11
144.3069519343
 21
133.3952286049
 31
0.0
  0
LINE
  5
CB
330
1F
100
AcDbEntity
  8
0
  6
Continuous
 62
     7
370
    15
100
AcDbLine
 10
144.3069519343
 20
157.3952286049
 30
0.0
 11
144.3069519343
 21
133.3963330173
 31
0.0
  0
LINE
  5
CC
330
1F
100
AcDbEntity
  8
0
  6
Continuous
 62
     7
370
    15
100
AcDbLine
 10
145.9069519343
 20
133.7962962035
 30
0.0
 11
145.9069519343
 21
133.7952286049
 31
0.0
  0
LINE
  5
CD
330
1F
100
AcDbEntity
  8
0
  6
Continuous
 62
     7
370
    15
100
AcDbLine
 10
145.9069519343
 20
156.9952286049
 30
0.0
 11
145.9069519343
 21
133.7962962035
 31
0.0
  0
LINE
  5
CE
330
1F
100
AcDbEntity
  8
0
  6
Continuous
 62
     7
370
    15
100
AcDbLine
 10
143.9069519343
 20
133.7962962035
 30
0.0
 11
143.9069519343
 21
133.7952286049
 31
0.0
  0
LINE
  5
CF
330
1F
100
AcDbEntity
  8
0
  6
Continuous
 62
     7
370
    15
100
AcDbLine
 10
143.9069519343
 20
156.9952286049
 30
0.0
 11
143.9069519343
 21
133.7962962035
 31
0.0
  0
LINE
  5
D0
330
1F
100
AcDbEntity
  8
0
  6
Continuous
 62
     7
370
    15
100
AcDbLine
 10
166.9069519343
 20
135.7961121348
 30
0.0
 11
166.9069519343
 21
135.7952286049
 31
0.0
  0
LINE
  5
D1
330
1F
100
AcDbEntity
  8
0
  6
Continuous
 62
     7
370
    15
100
AcDbLine
 10
166.9069519343
 20
154.9952286049
 30
0.0
 11
166.9069519343
 21
135.7961121348
 31
0.0
  0
LINE
  5
D2
330
1F
100
AcDbEntity
  8
0
  6
Continuous
 62
     7
370
    15
100
AcDbLine
 10
166.5069519343
 20
135.3961489486
 30
0.0
 11
166.5069519343
 21
135.3952286049
 31
0.0
  0
LINE
  5
D3
330
1F
100
AcDbEntity
  8
0
  6
Continuous
 62
     7
370
    15
100
AcDbLine
 10
166.5069519343
 20
155.3952286049
 30
0.0
 11
166.5069519343
 21
135.3961489486
 31
0.0
  0
LINE
  5
D4
330
1F
100
AcDbEntity
  8
0
  6
Continuous
 62
     7
370
    15
100
AcDbLine
 10
141.3069519343
 20
140.8956427596
 30
0.0
 11
141.3069519343
 21
140.8952286049
 31
0.0
  0
LINE
  5
D5
330
1F
100
AcDbEntity
  8
0
  6
Continuous
 62
     7
370
    15
100
AcDbLine
 10
141.3069519343
 20
149.8952286049
 30
0.0
 11
141.3069519343
 21
140.8956427596
 31
0.0
  0
LINE
  5
D6
330
1F
100
AcDbEntity
  8
0
  6
Continuous
 62
     7
370
    15
100
AcDbLine
 10
140.9069519343
 20
141.2956059458
 30
0.0
 11
140.9069519343
 21
141.2952286049
 31
0.0
  0
LINE
  5
D7
330
1F
100
AcDbEntity
  8
0
  6
Continuous
 62
     7
370
    15
100
AcDbLine
 10
140.9069519343
 20
149.4952286049
 30
0.0
 11
140.9069519343
 21
141.2956059458
 31
0.0
  0
LINE
  5
D8
330
1F
100
AcDbEntity
  8
0
  6
Continuous
 62
     7
370
    15
100
AcDbLine
 10
103.9069519343
 20
151.3952286049
 30
0.0
 11
101.9069519344
 21
151.3952286049
 31
0.0
  0
LINE
  5
D9
330
1F
100
AcDbEntity
  8
0
  6
Continuous
 62
     7
370
    15
100
AcDbLine
 10
97.9069519343
 20
151.3952286049
 30
0.0
 11
95.9069519343
 21
151.3952286049
 31
0.0
  0
LINE
  5
DA
330
1F
100
AcDbEntity
  8
0
  6
Continuous
 62
     7
370
    15
100
AcDbLine
 10
103.9069519343
 20
151.3952286049
 30
0.0
 11
103.9069519343
 21
145.3952286049
 31
0.0
  0
LINE
  5
DB
330
1F
100
AcDbEntity
  8
0
  6
Continuous
 62
     7
370
    15
100
AcDbLine
 10
103.9069519343
 20
145.3952286049
 30
0.0
 11
95.9069519343
 21
145.3952286049
 31
0.0
  0
LINE
  5
DC
330
1F
100
AcDbEntity
  8
0
  6
Continuous
 62
     7
370
    15
100
AcDbLine
 10
95.9069519343
 20
151.3952286049
 30
0.0
 11
95.9069519343
 21
145.3952286049
 31
0.0
  0
LINE
  5
DD
330
1F
100
AcDbEntity
  8
0
  6
Continuous
 62
     7
370
    15
100
AcDbLine
 10
103.9069519343
 20
145.3952286049
 30
0.0
 11
103.9069519343
 21
139.3952286049
 31
0.0
  0
LINE
  5
DE
330
1F
100
AcDbEntity
  8
0
  6
Continuous
 62
     7
370
    15
100
AcDbLine
 10
103.9069519343
 20
139.3952286049
 30
0.0
 11
101.9069519344
 21
139.3952286049
 31
0.0
  0
LINE
  5
DF
330
1F
100
AcDbEntity
  8
0
  6
Continuous
 62
     7
370
    15
100
AcDbLine
 10
97.9069519343
 20
139.3952286049
 30
0.0
 11
95.9069519343
 21
139.3952286049
 31
0.0
  0
LINE
  5
E0
330
1F
100
AcDbEntity
  8
0
  6
Continuous
 62
     7
370
    15
100
AcDbLine
 10
95.9069519343
 20
145.3952286049
 30
0.0
 11
95.9069519343
 21
139.3952286049
 31
0.0
  0
LINE
  5
E1
330
1F
100
AcDbEntity
  8
0
  6
Continuous
 62
     7
370
    15
100
AcDbLine
 10
86.9069519343
 20
150.8952286049
 30
0.0
 11
86.9069519343
 21
139.8952286049
 31
0.0
  0
LINE
  5
E2
330
1F
100
AcDbEntity
  8
0
  6
Continuous
 62
     7
370
    15
100
AcDbLine
 10
88.9069519343
 20
150.8952286049
 30
0.0
 11
88.9069519343
 21
139.8952286049
 31
0.0
  0
LINE
  5
E3
330
1F
100
AcDbEntity
  8
0
  6
Continuous
 62
     7
370
    15
100
AcDbLine
 10
110.9069519343
 20
149.8952286049
 30
0.0
 11
110.9069519343
 21
140.8952286049
 31
0.0
  0
LINE
  5
E4
330
1F
100
AcDbEntity
  8
0
  6
Continuous
 62
     7
370
    15
100
AcDbLine
 10
168.4069519343
 20
142.3952286049
 30
0.0
 11
168.4069519343
 21
148.3952286049
 31
0.0
  0
LINE
  5
E5
330
1F
100
AcDbEntity
  8
0
  6
Continuous
 62
     7
370
    15
100
AcDbLine
 10
168.9069519343
 20
147.8952286049
 30
0.0
 11
168.9069519343
 21
142.8952286049
 31
0.0
  0
SPLINE
  5
E6
330
1F
100
AcDbEntity
  8
0
  6
Continuous
 62
     7
370
    15
100
AcDbSpline
210
0.0
220
0.0
230
1.0
 70
     8
 71
     3
 72
    11
 73
     7
 74
     0
 42
0.00000001
 43
0.00000001
 12
1.0
 22
0.0
 32
0.0
 13
1.0
 23
0.0
 33
0.0
 40
-0.0000025800031665
 40
-0.0000025800031665
 40
-0.0000025800031665
 40
-0.0000025800031665
 40
0.1249999979089231
 40
0.2499999979089231
 40
0.3749999979089231
 40
0.5000025779120896
 40
0.5000025779120896
 40
0.5000025779120896
 40
0.5000025779120896
 10
143.3600366087751
 20
145.4766270497718
 30
0.0
 10
143.2294346712958
 20
145.4766270497719
 30
0.0
 10
142.9682307963289
 20
145.4751592433372
 30
0.0
 10
142.8059395149989
 20
145.4698438460346
 30
0.0
 10
142.9682307963289
 20
145.4645284487322
 30
0.0
 10
143.2294346712957
 20
145.4630606422973
 30
0.0
 10
143.3600366087751
 20
145.4630606422973
 30
0.0
  0
SPLINE
  5
E7
330
1F
100
AcDbEntity
  8
0
  6
Continuous
 62
     7
370
    15
100
AcDbSpline
210
0.0
220
0.0
230
1.0
 70
     8
 71
     3
 72
    12
 73
     8
 74
     0
 42
0.00000001
 43
0.00000001
 12
1.0
 22
0.0
 32
0.0
 13
1.0
 23
0.0
 33
0.0
 40
0.0
 40
0.0
 40
0.0
 40
0.0
 40
0.2161579147155342
 40
0.4320378269431382
 40
0.6509875067602096
 40
0.8608481402469254
 40
1.0
 40
1.0
 40
1.0
 40
1.0
 10
143.3600446891026
 20
145.4766270497726
 30
0.0
 10
143.4164343591099
 20
145.4765475268497
 30
0.0
 10
143.5291411759019
 20
145.4763885832788
 30
0.0
 10
143.6808678062032
 20
145.475216291678
 30
0.0
 10
143.7914305850433
 20
145.4734773137907
 30
0.0
 10
143.8540555811495
 20
145.4715869905813
 30
0.0
 10
143.8531823695542
 20
145.4703462655871
 30
0.0
 10
143.8528342186434
 20
145.4698515864746
 30
0.0
  0
SPLINE
  5
E8
330
1F
100
AcDbEntity
  8
0
  6
Continuous
 62
     7
370
    15
100
AcDbSpline
210
0.0
220
0.0
230
1.0
 70
     8
 71
     3
 72
     9
 73
     5
 74
     0
 42
0.00000001
 43
0.00000001
 12
1.0
 22
0.0
 32
0.0
 13
1.0
 23
0.0
 33
0.0
 40
0.7701446295419627
 40
0.7701446295419627
 40
0.7701446295419627
 40
0.7701446295419627
 40
0.875
 40
0.9999974199990235
 40
0.9999974199990235
 40
0.9999974199990235
 40
0.9999974199990235
 10
143.855887964049
 20
145.4689894044203
 30
0.0
 10
143.8416068779352
 20
145.4675144490559
 30
0.0
 10
143.7307950000428
 20
145.4644101750674
 30
0.0
 10
143.4906385462598
 20
145.4630606423
 30
0.0
 10
143.3600366087819
 20
145.4630606423
 30
0.0
  0
SPLINE
  5
E9
330
1F
100
AcDbEntity
  8
0
  6
Continuous
 62
     7
370
    15
100
AcDbSpline
210
0.0
220
0.0
230
1.0
 70
     8
 71
     3
 72
     9
 73
     5
 74
     0
 42
0.00000001
 43
0.00000001
 12
1.0
 22
0.0
 32
0.0
 13
1.0
 23
0.0
 33
0.0
 40
0.0
 40
0.0
 40
0.0
 40
0.0
 40
0.7078326760703714
 40
1.0
 40
1.0
 40
1.0
 40
1.0
 10
104.4600446962469
 20
139.5175057419965
 30
0.0
 10
104.5106929610685
 20
139.4512545086973
 30
0.0
 10
104.5822469688643
 20
139.357657200267
 30
0.0
 10
104.6538176034632
 20
139.4179904545083
 30
0.0
 10
104.6747282042459
 20
139.435617859944
 30
0.0
  0
LINE
  5
EA
330
1F
100
AcDbEntity
  8
0
  6
Continuous
 62
     7
370
    15
100
AcDbLine
 10
109.6221275968
 20
139.3986280427
 30
0.0
 11
109.6264509443
 21
139.3957633528
 31
0.0
  0
SPLINE
  5
EB
330
1F
100
AcDbEntity
  8
0
  6
Continuous
 62
     7
370
    15
100
AcDbSpline
210
0.0
220
0.0
230
1.0
 70
     8
 71
     3
 72
    11
 73
     7
 74
     0
 42
0.00000001
 43
0.00000001
 12
1.0
 22
0.0
 32
0.0
 13
1.0
 23
0.0
 33
0.0
 40
0.4999974220888327
 40
0.4999974220888327
 40
0.4999974220888327
 40
0.4999974220888327
 40
0.625
 40
0.75
 40
0.875
 40
1.000002580002479
 40
1.000002580002479
 40
1.000002580002479
 40
1.000002580002479
 10
104.4600527765748
 20
139.5175057197466
 30
0.0
 10
104.590654714057
 20
139.5175057197467
 30
0.0
 10
104.8518585890208
 20
139.6234949617856
 30
0.0
 10
105.014149870355
 20
140.0073159601781
 30
0.0
 10
104.8518585890208
 20
140.391136958571
 30
0.0
 10
104.5906547140574
 20
140.4971262006097
 30
0.0
 10
104.4600527765756
 20
140.4971262006099
 30
0.0
  0
SPLINE
  5
EC
330
1F
100
AcDbEntity
  8
0
  6
Continuous
 62
     7
370
    15
100
AcDbSpline
210
0.0
220
0.0
230
1.0
 70
     8
 71
     3
 72
    11
 73
     7
 74
     0
 42
0.00000001
 43
0.00000001
 12
1.0
 22
0.0
 32
0.0
 13
1.0
 23
0.0
 33
0.0
 40
0.0000025800011638
 40
0.0000025800011638
 40
0.0000025800011638
 40
0.0000025800011638
 40
0.125
 40
0.25
 40
0.375
 40
0.499997422089875
 40
0.499997422089875
 40
0.499997422089875
 40
0.499997422089875
 10
104.4600527765714
 20
140.4971262006096
 30
0.0
 10
104.3294508390932
 20
140.4971262006096
 30
0.0
 10
104.0682469641252
 20
140.3911369585706
 30
0.0
 10
103.9059556827952
 20
140.0073159601778
 30
0.0
 10
104.0682469641252
 20
139.6234949617853
 30
0.0
 10
104.3294508390932
 20
139.5175057197463
 30
0.0
 10
104.4600527765715
 20
139.5175057197463
 30
0.0
  0
LINE
  5
ED
330
1F
100
AcDbEntity
  8
0
  6
Continuous
 62
     7
370
    15
100
AcDbLine
 10
103.4143548197
 20
138.5952286049
 30
0.0
 11
103.4143548197
 21
136.0952286049
 31
0.0
  0
LINE
  5
EE
330
1F
100
AcDbEntity
  8
0
  6
Continuous
 62
     7
370
    15
100
AcDbLine
 10
99.9069519343
 20
138.5952286049
 30
0.0
 11
99.9069519343
 21
136.0952286049
 31
0.0
  0
LINE
  5
EF
330
1F
100
AcDbEntity
  8
0
  6
Continuous
 62
     7
370
    15
100
AcDbLine
 10
103.4143548197
 20
138.5952286049
 30
0.0
 11
103.3260643623
 21
138.5952286049
 31
0.0
  0
LINE
  5
F0
330
1F
100
AcDbEntity
  8
0
  6
Continuous
 62
     7
370
    15
100
AcDbLine
 10
99.9952423917
 20
138.5952286049
 30
0.0
 11
99.9069519343
 21
138.5952286049
 31
0.0
  0
LINE
  5
F1
330
1F
100
AcDbEntity
  8
0
  6
Continuous
 62
     7
370
    15
100
AcDbLine
 10
103.4143548197
 20
136.0952286049
 30
0.0
 11
99.9069519343
 21
136.0952286049
 31
0.0
  0
LINE
  5
F2
330
1F
100
AcDbEntity
  8
0
  6
Continuous
 62
     7
370
    15
100
AcDbLine
 10
96.399549049
 20
138.5952286049
 30
0.0
 11
96.399549049
 21
136.0952286049
 31
0.0
  0
LINE
  5
F3
330
1F
100
AcDbEntity
  8
0
  6
Continuous
 62
     7
370
    15
100
AcDbLine
 10
99.9069519343
 20
138.5952286049
 30
0.0
 11
99.818661477
 21
138.5952286049
 31
0.0
  0
LINE
  5
F4
330
1F
100
AcDbEntity
  8
0
  6
Continuous
 62
     7
370
    15
100
AcDbLine
 10
96.4878395064
 20
138.5952286049
 30
0.0
 11
96.399549049
 21
138.5952286049
 31
0.0
  0
LINE
  5
F5
330
1F
100
AcDbEntity
  8
0
  6
Continuous
 62
     7
370
    15
100
AcDbLine
 10
99.9069519343
 20
136.0952286049
 30
0.0
 11
96.399549049
 21
136.0952286049
 31
0.0
  0
LINE
  5
F6
330
1F
100
AcDbEntity
  8
0
  6
Continuous
 62
     7
370
    15
100
AcDbLine
 10
101.6390027419
 20
128.5952286049
 30
0.0
 11
97.9069519343
 21
128.5952286049
 31
0.0
  0
LINE
  5
F7
330
1F
100
AcDbEntity
  8
0
  6
Continuous
 62
     7
370
    15
100
AcDbLine
 10
101.9069519343
 20
128.5952286049
 30
0.0
 11
101.6390027419
 21
128.5952286049
 31
0.0
  0
LINE
  5
F8
330
1F
100
AcDbEntity
  8
0
  6
Continuous
 62
     7
370
    15
100
AcDbLine
 10
102.2569519343
 20
131.0952286049
 30
0.0
 11
101.9421116332
 21
131.0952286049
 31
0.0
  0
LINE
  5
F9
330
1F
100
AcDbEntity
  8
0
  6
Continuous
 62
     7
370
    15
100
AcDbLine
 10
101.9421116332
 20
131.0952286049
 30
0.0
 11
97.5569519343
 21
131.0952286049
 31
0.0
  0
LINE
  5
FA
330
1F
100
AcDbEntity
  8
0
  6
Continuous
 62
     7
370
    15
100
AcDbLine
 10
102.2569519343
 20
133.5952286049
 30
0.0
 11
101.9421116332
 21
133.5952286049
 31
0.0
  0
LINE
  5
FB
330
1F
100
AcDbEntity
  8
0
  6
Continuous
 62
     7
370
    15
100
AcDbLine
 10
101.9421116332
 20
133.5952286049
 30
0.0
 11
97.5569519343
 21
133.5952286049
 31
0.0
  0
LINE
  5
FC
330
1F
100
AcDbEntity
  8
0
  6
Continuous
 62
     7
370
    15
100
AcDbLine
 10
103.9069519343
 20
152.1952286049
 30
0.0
 11
103.4143548197
 21
152.1952286049
 31
0.0
  0
LINE
  5
FD
330
1F
100
AcDbEntity
  8
0
  6
Continuous
 62
     7
370
    15
100
AcDbLine
 10
103.3260643623
 20
152.1952286049
 30
0.0
 11
99.9952423917
 21
152.1952286049
 31
0.0
  0
LINE
  5
FE
330
1F
100
AcDbEntity
  8
0
  6
Continuous
 62
     7
370
    15
100
AcDbLine
 10
99.818661477
 20
152.1952286049
 30
0.0
 11
96.4878395064
 21
152.1952286049
 31
0.0
  0
LINE
  5
FF
330
1F
100
AcDbEntity
  8
0
  6
Continuous
 62
     7
370
    15
100
AcDbLine
 10
96.399549049
 20
152.1952286049
 30
0.0
 11
95.9069519343
 21
152.1952286049
 31
0.0
  0
LINE
  5
100
330
1F
100
AcDbEntity
  8
0
  6
Continuous
 62
     7
370
    15
100
AcDbLine
 10
101.9069519344
 20
151.3952286049
 30
0.0
 11
97.9069519343
 21
151.3952286049
 31
0.0
  0
LINE
  5
101
330
1F
100
AcDbEntity
  8
0
  6
Continuous
 62
     7
370
    15
100
AcDbLine
 10
101.9069519344
 20
139.3952286049
 30
0.0
 11
97.9069519343
 21
139.3952286049
 31
0.0
  0
LINE
  5
102
330
1F
100
AcDbEntity
  8
0
  6
Continuous
 62
     7
370
    15
100
AcDbLine
 10
103.9069519343
 20
138.5952286049
 30
0.0
 11
103.4143548197
 21
138.5952286049
 31
0.0
  0
LINE
  5
103
330
1F
100
AcDbEntity
  8
0
  6
Continuous
 62
     7
370
    15
100
AcDbLine
 10
103.3260643623
 20
138.5952286049
 30
0.0
 11
99.9952423917
 21
138.5952286049
 31
0.0
  0
LINE
  5
104
330
1F
100
AcDbEntity
  8
0
  6
Continuous
 62
     7
370
    15
100
AcDbLine
 10
99.818661477
 20
138.5952286049
 30
0.0
 11
96.4878395064
 21
138.5952286049
 31
0.0
  0
LINE
  5
105
330
1F
100
AcDbEntity
  8
0
  6
Continuous
 62
     7
370
    15
100
AcDbLine
 10
96.399549049
 20
138.5952286049
 30
0.0
 11
95.9069519343
 21
138.5952286049
 31
0.0
  0
SPLINE
  5
106
330
1F
100
AcDbEntity
  8
0
  6
Continuous
 62
     8
370
    15
100
AcDbSpline
210
0.0
220
0.0
230
1.0
 70
     8
 71
     3
 72
    16
 73
    12
 74
     0
 42
0.00000001
 43
0.00000001
 12
1.0
 22
0.0
 32
0.0
 13
1.0
 23
0.0
 33
0.0
 40
0.0
 40
0.0
 40
0.0
 40
0.0
 40
0.1224741503215693
 40
0.2449293319731534
 40
0.3674024210881986
 40
0.4898576163866596
 40
0.6123296071462735
 40
0.734786551920046
 40
0.8572569719477394
 40
0.979715961539577
 40
1.0
 40
1.0
 40
1.0
 40
1.0
 10
143.3600446891059
 20
145.4766269389661
 30
0.0
 10
143.3093964712832
 20
145.8582080581094
 30
0.0
 10
143.2081078799816
 20
146.6213111975061
 30
0.0
 10
143.0561206875626
 20
147.7207993535464
 30
0.0
 10
142.9042034061596
 20
148.7354570066673
 30
0.0
 10
142.7522150264766
 20
149.6296769839796
 30
0.0
 10
142.600294621607
 20
150.36758089468
 30
0.0
 10
142.4483119144904
 20
150.9314204035222
 30
0.0
 10
142.29638529424
 20
151.2722374765709
 30
0.0
 10
142.1866770323104
 20
151.4197766962579
 30
0.0
 10
142.1276412922502
 20
151.384980475532
 30
0.0
 10
142.1192522084661
 20
151.3800358706073
 30
0.0
  0
SPLINE
  5
107
330
1F
100
AcDbEntity
  8
0
  6
Continuous
 62
     8
370
    15
100
AcDbSpline
210
0.0
220
0.0
230
1.0
 70
     8
 71
     3
 72
    25
 73
    21
 74
     0
 42
0.00000001
 43
0.00000001
 12
1.0
 22
0.0
 32
0.0
 13
1.0
 23
0.0
 33
0.0
 40
0.0
 40
0.0
 40
0.0
 40
0.0
 40
0.0246600756068394
 40
0.0853687843383744
 40
0.1460676155373347
 40
0.2067761322802147
 40
0.2674753462348225
 40
0.3281834220815504
 40
0.3888833018911889
 40
0.4495907052574363
 40
0.5102914942789752
 40
0.5709980208061113
 40
0.6316999050891952
 40
0.6924053875482695
 40
0.7531084783805264
 40
0.8138127965780545
 40
0.8745171141250546
 40
0.9352202056222808
 40
0.995925687481204
 40
1.0
 40
1.0
 40
1.0
 40
1.0
 10
139.6229505439499
 20
139.4218235810679
 30
0.0
 10
139.6023718186022
 20
139.4149167184824
 30
0.0
 10
139.5311319410701
 20
139.3910063918513
 30
0.0
 10
139.4092842160595
 20
139.579443688563
 30
0.0
 10
139.2572901408626
 20
139.9755233932118
 30
0.0
 10
139.1053765469191
 20
140.5824498671594
 30
0.0
 10
138.9533856749782
 20
141.360167924564
 30
0.0
 10
138.8014679880292
 20
142.2861473444452
 30
0.0
 10
138.6494822167207
 20
143.3243126024673
 30
0.0
 10
138.4975584543272
 20
144.438259164327
 30
0.0
 10
138.3455796790916
 20
145.5867848410281
 30
0.0
 10
138.1936481058891
 20
146.7282190753052
 30
0.0
 10
138.0416778678683
 20
147.8217301825983
 30
0.0
 10
137.8897371718301
 20
148.8260118540155
 30
0.0
 10
137.7377765339267
 20
149.7073366601518
 30
0.0
 10
137.5858259167739
 20
150.4285414222392
 30
0.0
 10
137.4338754489818
 20
150.9751331118372
 30
0.0
 10
137.2819143520532
 20
151.2927907789635
 30
0.0
 10
137.1772210566457
 20
151.4271369008806
 30
0.0
 10
137.1231671758983
 20
151.3906439327224
 30
0.0
 10
137.119767467623
 20
151.3883487146156
 30
0.0
  0
SPLINE
  5
108
330
1F
100
AcDbEntity
  8
0
  6
Continuous
 62
     8
370
    15
100
AcDbSpline
210
0.0
220
0.0
230
1.0
 70
     8
 71
     3
 72
    24
 73
    20
 74
     0
 42
0.00000001
 43
0.00000001
 12
1.0
 22
0.0
 32
0.0
 13
1.0
 23
0.0
 33
0.0
 40
0.0
 40
0.0
 40
0.0
 40
0.0
 40
0.0308899062229657
 40
0.0915580387570813
 40
0.1522205047115741
 40
0.2128876721047326
 40
0.2735512986823856
 40
0.3342173560904755
 40
0.3948822106278952
 40
0.455547065165315
 40
0.5162131225734049
 40
0.5768767491510568
 40
0.6375439165442155
 40
0.6982063824987164
 40
0.7588745150328443
 40
0.8195359710897698
 40
0.8802048818626511
 40
0.9408655447605125
 40
1.0
 40
1.0
 40
1.0
 40
1.0
 10
134.6241407109373
 20
139.4228018089121
 30
0.0
 10
134.598347610069
 20
139.4168525179604
 30
0.0
 10
134.5218965612403
 20
139.3992187508782
 30
0.0
 10
134.3948220048791
 20
139.6082223990024
 30
0.0
 10
134.2428474803702
 20
140.0247672087608
 30
0.0
 10
134.0909114381481
 20
140.6495414367854
 30
0.0
 10
133.9389459113069
 20
141.4421576214966
 30
0.0
 10
133.7870003255261
 20
142.3807223250218
 30
0.0
 10
133.635044692795
 20
143.4275203527347
 30
0.0
 10
133.483089059244
 20
144.546658985752
 30
0.0
 10
133.3311434759232
 20
145.6962898869164
 30
0.0
 10
133.1791779400619
 20
146.8349037453567
 30
0.0
 10
133.0272419314612
 20
147.9216289385327
 30
0.0
 10
132.8752672814905
 20
148.9158056049811
 30
0.0
 10
132.7233397316506
 20
149.7827192348429
 30
0.0
 10
132.5713575152883
 20
150.4901645934811
 30
0.0
 10
132.4194360070929
 20
151.0091366404084
 30
0.0
 10
132.2687331106631
 20
151.336816613215
 30
0.0
 10
132.168725031232
 20
151.3740089720083
 30
0.0
 10
132.1193580504346
 20
151.3923682333081
 30
0.0
  0
SPLINE
  5
109
330
1F
100
AcDbEntity
  8
0
  6
Continuous
 62
     8
370
    15
100
AcDbSpline
210
0.0
220
0.0
230
1.0
 70
     8
 71
     3
 72
    24
 73
    20
 74
     0
 42
0.00000001
 43
0.00000001
 12
1.0
 22
0.0
 32
0.0
 13
1.0
 23
0.0
 33
0.0
 40
0.0
 40
0.0
 40
0.0
 40
0.0
 40
0.0366112956297369
 40
0.0972825900413198
 40
0.157956274826973
 40
0.2186263633213621
 40
0.2793010916281859
 40
0.3399700854347361
 40
0.4006456901213953
 40
0.4613137751923121
 40
0.5219900520072164
 40
0.5826574715718753
 40
0.6433341890519843
 40
0.7040012260614933
 40
0.7646781354297149
 40
0.825345094924048
 40
0.8860219399852459
 40
0.9466891314192672
 40
1.0
 40
1.0
 40
1.0
 40
1.0
 10
129.624002582395
 20
139.4216754944172
 30
0.0
 10
129.5934387281314
 20
139.4180732486502
 30
0.0
 10
129.5122252432423
 20
139.4085014541494
 30
0.0
 10
129.3803521021477
 20
139.6388908464081
 30
0.0
 10
129.2284115472799
 20
140.0760314383233
 30
0.0
 10
129.0764412714453
 20
140.7179391098437
 30
0.0
 10
128.9245097083489
 20
141.5257248351604
 30
0.0
 10
128.7725309305237
 20
142.4761017646864
 30
0.0
 10
128.6206071683935
 20
143.5315232429008
 30
0.0
 10
128.4686213986238
 20
144.6552827740571
 30
0.0
 10
128.3167037052567
 20
145.8056755453089
 30
0.0
 10
128.1647128574486
 20
146.9411871289349
 30
0.0
 10
128.0127991733864
 20
148.0205724716362
 30
0.0
 10
127.8608054345075
 20
149.0044964208527
 30
0.0
 10
127.7088934528472
 20
149.8568928669536
 30
0.0
 10
127.5568993239936
 20
150.5486634419427
 30
0.0
 10
127.4049860164117
 20
151.0472717475518
 30
0.0
 10
127.2591468213796
 20
151.3489257117448
 30
0.0
 10
127.1640062652462
 20
151.3723331928657
 30
0.0
 10
127.1195062475756
 20
151.3832815556443
 30
0.0
  0
SPLINE
  5
10A
330
1F
100
AcDbEntity
  8
0
  6
Continuous
 62
     8
370
    15
100
AcDbSpline
210
0.0
220
0.0
230
1.0
 70
     8
 71
     3
 72
    12
 73
     8
 74
     0
 42
0.00000001
 43
0.00000001
 12
1.0
 22
0.0
 32
0.0
 13
1.0
 23
0.0
 33
0.0
 40
0.0
 40
0.0
 40
0.0
 40
0.0
 40
0.1479323284595309
 40
0.3609332283855914
 40
0.5739652531571384
 40
0.7869661293455505
 40
0.9999999999999999
 40
0.9999999999999999
 40
0.9999999999999999
 40
0.9999999999999999
 10
124.6233764540181
 20
139.4187248739864
 30
0.0
 10
124.5882048511947
 20
139.4187939190166
 30
0.0
 10
124.5023912884208
 20
139.4189623787841
 30
0.0
 10
124.3658862444465
 20
139.6708194019925
 30
0.0
 10
124.2139686270569
 20
140.1310060770365
 30
0.0
 10
124.0619815230531
 20
140.7814603342939
 30
0.0
 10
123.9606929199638
 20
141.3497312878793
 30
0.0
 10
123.9100446962469
 20
141.6338887696807
 30
0.0
  0
SPLINE
  5
10B
330
1F
100
AcDbEntity
  8
0
  6
Continuous
 62
     8
370
    15
100
AcDbSpline
210
0.0
220
0.0
230
1.0
 70
     8
 71
     3
 72
    12
 73
     8
 74
     0
 42
0.00000001
 43
0.00000001
 12
1.0
 22
0.0
 32
0.0
 13
1.0
 23
0.0
 33
0.0
 40
0.0
 40
0.0
 40
0.0
 40
0.0
 40
0.1381229887229128
 40
0.3832810289629665
 40
0.6284163612954291
 40
0.873570537686807
 40
1.0
 40
1.0
 40
1.0
 40
1.0
 10
124.7361431118432
 20
140.4699556061995
 30
0.0
 10
124.7646840147156
 20
140.4927148364406
 30
0.0
 10
124.8438828991416
 20
140.5558700089854
 30
0.0
 10
124.9737050191189
 20
140.8561405523421
 30
0.0
 10
125.1256794258145
 20
141.3453895430696
 30
0.0
 10
125.2530901179847
 20
141.8699254962404
 30
0.0
 10
125.3298683281968
 20
142.2618710899376
 30
0.0
 10
125.3559917276778
 20
142.3952286049238
 30
0.0
  0
SPLINE
  5
10C
330
1F
100
AcDbEntity
  8
0
  6
Continuous
 62
     8
370
    15
100
AcDbSpline
210
0.0
220
0.0
230
1.0
 70
     8
 71
     3
 72
    12
 73
     8
 74
     0
 42
0.00000001
 43
0.00000001
 12
1.0
 22
0.0
 32
0.0
 13
1.0
 23
0.0
 33
0.0
 40
0.0
 40
0.0
 40
0.0
 40
0.0
 40
0.183968362691639
 40
0.4428507178981377
 40
0.7017048031328171
 40
0.9605904546190338
 40
1.0
 40
1.0
 40
1.0
 40
1.0
 10
126.3852560653137
 20
148.3952286049238
 30
0.0
 10
126.42125441607
 20
148.5748402091097
 30
0.0
 10
126.5079100520843
 20
149.007203288787
 30
0.0
 10
126.6451871224299
 20
149.5540923252298
 30
0.0
 10
126.7971702561451
 20
150.0048542485964
 30
0.0
 10
126.906159965846
 20
150.2514816317381
 30
0.0
 10
126.964530143592
 20
150.2913067815401
 30
0.0
 10
126.9722417735242
 20
150.2965683179809
 30
0.0
  0
SPLINE
  5
10D
330
1F
100
AcDbEntity
  8
0
  6
Continuous
 62
     8
370
    15
100
AcDbSpline
210
0.0
220
0.0
230
1.0
 70
     8
 71
     3
 72
    12
 73
     8
 74
     0
 42
0.00000001
 43
0.00000001
 12
1.0
 22
0.0
 32
0.0
 13
1.0
 23
0.0
 33
0.0
 40
0.0
 40
0.0
 40
0.0
 40
0.0
 40
0.1185475968591237
 40
0.3761782051981938
 40
0.633818881682013
 40
0.8914444079119695
 40
1.0
 40
1.0
 40
1.0
 40
1.0
 10
129.7662974025457
 20
140.5009529566729
 30
0.0
 10
129.7896036416141
 20
140.5226645388102
 30
0.0
 10
129.8635595834884
 20
140.5915602753482
 30
0.0
 10
129.988174786753
 20
140.8969982036948
 30
0.0
 10
130.1401154229028
 20
141.4004375334025
 30
0.0
 10
130.2627713897977
 20
141.9138882728925
 30
0.0
 10
130.3347586639255
 20
142.285162996779
 30
0.0
 10
130.3560995271618
 20
142.3952286049238
 30
0.0
  0
SPLINE
  5
10E
330
1F
100
AcDbEntity
  8
0
  6
Continuous
 62
     8
370
    15
100
AcDbSpline
210
0.0
220
0.0
230
1.0
 70
     8
 71
     3
 72
    12
 73
     8
 74
     0
 42
0.00000001
 43
0.00000001
 12
1.0
 22
0.0
 32
0.0
 13
1.0
 23
0.0
 33
0.0
 40
0.0
 40
0.0
 40
0.0
 40
0.0
 40
0.20904205558558
 40
0.4673441715830808
 40
0.7256042515342412
 40
0.9839060964335141
 40
1.0
 40
1.0
 40
1.0
 40
1.0
 10
131.3847065045591
 20
148.3952286049238
 30
0.0
 10
131.4257068618514
 20
148.5973655752391
 30
0.0
 10
131.5173691733405
 20
149.0492724160597
 30
0.0
 10
131.6596337101907
 20
149.6054062665836
 30
0.0
 10
131.8116289764839
 20
150.038637575304
 30
0.0
 10
131.9160572545184
 20
150.2690312198414
 30
0.0
 10
131.9698730770059
 20
150.3018157565429
 30
0.0
 10
131.9730294912809
 20
150.3037386404619
 30
0.0
  0
SPLINE
  5
10F
330
1F
100
AcDbEntity
  8
0
  6
Continuous
 62
     8
370
    15
100
AcDbSpline
210
0.0
220
0.0
230
1.0
 70
     8
 71
     3
 72
    12
 73
     8
 74
     0
 42
0.00000001
 43
0.00000001
 12
1.0
 22
0.0
 32
0.0
 13
1.0
 23
0.0
 33
0.0
 40
0.0
 40
0.0
 40
0.0
 40
0.0
 40
0.1444171584601575
 40
0.4014745727002807
 40
0.658569025366037
 40
0.9156242194583681
 40
1.0
 40
1.0
 40
1.0
 40
1.0
 10
134.7653125838422
 20
140.4996266431178
 30
0.0
 10
134.7937638934684
 20
140.528779467496
 30
0.0
 10
134.8728575240088
 20
140.6098232841381
 30
0.0
 10
135.002641089597
 20
140.9370142571862
 30
0.0
 10
135.1545562826592
 20
141.457689312326
 30
0.0
 10
135.2725115442358
 20
141.9583087438493
 30
0.0
 10
135.3397756927552
 20
142.3086507057613
 30
0.0
 10
135.3563982766899
 20
142.3952286049238
 30
0.0
  0
SPLINE
  5
110
330
1F
100
AcDbEntity
  8
0
  6
Continuous
 62
     8
370
    15
100
AcDbSpline
210
0.0
220
0.0
230
1.0
 70
     8
 71
     3
 72
    11
 73
     7
 74
     0
 42
0.00000001
 43
0.00000001
 12
1.0
 22
0.0
 32
0.0
 13
1.0
 23
0.0
 33
0.0
 40
0.0
 40
0.0
 40
0.0
 40
0.0
 40
0.2359078683682214
 40
0.4952339491977703
 40
0.7545319933034276
 40
1.0
 40
1.0
 40
1.0
 40
1.0
 10
136.3839059344662
 20
148.3952286049238
 30
0.0
 10
136.4299905139748
 20
148.6200795975118
 30
0.0
 10
136.5267344185552
 20
149.0921021960399
 30
0.0
 10
136.6740945411226
 20
149.6490962117958
 30
0.0
 10
136.823364049541
 20
150.0862290228463
 30
0.0
 10
136.9219519589944
 20
150.2305812935796
 30
0.0
 10
136.9698953133058
 20
150.3007798818221
 30
0.0
  0
SPLINE
  5
111
330
1F
100
AcDbEntity
  8
0
  6
Continuous
 62
     8
370
    15
100
AcDbSpline
210
0.0
220
0.0
230
1.0
 70
     8
 71
     3
 72
    12
 73
     8
 74
     0
 42
0.00000001
 43
0.00000001
 12
1.0
 22
0.0
 32
0.0
 13
1.0
 23
0.0
 33
0.0
 40
0.0
 40
0.0
 40
0.0
 40
0.0
 40
0.1665067616019112
 40
0.4240451021165024
 40
0.6816227731170458
 40
0.9391633386008
 40
1.0
 40
1.0
 40
1.0
 40
1.0
 10
139.7668957835838
 20
140.4997817934704
 30
0.0
 10
139.7996366324888
 20
140.5365995884198
 30
0.0
 10
139.8830182110132
 20
140.6303639825431
 30
0.0
 10
140.0170950553252
 20
140.9786336506291
 30
0.0
 10
140.1690102138446
 20
141.516310304721
 30
0.0
 10
140.2823027487877
 20
142.0033246148067
 30
0.0
 10
140.3449089544521
 20
142.3323560913253
 30
0.0
 10
140.3568719725762
 20
142.3952286049238
 30
0.0
  0
SPLINE
  5
112
330
1F
100
AcDbEntity
  8
0
  6
Continuous
 62
     8
370
    15
100
AcDbSpline
210
0.0
220
0.0
230
1.0
 70
     8
 71
     3
 72
     9
 73
     5
 74
     0
 42
0.00000001
 43
0.00000001
 12
1.0
 22
0.0
 32
0.0
 13
1.0
 23
0.0
 33
0.0
 40
0.0
 40
0.0
 40
0.0
 40
0.0
 40
0.3491196906916808
 40
0.9999999999999999
 40
0.9999999999999999
 40
0.9999999999999999
 40
0.9999999999999999
 10
141.7695271933299
 20
149.8952286049238
 30
0.0
 10
141.7931891128117
 20
149.9641957976226
 30
0.0
 10
141.8609650650501
 20
150.1617417812427
 30
0.0
 10
141.9287450654988
 20
150.2447499703578
 30
0.0
 10
141.9728617331559
 20
150.2987783661641
 30
0.0
  0
SPLINE
  5
113
330
1F
100
AcDbEntity
  8
0
  6
Continuous
 62
     8
370
    15
100
AcDbSpline
210
0.0
220
0.0
230
1.0
 70
     8
 71
     3
 72
    11
 73
     7
 74
     0
 42
0.00000001
 43
0.00000001
 12
1.0
 22
0.0
 32
0.0
 13
1.0
 23
0.0
 33
0.0
 40
0.0
 40
0.0
 40
0.0
 40
0.0
 40
0.1909197270189521
 40
0.4606098719718381
 40
0.7303037157192104
 40
1.0
 40
1.0
 40
1.0
 40
1.0
 10
123.4213085204157
 20
141.91233963352
 30
0.0
 10
123.4274119874435
 20
141.8834428731959
 30
0.0
 10
123.4421371141246
 20
141.8137270126031
 30
0.0
 10
123.5486401401273
 20
141.7204582627425
 30
0.0
 10
123.7137112485089
 20
141.6485333171365
 30
0.0
 10
123.8446000114998
 20
141.6387701851081
 30
0.0
 10
123.9100446891059
 20
141.6338885970067
 30
0.0
  0
SPLINE
  5
114
330
1F
100
AcDbEntity
  8
0
  6
Continuous
 62
     8
370
    15
100
AcDbSpline
210
0.0
220
0.0
230
1.0
 70
     8
 71
     3
 72
    12
 73
     8
 74
     0
 42
0.00000001
 43
0.00000001
 12
1.0
 22
0.0
 32
0.0
 13
1.0
 23
0.0
 33
0.0
 40
0.0
 40
0.0
 40
0.0
 40
0.0
 40
0.0733260368159941
 40
0.3049908121650918
 40
0.5366577244232522
 40
0.7683278139868581
 40
0.9999999999999999
 40
0.9999999999999999
 40
0.9999999999999999
 40
0.9999999999999999
 10
124.3978373846688
 20
141.9852567846175
 30
0.0
 10
124.4027848464402
 20
141.972660239905
 30
0.0
 10
124.4233632173619
 20
141.9202664304324
 30
0.0
 10
124.3796022673124
 20
141.8240143052328
 30
0.0
 10
124.2740725046861
 20
141.7203977644284
 30
0.0
 10
124.1057223113081
 20
141.6485486561378
 30
0.0
 10
123.975270764682
 20
141.6387754132398
 30
0.0
 10
123.9100446962469
 20
141.6338887696807
 30
0.0
  0
SPLINE
  5
115
330
1F
100
AcDbEntity
  8
0
  6
Continuous
 62
     8
370
    15
100
AcDbSpline
210
0.0
220
0.0
230
1.0
 70
     8
 71
     3
 72
    12
 73
     8
 74
     0
 42
0.00000001
 43
0.00000001
 12
1.0
 22
0.0
 32
0.0
 13
1.0
 23
0.0
 33
0.0
 40
0.0
 40
0.0
 40
0.0
 40
0.0
 40
0.0673112845915586
 40
0.3254375483259347
 40
0.5835535536070952
 40
0.8416845060724625
 40
0.9999999999999999
 40
0.9999999999999999
 40
0.9999999999999999
 40
0.9999999999999999
 10
121.9742794876975
 20
150.2930683387993
 30
0.0
 10
121.9610709597415
 20
150.2830028722223
 30
0.0
 10
121.8972101824427
 20
150.2343382124192
 30
0.0
 10
121.7827061355304
 20
149.9706226572876
 30
0.0
 10
121.6307406599253
 20
149.5003324990003
 30
0.0
 10
121.4983844617642
 20
148.9650143781583
 30
0.0
 10
121.4166604841712
 20
148.5521734368523
 30
0.0
 10
121.3855924513174
 20
148.3952286049238
 30
0.0
  0
SPLINE
  5
116
330
1F
100
AcDbEntity
  8
0
  6
Continuous
 62
     8
370
    15
100
AcDbSpline
210
0.0
220
0.0
230
1.0
 70
     8
 71
     3
 72
    12
 73
     8
 74
     0
 42
0.00000001
 43
0.00000001
 12
1.0
 22
0.0
 32
0.0
 13
1.0
 23
0.0
 33
0.0
 40
0.0
 40
0.0
 40
0.0
 40
0.0
 40
0.1578541440245822
 40
0.4159455152592375
 40
0.6740788950495928
 40
0.9321705935543635
 40
1.0
 40
1.0
 40
1.0
 40
1.0
 10
120.3560924142933
 20
142.3952286049238
 30
0.0
 10
120.3251195987301
 20
142.2387538836644
 30
0.0
 10
120.2435062599858
 20
141.8264431460436
 30
0.0
 10
120.1111960741153
 20
141.2907524868327
 30
0.0
 10
119.9592844753218
 20
140.8210378998291
 30
0.0
 10
119.8446418313749
 20
140.556095031292
 30
0.0
 10
119.7806908693557
 20
140.5074892089231
 30
0.0
 10
119.7673816490276
 20
140.4973735581382
 30
0.0
  0
SPLINE
  5
117
330
1F
100
AcDbEntity
  8
0
  6
Continuous
 62
     8
370
    15
100
AcDbSpline
210
0.0
220
0.0
230
1.0
 70
     8
 71
     3
 72
    12
 73
     8
 74
     0
 42
0.00000001
 43
0.00000001
 12
1.0
 22
0.0
 32
0.0
 13
1.0
 23
0.0
 33
0.0
 40
0.0
 40
0.0
 40
0.0
 40
0.0
 40
0.094982557764347
 40
0.3522779188649656
 40
0.609536007977589
 40
0.8668332241040831
 40
1.0
 40
1.0
 40
1.0
 40
1.0
 10
116.9763031223052
 20
150.291861515047
 30
0.0
 10
116.9576018712426
 20
150.2760952258188
 30
0.0
 10
116.8882413701196
 20
150.2176201153539
 30
0.0
 10
116.7682664291103
 20
149.9335840459471
 30
0.0
 10
116.616275463691
 20
149.4462115378236
 30
0.0
 10
116.4887856378945
 20
148.9215844173522
 30
0.0
 10
116.4119043953169
 20
148.5290883985219
 30
0.0
 10
116.3856842382471
 20
148.3952286049238
 30
0.0
  0
SPLINE
  5
118
330
1F
100
AcDbEntity
  8
0
  6
Continuous
 62
     8
370
    15
100
AcDbSpline
210
0.0
220
0.0
230
1.0
 70
     8
 71
     3
 72
    12
 73
     8
 74
     0
 42
0.00000001
 43
0.00000001
 12
1.0
 22
0.0
 32
0.0
 13
1.0
 23
0.0
 33
0.0
 40
0.0
 40
0.0
 40
0.0
 40
0.0
 40
0.1834779581732529
 40
0.4423444837587222
 40
0.7012392847882157
 40
0.9601100873735596
 40
0.9999999999999999
 40
0.9999999999999999
 40
0.9999999999999999
 40
0.9999999999999999
 10
115.3564039146586
 20
142.3952286049238
 30
0.0
 10
115.3205094319026
 20
142.2160447722082
 30
0.0
 10
115.233971917519
 20
141.784052936406
 30
0.0
 10
115.0967499189453
 20
141.2373892134994
 30
0.0
 10
114.9448226228082
 20
140.7863696609966
 30
0.0
 10
114.8356994586301
 20
140.5392290542302
 30
0.0
 10
114.7772484893452
 20
140.4993107571071
 30
0.0
 10
114.7694442368481
 20
140.4939809486572
 30
0.0
  0
SPLINE
  5
119
330
1F
100
AcDbEntity
  8
0
  6
Continuous
 62
     8
370
    15
100
AcDbSpline
210
0.0
220
0.0
230
1.0
 70
     8
 71
     3
 72
    12
 73
     8
 74
     0
 42
0.00000001
 43
0.00000001
 12
1.0
 22
0.0
 32
0.0
 13
1.0
 23
0.0
 33
0.0
 40
0.0
 40
0.0
 40
0.0
 40
0.0
 40
0.1180237597692061
 40
0.375686021832738
 40
0.6333091013701124
 40
0.8909695057759606
 40
0.9999999999999999
 40
0.9999999999999999
 40
0.9999999999999999
 40
0.9999999999999999
 10
111.9753618881658
 20
150.289485059988
 30
0.0
 10
111.952156341628
 20
150.2678538264758
 30
0.0
 10
111.8782898635537
 20
150.1989986054471
 30
0.0
 10
111.7538140275265
 20
149.8945118512858
 30
0.0
 10
111.6018230472622
 20
149.3909242295709
 30
0.0
 10
111.4791130025342
 20
148.8775064026936
 30
0.0
 10
111.4070167955369
 20
148.5057617603253
 30
0.0
 10
111.3855799801974
 20
148.3952286049238
 30
0.0
  0
SPLINE
  5
11A
330
1F
100
AcDbEntity
  8
0
  6
Continuous
 62
     8
370
    15
100
AcDbSpline
210
0.0
220
0.0
230
1.0
 70
     8
 71
     3
 72
    10
 73
     6
 74
     0
 42
0.00000001
 43
0.00000001
 12
1.0
 22
0.0
 32
0.0
 13
1.0
 23
0.0
 33
0.0
 40
0.0
 40
0.0
 40
0.0
 40
0.0
 40
0.2109797558253121
 40
0.9525647975294153
 40
1.0
 40
1.0
 40
1.0
 40
1.0
 10
109.973589302216
 20
140.8952286049238
 30
0.0
 10
109.9591784682321
 20
140.8520812687077
 30
0.0
 10
109.8941141538746
 20
140.6572728453792
 30
0.0
 10
109.8258181782583
 20
140.5217124612715
 30
0.0
 10
109.771923945075
 20
140.488698246641
 30
0.0
 10
109.7686838712214
 20
140.4867134611213
 30
0.0
  0
SPLINE
  5
11B
330
1F
100
AcDbEntity
  8
0
  6
Continuous
 62
     8
370
    15
100
AcDbSpline
210
0.0
220
0.0
230
1.0
 70
     8
 71
     3
 72
     9
 73
     5
 74
     0
 42
0.00000001
 43
0.00000001
 12
1.0
 22
0.0
 32
0.0
 13
1.0
 23
0.0
 33
0.0
 40
0.0
 40
0.0
 40
0.0
 40
0.0
 40
0.4052631204885936
 40
1.0
 40
1.0
 40
1.0
 40
1.0
 10
106.976318794615
 20
150.2907725021104
 30
0.0
 10
106.9479769849828
 20
150.2633341694671
 30
0.0
 10
106.8780426430718
 20
150.1956291865656
 30
0.0
 10
106.8081163669686
 20
150.0072591892944
 30
0.0
 10
106.7665286317231
 20
149.8952286049238
 30
0.0
  0
SPLINE
  5
11C
330
1F
100
AcDbEntity
  8
0
  6
Continuous
 62
     8
370
    15
100
AcDbSpline
210
0.0
220
0.0
230
1.0
 70
     8
 71
     3
 72
    10
 73
     6
 74
     0
 42
0.00000001
 43
0.00000001
 12
1.0
 22
0.0
 32
0.0
 13
1.0
 23
0.0
 33
0.0
 40
0.0
 40
0.0
 40
0.0
 40
0.0
 40
0.1931194455017696
 40
0.7104254925461632
 40
1.0
 40
1.0
 40
1.0
 40
1.0
 10
104.9726390653558
 20
140.8952286049238
 30
0.0
 10
104.9537268411973
 20
140.839775531144
 30
0.0
 10
104.8841547371142
 20
140.6357811733992
 30
0.0
 10
104.786256394945
 20
140.4709036395534
 30
0.0
 10
104.707237571358
 20
140.4415958595955
 30
0.0
 10
104.6788791770552
 20
140.431077839427
 30
0.0
  0
SPLINE
  5
11D
330
1F
100
AcDbEntity
  8
0
  6
Continuous
 62
     8
370
    15
100
AcDbSpline
210
0.0
220
0.0
230
1.0
 70
     8
 71
     3
 72
    24
 73
    20
 74
     0
 42
0.00000001
 43
0.00000001
 12
1.0
 22
0.0
 32
0.0
 13
1.0
 23
0.0
 33
0.0
 40
0.0
 40
0.0
 40
0.0
 40
0.0
 40
0.0307462745121316
 40
0.0914290957313103
 40
0.1521193734455554
 40
0.2128014011021999
 40
0.2734922383135153
 40
0.3341737377199727
 40
0.3948648930303396
 40
0.4555461604423853
 40
0.5162373800749355
 40
0.5769187250204465
 40
0.637609752719639
 40
0.6982914803105239
 40
0.758982067240577
 40
0.8196644604946831
 40
0.880354375138004
 40
0.9410376773420881
 40
1.0
 40
1.0
 40
1.0
 40
1.0
 10
107.1182190527518
 20
151.367650696034
 30
0.0
 10
107.1438789418824
 20
151.3734865772826
 30
0.0
 10
107.2201828355086
 20
151.3908405284142
 30
0.0
 10
107.3471696929937
 20
151.1816751546465
 30
0.0
 10
107.4990900507272
 20
150.764532725282
 30
0.0
 10
107.6510786503576
 20
150.1397597852822
 30
0.0
 10
107.8029940581183
 20
149.3464173039409
 30
0.0
 10
107.9549866433116
 20
148.4080398926307
 30
0.0
 10
108.1068991560416
 20
147.3607202223173
 30
0.0
 10
108.2588934978146
 20
146.2417031371479
 30
0.0
 10
108.4108054225908
 20
145.092042941501
 30
0.0
 10
108.5627991760712
 20
143.9532697631803
 30
0.0
 10
108.714712858607
 20
142.8671688822452
 30
0.0
 10
108.8667036979178
 20
141.8724534468867
 30
0.0
 10
109.018621426802
 20
141.0068006245267
 30
0.0
 10
109.1706070630085
 20
140.2984864832355
 30
0.0
 10
109.3225313239037
 20
139.7812109042385
 30
0.0
 10
109.4730668603898
 20
139.452901601764
 30
0.0
 10
109.5729194436689
 20
139.4165449111684
 30
0.0
 10
109.6221275968322
 20
139.3986280427151
 30
0.0
  0
SPLINE
  5
11E
330
1F
100
AcDbEntity
  8
0
  6
Continuous
 62
     8
370
    15
100
AcDbSpline
210
0.0
220
0.0
230
1.0
 70
     8
 71
     3
 72
    24
 73
    20
 74
     0
 42
0.00000001
 43
0.00000001
 12
1.0
 22
0.0
 32
0.0
 13
1.0
 23
0.0
 33
0.0
 40
0.0
 40
0.0
 40
0.0
 40
0.0
 40
0.0368648789749563
 40
0.0975088423074381
 40
0.1581626876052206
 40
0.2188068826244687
 40
0.2794604101531736
 40
0.3401051329440893
 40
0.4007581014426899
 40
0.4614036171842442
 40
0.5220558076485868
 40
0.5827023330223401
 40
0.6433535585993312
 40
0.7040012442912587
 40
0.7646513601748688
 40
0.8253002735038913
 40
0.885949186832907
 40
0.9465993027165106
 40
1.0
 40
1.0
 40
1.0
 40
1.0
 10
112.1172983799667
 20
151.3688708202187
 30
0.0
 10
112.1480821934392
 20
151.3723253356676
 30
0.0
 10
112.2295064133736
 20
151.3814626449854
 30
0.0
 10
112.3616274981481
 20
151.1515448301428
 30
0.0
 10
112.5135403075396
 20
150.7127708266738
 30
0.0
 10
112.6655328121519
 20
150.0716842367639
 30
0.0
 10
112.8174482487615
 20
149.2625844404696
 30
0.0
 10
112.9694368092201
 20
148.3128126896264
 30
0.0
 10
113.1213573003533
 20
147.2566304914568
 30
0.0
 10
113.273339789256
 20
146.1331129584876
 30
0.0
 10
113.425267265942
 20
144.9826553218265
 30
0.0
 10
113.5772419359745
 20
143.846989168382
 30
0.0
 10
113.7291779374791
 20
142.7682029603655
 30
0.0
 10
113.8811434816625
 20
141.7838339354303
 30
0.0
 10
114.0330890387904
 20
140.932499036941
 30
0.0
 10
114.1850447687897
 20
140.240210264837
 30
0.0
 10
114.3370000419197
 20
139.7427914447944
 30
0.0
 10
114.4828948811472
 20
139.4406917296514
 30
0.0
 10
114.5781476095804
 20
139.4177981818761
 30
0.0
 10
114.6227466963842
 20
139.4070789999559
 30
0.0
  0
SPLINE
  5
11F
330
1F
100
AcDbEntity
  8
0
  6
Continuous
 62
     8
370
    15
100
AcDbSpline
210
0.0
220
0.0
230
1.0
 70
     8
 71
     3
 72
    24
 73
    20
 74
     0
 42
0.00000001
 43
0.00000001
 12
1.0
 22
0.0
 32
0.0
 13
1.0
 23
0.0
 33
0.0
 40
0.0
 40
0.0
 40
0.0
 40
0.0
 40
0.0422794655354848
 40
0.102926412569738
 40
0.1635790909529758
 40
0.2242271323588882
 40
0.2848787675218198
 40
0.345528014443343
 40
0.4061784863271121
 40
0.4668289588608321
 40
0.5274782051179701
 40
0.5881298408805086
 40
0.6487778816586938
 40
0.709430560563191
 40
0.7700775070513467
 40
0.8307310620171868
 40
0.8913771000999333
 40
0.9520313269497606
 40
1.0
 40
1.0
 40
1.0
 40
1.0
 10
117.1181859976739
 20
151.3719482882711
 30
0.0
 10
117.153491951175
 20
151.3716349034798
 30
0.0
 10
117.2394418346515
 20
151.3708719900436
 30
0.0
 10
117.3760718303205
 20
151.1192274442216
 30
0.0
 10
117.528003878137
 20
150.6594198504484
 30
0.0
 10
117.6799739858713
 20
150.0019676226545
 30
0.0
 10
117.8319147184961
 20
149.177593651022
 30
0.0
 10
117.9838753507703
 20
148.2165279726365
 30
0.0
 10
118.1358259430531
 20
147.1520001086813
 30
0.0
 10
118.2877765269191
 20
146.0242419257778
 30
0.0
 10
118.4397371734974
 20
144.8733788182862
 30
0.0
 10
118.5916778681311
 20
143.7413096319391
 30
0.0
 10
118.7436481030964
 20
142.6699454256504
 30
0.0
 10
118.8955796899262
 20
141.6966572522769
 30
0.0
 10
119.0475584137104
 20
140.8593892141309
 30
0.0
 10
119.1994823682921
 20
140.1839974672006
 30
0.0
 10
119.3514674223392
 20
139.7059511992828
 30
0.0
 10
119.4928030376581
 20
139.4293803464311
 30
0.0
 10
119.5835291260361
 20
139.418420246953
 30
0.0
 10
119.6235944352346
 20
139.4135801862573
 30
0.0
  0
SPLINE
  5
120
330
1F
100
AcDbEntity
  8
0
  6
Continuous
 62
     8
370
    15
100
AcDbSpline
210
0.0
220
0.0
230
1.0
 70
     8
 71
     3
 72
    19
 73
    15
 74
     0
 42
0.00000001
 43
0.00000001
 12
1.0
 22
0.0
 32
0.0
 13
1.0
 23
0.0
 33
0.0
 40
0.0
 40
0.0
 40
0.0
 40
0.0
 40
0.0673811201429653
 40
0.1521656968155654
 40
0.2369468718079115
 40
0.3217330018936521
 40
0.4065125650754832
 40
0.4913000416605031
 40
0.5760781891946729
 40
0.6608667532128589
 40
0.7456436895680566
 40
0.8304330139884963
 40
0.9152099408958216
 40
0.9999999999999999
 40
0.9999999999999999
 40
0.9999999999999999
 40
0.9999999999999999
 10
122.1177957234556
 20
151.377284748823
 30
0.0
 10
122.1580509431807
 20
151.3720996274811
 30
0.0
 10
122.2489586566017
 20
151.3603901515865
 30
0.0
 10
122.3905083507841
 20
151.0846866219141
 30
0.0
 10
122.542473963977
 20
150.6046306190347
 30
0.0
 10
122.6944099473015
 20
149.9304257276952
 30
0.0
 10
122.8463846096133
 20
149.0915864645892
 30
0.0
 10
122.9983120979174
 20
148.1191138636937
 30
0.0
 10
123.1502945724512
 20
147.0468712237131
 30
0.0
 10
123.3022150396443
 20
145.9152367671722
 30
0.0
 10
123.4542034026305
 20
144.7638021790676
 30
0.0
 10
123.6061206885022
 20
143.6379380582711
 30
0.0
 10
123.7581078797451
 20
142.5662632671877
 30
0.0
 10
123.8593964712044
 20
141.9446961995872
 30
0.0
 10
123.9100446891059
 20
141.6338885970067
 30
0.0
  0
DIMENSION
  5
121
330
1F
100
AcDbEntity
  8
0
  6
Continuous
 62
     7
370
     0
100
AcDbDimension
  2
_D
 10
76.0179531035
 20
139.8952286049
 30
0.0
 11
76.0179531035
 21
145.3952286049
 31
0.0
 70
   160
  1
%%c<>
 71
     2
 42
-1.0
  3
SLDDIMSTYLE0
100
AcDbAlignedDimension
 13
86.9069519343
 23
150.8952286049
 33
0.0
 14
86.9069519343
 24
139.8952286049
 34
0.0
 50
90.0
100
AcDbRotatedDimension
  0
DIMENSION
  5
130
330
1F
100
AcDbEntity
  8
0
  6
Continuous
 62
     7
370
     0
100
AcDbDimension
  2
_D_1
 10
95.9069519343
 20
163.8021529273
 30
0.0
 11
91.4069519343
 21
163.8021529273
 31
0.0
 70
   160
  1
<>
 71
     2
 42
-1.0
  3
SLDDIMSTYLE0
100
AcDbAlignedDimension
 13
86.9069519343
 23
150.8952286049
 33
0.0
 14
95.9069519343
 24
151.3952286049
 34
0.0
100
AcDbRotatedDimension
  0
DIMENSION
  5
13C
330
1F
100
AcDbEntity
  8
0
  6
Continuous
 62
     7
370
     0
100
AcDbDimension
  2
_D_2
 10
168.9069519343
 20
179.3952286049
 30
0.0
 11
127.9069519343
 21
179.3952286049
 31
0.0
 70
   160
  1
<>
 71
     2
 42
-1.0
  3
SLDDIMSTYLE1
100
AcDbAlignedDimension
 13
86.9069519343
 23
150.8952286049
 33
0.0
 14
168.9069519343
 24
147.8952286049
 34
0.0
100
AcDbRotatedDimension
  0
DIMENSION
  5
147
330
1F
100
AcDbEntity
  8
0
  6
Continuous
 62
     7
370
     0
100
AcDbDimension
  2
_D_3
 10
178.9069519343
 20
142.3952286049
 30
0.0
 11
178.9069519343
 21
129.2922875897
 31
0.0
 70
   160
  1
%%c<>
 71
     2
 42
-1.0
  3
SLDDIMSTYLE0
100
AcDbAlignedDimension
 13
168.4069519343
 23
148.3952286049
 33
0.0
 14
168.4069519343
 24
142.3952286049
 34
0.0
 50
90.0
100
AcDbRotatedDimension
  0
DIMENSION
  5
154
330
1F
100
AcDbEntity
  8
0
  6
Continuous
 62
     7
370
     0
100
AcDbDimension
  2
_D_4
 10
193.0668973936
 20
135.3952286049
 30
0.0
 11
193.0668973936
 21
145.3952286049
 31
0.0
 70
   160
  1
%%c<>
 71
     2
 42
-1.0
  3
SLDDIMSTYLE1
100
AcDbAlignedDimension
 13
166.5069519343
 23
155.3952286049
 33
0.0
 14
166.5069519343
 24
135.3952286049
 34
0.0
 50
90.0
100
AcDbRotatedDimension
  0
DIMENSION
  5
15F
330
1F
100
AcDbEntity
  8
0
  6
Continuous
 62
     7
370
     0
100
AcDbDimension
  2
_D_5
 10
110.9069519343
 20
126.4557604622
 30
0.0
 11
125.9069519343
 21
126.4557604622
 31
0.0
 70
   160
  1
<>st
 71
     2
 42
-1.0
  3
SLDDIMSTYLE1
100
AcDbAlignedDimension
 13
140.9069519343
 23
141.2952286049
 33
0.0
 14
110.9069519343
 24
140.8952286049
 34
0.0
100
AcDbRotatedDimension
  0
DIMENSION
  5
16A
330
1F
100
AcDbEntity
  8
0
  6
Continuous
 62
     7
370
     0
100
AcDbDimension
  2
_D_6
 10
166.9069519343
 20
126.4557604622
 30
0.0
 11
156.4069519343
 21
126.4557604622
 31
0.0
 70
   160
  1
<>
 71
     2
 42
-1.0
  3
SLDDIMSTYLE1
100
AcDbAlignedDimension
 13
145.9069519343
 23
133.7952286049
 33
0.0
 14
166.9069519343
 24
135.7952286049
 34
0.0
100
AcDbRotatedDimension
  0
MTEXT
  5
174
330
1F
100
AcDbEntity
  8
0
  6
Continuous
 62
     7
370
     0
100
AcDbMText
 10
70.3788037713
 20
121.7458169225
 30
0.0
 40
3.5
 41
0.0
 71
     1
 72
     1
  1
BF-6
  7
SLDTEXTSTYLE1
 73
     1
 44
1.0
  0
LEADER
  5
176
330
1F
100
AcDbEntity
  8
0
  6
Continuous
 62
     7
370
     0
100
AcDbLeader
  3
SLDDIMSTYLE2
 76
     3
 10
98.939676187
 20
132.0616844903
 30
0.0
 10
79.866940211
 20
117.2332942556
 30
0.0
 10
70.3399765533
 20
117.2332942556
 30
0.0
  0
LINE
  5
177
330
1F
100
AcDbEntity
  8
0
  6
CENTERX2
 62
     7
370
     0
100
AcDbLine
 10
80.4758782085
 20
145.3952286049
 30
0.0
 11
178.2358807599
 21
145.3952286049
 31
0.0
  0
LINE
  5
178
330
1F
100
AcDbEntity
  8
0
  6
CENTERX2
 62
     7
370
     0
100
AcDbLine
 10
99.9069519343
 20
126.2855472985
 30
0.0
 11
99.9069519343
 21
159.2113546632
 31
0.0
  0
LINE
  5
179
330
1F
100
AcDbEntity
  8
0
  6
CENTERX2
 62
     7
370
     0
100
AcDbLine
 10
99.9069519343
 20
151.3952286049
 30
0.0
 11
99.9069519343
 21
143.3952286049
 31
0.0
  0
LINE
  5
17A
330
1F
100
AcDbEntity
  8
0
  6
Continuous
 62
     7
370
    15
100
AcDbLine
 10
48.1350058617
 20
131.0952286049
 30
0.0
 11
48.4850058617
 21
128.5952286049
 31
0.0
  0
LINE
  5
17B
330
1F
100
AcDbEntity
  8
0
  6
Continuous
 62
     7
370
    15
100
AcDbLine
 10
52.4850058617
 20
128.5952286049
 30
0.0
 11
52.8350058617
 21
131.0952286049
 31
0.0
  0
LINE
  5
17C
330
1F
100
AcDbEntity
  8
0
  6
Continuous
 62
     7
370
    15
100
AcDbLine
 10
48.1350058617
 20
133.5952286049
 30
0.0
 11
48.4850058617
 21
131.0952286049
 31
0.0
  0
LINE
  5
17D
330
1F
100
AcDbEntity
  8
0
  6
Continuous
 62
     7
370
    15
100
AcDbLine
 10
52.4850058617
 20
131.0952286049
 30
0.0
 11
52.8350058617
 21
133.5952286049
 31
0.0
  0
LINE
  5
17E
330
1F
100
AcDbEntity
  8
0
  6
Continuous
 62
     7
370
    15
100
AcDbLine
 10
52.5850058617
 20
133.5952286049
 30
0.0
 11
52.5850058617
 21
136.0952286049
 31
0.0
  0
LINE
  5
17F
330
1F
100
AcDbEntity
  8
0
  6
Continuous
 62
     7
370
    15
100
AcDbLine
 10
48.3850058617
 20
136.0952286049
 30
0.0
 11
48.3850058617
 21
133.5952286049
 31
0.0
  0
LINE
  5
180
330
1F
100
AcDbEntity
  8
0
  6
Continuous
 62
     7
370
    15
100
AcDbLine
 10
46.4850058617
 20
152.1952286049
 30
0.0
 11
46.4850058617
 21
151.3952286049
 31
0.0
  0
LINE
  5
181
330
1F
100
AcDbEntity
  8
0
  6
Continuous
 62
     7
370
    15
100
AcDbLine
 10
54.4850058617
 20
151.3952286049
 30
0.0
 11
54.4850058617
 21
152.1952286049
 31
0.0
  0
LINE
  5
182
330
1F
100
AcDbEntity
  8
0
  6
Continuous
 62
     7
370
    15
100
AcDbLine
 10
46.4850058617
 20
139.3952286049
 30
0.0
 11
46.4850058617
 21
138.5952286049
 31
0.0
  0
LINE
  5
183
330
1F
100
AcDbEntity
  8
0
  6
Continuous
 62
     7
370
    15
100
AcDbLine
 10
54.4850058617
 20
138.5952286049
 30
0.0
 11
54.4850058617
 21
139.3952286049
 31
0.0
  0
LINE
  5
184
330
1F
100
AcDbEntity
  8
0
  6
Continuous
 62
     7
370
    15
100
AcDbLine
 10
48.4600058617
 20
152.1952286049
 30
0.0
 11
48.4600058617
 21
154.6952286049
 31
0.0
  0
LINE
  5
185
330
1F
100
AcDbEntity
  8
0
  6
Continuous
 62
     7
370
    15
100
AcDbLine
 10
46.4350058617
 20
152.1952286049
 30
0.0
 11
46.485980381
 21
152.1952286049
 31
0.0
  0
LINE
  5
186
330
1F
100
AcDbEntity
  8
0
  6
Continuous
 62
     7
370
    15
100
AcDbLine
 10
48.4090313423
 20
152.1952286049
 30
0.0
 11
48.4600058617
 21
152.1952286049
 31
0.0
  0
LINE
  5
187
330
1F
100
AcDbEntity
  8
0
  6
Continuous
 62
     7
370
    15
100
AcDbLine
 10
46.4350058617
 20
152.1952286049
 30
0.0
 11
46.4350058617
 21
154.6952286049
 31
0.0
  0
LINE
  5
188
330
1F
100
AcDbEntity
  8
0
  6
Continuous
 62
     7
370
    15
100
AcDbLine
 10
46.4350058617
 20
154.6952286049
 30
0.0
 11
48.4600058617
 21
154.6952286049
 31
0.0
  0
LINE
  5
189
330
1F
100
AcDbEntity
  8
0
  6
Continuous
 62
     7
370
    15
100
AcDbLine
 10
52.5100058617
 20
152.1952286049
 30
0.0
 11
52.5100058617
 21
154.6952286049
 31
0.0
  0
LINE
  5
18A
330
1F
100
AcDbEntity
  8
0
  6
Continuous
 62
     7
370
    15
100
AcDbLine
 10
48.4600058617
 20
152.1952286049
 30
0.0
 11
48.5619549003
 21
152.1952286049
 31
0.0
  0
LINE
  5
18B
330
1F
100
AcDbEntity
  8
0
  6
Continuous
 62
     7
370
    15
100
AcDbLine
 10
52.408056823
 20
152.1952286049
 30
0.0
 11
52.5100058617
 21
152.1952286049
 31
0.0
  0
LINE
  5
18C
330
1F
100
AcDbEntity
  8
0
  6
Continuous
 62
     7
370
    15
100
AcDbLine
 10
48.4600058617
 20
154.6952286049
 30
0.0
 11
52.5100058617
 21
154.6952286049
 31
0.0
  0
LINE
  5
18D
330
1F
100
AcDbEntity
  8
0
  6
Continuous
 62
     7
370
    15
100
AcDbLine
 10
54.5350058617
 20
152.1952286049
 30
0.0
 11
54.5350058616
 21
154.6952286049
 31
0.0
  0
LINE
  5
18E
330
1F
100
AcDbEntity
  8
0
  6
Continuous
 62
     7
370
    15
100
AcDbLine
 10
52.5100058617
 20
152.1952286049
 30
0.0
 11
52.560980381
 21
152.1952286049
 31
0.0
  0
LINE
  5
18F
330
1F
100
AcDbEntity
  8
0
  6
Continuous
 62
     7
370
    15
100
AcDbLine
 10
54.4840313423
 20
152.1952286049
 30
0.0
 11
54.5350058617
 21
152.1952286049
 31
0.0
  0
LINE
  5
190
330
1F
100
AcDbEntity
  8
0
  6
Continuous
 62
     7
370
    15
100
AcDbLine
 10
52.5100058617
 20
154.6952286049
 30
0.0
 11
54.5350058616
 21
154.6952286049
 31
0.0
  0
ARC
  5
191
330
1F
100
AcDbEntity
  8
0
  6
Continuous
 62
     7
370
    15
100
AcDbCircle
 10
50.4850058617
 20
145.3952286049
 30
0.0
 40
11.60000000000003
100
AcDbArc
 50
280.4300212911
 51
259.569978709
  0
ARC
  5
192
330
1F
100
AcDbEntity
  8
0
  6
Continuous
 62
     7
370
    15
100
AcDbCircle
 10
50.4850058617
 20
145.3952286049
 30
0.0
 40
12.00000000000002
100
AcDbArc
 50
280.4753138432
 51
259.5246861568
  0
CIRCLE
  5
193
330
1F
100
AcDbEntity
  8
0
  6
Continuous
 62
     7
370
    15
100
AcDbCircle
 10
50.4850058617
 20
145.3952286049
 30
0.0
 40
5.499999999999993
  0
CIRCLE
  5
194
330
1F
100
AcDbEntity
  8
0
  6
Continuous
 62
     7
370
    15
100
AcDbCircle
 10
50.4850058617
 20
145.3952286049
 30
0.0
 40
2.100000000000001
  0
LINE
  5
195
330
1F
100
AcDbEntity
  8
0
  6
Continuous
 62
     7
370
    15
100
AcDbLine
 10
47.0209042465
 20
139.3952286049
 30
0.0
 11
43.5568026314
 21
145.3952286049
 31
0.0
  0
LINE
  5
196
330
1F
100
AcDbEntity
  8
0
  6
Continuous
 62
     7
370
    15
100
AcDbLine
 10
43.5568026314
 20
145.3952286049
 30
0.0
 11
47.0209042465
 21
151.3952286049
 31
0.0
  0
LINE
  5
197
330
1F
100
AcDbEntity
  8
0
  6
Continuous
 62
     7
370
    15
100
AcDbLine
 10
47.0209042465
 20
151.3952286049
 30
0.0
 11
53.9491074768
 21
151.3952286049
 31
0.0
  0
LINE
  5
198
330
1F
100
AcDbEntity
  8
0
  6
Continuous
 62
     7
370
    15
100
AcDbLine
 10
53.9491074768
 20
151.3952286049
 30
0.0
 11
57.4132090919
 21
145.3952286049
 31
0.0
  0
LINE
  5
199
330
1F
100
AcDbEntity
  8
0
  6
Continuous
 62
     7
370
    15
100
AcDbLine
 10
57.4132090919
 20
145.3952286049
 30
0.0
 11
53.9491074768
 21
139.3952286049
 31
0.0
  0
LINE
  5
19A
330
1F
100
AcDbEntity
  8
0
  6
Continuous
 62
     7
370
    15
100
AcDbLine
 10
53.9491074768
 20
139.3952286049
 30
0.0
 11
47.0209042465
 21
139.3952286049
 31
0.0
  0
LINE
  5
19B
330
1F
100
AcDbEntity
  8
0
  6
Continuous
 62
     7
370
    15
100
AcDbLine
 10
48.4600058616
 20
138.5952286049
 30
0.0
 11
48.4600058618
 21
136.0952286049
 31
0.0
  0
LINE
  5
19C
330
1F
100
AcDbEntity
  8
0
  6
Continuous
 62
     7
370
    15
100
AcDbLine
 10
48.4600058618
 20
136.0952286049
 30
0.0
 11
46.4350058617
 21
136.0952286049
 31
0.0
  0
LINE
  5
19D
330
1F
100
AcDbEntity
  8
0
  6
Continuous
 62
     7
370
    15
100
AcDbLine
 10
46.4350058617
 20
136.0952286049
 30
0.0
 11
46.4350058617
 21
138.5952286049
 31
0.0
  0
LINE
  5
19E
330
1F
100
AcDbEntity
  8
0
  6
Continuous
 62
     7
370
    15
100
AcDbLine
 10
48.4600058616
 20
138.5952286049
 30
0.0
 11
48.4090313423
 21
138.5952286049
 31
0.0
  0
LINE
  5
19F
330
1F
100
AcDbEntity
  8
0
  6
Continuous
 62
     7
370
    15
100
AcDbLine
 10
46.485980381
 20
138.5952286049
 30
0.0
 11
46.4350058617
 21
138.5952286049
 31
0.0
  0
LINE
  5
1A0
330
1F
100
AcDbEntity
  8
0
  6
Continuous
 62
     7
370
    15
100
AcDbLine
 10
52.5100058617
 20
138.5952286049
 30
0.0
 11
52.5100058617
 21
136.0952286049
 31
0.0
  0
LINE
  5
1A1
330
1F
100
AcDbEntity
  8
0
  6
Continuous
 62
     7
370
    15
100
AcDbLine
 10
52.5100058617
 20
138.5952286049
 30
0.0
 11
52.408056823
 21
138.5952286049
 31
0.0
  0
LINE
  5
1A2
330
1F
100
AcDbEntity
  8
0
  6
Continuous
 62
     7
370
    15
100
AcDbLine
 10
48.5619549003
 20
138.5952286049
 30
0.0
 11
48.4600058616
 21
138.5952286049
 31
0.0
  0
LINE
  5
1A3
330
1F
100
AcDbEntity
  8
0
  6
Continuous
 62
     7
370
    15
100
AcDbLine
 10
52.5100058617
 20
136.0952286049
 30
0.0
 11
48.4600058618
 21
136.0952286049
 31
0.0
  0
LINE
  5
1A4
330
1F
100
AcDbEntity
  8
0
  6
Continuous
 62
     7
370
    15
100
AcDbLine
 10
54.5350058617
 20
138.5952286049
 30
0.0
 11
54.5350058617
 21
136.0952286049
 31
0.0
  0
LINE
  5
1A5
330
1F
100
AcDbEntity
  8
0
  6
Continuous
 62
     7
370
    15
100
AcDbLine
 10
54.5350058617
 20
138.5952286049
 30
0.0
 11
54.4840313423
 21
138.5952286049
 31
0.0
  0
LINE
  5
1A6
330
1F
100
AcDbEntity
  8
0
  6
Continuous
 62
     7
370
    15
100
AcDbLine
 10
52.560980381
 20
138.5952286049
 30
0.0
 11
52.5100058617
 21
138.5952286049
 31
0.0
  0
LINE
  5
1A7
330
1F
100
AcDbEntity
  8
0
  6
Continuous
 62
     7
370
    15
100
AcDbLine
 10
54.5350058617
 20
136.0952286049
 30
0.0
 11
52.5100058617
 21
136.0952286049
 31
0.0
  0
LINE
  5
1A8
330
1F
100
AcDbEntity
  8
0
  6
Continuous
 62
     7
370
    15
100
AcDbLine
 10
49.3100058617
 20
131.0952286049
 30
0.0
 11
48.1350058617
 21
131.0952286049
 31
0.0
  0
LINE
  5
1A9
330
1F
100
AcDbEntity
  8
0
  6
Continuous
 62
     7
370
    15
100
AcDbLine
 10
52.8350058617
 20
131.0952286049
 30
0.0
 11
49.3100058617
 21
131.0952286049
 31
0.0
  0
LINE
  5
1AA
330
1F
100
AcDbEntity
  8
0
  6
Continuous
 62
     7
370
    15
100
AcDbLine
 10
52.4850058617
 20
128.5952286049
 30
0.0
 11
48.4850058617
 21
128.5952286049
 31
0.0
  0
LINE
  5
1AB
330
1F
100
AcDbEntity
  8
0
  6
Continuous
 62
     7
370
    15
100
AcDbLine
 10
52.8350058617
 20
133.5952286049
 30
0.0
 11
49.3100058617
 21
133.5952286049
 31
0.0
  0
LINE
  5
1AC
330
1F
100
AcDbEntity
  8
0
  6
Continuous
 62
     7
370
    15
100
AcDbLine
 10
49.3100058617
 20
133.5952286049
 30
0.0
 11
48.1350058617
 21
133.5952286049
 31
0.0
  0
LINE
  5
1AD
330
1F
100
AcDbEntity
  8
0
  6
Continuous
 62
     7
370
    15
100
AcDbLine
 10
54.4840313423
 20
152.1952286049
 30
0.0
 11
52.560980381
 21
152.1952286049
 31
0.0
  0
LINE
  5
1AE
330
1F
100
AcDbEntity
  8
0
  6
Continuous
 62
     7
370
    15
100
AcDbLine
 10
52.408056823
 20
152.1952286049
 30
0.0
 11
48.5619549003
 21
152.1952286049
 31
0.0
  0
LINE
  5
1AF
330
1F
100
AcDbEntity
  8
0
  6
Continuous
 62
     7
370
    15
100
AcDbLine
 10
48.4090313423
 20
152.1952286049
 30
0.0
 11
46.485980381
 21
152.1952286049
 31
0.0
  0
LINE
  5
1B0
330
1F
100
AcDbEntity
  8
0
  6
Continuous
 62
     7
370
    15
100
AcDbLine
 10
54.4850058617
 20
151.3952286049
 30
0.0
 11
53.9491074768
 21
151.3952286049
 31
0.0
  0
LINE
  5
1B1
330
1F
100
AcDbEntity
  8
0
  6
Continuous
 62
     7
370
    15
100
AcDbLine
 10
47.0209042465
 20
151.3952286049
 30
0.0
 11
46.4850058617
 21
151.3952286049
 31
0.0
  0
LINE
  5
1B2
330
1F
100
AcDbEntity
  8
0
  6
Continuous
 62
     7
370
    15
100
AcDbLine
 10
47.0209042465
 20
139.3952286049
 30
0.0
 11
46.4850058617
 21
139.3952286049
 31
0.0
  0
LINE
  5
1B3
330
1F
100
AcDbEntity
  8
0
  6
Continuous
 62
     7
370
    15
100
AcDbLine
 10
54.4850058617
 20
139.3952286049
 30
0.0
 11
53.9491074768
 21
139.3952286049
 31
0.0
  0
LINE
  5
1B4
330
1F
100
AcDbEntity
  8
0
  6
Continuous
 62
     7
370
    15
100
AcDbLine
 10
47.519972247
 20
138.5952286049
 30
0.0
 11
46.485980381
 21
138.5952286049
 31
0.0
  0
LINE
  5
1B5
330
1F
100
AcDbEntity
  8
0
  6
Continuous
 62
     7
370
    15
100
AcDbLine
 10
54.4840313423
 20
138.5952286049
 30
0.0
 11
52.560980381
 21
138.5952286049
 31
0.0
  0
LINE
  5
1B6
330
1F
100
AcDbEntity
  8
0
  6
Continuous
 62
     7
370
    15
100
AcDbLine
 10
52.408056823
 20
138.5952286049
 30
0.0
 11
48.5619549003
 21
138.5952286049
 31
0.0
  0
LINE
  5
1B7
330
1F
100
AcDbEntity
  8
0
  6
Continuous
 62
     7
370
    15
100
AcDbLine
 10
48.4090313423
 20
138.5952286049
 30
0.0
 11
47.519972247
 21
138.5952286049
 31
0.0
  0
DIMENSION
  5
1B8
330
1F
100
AcDbEntity
  8
0
  6
Continuous
 62
     7
370
     0
100
AcDbDimension
  2
_D_7
 10
62.4850058617
 20
164.015930484
 30
0.0
 11
50.4850058617
 21
164.015930484
 31
0.0
 70
   160
  1
%%c<>
 71
     2
 42
-1.0
  3
SLDDIMSTYLE1
100
AcDbAlignedDimension
 13
38.4850058617
 23
145.3952286049
 33
0.0
 14
62.4850058617
 24
145.3952286049
 34
0.0
100
AcDbRotatedDimension
  0
DIMENSION
  5
1C3
330
1F
100
AcDbEntity
  8
0
  6
Continuous
 62
     7
370
     0
100
AcDbDimension
  2
_D_8
 10
48.8296752301
 20
144.1029900433
 30
0.0
 11
71.6597936097
 21
161.9253890288
 31
0.0
 70
   163
  1
M5
 71
     1
 42
-1.0
  3
SLDDIMSTYLE3
100
AcDbDiametricDimension
 15
52.1403364932
 25
146.6874671666
 35
0.0
 40
0.0
  0
INSERT
  5
1D6
330
1F
100
AcDbEntity
  8
0
  6
Continuous
 62
     7
370
     0
100
AcDbBlockReference
  2
SW_CENTERMARKSYMBOL_0
 10
50.4850058617
 20
145.3952286049
 30
0.0
  0
ENDSEC
  0
SECTION
  2
OBJECTS
  0
DICTIONARY
  5
C
330
0
100
AcDbDictionary
281
     1
  3
ACAD_GROUP
350
D
  3
ACAD_LAYOUT
350
1A
  3
ACAD_MLINESTYLE
350
17
  3
ACAD_PLOTSETTINGS
350
19
  3
ACAD_PLOTSTYLENAME
350
E
  0
DICTIONARY
  5
D
102
{ACAD_REACTORS
330
C
102
}
330
C
100
AcDbDictionary
281
     1
  0
DICTIONARY
  5
1A
102
{ACAD_REACTORS
330
C
102
}
330
C
100
AcDbDictionary
281
     1
  3
Layout1
350
1E
  3
Layout2
350
26
  3
Model
350
22
  0
DICTIONARY
  5
17
102
{ACAD_REACTORS
330
C
102
}
330
C
100
AcDbDictionary
281
     1
  3
Standard
350
18
  0
DICTIONARY
  5
19
102
{ACAD_REACTORS
330
C
102
}
330
C
100
AcDbDictionary
281
     1
  0
ACDBDICTIONARYWDFLT
  5
E
102
{ACAD_REACTORS
330
C
102
}
330
C
100
AcDbDictionary
281
     1
  3
Normal
350
F
100
AcDbDictionaryWithDefault
340
F
  0
LAYOUT
  5
1E
102
{ACAD_REACTORS
330
1A
102
}
330
1A
100
AcDbPlotSettings
  1

  2
none_device
  4

  6

 40
0.0
 41
0.0
 42
0.0
 43
0.0
 44
0.0
 45
0.0
 46
0.0
 47
0.0
 48
0.0
 49
0.0
140
0.0
141
0.0
142
1.0
143
1.0
 70
   688
 72
     0
 73
     0
 74
     5
  7

 75
    16
147
1.0
148
0.0
149
0.0
100
AcDbLayout
  1
Layout1
 70
     1
 71
     1
 10
0.0
 20
0.0
 11
420.0
 21
297.0
 12
0.0
 22
0.0
 32
0.0
 14
1.0000000000E+20
 24
1.0000000000E+20
 34
1.0000000000E+20
 15
-1.0000000000E+20
 25
-1.0000000000E+20
 35
-1.0000000000E+20
146
0.0
 13
0.0
 23
0.0
 33
0.0
 16
1.0
 26
0.0
 36
0.0
 17
0.0
 27
1.0
 37
0.0
 76
     0
330
1B
  0
LAYOUT
  5
26
102
{ACAD_REACTORS
330
1A
102
}
330
1A
100
AcDbPlotSettings
  1

  2
none_device
  4

  6

 40
0.0
 41
0.0
 42
0.0
 43
0.0
 44
0.0
 45
0.0
 46
0.0
 47
0.0
 48
0.0
 49
0.0
140
0.0
141
0.0
142
1.0
143
1.0
 70
   688
 72
     0
 73
     0
 74
     5
  7

 75
    16
147
1.0
148
0.0
149
0.0
100
AcDbLayout
  1
Layout2
 70
     1
 71
     2
 10
0.0
 20
0.0
 11
0.0
 21
0.0
 12
0.0
 22
0.0
 32
0.0
 14
0.0
 24
0.0
 34
0.0
 15
0.0
 25
0.0
 35
0.0
146
0.0
 13
0.0
 23
0.0
 33
0.0
 16
1.0
 26
0.0
 36
0.0
 17
0.0
 27
1.0
 37
0.0
 76
     0
330
23
  0
LAYOUT
  5
22
102
{ACAD_REACTORS
330
1A
102
}
330
1A
100
AcDbPlotSettings
  1

  2
none_device
  4

  6

 40
0.0
 41
0.0
 42
0.0
 43
0.0
 44
0.0
 45
0.0
 46
0.0
 47
0.0
 48
0.0
 49
0.0
140
0.0
141
0.0
142
1.0
143
1.0
 70
  1712
 72
     0
 73
     0
 74
     0
  7

 75
     0
147
1.0
148
0.0
149
0.0
100
AcDbLayout
  1
Model
 70
     1
 71
     0
 10
0.0
 20
0.0
 11
210.0
 21
297.0
 12
0.0
 22
0.0
 32
0.0
 14
0.0
 24
0.0
 34
0.0
 15
210.0
 25
297.0
 35
0.0
146
0.0
 13
0.0
 23
0.0
 33
0.0
 16
1.0
 26
0.0
 36
0.0
 17
0.0
 27
1.0
 37
0.0
 76
     0
330
1F
331
29
  0
MLINESTYLE
  5
18
102
{ACAD_REACTORS
330
17
102
}
330
17
100
AcDbMlineStyle
  2
Standard
 70
     0
  3

 62
   256
 51
90.0
 52
90.0
 71
     2
 49
0.5
 62
   256
  6
BYLAYER
 49
-0.5
 62
   256
  6
BYLAYER
  0
ACDBPLACEHOLDER
  5
F
102
{ACAD_REACTORS
330
E
102
}
330
E
  0
ENDSEC
  0
EOF
