  0
SECTION
  2
HEADER
  9
$ACADVER
  1
AC1015
  9
$ACADMAINTVER
 70
     6
  9
$DWGCODEPAGE
  3
DOS932
  9
$INSBASE
 10
0.0
 20
0.0
 30
0.0
  9
$EXTMIN
 10
0.0
 20
0.0
 30
0.0
  9
$EXTMAX
 10
210.0
 20
297.0
 30
0.0
  9
$LIMMIN
 10
0.0
 20
0.0
  9
$LIMMAX
 10
210.0
 20
297.0
  9
$ORTHOMODE
 70
     0
  9
$REGENMODE
 70
     1
  9
$FILLMODE
 70
     1
  9
$QTEXTMODE
 70
     0
  9
$MIRRTEXT
 70
     1
  9
$LTSCALE
 40
1.0
  9
$ATTMODE
 70
     1
  9
$TEXTSIZE
 40
3.5
  9
$TRACEWID
 40
1.0
  9
$TEXTSTYLE
  7
Standard
  9
$CLAYER
  8
0
  9
$CELTYPE
  6
ByLayer
  9
$CECOLOR
 62
   256
  9
$CELTSCALE
 40
1.0
  9
$DISPSILH
 70
     0
  9
$DIMSCALE
 40
1.0
  9
$DIMASZ
 40
2.0
  9
$DIMEXO
 40
1.0
  9
$DIMDLI
 40
3.75
  9
$DIMRND
 40
0.0
  9
$DIMDLE
 40
0.0
  9
$DIMEXE
 40
1.0
  9
$DIMTP
 40
0.0
  9
$DIMTM
 40
0.0
  9
$DIMTXT
 40
3.5
  9
$DIMCEN
 40
2.5
  9
$DIMTSZ
 40
0.0
  9
$DIMTOL
 70
     0
  9
$DIMLIM
 70
     0
  9
$DIMTIH
 70
     1
  9
$DIMTOH
 70
     1
  9
$DIMSE1
 70
     0
  9
$DIMSE2
 70
     0
  9
$DIMTAD
 70
     1
  9
$DIMZIN
 70
     0
  9
$DIMBLK
  1

  9
$DIMASO
 70
     1
  9
$DIMSHO
 70
     1
  9
$DIMPOST
  1

  9
$DIMAPOST
  1

  9
$DIMALT
 70
     0
  9
$DIMALTD
 70
     3
  9
$DIMALTF
 40
0.0393700787
  9
$DIMLFAC
 40
1.0
  9
$DIMTOFL
 70
     1
  9
$DIMTVP
 40
0.0
  9
$DIMTIX
 70
     0
  9
$DIMSOXD
 70
     0
  9
$DIMSAH
 70
     0
  9
$DIMBLK1
  1

  9
$DIMBLK2
  1

  9
$DIMSTYLE
  2
ISO-25
  9
$DIMCLRD
 70
     0
  9
$DIMCLRE
 70
     0
  9
$DIMCLRT
 70
     0
  9
$DIMTFAC
 40
1.0
  9
$DIMGAP
 40
1.524
  9
$DIMJUST
 70
     0
  9
$DIMSD1
 70
     0
  9
$DIMSD2
 70
     0
  9
$DIMTOLJ
 70
     0
  9
$DIMTZIN
 70
     0
  9
$DIMALTZ
 70
     0
  9
$DIMALTTZ
 70
     0
  9
$DIMUPT
 70
     0
  9
$DIMDEC
 70
     2
  9
$DIMTDEC
 70
     2
  9
$DIMALTU
 70
     2
  9
$DIMALTTD
 70
     3
  9
$DIMTXSTY
  7
Standard
  9
$DIMAUNIT
 70
     0
  9
$DIMADEC
 70
     2
  9
$DIMALTRND
 40
0.0
  9
$DIMAZIN
 70
     0
  9
$DIMDSEP
 70
    44
  9
$DIMATFIT
 70
     3
  9
$DIMFRAC
 70
     0
  9
$DIMLDRBLK
  1

  9
$DIMLUNIT
 70
     2
  9
$DIMLWD
 70
    -2
  9
$DIMLWE
 70
    -2
  9
$DIMTMOVE
 70
     0
  9
$LUNITS
 70
     2
  9
$LUPREC
 70
     2
  9
$SKETCHINC
 40
1.0
  9
$FILLETRAD
 40
10.0
  9
$AUNITS
 70
     0
  9
$AUPREC
 70
     2
  9
$MENU
  1
.
  9
$ELEVATION
 40
0.0
  9
$PELEVATION
 40
0.0
  9
$THICKNESS
 40
0.0
  9
$LIMCHECK
 70
     0
  9
$CHAMFERA
 40
10.0
  9
$CHAMFERB
 40
10.0
  9
$CHAMFERC
 40
20.0
  9
$CHAMFERD
 40
0.0
  9
$SKPOLY
 70
     0
  9
$TDCREATE
 40
2456910.643835289
  9
$TDUCREATE
 40
2456910.268835289
  9
$TDUPDATE
 40
2456910.643837095
  9
$TDUUPDATE
 40
2456910.268837095
  9
$TDINDWG
 40
0.0000000116
  9
$TDUSRTIMER
 40
0.0000000116
  9
$USRTIMER
 70
     1
  9
$ANGBASE
 50
0.0
  9
$ANGDIR
 70
     0
  9
$PDMODE
 70
     0
  9
$PDSIZE
 40
-1.0
  9
$PLINEWID
 40
0.0
  9
$SPLFRAME
 70
     0
  9
$SPLINETYPE
 70
     6
  9
$SPLINESEGS
 70
     8
  9
$HANDSEED
  5
205
  9
$SURFTAB1
 70
     6
  9
$SURFTAB2
 70
     6
  9
$SURFTYPE
 70
     6
  9
$SURFU
 70
     6
  9
$SURFV
 70
     6
  9
$UCSBASE
  2

  9
$UCSNAME
  2

  9
$UCSORG
 10
0.0
 20
0.0
 30
0.0
  9
$UCSXDIR
 10
1.0
 20
0.0
 30
0.0
  9
$UCSYDIR
 10
0.0
 20
1.0
 30
0.0
  9
$UCSORTHOREF
  2

  9
$UCSORTHOVIEW
 70
     0
  9
$UCSORGTOP
 10
0.0
 20
0.0
 30
0.0
  9
$UCSORGBOTTOM
 10
0.0
 20
0.0
 30
0.0
  9
$UCSORGLEFT
 10
0.0
 20
0.0
 30
0.0
  9
$UCSORGRIGHT
 10
0.0
 20
0.0
 30
0.0
  9
$UCSORGFRONT
 10
0.0
 20
0.0
 30
0.0
  9
$UCSORGBACK
 10
0.0
 20
0.0
 30
0.0
  9
$PUCSBASE
  2

  9
$PUCSNAME
  2

  9
$PUCSORG
 10
0.0
 20
0.0
 30
0.0
  9
$PUCSXDIR
 10
1.0
 20
0.0
 30
0.0
  9
$PUCSYDIR
 10
0.0
 20
1.0
 30
0.0
  9
$PUCSORTHOREF
  2

  9
$PUCSORTHOVIEW
 70
     0
  9
$PUCSORGTOP
 10
0.0
 20
0.0
 30
0.0
  9
$PUCSORGBOTTOM
 10
0.0
 20
0.0
 30
0.0
  9
$PUCSORGLEFT
 10
0.0
 20
0.0
 30
0.0
  9
$PUCSORGRIGHT
 10
0.0
 20
0.0
 30
0.0
  9
$PUCSORGFRONT
 10
0.0
 20
0.0
 30
0.0
  9
$PUCSORGBACK
 10
0.0
 20
0.0
 30
0.0
  9
$USERI1
 70
     0
  9
$USERI2
 70
     0
  9
$USERI3
 70
     0
  9
$USERI4
 70
     0
  9
$USERI5
 70
     0
  9
$USERR1
 40
0.0
  9
$USERR2
 40
0.0
  9
$USERR3
 40
0.0
  9
$USERR4
 40
0.0
  9
$USERR5
 40
0.0
  9
$WORLDVIEW
 70
     1
  9
$SHADEDGE
 70
     3
  9
$SHADEDIF
 70
    70
  9
$TILEMODE
 70
     1
  9
$MAXACTVP
 70
    64
  9
$PINSBASE
 10
0.0
 20
0.0
 30
0.0
  9
$PLIMCHECK
 70
     0
  9
$PEXTMIN
 10
1.0000000000E+20
 20
1.0000000000E+20
 30
1.0000000000E+20
  9
$PEXTMAX
 10
-1.0000000000E+20
 20
-1.0000000000E+20
 30
-1.0000000000E+20
  9
$PLIMMIN
 10
0.0
 20
0.0
  9
$PLIMMAX
 10
420.0
 20
297.0
  9
$UNITMODE
 70
     0
  9
$VISRETAIN
 70
     1
  9
$PLINEGEN
 70
     0
  9
$PSLTSCALE
 70
     1
  9
$TREEDEPTH
 70
  3020
  9
$CMLSTYLE
  2
Standard
  9
$CMLJUST
 70
     0
  9
$CMLSCALE
 40
20.0
  9
$PROXYGRAPHICS
 70
     1
  9
$MEASUREMENT
 70
     1
  9
$CELWEIGHT
370
    -1
  9
$ENDCAPS
280
     0
  9
$JOINSTYLE
280
     0
  9
$LWDISPLAY
290
     1
  9
$INSUNITS
 70
     4
  9
$HYPERLINKBASE
  1

  9
$STYLESHEET
  1

  9
$XEDIT
290
     1
  9
$CEPSNTYPE
380
     0
  9
$PSTYLEMODE
290
     1
  9
$FINGERPRINTGUID
  2
{3EC05A7C-033B-4C94-AC31-92EE20A8931B}
  9
$VERSIONGUID
  2
{FAEB1C32-E019-11D5-929B-00C0DF256EC4}
  9
$EXTNAMES
290
     1
  9
$PSVPSCALE
 40
0.0
  9
$OLESTARTUP
290
     0
  0
ENDSEC
  0
SECTION
  2
CLASSES
  0
CLASS
  1
ACDBDICTIONARYWDFLT
  2
AcDbDictionaryWithDefault
  3
ObjectDBX Classes
 90
        0
280
     0
281
     0
  0
CLASS
  1
VISUALSTYLE
  2
AcDbVisualStyle
  3
ObjectDBX Classes
 90
     4095
280
     0
281
     0
  0
CLASS
  1
MATERIAL
  2
AcDbMaterial
  3
ObjectDBX Classes
 90
     1153
280
     0
281
     0
  0
CLASS
  1
ACDBPLACEHOLDER
  2
AcDbPlaceHolder
  3
ObjectDBX Classes
 90
        0
280
     0
281
     0
  0
CLASS
  1
LAYOUT
  2
AcDbLayout
  3
ObjectDBX Classes
 90
        0
280
     0
281
     0
  0
ENDSEC
  0
SECTION
  2
TABLES
  0
TABLE
  2
VPORT
  5
8
330
0
100
AcDbSymbolTable
 70
     1
  0
VPORT
  5
29
330
8
100
AcDbSymbolTableRecord
100
AcDbViewportTableRecord
  2
*Active
 70
     0
 10
0.0
 20
0.0
 11
1.0
 21
1.0
 12
105.0
 22
148.5
 13
0.0
 23
0.0
 14
10.0
 24
10.0
 15
10.0
 25
10.0
 16
0.0
 26
0.0
 36
1.0
 17
0.0
 27
0.0
 37
0.0
 40
297.0
 41
0.7070707071
 42
50.0
 43
0.0
 44
0.0
 50
0.0
 51
0.0
 71
     0
 72
  2000
 73
     1
 74
     3
 75
     0
 76
     0
 77
     0
 78
     0
281
     0
 65
     1
110
0.0
120
0.0
130
0.0
111
1.0
121
0.0
131
0.0
112
0.0
122
1.0
132
0.0
 79
     0
146
0.0
  0
ENDTAB
  0
TABLE
  2
LTYPE
  5
5
330
0
100
AcDbSymbolTable
 70
     6
  0
LTYPE
  5
14
330
5
100
AcDbSymbolTableRecord
100
AcDbLinetypeTableRecord
  2
ByBlock
 70
     0
  3

 72
    65
 73
     0
 40
0.0
  0
LTYPE
  5
15
330
5
100
AcDbSymbolTableRecord
100
AcDbLinetypeTableRecord
  2
ByLayer
 70
     0
  3

 72
    65
 73
     0
 40
0.0
  0
LTYPE
  5
16
330
5
100
AcDbSymbolTableRecord
100
AcDbLinetypeTableRecord
  2
Continuous
 70
     0
  3
Solid line
 72
    65
 73
     0
 40
0.0
  0
LTYPE
  5
3F
330
5
100
AcDbSymbolTableRecord
100
AcDbLinetypeTableRecord
  2
HIDDEN
 70
     0
  3
Hidden __ __ __ __ __ __ __ __ __ __ __ __ __ __
 72
    65
 73
     2
 40
1.905
 49
1.27
 74
     0
 49
-0.635
 74
     0
  0
LTYPE
  5
40
330
5
100
AcDbSymbolTableRecord
100
AcDbLinetypeTableRecord
  2
PHANTOM
 70
     0
  3
Phantom ______  __  __  ______  __  __  ______
 72
    65
 73
     6
 40
12.7
 49
6.35
 74
     0
 49
-1.27
 74
     0
 49
1.27
 74
     0
 49
-1.27
 74
     0
 49
1.27
 74
     0
 49
-1.27
 74
     0
  0
LTYPE
  5
41
330
5
100
AcDbSymbolTableRecord
100
AcDbLinetypeTableRecord
  2
CENTER
 70
     0
  3
Center ____ _ ____ _ ____ _ ____ _ ____ _ ____
 72
    65
 73
     4
 40
10.16
 49
6.35
 74
     0
 49
-1.27
 74
     0
 49
1.27
 74
     0
 49
-1.27
 74
     0
  0
LTYPE
  5
42
330
5
100
AcDbSymbolTableRecord
100
AcDbLinetypeTableRecord
  2
CENTERX2
 70
     0
  3
Center (2x) ________  __  ________  __  _____
 72
    65
 73
     4
 40
20.32
 49
12.7
 74
     0
 49
-2.54
 74
     0
 49
2.54
 74
     0
 49
-2.54
 74
     0
  0
LTYPE
  5
43
330
5
100
AcDbSymbolTableRecord
100
AcDbLinetypeTableRecord
  2
DOT2
 70
     0
  3
Dot (.5x) ........................................
 72
    65
 73
     2
 40
0.635
 49
0.0
 74
     0
 49
-0.635
 74
     0
  0
ENDTAB
  0
TABLE
  2
LAYER
  5
2
330
0
100
AcDbSymbolTable
 70
     1
  0
LAYER
  5
10
330
2
100
AcDbSymbolTableRecord
100
AcDbLayerTableRecord
  2
0
 70
     0
 62
     7
  6
Continuous
370
    -3
390
F
  0
ENDTAB
  0
TABLE
  2
STYLE
  5
3
330
0
100
AcDbSymbolTable
 70
     3
  0
STYLE
  5
11
330
3
100
AcDbSymbolTableRecord
100
AcDbTextStyleTableRecord
  2
Standard
 70
     0
 40
0.0
 41
1.0
 50
0.0
 71
     0
 42
3.5
  3
txt
  4
bigfont
  0
STYLE
  5
4C
330
3
100
AcDbSymbolTableRecord
100
AcDbTextStyleTableRecord
  2
SLDTEXTSTYLE0
 70
     0
 40
0.0
 41
0.7
 50
0.0
 71
     0
 42
0.2
  3
TXT
  4
bigfont
  0
STYLE
  5
A8
330
3
100
AcDbSymbolTableRecord
100
AcDbTextStyleTableRecord
  2
SLDTEXTSTYLE1
 70
     0
 40
0.0
 41
0.75
 50
0.0
 71
     0
 42
0.2
  3
TXT
  4
bigfont
  0
ENDTAB
  0
TABLE
  2
VIEW
  5
6
330
0
100
AcDbSymbolTable
 70
     0
  0
ENDTAB
  0
TABLE
  2
UCS
  5
7
330
0
100
AcDbSymbolTable
 70
     0
  0
ENDTAB
  0
TABLE
  2
APPID
  5
9
330
0
100
AcDbSymbolTable
 70
     1
  0
APPID
  5
12
330
9
100
AcDbSymbolTableRecord
100
AcDbRegAppTableRecord
  2
ACAD
 70
     0
  0
ENDTAB
  0
TABLE
  2
DIMSTYLE
  5
A
330
0
100
AcDbSymbolTable
 70
     4
100
AcDbDimStyleTable
  0
DIMSTYLE
105
27
330
A
100
AcDbSymbolTableRecord
100
AcDbDimStyleTableRecord
  2
ISO-25
 70
     0
 41
2.5
 42
0.625
 43
3.75
 44
1.25
 73
     0
 74
     0
 77
     1
 78
     8
140
2.5
141
2.5
143
0.0393700787
147
0.625
171
     3
172
     1
178
     0
271
     2
272
     2
274
     3
278
    44
283
     0
284
     8
340
11
  0
DIMSTYLE
105
AA
330
A
100
AcDbSymbolTableRecord
100
AcDbDimStyleTableRecord
  2
SLDDIMSTYLE0
 70
     0
 41
2.0
 44
0.0
 45
0.000000001
140
0.0
146
2.0
147
0.0
173
     1
178
     0
271
     0
272
     0
276
     2
340
11
  0
DIMSTYLE
105
18B
102
{ACAD_REACTORS
330
18A
330
198
330
1A4
330
1C5
330
1DC
330
1E8
102
}
330
A
100
AcDbSymbolTableRecord
100
AcDbDimStyleTableRecord
  2
SLDDIMSTYLE1
 70
     0
 41
2.0
 44
0.0
 45
0.000000001
 73
     0
 74
     0
 77
     3
 78
    12
 79
     3
140
3.5
147
0.875
172
     1
173
     1
178
     0
271
     1
272
     1
276
     2
284
    12
289
     0
340
A8
  0
DIMSTYLE
105
1B1
102
{ACAD_REACTORS
330
1B0
330
1BB
330
1D2
330
1F5
102
}
330
A
100
AcDbSymbolTableRecord
100
AcDbDimStyleTableRecord
  2
SLDDIMSTYLE2
 70
     0
 41
2.0
 44
0.0
 45
0.000000001
 73
     0
 74
     0
 77
     3
 78
    12
 79
     3
140
3.5
147
0.875
173
     1
178
     0
271
     1
272
     1
276
     2
284
    12
340
A8
  0
ENDTAB
  0
TABLE
  2
BLOCK_RECORD
  5
1
330
0
100
AcDbSymbolTable
 70
    12
  0
BLOCK_RECORD
  5
1F
330
1
100
AcDbSymbolTableRecord
100
AcDbBlockTableRecord
  2
*Model_Space
340
22
  0
BLOCK_RECORD
  5
1B
330
1
100
AcDbSymbolTableRecord
100
AcDbBlockTableRecord
  2
*Paper_Space
340
1E
  0
BLOCK_RECORD
  5
23
330
1
100
AcDbSymbolTableRecord
100
AcDbBlockTableRecord
  2
*Paper_Space0
340
26
  0
BLOCK_RECORD
  5
AC
330
1
100
AcDbSymbolTableRecord
100
AcDbBlockTableRecord
  2
SW_CENTERMARKSYMBOL_0
340
0
102
{BLKREFS
331
B7
102
}
  0
BLOCK_RECORD
  5
18C
330
1
100
AcDbSymbolTableRecord
100
AcDbBlockTableRecord
  2
_D
340
0
  0
BLOCK_RECORD
  5
199
330
1
100
AcDbSymbolTableRecord
100
AcDbBlockTableRecord
  2
_D_1
340
0
  0
BLOCK_RECORD
  5
1A5
330
1
100
AcDbSymbolTableRecord
100
AcDbBlockTableRecord
  2
_D_2
340
0
  0
BLOCK_RECORD
  5
1B2
330
1
100
AcDbSymbolTableRecord
100
AcDbBlockTableRecord
  2
_D_3
340
0
  0
BLOCK_RECORD
  5
1BC
330
1
100
AcDbSymbolTableRecord
100
AcDbBlockTableRecord
  2
_D_4
340
0
  0
BLOCK_RECORD
  5
1C6
330
1
100
AcDbSymbolTableRecord
100
AcDbBlockTableRecord
  2
_D_5
340
0
  0
BLOCK_RECORD
  5
1D3
330
1
100
AcDbSymbolTableRecord
100
AcDbBlockTableRecord
  2
_D_6
340
0
  0
BLOCK_RECORD
  5
1DD
330
1
100
AcDbSymbolTableRecord
100
AcDbBlockTableRecord
  2
_D_7
340
0
  0
BLOCK_RECORD
  5
1E9
330
1
100
AcDbSymbolTableRecord
100
AcDbBlockTableRecord
  2
_D_8
340
0
  0
BLOCK_RECORD
  5
1F6
330
1
100
AcDbSymbolTableRecord
100
AcDbBlockTableRecord
  2
_D_9
340
0
  0
ENDTAB
  0
ENDSEC
  0
SECTION
  2
BLOCKS
  0
BLOCK
  5
20
330
1F
100
AcDbEntity
  8
0
100
AcDbBlockBegin
  2
*Model_Space
 70
     0
 10
0.0
 20
0.0
 30
0.0
  3
*Model_Space
  1

  0
ENDBLK
  5
21
330
1F
100
AcDbEntity
  8
0
100
AcDbBlockEnd
  0
BLOCK
  5
1C
330
1B
100
AcDbEntity
 67
     1
  8
0
100
AcDbBlockBegin
  2
*Paper_Space
 70
     0
 10
0.0
 20
0.0
 30
0.0
  3
*Paper_Space
  1

  0
ENDBLK
  5
1D
330
1B
100
AcDbEntity
 67
     1
  8
0
100
AcDbBlockEnd
  0
BLOCK
  5
24
330
23
100
AcDbEntity
  8
0
100
AcDbBlockBegin
  2
*Paper_Space0
 70
     0
 10
0.0
 20
0.0
 30
0.0
  3
*Paper_Space0
  1

  0
ENDBLK
  5
25
330
23
100
AcDbEntity
  8
0
100
AcDbBlockEnd
  0
BLOCK
  5
AD
330
AC
100
AcDbEntity
  8
0
100
AcDbBlockBegin
  2
SW_CENTERMARKSYMBOL_0
 70
     0
 10
0.0
 20
0.0
 30
0.0
  3
SW_CENTERMARKSYMBOL_0
  1

  0
LINE
  5
AF
330
AC
100
AcDbEntity
  8
0
  6
Continuous
 62
     0
370
     0
100
AcDbLine
 10
0.0
 20
0.0
 30
0.0
 11
0.0
 21
2.5
 31
0.0
  0
LINE
  5
B0
330
AC
100
AcDbEntity
  8
0
  6
Continuous
 62
     0
370
     0
100
AcDbLine
 10
0.0
 20
0.0
 30
0.0
 11
-2.5
 21
0.0
 31
0.0
  0
LINE
  5
B1
330
AC
100
AcDbEntity
  8
0
  6
Continuous
 62
     0
370
     0
100
AcDbLine
 10
0.0
 20
0.0
 30
0.0
 11
0.0
 21
-2.5
 31
0.0
  0
LINE
  5
B2
330
AC
100
AcDbEntity
  8
0
  6
Continuous
 62
     0
370
     0
100
AcDbLine
 10
0.0
 20
0.0
 30
0.0
 11
2.5
 21
0.0
 31
0.0
  0
LINE
  5
B3
330
AC
100
AcDbEntity
  8
0
  6
Continuous
 62
     0
370
     0
100
AcDbLine
 10
0.0
 20
5.0
 30
0.0
 11
0.0
 21
6.0
 31
0.0
  0
LINE
  5
B4
330
AC
100
AcDbEntity
  8
0
  6
Continuous
 62
     0
370
     0
100
AcDbLine
 10
-5.0
 20
0.0
 30
0.0
 11
-6.0
 21
0.0
 31
0.0
  0
LINE
  5
B5
330
AC
100
AcDbEntity
  8
0
  6
Continuous
 62
     0
370
     0
100
AcDbLine
 10
0.0
 20
-5.0
 30
0.0
 11
0.0
 21
-6.0
 31
0.0
  0
LINE
  5
B6
330
AC
100
AcDbEntity
  8
0
  6
Continuous
 62
     0
370
     0
100
AcDbLine
 10
5.0
 20
0.0
 30
0.0
 11
6.0
 21
0.0
 31
0.0
  0
ENDBLK
  5
AE
330
AC
100
AcDbEntity
  8
0
100
AcDbBlockEnd
  0
BLOCK
  5
18D
330
18C
100
AcDbEntity
  8
0
100
AcDbBlockBegin
  2
_D
 70
     0
 10
0.0
 20
0.0
 30
0.0
  3
_D
  1

  0
SOLID
  5
18F
330
18C
100
AcDbEntity
  8
0
  6
Continuous
 62
     7
370
     0
100
AcDbTrace
 10
96.5752209977
 20
138.946003154
 30
0.0
 11
97.3252209977
 21
140.946003154
 31
0.0
 12
95.8252209977
 22
140.946003154
 32
0.0
 13
95.8252209977
 23
140.946003154
 33
0.0
  0
SOLID
  5
190
330
18C
100
AcDbEntity
  8
0
  6
Continuous
 62
     7
370
     0
100
AcDbTrace
 10
96.5752209977
 20
131.946003154
 30
0.0
 11
95.8252209977
 21
129.946003154
 31
0.0
 12
97.3252209977
 22
129.946003154
 32
0.0
 13
97.3252209977
 23
129.946003154
 33
0.0
  0
LINE
  5
191
330
18C
100
AcDbEntity
  8
0
  6
Continuous
 62
     7
370
     0
100
AcDbLine
 10
105.5752209977
 20
138.946003154
 30
0.0
 11
95.5752209977
 21
138.946003154
 31
0.0
  0
LINE
  5
192
330
18C
100
AcDbEntity
  8
0
  6
Continuous
 62
     7
370
     0
100
AcDbLine
 10
105.5752209977
 20
131.946003154
 30
0.0
 11
95.5752209977
 21
131.946003154
 31
0.0
  0
LINE
  5
193
330
18C
100
AcDbEntity
  8
0
  6
Continuous
 62
     7
370
     0
100
AcDbLine
 10
96.5752209977
 20
138.946003154
 30
0.0
 11
96.5752209977
 21
143.946003154
 31
0.0
  0
LINE
  5
194
330
18C
100
AcDbEntity
  8
0
  6
Continuous
 62
     7
370
     0
100
AcDbLine
 10
96.5752209977
 20
138.946003154
 30
0.0
 11
96.5752209977
 21
131.946003154
 31
0.0
  0
LINE
  5
195
330
18C
100
AcDbEntity
  8
0
  6
Continuous
 62
     7
370
     0
100
AcDbLine
 10
96.5752209977
 20
131.946003154
 30
0.0
 11
96.5752209977
 21
126.946003154
 31
0.0
  0
MTEXT
  5
196
330
18C
100
AcDbEntity
  8
0
  6
Continuous
 62
     7
370
     0
100
AcDbMText
 10
92.0634839085
 20
131.5137287416
 30
0.1
 40
3.5
 41
0.0
 71
     1
 72
     1
  1
%%c
  7
SLDTEXTSTYLE1
 11
-7.044195017643634E-15
 21
1.0
 31
0.0
 73
     1
 44
1.0
  0
MTEXT
  5
197
330
18C
100
AcDbEntity
  8
0
  6
Continuous
 62
     7
370
     0
100
AcDbMText
 10
92.0100117318
 20
136.79216614
 30
0.1
 40
3.5
 41
0.0
 71
     1
 72
     1
  1
7
  7
SLDTEXTSTYLE1
 11
-7.044195017643634E-15
 21
1.0
 31
0.0
 73
     1
 44
1.0
  0
ENDBLK
  5
18E
330
18C
100
AcDbEntity
  8
0
100
AcDbBlockEnd
  0
BLOCK
  5
19A
330
199
100
AcDbEntity
  8
0
100
AcDbBlockBegin
  2
_D_1
 70
     0
 10
0.0
 20
0.0
 30
0.0
  3
_D_1
  1

  0
SOLID
  5
19C
330
199
100
AcDbEntity
  8
0
  6
Continuous
 62
     7
370
     0
100
AcDbTrace
 10
112.0752209977
 20
158.0978118651
 30
0.0
 11
114.0752209977
 21
157.3478118651
 31
0.0
 12
114.0752209977
 22
158.8478118651
 32
0.0
 13
114.0752209977
 23
158.8478118651
 33
0.0
  0
SOLID
  5
19D
330
199
100
AcDbEntity
  8
0
  6
Continuous
 62
     7
370
     0
100
AcDbTrace
 10
106.5752209977
 20
158.0978118651
 30
0.0
 11
104.5752209977
 21
158.8478118651
 31
0.0
 12
104.5752209977
 22
157.3478118651
 32
0.0
 13
104.5752209977
 23
157.3478118651
 33
0.0
  0
LINE
  5
19E
330
199
100
AcDbEntity
  8
0
  6
Continuous
 62
     7
370
     0
100
AcDbLine
 10
112.0752209977
 20
142.446003154
 30
0.0
 11
112.0752209977
 21
159.0978118651
 31
0.0
  0
LINE
  5
19F
330
199
100
AcDbEntity
  8
0
  6
Continuous
 62
     7
370
     0
100
AcDbLine
 10
106.5752209977
 20
139.946003154
 30
0.0
 11
106.5752209977
 21
159.0978118651
 31
0.0
  0
LINE
  5
1A0
330
199
100
AcDbEntity
  8
0
  6
Continuous
 62
     7
370
     0
100
AcDbLine
 10
112.0752209977
 20
158.0978118651
 30
0.0
 11
121.2563824367
 21
158.0978118651
 31
0.0
  0
LINE
  5
1A1
330
199
100
AcDbEntity
  8
0
  6
Continuous
 62
     7
370
     0
100
AcDbLine
 10
112.0752209977
 20
158.0978118651
 30
0.0
 11
106.5752209977
 21
158.0978118651
 31
0.0
  0
LINE
  5
1A2
330
199
100
AcDbEntity
  8
0
  6
Continuous
 62
     7
370
     0
100
AcDbLine
 10
106.5752209977
 20
158.0978118651
 30
0.0
 11
101.5752209977
 21
158.0978118651
 31
0.0
  0
MTEXT
  5
1A3
330
199
100
AcDbEntity
  8
0
  6
Continuous
 62
     7
370
     0
100
AcDbMText
 10
114.7911048021
 20
162.6095487797
 30
0.1
 40
3.5
 41
0.0
 71
     1
 72
     1
  1
5.5
  7
SLDTEXTSTYLE1
 73
     1
 44
1.0
  0
ENDBLK
  5
19B
330
199
100
AcDbEntity
  8
0
100
AcDbBlockEnd
  0
BLOCK
  5
1A6
330
1A5
100
AcDbEntity
  8
0
100
AcDbBlockBegin
  2
_D_2
 70
     0
 10
0.0
 20
0.0
 30
0.0
  3
_D_2
  1

  0
SOLID
  5
1A8
330
1A5
100
AcDbEntity
  8
0
  6
Continuous
 62
     7
370
     0
100
AcDbTrace
 10
126.0752209977
 20
158.0978118651
 30
0.0
 11
124.0752209977
 21
158.8478118651
 31
0.0
 12
124.0752209977
 22
157.3478118651
 32
0.0
 13
124.0752209977
 23
157.3478118651
 33
0.0
  0
SOLID
  5
1A9
330
1A5
100
AcDbEntity
  8
0
  6
Continuous
 62
     7
370
     0
100
AcDbTrace
 10
131.0752209977
 20
158.0978118651
 30
0.0
 11
133.0752209977
 21
157.3478118651
 31
0.0
 12
133.0752209977
 22
158.8478118651
 32
0.0
 13
133.0752209977
 23
158.8478118651
 33
0.0
  0
LINE
  5
1AA
330
1A5
100
AcDbEntity
  8
0
  6
Continuous
 62
     7
370
     0
100
AcDbLine
 10
126.0752209977
 20
139.696003154
 30
0.0
 11
126.0752209977
 21
159.0978118651
 31
0.0
  0
LINE
  5
1AB
330
1A5
100
AcDbEntity
  8
0
  6
Continuous
 62
     7
370
     0
100
AcDbLine
 10
131.0752209977
 20
143.9515566535
 30
0.0
 11
131.0752209977
 21
159.0978118651
 31
0.0
  0
LINE
  5
1AC
330
1A5
100
AcDbEntity
  8
0
  6
Continuous
 62
     7
370
     0
100
AcDbLine
 10
126.0752209977
 20
158.0978118651
 30
0.0
 11
121.0752209977
 21
158.0978118651
 31
0.0
  0
LINE
  5
1AD
330
1A5
100
AcDbEntity
  8
0
  6
Continuous
 62
     7
370
     0
100
AcDbLine
 10
126.0752209977
 20
158.0978118651
 30
0.0
 11
131.0752209977
 21
158.0978118651
 31
0.0
  0
LINE
  5
1AE
330
1A5
100
AcDbEntity
  8
0
  6
Continuous
 62
     7
370
     0
100
AcDbLine
 10
131.0752209977
 20
158.0978118651
 30
0.0
 11
136.0752209977
 21
158.0978118651
 31
0.0
  0
MTEXT
  5
1AF
330
1A5
100
AcDbEntity
  8
0
  6
Continuous
 62
     7
370
     0
100
AcDbMText
 10
127.2821654009
 20
162.6095487797
 30
0.1
 40
3.5
 41
0.0
 71
     1
 72
     1
  1
5
  7
SLDTEXTSTYLE1
 73
     1
 44
1.0
  0
ENDBLK
  5
1A7
330
1A5
100
AcDbEntity
  8
0
100
AcDbBlockEnd
  0
BLOCK
  5
1B3
330
1B2
100
AcDbEntity
  8
0
100
AcDbBlockBegin
  2
_D_3
 70
     0
 10
0.0
 20
0.0
 30
0.0
  3
_D_3
  1

  0
SOLID
  5
1B5
330
1B2
100
AcDbEntity
  8
0
  6
Continuous
 62
     7
370
     0
100
AcDbTrace
 10
131.0752209977
 20
158.0978118651
 30
0.0
 11
133.0752209977
 21
157.3478118651
 31
0.0
 12
133.0752209977
 22
158.8478118651
 32
0.0
 13
133.0752209977
 23
158.8478118651
 33
0.0
  0
SOLID
  5
1B6
330
1B2
100
AcDbEntity
  8
0
  6
Continuous
 62
     7
370
     0
100
AcDbTrace
 10
143.0752209977
 20
158.0978118651
 30
0.0
 11
141.0752209977
 21
158.8478118651
 31
0.0
 12
141.0752209977
 22
157.3478118651
 32
0.0
 13
141.0752209977
 23
157.3478118651
 33
0.0
  0
LINE
  5
1B7
330
1B2
100
AcDbEntity
  8
0
  6
Continuous
 62
     7
370
     0
100
AcDbLine
 10
131.0752209977
 20
143.9515566535
 30
0.0
 11
131.0752209977
 21
159.0978118651
 31
0.0
  0
LINE
  5
1B8
330
1B2
100
AcDbEntity
  8
0
  6
Continuous
 62
     7
370
     0
100
AcDbLine
 10
143.0752209977
 20
140.446003154
 30
0.0
 11
143.0752209977
 21
159.0978118651
 31
0.0
  0
LINE
  5
1B9
330
1B2
100
AcDbEntity
  8
0
  6
Continuous
 62
     7
370
     0
100
AcDbLine
 10
131.0752209977
 20
158.0978118651
 30
0.0
 11
143.0752209977
 21
158.0978118651
 31
0.0
  0
MTEXT
  5
1BA
330
1B2
100
AcDbEntity
  8
0
  6
Continuous
 62
     7
370
     0
100
AcDbMText
 10
134.4891098041
 20
162.6095487797
 30
0.1
 40
3.5
 41
0.0
 71
     1
 72
     1
  1
12
  7
SLDTEXTSTYLE1
 73
     1
 44
1.0
  0
ENDBLK
  5
1B4
330
1B2
100
AcDbEntity
  8
0
100
AcDbBlockEnd
  0
BLOCK
  5
1BD
330
1BC
100
AcDbEntity
  8
0
100
AcDbBlockBegin
  2
_D_4
 70
     0
 10
0.0
 20
0.0
 30
0.0
  3
_D_4
  1

  0
SOLID
  5
1BF
330
1BC
100
AcDbEntity
  8
0
  6
Continuous
 62
     7
370
     0
100
AcDbTrace
 10
131.0752209977
 20
169.153771925
 30
0.0
 11
133.0752209977
 21
168.403771925
 31
0.0
 12
133.0752209977
 22
169.903771925
 32
0.0
 13
133.0752209977
 23
169.903771925
 33
0.0
  0
SOLID
  5
1C0
330
1BC
100
AcDbEntity
  8
0
  6
Continuous
 62
     7
370
     0
100
AcDbTrace
 10
145.0752209977
 20
169.153771925
 30
0.0
 11
143.0752209977
 21
169.903771925
 31
0.0
 12
143.0752209977
 22
168.403771925
 32
0.0
 13
143.0752209977
 23
168.403771925
 33
0.0
  0
LINE
  5
1C1
330
1BC
100
AcDbEntity
  8
0
  6
Continuous
 62
     7
370
     0
100
AcDbLine
 10
131.0752209977
 20
143.9515566535
 30
0.0
 11
131.0752209977
 21
170.153771925
 31
0.0
  0
LINE
  5
1C2
330
1BC
100
AcDbEntity
  8
0
  6
Continuous
 62
     7
370
     0
100
AcDbLine
 10
145.0752209977
 20
138.446003154
 30
0.0
 11
145.0752209977
 21
170.153771925
 31
0.0
  0
LINE
  5
1C3
330
1BC
100
AcDbEntity
  8
0
  6
Continuous
 62
     7
370
     0
100
AcDbLine
 10
131.0752209977
 20
169.153771925
 30
0.0
 11
145.0752209977
 21
169.153771925
 31
0.0
  0
MTEXT
  5
1C4
330
1BC
100
AcDbEntity
  8
0
  6
Continuous
 62
     7
370
     0
100
AcDbMText
 10
135.4891098041
 20
173.6655088396
 30
0.1
 40
3.5
 41
0.0
 71
     1
 72
     1
  1
14
  7
SLDTEXTSTYLE1
 73
     1
 44
1.0
  0
ENDBLK
  5
1BE
330
1BC
100
AcDbEntity
  8
0
100
AcDbBlockEnd
  0
BLOCK
  5
1C7
330
1C6
100
AcDbEntity
  8
0
100
AcDbBlockBegin
  2
_D_5
 70
     0
 10
0.0
 20
0.0
 30
0.0
  3
_D_5
  1

  0
SOLID
  5
1C9
330
1C6
100
AcDbEntity
  8
0
  6
Continuous
 62
     7
370
     0
100
AcDbTrace
 10
155.0752209977
 20
137.946003154
 30
0.0
 11
155.8252209977
 21
139.946003154
 31
0.0
 12
154.3252209977
 22
139.946003154
 32
0.0
 13
154.3252209977
 23
139.946003154
 33
0.0
  0
SOLID
  5
1CA
330
1C6
100
AcDbEntity
  8
0
  6
Continuous
 62
     7
370
     0
100
AcDbTrace
 10
155.0752209977
 20
132.946003154
 30
0.0
 11
154.3252209977
 21
130.946003154
 31
0.0
 12
155.8252209977
 22
130.946003154
 32
0.0
 13
155.8252209977
 23
130.946003154
 33
0.0
  0
LINE
  5
1CB
330
1C6
100
AcDbEntity
  8
0
  6
Continuous
 62
     7
370
     0
100
AcDbLine
 10
145.5752209977
 20
137.946003154
 30
0.0
 11
156.0752209977
 21
137.946003154
 31
0.0
  0
LINE
  5
1CC
330
1C6
100
AcDbEntity
  8
0
  6
Continuous
 62
     7
370
     0
100
AcDbLine
 10
145.5752209977
 20
132.946003154
 30
0.0
 11
156.0752209977
 21
132.946003154
 31
0.0
  0
LINE
  5
1CD
330
1C6
100
AcDbEntity
  8
0
  6
Continuous
 62
     7
370
     0
100
AcDbLine
 10
155.0752209977
 20
137.946003154
 30
0.0
 11
155.0752209977
 21
142.946003154
 31
0.0
  0
LINE
  5
1CE
330
1C6
100
AcDbEntity
  8
0
  6
Continuous
 62
     7
370
     0
100
AcDbLine
 10
155.0752209977
 20
137.946003154
 30
0.0
 11
155.0752209977
 21
132.946003154
 31
0.0
  0
LINE
  5
1CF
330
1C6
100
AcDbEntity
  8
0
  6
Continuous
 62
     7
370
     0
100
AcDbLine
 10
155.0752209977
 20
132.946003154
 30
0.0
 11
155.0752209977
 21
116.3594542768
 31
0.0
  0
MTEXT
  5
1D0
330
1C6
100
AcDbEntity
  8
0
  6
Continuous
 62
     7
370
     0
100
AcDbMText
 10
150.5634839085
 20
116.3594542768
 30
0.1
 40
3.5
 41
0.0
 71
     1
 72
     1
  1
%%c
  7
SLDTEXTSTYLE1
 11
-7.044195017643634E-15
 21
1.0
 31
0.0
 73
     1
 44
1.0
  0
MTEXT
  5
1D1
330
1C6
100
AcDbEntity
  8
0
  6
Continuous
 62
     7
370
     0
100
AcDbMText
 10
150.5100117318
 20
121.6378916752
 30
0.1
 40
3.5
 41
0.0
 71
     1
 72
     1
  1
5
  7
SLDTEXTSTYLE1
 11
-7.044195017643634E-15
 21
1.0
 31
0.0
 73
     1
 44
1.0
  0
ENDBLK
  5
1C8
330
1C6
100
AcDbEntity
  8
0
100
AcDbBlockEnd
  0
BLOCK
  5
1D4
330
1D3
100
AcDbEntity
  8
0
100
AcDbBlockBegin
  2
_D_6
 70
     0
 10
0.0
 20
0.0
 30
0.0
  3
_D_6
  1

  0
SOLID
  5
1D6
330
1D3
100
AcDbEntity
  8
0
  6
Continuous
 62
     7
370
     0
100
AcDbTrace
 10
164.2582253756
 20
143.5289069226
 30
0.0
 11
163.5082253756
 21
141.5289069226
 31
0.0
 12
165.0082253756
 22
141.5289069226
 32
0.0
 13
165.0082253756
 23
141.5289069226
 33
0.0
  0
SOLID
  5
1D7
330
1D3
100
AcDbEntity
  8
0
  6
Continuous
 62
     7
370
     0
100
AcDbTrace
 10
164.2582253756
 20
127.3630993853
 30
0.0
 11
165.0082253756
 21
129.3630993853
 31
0.0
 12
163.5082253756
 22
129.3630993853
 32
0.0
 13
163.5082253756
 23
129.3630993853
 33
0.0
  0
LINE
  5
1D8
330
1D3
100
AcDbEntity
  8
0
  6
Continuous
 62
     7
370
     0
100
AcDbLine
 10
141.6602531543
 20
143.5289069226
 30
0.0
 11
165.2582253756
 21
143.5289069226
 31
0.0
  0
LINE
  5
1D9
330
1D3
100
AcDbEntity
  8
0
  6
Continuous
 62
     7
370
     0
100
AcDbLine
 10
141.6602531543
 20
127.3630993853
 30
0.0
 11
165.2582253756
 21
127.3630993853
 31
0.0
  0
LINE
  5
1DA
330
1D3
100
AcDbEntity
  8
0
  6
Continuous
 62
     7
370
     0
100
AcDbLine
 10
164.2582253756
 20
143.5289069226
 30
0.0
 11
164.2582253756
 21
127.3630993853
 31
0.0
  0
MTEXT
  5
1DB
330
1D3
100
AcDbEntity
  8
0
  6
Continuous
 62
     7
370
     0
100
AcDbMText
 10
159.746488461
 20
130.9203086235
 30
0.1
 40
3.5
 41
0.0
 71
     1
 72
     1
  1
16.2
  7
SLDTEXTSTYLE1
 11
-7.044195017643634E-15
 21
1.0
 31
0.0
 73
     1
 44
1.0
  0
ENDBLK
  5
1D5
330
1D3
100
AcDbEntity
  8
0
100
AcDbBlockEnd
  0
BLOCK
  5
1DE
330
1DD
100
AcDbEntity
  8
0
100
AcDbBlockBegin
  2
_D_7
 70
     0
 10
0.0
 20
0.0
 30
0.0
  3
_D_7
  1

  0
SOLID
  5
1E0
330
1DD
100
AcDbEntity
  8
0
  6
Continuous
 62
     7
370
     0
100
AcDbTrace
 10
128.0752209977
 20
120.2917286892
 30
0.0
 11
126.0752209977
 21
121.0417286892
 31
0.0
 12
126.0752209977
 22
119.5417286892
 32
0.0
 13
126.0752209977
 23
119.5417286892
 33
0.0
  0
SOLID
  5
1E1
330
1DD
100
AcDbEntity
  8
0
  6
Continuous
 62
     7
370
     0
100
AcDbTrace
 10
131.0752209977
 20
120.2917286892
 30
0.0
 11
133.0752209977
 21
119.5417286892
 31
0.0
 12
133.0752209977
 22
121.0417286892
 32
0.0
 13
133.0752209977
 23
121.0417286892
 33
0.0
  0
LINE
  5
1E2
330
1DD
100
AcDbEntity
  8
0
  6
Continuous
 62
     7
370
     0
100
AcDbLine
 10
128.0752209977
 20
126.9404496545
 30
0.0
 11
128.0752209977
 21
119.2917286892
 31
0.0
  0
LINE
  5
1E3
330
1DD
100
AcDbEntity
  8
0
  6
Continuous
 62
     7
370
     0
100
AcDbLine
 10
131.0752209977
 20
126.9404496545
 30
0.0
 11
131.0752209977
 21
119.2917286892
 31
0.0
  0
LINE
  5
1E4
330
1DD
100
AcDbEntity
  8
0
  6
Continuous
 62
     7
370
     0
100
AcDbLine
 10
128.0752209977
 20
120.2917286892
 30
0.0
 11
123.0752209977
 21
120.2917286892
 31
0.0
  0
LINE
  5
1E5
330
1DD
100
AcDbEntity
  8
0
  6
Continuous
 62
     7
370
     0
100
AcDbLine
 10
128.0752209977
 20
120.2917286892
 30
0.0
 11
131.0752209977
 21
120.2917286892
 31
0.0
  0
LINE
  5
1E6
330
1DD
100
AcDbEntity
  8
0
  6
Continuous
 62
     7
370
     0
100
AcDbLine
 10
131.0752209977
 20
120.2917286892
 30
0.0
 11
137.3870997542
 21
120.2917286892
 31
0.0
  0
MTEXT
  5
1E7
330
1DD
100
AcDbEntity
  8
0
  6
Continuous
 62
     7
370
     0
100
AcDbMText
 10
134.8009885607
 20
124.8034656038
 30
0.1
 40
3.5
 41
0.0
 71
     1
 72
     1
  1
3
  7
SLDTEXTSTYLE1
 73
     1
 44
1.0
  0
ENDBLK
  5
1DF
330
1DD
100
AcDbEntity
  8
0
100
AcDbBlockEnd
  0
BLOCK
  5
1EA
330
1E9
100
AcDbEntity
  8
0
100
AcDbBlockBegin
  2
_D_8
 70
     0
 10
0.0
 20
0.0
 30
0.0
  3
_D_8
  1

  0
SOLID
  5
1EC
330
1E9
100
AcDbEntity
  8
0
  6
Continuous
 62
     7
370
     0
100
AcDbTrace
 10
126.0752209977
 20
106.9093828178
 30
0.0
 11
128.0752209977
 21
106.1593828178
 31
0.0
 12
128.0752209977
 22
107.6593828178
 32
0.0
 13
128.0752209977
 23
107.6593828178
 33
0.0
  0
SOLID
  5
1ED
330
1E9
100
AcDbEntity
  8
0
  6
Continuous
 62
     7
370
     0
100
AcDbTrace
 10
121.0752209977
 20
106.9093828178
 30
0.0
 11
119.0752209977
 21
107.6593828178
 31
0.0
 12
119.0752209977
 22
106.1593828178
 32
0.0
 13
119.0752209977
 23
106.1593828178
 33
0.0
  0
LINE
  5
1EE
330
1E9
100
AcDbEntity
  8
0
  6
Continuous
 62
     7
370
     0
100
AcDbLine
 10
126.0752209977
 20
131.196003154
 30
0.0
 11
126.0752209977
 21
105.9093828178
 31
0.0
  0
LINE
  5
1EF
330
1E9
100
AcDbEntity
  8
0
  6
Continuous
 62
     7
370
     0
100
AcDbLine
 10
121.0752209977
 20
130.696003154
 30
0.0
 11
121.0752209977
 21
105.9093828178
 31
0.0
  0
LINE
  5
1F0
330
1E9
100
AcDbEntity
  8
0
  6
Continuous
 62
     7
370
     0
100
AcDbLine
 10
126.0752209977
 20
106.9093828178
 30
0.0
 11
134.8768499122
 21
106.9093828178
 31
0.0
  0
LINE
  5
1F1
330
1E9
100
AcDbEntity
  8
0
  6
Continuous
 62
     7
370
     0
100
AcDbLine
 10
126.0752209977
 20
106.9093828178
 30
0.0
 11
121.0752209977
 21
106.9093828178
 31
0.0
  0
LINE
  5
1F2
330
1E9
100
AcDbEntity
  8
0
  6
Continuous
 62
     7
370
     0
100
AcDbLine
 10
121.0752209977
 20
106.9093828178
 30
0.0
 11
116.0752209977
 21
106.9093828178
 31
0.0
  0
MTEXT
  5
1F3
330
1E9
100
AcDbEntity
  8
0
  6
Continuous
 62
     7
370
     0
100
AcDbMText
 10
128.8976830804
 20
111.4211197323
 30
0.1
 40
3.5
 41
0.0
 71
     1
 72
     1
  1
5
  7
SLDTEXTSTYLE1
 73
     1
 44
1.0
  0
MTEXT
  5
1F4
330
1E9
100
AcDbEntity
  8
0
  6
Continuous
 62
     7
370
     0
100
AcDbMText
 10
131.4837942739
 20
111.4211197323
 30
0.1
 40
3.5
 41
0.0
 71
     1
 72
     1
  1
st
  7
SLDTEXTSTYLE1
 73
     1
 44
1.0
  0
ENDBLK
  5
1EB
330
1E9
100
AcDbEntity
  8
0
100
AcDbBlockEnd
  0
BLOCK
  5
1F7
330
1F6
100
AcDbEntity
  8
0
100
AcDbBlockBegin
  2
_D_9
 70
     0
 10
0.0
 20
0.0
 30
0.0
  3
_D_9
  1

  0
SOLID
  5
1F9
330
1F6
100
AcDbEntity
  8
0
  6
Continuous
 62
     7
370
     0
100
AcDbTrace
 10
106.5752209977
 20
93.4547774861
 30
0.0
 11
108.5752209977
 21
92.7047774861
 31
0.0
 12
108.5752209977
 22
94.2047774861
 32
0.0
 13
108.5752209977
 23
94.2047774861
 33
0.0
  0
SOLID
  5
1FA
330
1F6
100
AcDbEntity
  8
0
  6
Continuous
 62
     7
370
     0
100
AcDbTrace
 10
145.0752209977
 20
93.4547774861
 30
0.0
 11
143.0752209977
 21
94.2047774861
 31
0.0
 12
143.0752209977
 22
92.7047774861
 32
0.0
 13
143.0752209977
 23
92.7047774861
 33
0.0
  0
LINE
  5
1FB
330
1F6
100
AcDbEntity
  8
0
  6
Continuous
 62
     7
370
     0
100
AcDbLine
 10
106.5752209977
 20
130.946003154
 30
0.0
 11
106.5752209977
 21
92.4547774861
 31
0.0
  0
LINE
  5
1FC
330
1F6
100
AcDbEntity
  8
0
  6
Continuous
 62
     7
370
     0
100
AcDbLine
 10
145.0752209977
 20
132.446003154
 30
0.0
 11
145.0752209977
 21
92.4547774861
 31
0.0
  0
LINE
  5
1FD
330
1F6
100
AcDbEntity
  8
0
  6
Continuous
 62
     7
370
     0
100
AcDbLine
 10
106.5752209977
 20
93.4547774861
 30
0.0
 11
145.0752209977
 21
93.4547774861
 31
0.0
  0
MTEXT
  5
1FE
330
1F6
100
AcDbEntity
  8
0
  6
Continuous
 62
     7
370
     0
100
AcDbMText
 10
121.2995264672
 20
97.9665144007
 30
0.1
 40
3.5
 41
0.0
 71
     1
 72
     1
  1
38.5
  7
SLDTEXTSTYLE1
 73
     1
 44
1.0
  0
ENDBLK
  5
1F8
330
1F6
100
AcDbEntity
  8
0
100
AcDbBlockEnd
  0
ENDSEC
  0
SECTION
  2
ENTITIES
  0
LINE
  5
44
330
1F
100
AcDbEntity
  8
0
  6
Continuous
 62
     7
370
     0
100
AcDbLine
 10
20.2604743903
 20
285.0
 30
0.0
 11
196.7604743903
 21
285.0
 31
0.0
  0
LINE
  5
45
330
1F
100
AcDbEntity
  8
0
  6
Continuous
 62
     7
370
     0
100
AcDbLine
 10
20.2604743903
 20
285.0
 30
0.0
 11
20.2604743903
 21
10.0
 31
0.0
  0
LINE
  5
46
330
1F
100
AcDbEntity
  8
0
  6
Continuous
 62
     7
370
     0
100
AcDbLine
 10
20.2604743903
 20
10.0
 30
0.0
 11
196.7604743903
 21
10.0
 31
0.0
  0
LINE
  5
47
330
1F
100
AcDbEntity
  8
0
  6
Continuous
 62
     7
370
     0
100
AcDbLine
 10
196.7604743903
 20
285.0
 30
0.0
 11
196.7604743903
 21
10.0
 31
0.0
  0
LINE
  5
48
330
1F
100
AcDbEntity
  8
0
  6
Continuous
 62
     7
370
     0
100
AcDbLine
 10
127.0104743903
 20
50.75
 30
0.0
 11
196.7604743903
 21
50.75
 31
0.0
  0
LINE
  5
49
330
1F
100
AcDbEntity
  8
0
  6
Continuous
 62
     7
370
     0
100
AcDbLine
 10
127.0104743903
 20
50.75
 30
0.0
 11
127.0104743903
 21
10.0
 31
0.0
  0
LINE
  5
4A
330
1F
100
AcDbEntity
  8
0
  6
Continuous
 62
     7
370
     0
100
AcDbLine
 10
127.0104743903
 20
22.75
 30
0.0
 11
196.7604743903
 21
22.75
 31
0.0
  0
LINE
  5
4B
330
1F
100
AcDbEntity
  8
0
  6
Continuous
 62
     7
370
     0
100
AcDbLine
 10
127.0104743903
 20
36.75
 30
0.0
 11
196.7604743903
 21
36.75
 31
0.0
  0
MTEXT
  5
4D
330
1F
100
AcDbEntity
  8
0
  6
Continuous
 62
     7
370
     0
100
AcDbMText
 10
161.9153591264
 20
30.4171582345
 30
0.0
 40
4.2333333333
 41
0.0
 71
     2
 72
     1
  1
VFIL1-SS-5
  7
SLDTEXTSTYLE0
 73
     1
 44
1.0
  0
MTEXT
  5
4E
330
1F
100
AcDbEntity
  8
0
  6
Continuous
 62
     7
370
     0
100
AcDbMText
 10
161.3686533351
 20
43.9409718514
 30
0.0
 40
4.2333333333
 41
0.0
 71
     2
 72
     1
  1
吸着金具・ミニ用
  7
SLDTEXTSTYLE0
 73
     1
 44
1.0
  0
MTEXT
  5
4F
330
1F
100
AcDbEntity
  8
0
  6
Continuous
 62
     7
370
     0
100
AcDbMText
 10
162.6530108773
 20
16.8228189052
 30
0.0
 40
4.2333333333
 41
0.0
 71
     2
 72
     1
  1
211029
  7
SLDTEXTSTYLE0
 73
     1
 44
1.0
  0
LINE
  5
50
330
1F
100
AcDbEntity
  8
0
  6
Continuous
 62
     7
370
    15
100
AcDbLine
 10
64.5975117493
 20
123.646003154
 30
0.0
 11
64.9475117493
 21
121.146003154
 31
0.0
  0
LINE
  5
51
330
1F
100
AcDbEntity
  8
0
  6
Continuous
 62
     7
370
    15
100
AcDbLine
 10
68.9475117493
 20
121.146003154
 30
0.0
 11
69.2975117493
 21
123.646003154
 31
0.0
  0
LINE
  5
52
330
1F
100
AcDbEntity
  8
0
  6
Continuous
 62
     7
370
    15
100
AcDbLine
 10
64.5975117493
 20
121.146003154
 30
0.0
 11
64.9475117493
 21
118.646003154
 31
0.0
  0
LINE
  5
53
330
1F
100
AcDbEntity
  8
0
  6
Continuous
 62
     7
370
    15
100
AcDbLine
 10
68.9475117493
 20
118.646003154
 30
0.0
 11
69.2975117493
 21
121.146003154
 31
0.0
  0
LINE
  5
54
330
1F
100
AcDbEntity
  8
0
  6
Continuous
 62
     7
370
    15
100
AcDbLine
 10
69.0475117493
 20
123.646003154
 30
0.0
 11
69.0475117493
 21
126.146003154
 31
0.0
  0
LINE
  5
55
330
1F
100
AcDbEntity
  8
0
  6
Continuous
 62
     7
370
    15
100
AcDbLine
 10
64.8475117493
 20
126.146003154
 30
0.0
 11
64.8475117493
 21
123.646003154
 31
0.0
  0
LINE
  5
56
330
1F
100
AcDbEntity
  8
0
  6
Continuous
 62
     7
370
    15
100
AcDbLine
 10
62.9475117493
 20
142.246003154
 30
0.0
 11
62.9475117493
 21
141.446003154
 31
0.0
  0
LINE
  5
57
330
1F
100
AcDbEntity
  8
0
  6
Continuous
 62
     7
370
    15
100
AcDbLine
 10
70.9475117493
 20
141.446003154
 30
0.0
 11
70.9475117493
 21
142.246003154
 31
0.0
  0
LINE
  5
58
330
1F
100
AcDbEntity
  8
0
  6
Continuous
 62
     7
370
    15
100
AcDbLine
 10
62.9475117493
 20
129.446003154
 30
0.0
 11
62.9475117493
 21
128.646003154
 31
0.0
  0
LINE
  5
59
330
1F
100
AcDbEntity
  8
0
  6
Continuous
 62
     7
370
    15
100
AcDbLine
 10
70.9475117493
 20
128.646003154
 30
0.0
 11
70.9475117493
 21
129.446003154
 31
0.0
  0
LINE
  5
5A
330
1F
100
AcDbEntity
  8
0
  6
Continuous
 62
     7
370
    15
100
AcDbLine
 10
73.4475117493
 20
139.1987799037
 30
0.0
 11
73.4475117493
 21
136.1876729048
 31
0.0
  0
LINE
  5
5B
330
1F
100
AcDbEntity
  8
0
  6
Continuous
 62
     7
370
    15
100
AcDbLine
 10
73.4475117493
 20
134.7043334032
 30
0.0
 11
73.4475117493
 21
131.6932264043
 31
0.0
  0
LINE
  5
5C
330
1F
100
AcDbEntity
  8
0
  6
Continuous
 62
     7
370
    15
100
AcDbLine
 10
73.4475117493
 20
131.6932264043
 30
0.0
 11
70.8398165947
 21
130.1876729048
 31
0.0
  0
LINE
  5
5D
330
1F
100
AcDbEntity
  8
0
  6
Continuous
 62
     7
370
    15
100
AcDbLine
 10
63.0552069039
 20
130.1876729048
 30
0.0
 11
60.4475117493
 21
131.6932264043
 31
0.0
  0
LINE
  5
5E
330
1F
100
AcDbEntity
  8
0
  6
Continuous
 62
     7
370
    15
100
AcDbLine
 10
60.4475117493
 20
131.6932264043
 30
0.0
 11
60.4475117493
 21
134.7043334032
 31
0.0
  0
LINE
  5
5F
330
1F
100
AcDbEntity
  8
0
  6
Continuous
 62
     7
370
    15
100
AcDbLine
 10
60.4475117493
 20
136.1876729048
 30
0.0
 11
60.4475117493
 21
139.1987799037
 31
0.0
  0
LINE
  5
60
330
1F
100
AcDbEntity
  8
0
  6
Continuous
 62
     7
370
    15
100
AcDbLine
 10
60.4475117493
 20
139.1987799037
 30
0.0
 11
63.0552069039
 21
140.7043334032
 31
0.0
  0
LINE
  5
61
330
1F
100
AcDbEntity
  8
0
  6
Continuous
 62
     7
370
    15
100
AcDbLine
 10
70.8398165947
 20
140.7043334032
 30
0.0
 11
73.4475117493
 21
139.1987799037
 31
0.0
  0
LINE
  5
62
330
1F
100
AcDbEntity
  8
0
  6
Continuous
 62
     7
370
    15
100
AcDbLine
 10
64.9225117493
 20
126.146003154
 30
0.0
 11
64.9225117493
 21
128.646003154
 31
0.0
  0
LINE
  5
63
330
1F
100
AcDbEntity
  8
0
  6
Continuous
 62
     7
370
    15
100
AcDbLine
 10
62.8975117493
 20
126.146003154
 30
0.0
 11
64.9225117493
 21
126.146003154
 31
0.0
  0
LINE
  5
64
330
1F
100
AcDbEntity
  8
0
  6
Continuous
 62
     7
370
    15
100
AcDbLine
 10
62.8975117493
 20
128.646003154
 30
0.0
 11
62.8975117493
 21
126.146003154
 31
0.0
  0
LINE
  5
65
330
1F
100
AcDbEntity
  8
0
  6
Continuous
 62
     7
370
    15
100
AcDbLine
 10
62.8975117493
 20
128.646003154
 30
0.0
 11
62.9484862687
 21
128.646003154
 31
0.0
  0
LINE
  5
66
330
1F
100
AcDbEntity
  8
0
  6
Continuous
 62
     7
370
    15
100
AcDbLine
 10
64.87153723
 20
128.646003154
 30
0.0
 11
64.9225117493
 21
128.646003154
 31
0.0
  0
LINE
  5
67
330
1F
100
AcDbEntity
  8
0
  6
Continuous
 62
     7
370
    15
100
AcDbLine
 10
68.9725117493
 20
126.146003154
 30
0.0
 11
68.9725117493
 21
128.646003154
 31
0.0
  0
LINE
  5
68
330
1F
100
AcDbEntity
  8
0
  6
Continuous
 62
     7
370
    15
100
AcDbLine
 10
64.9225117493
 20
128.646003154
 30
0.0
 11
65.024460788
 21
128.646003154
 31
0.0
  0
LINE
  5
69
330
1F
100
AcDbEntity
  8
0
  6
Continuous
 62
     7
370
    15
100
AcDbLine
 10
68.8705627107
 20
128.646003154
 30
0.0
 11
68.9725117493
 21
128.646003154
 31
0.0
  0
LINE
  5
6A
330
1F
100
AcDbEntity
  8
0
  6
Continuous
 62
     7
370
    15
100
AcDbLine
 10
64.9225117493
 20
126.146003154
 30
0.0
 11
68.9725117493
 21
126.146003154
 31
0.0
  0
LINE
  5
6B
330
1F
100
AcDbEntity
  8
0
  6
Continuous
 62
     7
370
    15
100
AcDbLine
 10
70.9975117493
 20
126.146003154
 30
0.0
 11
70.9975117493
 21
128.646003154
 31
0.0
  0
LINE
  5
6C
330
1F
100
AcDbEntity
  8
0
  6
Continuous
 62
     7
370
    15
100
AcDbLine
 10
68.9725117493
 20
128.646003154
 30
0.0
 11
69.0234862686
 21
128.646003154
 31
0.0
  0
LINE
  5
6D
330
1F
100
AcDbEntity
  8
0
  6
Continuous
 62
     7
370
    15
100
AcDbLine
 10
70.94653723
 20
128.646003154
 30
0.0
 11
70.9975117493
 21
128.646003154
 31
0.0
  0
LINE
  5
6E
330
1F
100
AcDbEntity
  8
0
  6
Continuous
 62
     7
370
    15
100
AcDbLine
 10
68.9725117493
 20
126.146003154
 30
0.0
 11
70.9975117493
 21
126.146003154
 31
0.0
  0
LINE
  5
6F
330
1F
100
AcDbEntity
  8
0
  6
Continuous
 62
     7
370
    15
100
AcDbLine
 10
69.2975117493
 20
123.646003154
 30
0.0
 11
64.5975117493
 21
123.646003154
 31
0.0
  0
LINE
  5
70
330
1F
100
AcDbEntity
  8
0
  6
Continuous
 62
     7
370
    15
100
AcDbLine
 10
68.9475117493
 20
118.646003154
 30
0.0
 11
64.9475117493
 21
118.646003154
 31
0.0
  0
LINE
  5
71
330
1F
100
AcDbEntity
  8
0
  6
Continuous
 62
     7
370
    15
100
AcDbLine
 10
69.2975117493
 20
121.146003154
 30
0.0
 11
64.5975117493
 21
121.146003154
 31
0.0
  0
SPLINE
  5
72
330
1F
100
AcDbEntity
  8
0
  6
Continuous
 62
     7
370
    15
100
AcDbSpline
210
0.0
220
0.0
230
1.0
 70
    24
 71
     3
 72
     8
 73
     4
 74
     0
 42
0.00000001
 43
0.00000001
 12
1.0
 22
0.0
 32
0.0
 13
1.0
 23
0.0
 33
0.0
 40
0.0
 40
0.0
 40
0.0
 40
0.0
 40
1.0
 40
1.0
 40
1.0
 40
1.0
 10
73.94751174933167
 20
139.4874550383182
 30
0.0
 10
73.33461318760828
 20
139.8413121879151
 30
0.0
 10
72.70851898783535
 20
140.2027878426921
 30
0.0
 10
72.08209885315941
 20
140.5644516760731
 30
0.0
  0
SPLINE
  5
73
330
1F
100
AcDbEntity
  8
0
  6
Continuous
 62
     7
370
    15
100
AcDbSpline
210
0.0
220
0.0
230
1.0
 70
    24
 71
     3
 72
    10
 73
     6
 74
     0
 42
0.00000001
 43
0.00000001
 12
1.0
 22
0.0
 32
0.0
 13
1.0
 23
0.0
 33
0.0
 40
0.0
 40
0.0
 40
0.0
 40
0.0
 40
0.5
 40
0.5
 40
1.0
 40
1.0
 40
1.0
 40
1.0
 10
73.94751174933165
 20
137.3334617628085
 30
0.0
 10
73.94751174933165
 20
137.698994102665
 30
0.0
 10
73.94751174933165
 20
138.0631674575318
 30
0.0
 10
73.94751174933165
 20
138.7807708240875
 30
0.0
 10
73.94751174933167
 20
139.1356513898315
 30
0.0
 10
73.94751174933167
 20
139.4874550383182
 30
0.0
  0
ARC
  5
74
330
1F
100
AcDbEntity
  8
0
  6
Continuous
 62
     7
370
    15
100
AcDbCircle
 10
66.9475117493
 20
135.446003154
 30
0.0
 40
7.249999999999997
100
AcDbArc
 50
15.0901851794
 51
26.2915552747
  0
ARC
  5
75
330
1F
100
AcDbEntity
  8
0
  6
Continuous
 62
     7
370
    15
100
AcDbCircle
 10
66.9475117493
 20
135.446003154
 30
0.0
 40
7.250000000000016
100
AcDbArc
 50
33.7084447253
 51
44.9098148206
  0
SPLINE
  5
76
330
1F
100
AcDbEntity
  8
0
  6
Continuous
 62
     7
370
    15
100
AcDbSpline
210
0.0
220
0.0
230
1.0
 70
    24
 71
     3
 72
     8
 73
     4
 74
     0
 42
0.00000001
 43
0.00000001
 12
1.0
 22
0.0
 32
0.0
 13
1.0
 23
0.0
 33
0.0
 40
0.0
 40
0.0
 40
0.0
 40
0.0
 40
1.0
 40
1.0
 40
1.0
 40
1.0
 10
59.94751174933163
 20
131.4045512696635
 30
0.0
 10
60.56041031105502
 20
131.0506941200665
 30
0.0
 10
61.18650451082797
 20
130.6892184652895
 30
0.0
 10
61.81292464550392
 20
130.3275546319086
 30
0.0
  0
SPLINE
  5
77
330
1F
100
AcDbEntity
  8
0
  6
Continuous
 62
     7
370
    15
100
AcDbSpline
210
0.0
220
0.0
230
1.0
 70
    24
 71
     3
 72
    10
 73
     6
 74
     0
 42
0.00000001
 43
0.00000001
 12
1.0
 22
0.0
 32
0.0
 13
1.0
 23
0.0
 33
0.0
 40
0.0
 40
0.0
 40
0.0
 40
0.0
 40
0.5
 40
0.5
 40
1.0
 40
1.0
 40
1.0
 40
1.0
 10
59.94751174933165
 20
133.5585445451732
 30
0.0
 10
59.94751174933165
 20
133.1930122053167
 30
0.0
 10
59.94751174933164
 20
132.8288388504498
 30
0.0
 10
59.94751174933164
 20
132.1112354838942
 30
0.0
 10
59.94751174933164
 20
131.7563549181502
 30
0.0
 10
59.94751174933164
 20
131.4045512696635
 30
0.0
  0
ARC
  5
78
330
1F
100
AcDbEntity
  8
0
  6
Continuous
 62
     7
370
    15
100
AcDbCircle
 10
66.9475117493
 20
135.446003154
 30
0.0
 40
7.249999999999994
100
AcDbArc
 50
195.0901851794
 51
206.2915552747
  0
ARC
  5
79
330
1F
100
AcDbEntity
  8
0
  6
Continuous
 62
     7
370
    15
100
AcDbCircle
 10
66.9475117493
 20
135.446003154
 30
0.0
 40
7.250000000000001
100
AcDbArc
 50
213.7084447253
 51
224.9098148206
  0
SPLINE
  5
7A
330
1F
100
AcDbEntity
  8
0
  6
Continuous
 62
     7
370
    15
100
AcDbSpline
210
0.0
220
0.0
230
1.0
 70
    24
 71
     3
 72
    10
 73
     6
 74
     0
 42
0.00000001
 43
0.00000001
 12
1.0
 22
0.0
 32
0.0
 13
1.0
 23
0.0
 33
0.0
 40
0.0
 40
0.0
 40
0.0
 40
0.0
 40
0.5
 40
0.5
 40
1.0
 40
1.0
 40
1.0
 40
1.0
 10
59.94751174933167
 20
139.4874550383182
 30
0.0
 10
59.94751174933166
 20
139.1350349284285
 30
0.0
 10
59.94751174933167
 20
138.7794219153385
 30
0.0
 10
59.94751174933166
 20
138.0600371372429
 30
0.0
 10
59.94751174933166
 20
137.6962420347427
 30
0.0
 10
59.94751174933166
 20
137.3334617628085
 30
0.0
  0
SPLINE
  5
7B
330
1F
100
AcDbEntity
  8
0
  6
Continuous
 62
     7
370
    15
100
AcDbSpline
210
0.0
220
0.0
230
1.0
 70
    24
 71
     3
 72
     8
 73
     4
 74
     0
 42
0.00000001
 43
0.00000001
 12
1.0
 22
0.0
 32
0.0
 13
1.0
 23
0.0
 33
0.0
 40
0.0
 40
0.0
 40
0.0
 40
0.0
 40
1.0
 40
1.0
 40
1.0
 40
1.0
 10
61.81292464550395
 20
140.5644516760731
 30
0.0
 10
61.17819434630986
 20
140.1979899669706
 30
0.0
 10
60.55816185966177
 20
139.840014043898
 30
0.0
 10
59.94751174933166
 20
139.4874550383182
 30
0.0
  0
ARC
  5
7C
330
1F
100
AcDbEntity
  8
0
  6
Continuous
 62
     7
370
    15
100
AcDbCircle
 10
66.9475117493
 20
135.446003154
 30
0.0
 40
7.250000000000001
100
AcDbArc
 50
135.0901851794
 51
146.2915552747
  0
ARC
  5
7D
330
1F
100
AcDbEntity
  8
0
  6
Continuous
 62
     7
370
    15
100
AcDbCircle
 10
66.9475117493
 20
135.446003154
 30
0.0
 40
7.249999999999997
100
AcDbArc
 50
153.7084447253
 51
164.9098148206
  0
SPLINE
  5
7E
330
1F
100
AcDbEntity
  8
0
  6
Continuous
 62
     7
370
    15
100
AcDbSpline
210
0.0
220
0.0
230
1.0
 70
    24
 71
     3
 72
    10
 73
     6
 74
     0
 42
0.00000001
 43
0.00000001
 12
1.0
 22
0.0
 32
0.0
 13
1.0
 23
0.0
 33
0.0
 40
0.0
 40
0.0
 40
0.0
 40
0.0
 40
0.5
 40
0.5
 40
1.0
 40
1.0
 40
1.0
 40
1.0
 10
73.94751174933164
 20
131.4045512696634
 30
0.0
 10
73.94751174933164
 20
131.7569713795532
 30
0.0
 10
73.94751174933164
 20
132.1125843926431
 30
0.0
 10
73.94751174933164
 20
132.8319691707387
 30
0.0
 10
73.94751174933164
 20
133.1957642732389
 30
0.0
 10
73.94751174933164
 20
133.5585445451731
 30
0.0
  0
SPLINE
  5
7F
330
1F
100
AcDbEntity
  8
0
  6
Continuous
 62
     7
370
    15
100
AcDbSpline
210
0.0
220
0.0
230
1.0
 70
    24
 71
     3
 72
     8
 73
     4
 74
     0
 42
0.00000001
 43
0.00000001
 12
1.0
 22
0.0
 32
0.0
 13
1.0
 23
0.0
 33
0.0
 40
0.0
 40
0.0
 40
0.0
 40
0.0
 40
1.0
 40
1.0
 40
1.0
 40
1.0
 10
72.08209885315937
 20
130.3275546319086
 30
0.0
 10
72.71682915235344
 20
130.6940163410111
 30
0.0
 10
73.33686163900155
 20
131.0519922640837
 30
0.0
 10
73.94751174933164
 20
131.4045512696634
 30
0.0
  0
ARC
  5
80
330
1F
100
AcDbEntity
  8
0
  6
Continuous
 62
     7
370
    15
100
AcDbCircle
 10
66.9475117493
 20
135.446003154
 30
0.0
 40
7.250000000000006
100
AcDbArc
 50
315.0901851794
 51
326.2915552747
  0
ARC
  5
81
330
1F
100
AcDbEntity
  8
0
  6
Continuous
 62
     7
370
    15
100
AcDbCircle
 10
66.9475117493
 20
135.446003154
 30
0.0
 40
7.249999999999988
100
AcDbArc
 50
333.7084447253
 51
344.9098148206
  0
LINE
  5
82
330
1F
100
AcDbEntity
  8
0
  6
Continuous
 62
     7
370
    15
100
AcDbLine
 10
73.9475117493
 20
137.3334617628
 30
0.0
 11
73.9475117493
 21
133.5585445452
 31
0.0
  0
LINE
  5
83
330
1F
100
AcDbEntity
  8
0
  6
Continuous
 62
     7
370
    15
100
AcDbLine
 10
72.0820988532
 20
130.3275546319
 30
0.0
 11
70.5552069039
 21
129.446003154
 31
0.0
  0
LINE
  5
84
330
1F
100
AcDbEntity
  8
0
  6
Continuous
 62
     7
370
    15
100
AcDbLine
 10
63.3398165947
 20
129.446003154
 30
0.0
 11
61.8129246455
 21
130.3275546319
 31
0.0
  0
LINE
  5
85
330
1F
100
AcDbEntity
  8
0
  6
Continuous
 62
     7
370
    15
100
AcDbLine
 10
70.5552069039
 20
141.446003154
 30
0.0
 11
72.0820988532
 21
140.5644516761
 31
0.0
  0
LINE
  5
86
330
1F
100
AcDbEntity
  8
0
  6
Continuous
 62
     7
370
    15
100
AcDbLine
 10
61.8129246455
 20
140.5644516761
 30
0.0
 11
63.3398165947
 21
141.446003154
 31
0.0
  0
LINE
  5
87
330
1F
100
AcDbEntity
  8
0
  6
Continuous
 62
     7
370
    15
100
AcDbLine
 10
59.9475117493
 20
133.5585445452
 30
0.0
 11
59.9475117493
 21
137.3334617628
 31
0.0
  0
LINE
  5
88
330
1F
100
AcDbEntity
  8
0
  6
Continuous
 62
     7
370
    15
100
AcDbLine
 10
64.9225117493
 20
142.246003154
 30
0.0
 11
64.9225117493
 21
144.746003154
 31
0.0
  0
LINE
  5
89
330
1F
100
AcDbEntity
  8
0
  6
Continuous
 62
     7
370
    15
100
AcDbLine
 10
62.8975117493
 20
142.246003154
 30
0.0
 11
62.9484862687
 21
142.246003154
 31
0.0
  0
LINE
  5
8A
330
1F
100
AcDbEntity
  8
0
  6
Continuous
 62
     7
370
    15
100
AcDbLine
 10
64.87153723
 20
142.246003154
 30
0.0
 11
64.9225117493
 21
142.246003154
 31
0.0
  0
LINE
  5
8B
330
1F
100
AcDbEntity
  8
0
  6
Continuous
 62
     7
370
    15
100
AcDbLine
 10
62.8975117493
 20
142.246003154
 30
0.0
 11
62.8975117494
 21
144.746003154
 31
0.0
  0
LINE
  5
8C
330
1F
100
AcDbEntity
  8
0
  6
Continuous
 62
     7
370
    15
100
AcDbLine
 10
62.8975117494
 20
144.746003154
 30
0.0
 11
64.9225117493
 21
144.746003154
 31
0.0
  0
LINE
  5
8D
330
1F
100
AcDbEntity
  8
0
  6
Continuous
 62
     7
370
    15
100
AcDbLine
 10
68.9725117493
 20
142.246003154
 30
0.0
 11
68.9725117493
 21
144.746003154
 31
0.0
  0
LINE
  5
8E
330
1F
100
AcDbEntity
  8
0
  6
Continuous
 62
     7
370
    15
100
AcDbLine
 10
64.9225117493
 20
142.246003154
 30
0.0
 11
65.024460788
 21
142.246003154
 31
0.0
  0
LINE
  5
8F
330
1F
100
AcDbEntity
  8
0
  6
Continuous
 62
     7
370
    15
100
AcDbLine
 10
68.8705627107
 20
142.246003154
 30
0.0
 11
68.9725117493
 21
142.246003154
 31
0.0
  0
LINE
  5
90
330
1F
100
AcDbEntity
  8
0
  6
Continuous
 62
     7
370
    15
100
AcDbLine
 10
64.9225117493
 20
144.746003154
 30
0.0
 11
68.9725117493
 21
144.746003154
 31
0.0
  0
LINE
  5
91
330
1F
100
AcDbEntity
  8
0
  6
Continuous
 62
     7
370
    15
100
AcDbLine
 10
70.9975117493
 20
142.246003154
 30
0.0
 11
70.9975117493
 21
144.746003154
 31
0.0
  0
LINE
  5
92
330
1F
100
AcDbEntity
  8
0
  6
Continuous
 62
     7
370
    15
100
AcDbLine
 10
68.9725117493
 20
142.246003154
 30
0.0
 11
69.0234862686
 21
142.246003154
 31
0.0
  0
LINE
  5
93
330
1F
100
AcDbEntity
  8
0
  6
Continuous
 62
     7
370
    15
100
AcDbLine
 10
70.94653723
 20
142.246003154
 30
0.0
 11
70.9975117493
 21
142.246003154
 31
0.0
  0
LINE
  5
94
330
1F
100
AcDbEntity
  8
0
  6
Continuous
 62
     7
370
    15
100
AcDbLine
 10
68.9725117493
 20
144.746003154
 30
0.0
 11
70.9975117493
 21
144.746003154
 31
0.0
  0
CIRCLE
  5
95
330
1F
100
AcDbEntity
  8
0
  6
Continuous
 62
     7
370
    15
100
AcDbCircle
 10
66.9475117493
 20
135.446003154
 30
0.0
 40
3.5
  0
CIRCLE
  5
96
330
1F
100
AcDbEntity
  8
0
  6
Continuous
 62
     7
370
    15
100
AcDbCircle
 10
66.9475117493
 20
135.446003154
 30
0.0
 40
1.25
  0
LINE
  5
97
330
1F
100
AcDbEntity
  8
0
  6
Continuous
 62
     7
370
    15
100
AcDbLine
 10
63.4834101342
 20
129.446003154
 30
0.0
 11
60.0193085191
 21
135.446003154
 31
0.0
  0
LINE
  5
98
330
1F
100
AcDbEntity
  8
0
  6
Continuous
 62
     7
370
    15
100
AcDbLine
 10
60.0193085191
 20
135.446003154
 30
0.0
 11
63.4834101342
 21
141.446003154
 31
0.0
  0
LINE
  5
99
330
1F
100
AcDbEntity
  8
0
  6
Continuous
 62
     7
370
    15
100
AcDbLine
 10
63.4834101342
 20
141.446003154
 30
0.0
 11
70.4116133645
 21
141.446003154
 31
0.0
  0
LINE
  5
9A
330
1F
100
AcDbEntity
  8
0
  6
Continuous
 62
     7
370
    15
100
AcDbLine
 10
70.4116133645
 20
141.446003154
 30
0.0
 11
73.8757149796
 21
135.446003154
 31
0.0
  0
LINE
  5
9B
330
1F
100
AcDbEntity
  8
0
  6
Continuous
 62
     7
370
    15
100
AcDbLine
 10
73.8757149796
 20
135.446003154
 30
0.0
 11
70.4116133645
 21
129.446003154
 31
0.0
  0
LINE
  5
9C
330
1F
100
AcDbEntity
  8
0
  6
Continuous
 62
     7
370
    15
100
AcDbLine
 10
70.4116133645
 20
129.446003154
 30
0.0
 11
63.4834101342
 21
129.446003154
 31
0.0
  0
LINE
  5
9D
330
1F
100
AcDbEntity
  8
0
  6
Continuous
 62
     7
370
    15
100
AcDbLine
 10
70.9475117493
 20
141.446003154
 30
0.0
 11
70.4116133645
 21
141.446003154
 31
0.0
  0
LINE
  5
9E
330
1F
100
AcDbEntity
  8
0
  6
Continuous
 62
     7
370
    15
100
AcDbLine
 10
63.4834101342
 20
141.446003154
 30
0.0
 11
62.9475117493
 21
141.446003154
 31
0.0
  0
LINE
  5
9F
330
1F
100
AcDbEntity
  8
0
  6
Continuous
 62
     7
370
    15
100
AcDbLine
 10
70.94653723
 20
142.246003154
 30
0.0
 11
69.0234862686
 21
142.246003154
 31
0.0
  0
LINE
  5
A0
330
1F
100
AcDbEntity
  8
0
  6
Continuous
 62
     7
370
    15
100
AcDbLine
 10
68.8705627107
 20
142.246003154
 30
0.0
 11
65.024460788
 21
142.246003154
 31
0.0
  0
LINE
  5
A1
330
1F
100
AcDbEntity
  8
0
  6
Continuous
 62
     7
370
    15
100
AcDbLine
 10
64.87153723
 20
142.246003154
 30
0.0
 11
62.9484862687
 21
142.246003154
 31
0.0
  0
LINE
  5
A2
330
1F
100
AcDbEntity
  8
0
  6
Continuous
 62
     7
370
    15
100
AcDbLine
 10
63.4834101342
 20
129.446003154
 30
0.0
 11
62.9475117493
 21
129.446003154
 31
0.0
  0
LINE
  5
A3
330
1F
100
AcDbEntity
  8
0
  6
Continuous
 62
     7
370
    15
100
AcDbLine
 10
70.9475117493
 20
129.446003154
 30
0.0
 11
70.4116133645
 21
129.446003154
 31
0.0
  0
LINE
  5
A4
330
1F
100
AcDbEntity
  8
0
  6
Continuous
 62
     7
370
    15
100
AcDbLine
 10
63.9824781346
 20
128.646003154
 30
0.0
 11
62.9484862687
 21
128.646003154
 31
0.0
  0
LINE
  5
A5
330
1F
100
AcDbEntity
  8
0
  6
Continuous
 62
     7
370
    15
100
AcDbLine
 10
70.94653723
 20
128.646003154
 30
0.0
 11
69.0234862686
 21
128.646003154
 31
0.0
  0
LINE
  5
A6
330
1F
100
AcDbEntity
  8
0
  6
Continuous
 62
     7
370
    15
100
AcDbLine
 10
68.8705627107
 20
128.646003154
 30
0.0
 11
65.024460788
 21
128.646003154
 31
0.0
  0
LINE
  5
A7
330
1F
100
AcDbEntity
  8
0
  6
Continuous
 62
     7
370
    15
100
AcDbLine
 10
64.87153723
 20
128.646003154
 30
0.0
 11
63.9824781346
 21
128.646003154
 31
0.0
  0
MTEXT
  5
A9
330
1F
100
AcDbEntity
  8
0
  6
Continuous
 62
     7
370
     0
100
AcDbMText
 10
44.6668882868
 20
157.3524411974
 30
0.0
 40
3.5
 41
0.0
 71
     1
 72
     1
  1
Ｍ３
  7
SLDTEXTSTYLE1
 73
     1
 44
1.0
  0
LEADER
  5
AB
330
1F
100
AcDbEntity
  8
0
  6
Continuous
 62
     7
370
     0
100
AcDbLeader
  3
SLDDIMSTYLE0
 76
     3
 10
66.3253866719
 20
136.5301896638
 30
0.0
 10
53.0547445255
 20
152.8284671533
 30
0.0
 10
44.5255474453
 20
152.8284671533
 30
0.0
  0
INSERT
  5
B7
330
1F
100
AcDbEntity
  8
0
  6
Continuous
 62
     7
370
     0
100
AcDbBlockReference
  2
SW_CENTERMARKSYMBOL_0
 10
66.9475117493
 20
135.446003154
 30
0.0
  0
LINE
  5
B8
330
1F
100
AcDbEntity
  8
0
  6
Continuous
 62
     7
370
    15
100
AcDbLine
 10
142.0752209977
 20
130.446003154
 30
0.0
 11
143.0752209977
 21
131.446003154
 31
0.0
  0
LINE
  5
B9
330
1F
100
AcDbEntity
  8
0
  6
Continuous
 62
     7
370
    15
100
AcDbLine
 10
143.0752209977
 20
139.446003154
 30
0.0
 11
142.0752209977
 21
140.446003154
 31
0.0
  0
LINE
  5
BA
330
1F
100
AcDbEntity
  8
0
  6
Continuous
 62
     7
370
    15
100
AcDbLine
 10
132.5752209977
 20
130.446003154
 30
0.0
 11
135.1411303693
 21
130.446003154
 31
0.0
  0
LINE
  5
BB
330
1F
100
AcDbEntity
  8
0
  6
Continuous
 62
     7
370
    15
100
AcDbLine
 10
141.1411303693
 20
130.446003154
 30
0.0
 11
142.0752209977
 21
130.446003154
 31
0.0
  0
LINE
  5
BC
330
1F
100
AcDbEntity
  8
0
  6
Continuous
 62
     7
370
    15
100
AcDbLine
 10
142.0752209977
 20
140.446003154
 30
0.0
 11
141.1411303693
 21
140.446003154
 31
0.0
  0
LINE
  5
BD
330
1F
100
AcDbEntity
  8
0
  6
Continuous
 62
     7
370
    15
100
AcDbLine
 10
135.1411303693
 20
140.446003154
 30
0.0
 11
132.5752209977
 21
140.446003154
 31
0.0
  0
LINE
  5
BE
330
1F
100
AcDbEntity
  8
0
  6
Continuous
 62
     7
370
    15
100
AcDbLine
 10
131.0752209977
 20
130.946003154
 30
0.0
 11
132.5752209977
 21
130.946003154
 31
0.0
  0
LINE
  5
BF
330
1F
100
AcDbEntity
  8
0
  6
Continuous
 62
     7
370
    15
100
AcDbLine
 10
132.5752209977
 20
139.946003154
 30
0.0
 11
131.0752209977
 21
139.946003154
 31
0.0
  0
LINE
  5
C0
330
1F
100
AcDbEntity
  8
0
  6
Continuous
 62
     7
370
    15
100
AcDbLine
 10
126.5752209977
 20
131.696003154
 30
0.0
 11
128.0752209977
 21
131.696003154
 31
0.0
  0
LINE
  5
C1
330
1F
100
AcDbEntity
  8
0
  6
Continuous
 62
     7
370
    15
100
AcDbLine
 10
128.0752209977
 20
139.196003154
 30
0.0
 11
127.6936368822
 21
139.196003154
 31
0.0
  0
LINE
  5
C2
330
1F
100
AcDbEntity
  8
0
  6
Continuous
 62
     7
370
    15
100
AcDbLine
 10
127.1913908826
 20
139.196003154
 30
0.0
 11
126.5752209977
 21
139.196003154
 31
0.0
  0
LINE
  5
C3
330
1F
100
AcDbEntity
  8
0
  6
Continuous
 62
     7
370
    15
100
AcDbLine
 10
126.5752209977
 20
139.196003154
 30
0.0
 11
126.0752209977
 21
138.696003154
 31
0.0
  0
LINE
  5
C4
330
1F
100
AcDbEntity
  8
0
  6
Continuous
 62
     7
370
    15
100
AcDbLine
 10
126.3499749884
 20
131.9212491633
 30
0.0
 11
126.5752209977
 21
131.696003154
 31
0.0
  0
LINE
  5
C5
330
1F
100
AcDbEntity
  8
0
  6
Continuous
 62
     7
370
    15
100
AcDbLine
 10
143.1752209977
 20
131.946003154
 30
0.0
 11
143.7752209977
 21
131.946003154
 31
0.0
  0
LINE
  5
C6
330
1F
100
AcDbEntity
  8
0
  6
Continuous
 62
     7
370
    15
100
AcDbLine
 10
143.7752209977
 20
138.0289340018
 30
0.0
 11
143.1752209977
 21
138.0289340018
 31
0.0
  0
LINE
  5
C7
330
1F
100
AcDbEntity
  8
0
  6
Continuous
 62
     7
370
    15
100
AcDbLine
 10
113.7252209977
 20
123.646003154
 30
0.0
 11
114.0752209977
 21
121.146003154
 31
0.0
  0
LINE
  5
C8
330
1F
100
AcDbEntity
  8
0
  6
Continuous
 62
     7
370
    15
100
AcDbLine
 10
118.0752209977
 20
121.146003154
 30
0.0
 11
118.4252209977
 21
123.646003154
 31
0.0
  0
LINE
  5
C9
330
1F
100
AcDbEntity
  8
0
  6
Continuous
 62
     7
370
    15
100
AcDbLine
 10
113.7252209977
 20
121.146003154
 30
0.0
 11
114.0752209977
 21
118.646003154
 31
0.0
  0
LINE
  5
CA
330
1F
100
AcDbEntity
  8
0
  6
Continuous
 62
     7
370
    15
100
AcDbLine
 10
118.0752209977
 20
118.646003154
 30
0.0
 11
118.4252209977
 21
121.146003154
 31
0.0
  0
LINE
  5
CB
330
1F
100
AcDbEntity
  8
0
  6
Continuous
 62
     7
370
    15
100
AcDbLine
 10
118.1752209977
 20
123.646003154
 30
0.0
 11
118.1752209977
 21
126.146003154
 31
0.0
  0
LINE
  5
CC
330
1F
100
AcDbEntity
  8
0
  6
Continuous
 62
     7
370
    15
100
AcDbLine
 10
113.9752209977
 20
126.146003154
 30
0.0
 11
113.9752209977
 21
123.646003154
 31
0.0
  0
LINE
  5
CD
330
1F
100
AcDbEntity
  8
0
  6
Continuous
 62
     7
370
    15
100
AcDbLine
 10
135.6220075844
 20
143.5289069226
 30
0.0
 11
135.1411303693
 21
142.696003154
 31
0.0
  0
LINE
  5
CE
330
1F
100
AcDbEntity
  8
0
  6
Continuous
 62
     7
370
    15
100
AcDbLine
 10
138.1411303693
 20
142.696003154
 30
0.0
 11
137.6602531543
 21
143.5289069226
 31
0.0
  0
LINE
  5
CF
330
1F
100
AcDbEntity
  8
0
  6
Continuous
 62
     7
370
    15
100
AcDbLine
 10
135.1411303693
 20
128.196003154
 30
0.0
 11
135.6220075844
 21
127.3630993853
 31
0.0
  0
LINE
  5
D0
330
1F
100
AcDbEntity
  8
0
  6
Continuous
 62
     7
370
    15
100
AcDbLine
 10
137.6602531543
 20
127.3630993853
 30
0.0
 11
138.1411303693
 21
128.196003154
 31
0.0
  0
LINE
  5
D1
330
1F
100
AcDbEntity
  8
0
  6
Continuous
 62
     7
370
    15
100
AcDbLine
 10
138.6220075844
 20
143.5289069226
 30
0.0
 11
138.1411303693
 21
142.696003154
 31
0.0
  0
LINE
  5
D2
330
1F
100
AcDbEntity
  8
0
  6
Continuous
 62
     7
370
    15
100
AcDbLine
 10
141.1411303693
 20
142.696003154
 30
0.0
 11
140.6602531543
 21
143.5289069226
 31
0.0
  0
LINE
  5
D3
330
1F
100
AcDbEntity
  8
0
  6
Continuous
 62
     7
370
    15
100
AcDbLine
 10
138.1411303693
 20
128.196003154
 30
0.0
 11
138.6220075844
 21
127.3630993853
 31
0.0
  0
LINE
  5
D4
330
1F
100
AcDbEntity
  8
0
  6
Continuous
 62
     7
370
    15
100
AcDbLine
 10
140.6602531543
 20
127.3630993853
 30
0.0
 11
141.1411303693
 21
128.196003154
 31
0.0
  0
LINE
  5
D5
330
1F
100
AcDbEntity
  8
0
  6
Continuous
 62
     7
370
    15
100
AcDbLine
 10
120.0752209977
 20
131.696003154
 30
0.0
 11
121.0752209977
 21
131.696003154
 31
0.0
  0
LINE
  5
D6
330
1F
100
AcDbEntity
  8
0
  6
Continuous
 62
     7
370
    15
100
AcDbLine
 10
121.0752209977
 20
139.196003154
 30
0.0
 11
120.0752209977
 21
139.196003154
 31
0.0
  0
LINE
  5
D7
330
1F
100
AcDbEntity
  8
0
  6
Continuous
 62
     7
370
    15
100
AcDbLine
 10
106.5752209977
 20
131.946003154
 30
0.0
 11
108.5752209977
 21
131.946003154
 31
0.0
  0
LINE
  5
D8
330
1F
100
AcDbEntity
  8
0
  6
Continuous
 62
     7
370
    15
100
AcDbLine
 10
108.5752209977
 20
138.946003154
 30
0.0
 11
106.5752209977
 21
138.946003154
 31
0.0
  0
LINE
  5
D9
330
1F
100
AcDbEntity
  8
0
  6
Continuous
 62
     7
370
    15
100
AcDbLine
 10
144.5752209977
 20
132.946003154
 30
0.0
 11
145.0752209977
 21
133.446003154
 31
0.0
  0
LINE
  5
DA
330
1F
100
AcDbEntity
  8
0
  6
Continuous
 62
     7
370
    15
100
AcDbLine
 10
145.0752209977
 20
137.446003154
 30
0.0
 11
144.5752209977
 21
137.946003154
 31
0.0
  0
LINE
  5
DB
330
1F
100
AcDbEntity
  8
0
  6
Continuous
 62
     7
370
    15
100
AcDbLine
 10
143.7752209977
 20
132.946003154
 30
0.0
 11
144.5752209977
 21
132.946003154
 31
0.0
  0
LINE
  5
DC
330
1F
100
AcDbEntity
  8
0
  6
Continuous
 62
     7
370
    15
100
AcDbLine
 10
144.5752209977
 20
137.946003154
 30
0.0
 11
143.7752209977
 21
137.946003154
 31
0.0
  0
LINE
  5
DD
330
1F
100
AcDbEntity
  8
0
  6
Continuous
 62
     7
370
    15
100
AcDbLine
 10
121.0752209977
 20
132.946003154
 30
0.0
 11
121.7389914428
 21
132.946003154
 31
0.0
  0
LINE
  5
DE
330
1F
100
AcDbEntity
  8
0
  6
Continuous
 62
     7
370
    15
100
AcDbLine
 10
122.2377544938
 20
132.946003154
 30
0.0
 11
123.7390427984
 21
132.946003154
 31
0.0
  0
LINE
  5
DF
330
1F
100
AcDbEntity
  8
0
  6
Continuous
 62
     7
370
    15
100
AcDbLine
 10
124.2377897054
 20
132.946003154
 30
0.0
 11
125.7387138248
 21
132.946003154
 31
0.0
  0
LINE
  5
E0
330
1F
100
AcDbEntity
  8
0
  6
Continuous
 62
     7
370
    15
100
AcDbLine
 10
126.0752209977
 20
137.946003154
 30
0.0
 11
125.8367620135
 21
137.946003154
 31
0.0
  0
LINE
  5
E1
330
1F
100
AcDbEntity
  8
0
  6
Continuous
 62
     7
370
    15
100
AcDbLine
 10
125.3379736479
 20
137.946003154
 30
0.0
 11
123.8364687785
 21
137.946003154
 31
0.0
  0
LINE
  5
E2
330
1F
100
AcDbEntity
  8
0
  6
Continuous
 62
     7
370
    15
100
AcDbLine
 10
123.3380061502
 20
137.946003154
 30
0.0
 11
121.836638999
 21
137.946003154
 31
0.0
  0
LINE
  5
E3
330
1F
100
AcDbEntity
  8
0
  6
Continuous
 62
     7
370
    15
100
AcDbLine
 10
121.3376628474
 20
137.946003154
 30
0.0
 11
121.0752209977
 21
137.946003154
 31
0.0
  0
LINE
  5
E4
330
1F
100
AcDbEntity
  8
0
  6
Continuous
 62
     7
370
    15
100
AcDbLine
 10
108.5752209977
 20
132.946003154
 30
0.0
 11
112.0752209977
 21
132.946003154
 31
0.0
  0
LINE
  5
E5
330
1F
100
AcDbEntity
  8
0
  6
Continuous
 62
     7
370
    15
100
AcDbLine
 10
112.0752209977
 20
137.946003154
 30
0.0
 11
108.5752209977
 21
137.946003154
 31
0.0
  0
LINE
  5
E6
330
1F
100
AcDbEntity
  8
0
  6
Continuous
 62
     7
370
    15
100
AcDbLine
 10
143.0752209977
 20
133.946003154
 30
0.0
 11
143.1752209977
 21
133.946003154
 31
0.0
  0
LINE
  5
E7
330
1F
100
AcDbEntity
  8
0
  6
Continuous
 62
     7
370
    15
100
AcDbLine
 10
143.1752209977
 20
136.946003154
 30
0.0
 11
143.0752209977
 21
136.946003154
 31
0.0
  0
SPLINE
  5
E8
330
1F
100
AcDbEntity
  8
0
  6
Continuous
 62
     7
370
    15
100
AcDbSpline
210
0.0
220
0.0
230
1.0
 70
     8
 71
     3
 72
    37
 73
    33
 74
     0
 42
0.00000001
 43
0.00000001
 12
1.0
 22
0.0
 32
0.0
 13
1.0
 23
0.0
 33
0.0
 40
0.0
 40
0.0
 40
0.0
 40
0.0
 40
0.0049801180629985
 40
0.0288350982240781
 40
0.055834648086221
 40
0.0860304712967477
 40
0.1194282247780396
 40
0.156059696354951
 40
0.1952397889771494
 40
0.2335813666481704
 40
0.2705994788866904
 40
0.3062552483316106
 40
0.3405324437991883
 40
0.3841008086648371
 40
0.4251612108009661
 40
0.4635186682823393
 40
0.4991344636982953
 40
0.53304496393258
 40
0.571345555369471
 40
0.6035984257914263
 40
0.6389018094731878
 40
0.6773087591268155
 40
0.7188470859119893
 40
0.7628691297318673
 40
0.8045800064641054
 40
0.8430282151042197
 40
0.8782706496718082
 40
0.9103676670760604
 40
0.9393402938049827
 40
0.9679010950587985
 40
0.9834592975824605
 40
1.0
 40
1.0
 40
1.0
 40
1.0
 10
121.1266764046169
 20
139.506746759566
 30
0.0
 10
121.1259956822717
 20
139.5070895892743
 30
0.0
 10
121.1220542705542
 20
139.5090745880609
 30
0.0
 10
121.1398033612816
 20
139.4639933933623
 30
0.0
 10
121.1562870627595
 20
139.3894238782308
 30
0.0
 10
121.1822834072312
 20
139.2613494187051
 30
0.0
 10
121.2117704992404
 20
139.0774582981137
 30
0.0
 10
121.2456084488036
 20
138.8270998695694
 30
0.0
 10
121.2815389324257
 20
138.516988632792
 30
0.0
 10
121.3176646054571
 20
138.1648401063229
 30
0.0
 10
121.3528094076536
 20
137.7890780441026
 30
0.0
 10
121.3867812478695
 20
137.3991724553452
 30
0.0
 10
121.4229360781014
 20
136.9611109236616
 30
0.0
 10
121.4609144678028
 20
136.4783538582078
 30
0.0
 10
121.500147555542
 20
135.9625138342792
 30
0.0
 10
121.5367932833958
 20
135.4732317695038
 30
0.0
 10
121.5711456466112
 20
135.0140251268663
 30
0.0
 10
121.6054876913372
 20
134.5596679883795
 30
0.0
 10
121.6388283601196
 20
134.128357991562
 30
0.0
 10
121.6726818768591
 20
133.7058707582241
 30
0.0
 10
121.7066353330826
 20
133.3016923602814
 30
0.0
 10
121.7435925737519
 20
132.8891732001604
 30
0.0
 10
121.7834288662773
 20
132.4818009243304
 30
0.0
 10
121.8243368062658
 20
132.1099044598068
 30
0.0
 10
121.8652015563372
 20
131.7930726400872
 30
0.0
 10
121.9052285626716
 20
131.5416234456257
 30
0.0
 10
121.9445202859452
 20
131.3511351511192
 30
0.0
 10
121.9870599480841
 20
131.2083177850603
 30
0.0
 10
122.0281212721271
 20
131.1101522716362
 30
0.0
 10
122.0900475006543
 20
131.0264391779342
 30
0.0
 10
122.1882846864768
 20
130.9620357469214
 30
0.0
 10
122.2576934012224
 20
130.9543891629385
 30
0.0
 10
122.2934600075255
 20
130.9504488456472
 30
0.0
  0
LWPOLYLINE
  5
E9
330
1F
100
AcDbEntity
  8
0
  6
Continuous
 62
     7
370
    15
100
AcDbPolyline
 90
       32
 70
   128
 43
0.0
 10
123.1379720968
 20
139.4983535371
 10
123.1363060365
 20
139.4961174191
 10
123.1455447217
 20
139.4513728938
 10
123.1651413826
 20
139.3548411916
 10
123.1927803278
 20
139.1956163679
 10
123.2266021048
 20
138.9646396887
 10
123.2652430595
 20
138.6546119373
 10
123.3058109781
 20
138.2795495342
 10
123.3438737373
 20
137.8852141492
 10
123.3792511342
 20
137.4861211841
 10
123.4118954392
 20
137.0944151104
 10
123.4417668255
 20
136.7203308602
 10
123.4772278712
 20
136.2618174544
 10
123.5095711536
 20
135.8346392105
 10
123.5441600931
 20
135.3735439405
 10
123.5813193741
 20
134.8794100529
 10
123.6210534613
 20
134.3599190365
 10
123.6633700298
 20
133.8251701489
 10
123.6968332459
 20
133.421420738
 10
123.7318124098
 20
133.0224693934
 10
123.7683482141
 20
132.6360786007
 10
123.8064884249
 20
132.2714265393
 10
123.8578067159
 20
131.8536001765
 10
123.9053798347
 20
131.5491728111
 10
123.9501652112
 20
131.3360469293
 10
123.9828850777
 20
131.2225900843
 10
124.0167054914
 20
131.1378279781
 10
124.0464451648
 20
131.0865053749
 10
124.0980149246
 20
131.0264109005
 10
124.1796244981
 20
130.9717672613
 10
124.293980432
 20
130.947377145
 10
124.293980432
 20
130.947377145
  0
SPLINE
  5
EA
330
1F
100
AcDbEntity
  8
0
  6
Continuous
 62
     7
370
    15
100
AcDbSpline
210
0.0
220
0.0
230
1.0
 70
     8
 71
     3
 72
    42
 73
    38
 74
     0
 42
0.00000001
 43
0.00000001
 12
1.0
 22
0.0
 32
0.0
 13
1.0
 23
0.0
 33
0.0
 40
0.0
 40
0.0
 40
0.0
 40
0.0
 40
0.0103871906613341
 40
0.0260377547023481
 40
0.0581174590455891
 40
0.0912065713568294
 40
0.1252346705803429
 40
0.1599673769236825
 40
0.1947252686525141
 40
0.2294638359215966
 40
0.2642153775645026
 40
0.2989805999558807
 40
0.3337366748367624
 40
0.3682653037303592
 40
0.4100553447619212
 40
0.4459104155011058
 40
0.4758589162472967
 40
0.4947006891550259
 40
0.5159064796064543
 40
0.5417139729341003
 40
0.5721349705104877
 40
0.607169050194395
 40
0.6468001966431318
 40
0.6757775407288165
 40
0.7068006486644826
 40
0.7391456637167341
 40
0.7832122181400544
 40
0.8210926057719731
 40
0.8527412267170792
 40
0.878123703215093
 40
0.8915535186138036
 40
0.9021858499513902
 40
0.9109028016402988
 40
0.92287568362166
 40
0.941637620604347
 40
0.9673322853061534
 40
1.0
 40
1.0
 40
1.0
 40
1.0
 10
125.1259269112043
 20
139.5110887722202
 30
0.0
 10
125.125332897288
 20
139.5105620892418
 30
0.0
 10
125.1238438720889
 20
139.5092418436967
 30
0.0
 10
125.1377211312054
 20
139.4684659081362
 30
0.0
 10
125.1545940487957
 20
139.3954066445063
 30
0.0
 10
125.1826873621266
 20
139.2539116038936
 30
0.0
 10
125.2132292404184
 20
139.0632410016578
 30
0.0
 10
125.2458682982618
 20
138.8230143758893
 30
0.0
 10
125.2787116241708
 20
138.5433531013257
 30
0.0
 10
125.3117787572748
 20
138.226466574313
 30
0.0
 10
125.3449013574804
 20
137.8776565498001
 30
0.0
 10
125.3780719572313
 20
137.5016601079775
 30
0.0
 10
125.4112015644715
 20
137.1039176565585
 30
0.0
 10
125.4466081416537
 20
136.6599625853886
 30
0.0
 10
125.4824220623765
 20
136.1951223718945
 30
0.0
 10
125.5168125527789
 20
135.7396231372225
 30
0.0
 10
125.5438747091945
 20
135.3786923420695
 30
0.0
 10
125.566229648111
 20
135.0809255095689
 30
0.0
 10
125.5872542993282
 20
134.8021054447187
 30
0.0
 10
125.6119713019734
 20
134.477488809039
 30
0.0
 10
125.6411113766397
 20
134.1017752553747
 30
0.0
 10
125.6747036804942
 20
133.6819737314665
 30
0.0
 10
125.7079236496852
 20
133.2869323554213
 30
0.0
 10
125.7399284584924
 20
132.9291607146815
 30
0.0
 10
125.769673386585
 20
132.6182565394601
 30
0.0
 10
125.8043033391586
 20
132.2863346134096
 30
0.0
 10
125.8415405133144
 20
131.97173453532
 30
0.0
 10
125.8794195071683
 20
131.7025718176515
 30
0.0
 10
125.9126243891062
 20
131.5084457149144
 30
0.0
 10
125.9392754287738
 20
131.3822670191453
 30
0.0
 10
125.9607606435427
 20
131.3000569527649
 30
0.0
 10
125.9768903986205
 20
131.2474729300884
 30
0.0
 10
125.9974640502114
 20
131.1937496980196
 30
0.0
 10
126.0312877407414
 20
131.1259243752569
 30
0.0
 10
126.0872713543463
 20
131.0455983684857
 30
0.0
 10
126.1765277955777
 20
130.9646870164908
 30
0.0
 10
126.2507175558084
 20
130.9534296735498
 30
0.0
 10
126.2922444768407
 20
130.9471284968121
 30
0.0
  0
SPLINE
  5
EB
330
1F
100
AcDbEntity
  8
0
  6
Continuous
 62
     7
370
    15
100
AcDbSpline
210
0.0
220
0.0
230
1.0
 70
     8
 71
     3
 72
    22
 73
    18
 74
     0
 42
0.00000001
 43
0.00000001
 12
1.0
 22
0.0
 32
0.0
 13
1.0
 23
0.0
 33
0.0
 40
0.0
 40
0.0
 40
0.0
 40
0.0
 40
0.0244675511585737
 40
0.0614777471437342
 40
0.1280672497341262
 40
0.1845201594980851
 40
0.2473306480204023
 40
0.3172533896607207
 40
0.398029453943265
 40
0.4657973163669198
 40
0.5397066222405474
 40
0.619080738908451
 40
0.6982515467259035
 40
0.7758711779747879
 40
0.8519914198036568
 40
0.9266956475102353
 40
1.0
 40
1.0
 40
1.0
 40
1.0
 10
127.128799312757
 20
139.5028666410861
 30
0.0
 10
127.1278906113402
 20
139.5025300609129
 30
0.0
 10
127.12560738669
 20
139.5016843616174
 30
0.0
 10
127.1402618281801
 20
139.458090709539
 30
0.0
 10
127.1552295269833
 20
139.3913134389961
 30
0.0
 10
127.1794025029918
 20
139.2724827946149
 30
0.0
 10
127.2067246445968
 20
139.1090456455223
 30
0.0
 10
127.237856923767
 20
138.887078795028
 30
0.0
 10
127.2699041422035
 20
138.6204756816515
 30
0.0
 10
127.3026067310656
 20
138.314450738117
 30
0.0
 10
127.3351688399032
 20
137.9808722270182
 30
0.0
 10
127.3694802467212
 20
137.60058061553
 30
0.0
 10
127.4044139035259
 20
137.1876718655206
 30
0.0
 10
127.4389446900015
 20
136.7589125452603
 30
0.0
 10
127.4728533099118
 20
136.3221720495899
 30
0.0
 10
127.5061042885157
 20
135.8836818221675
 30
0.0
 10
127.5280351898322
 20
135.5909732241077
 30
0.0
 10
127.5388969285124
 20
135.4460031539908
 30
0.0
  0
SPLINE
  5
EC
330
1F
100
AcDbEntity
  8
0
  6
Continuous
 62
     7
370
    15
100
AcDbSpline
210
0.0
220
0.0
230
1.0
 70
     8
 71
     3
 72
    14
 73
    10
 74
     0
 42
0.00000001
 43
0.00000001
 12
1.0
 22
0.0
 32
0.0
 13
1.0
 23
0.0
 33
0.0
 40
0.0
 40
0.0
 40
0.0
 40
0.0
 40
0.0846007194208727
 40
0.1675945416694346
 40
0.3313252896363315
 40
0.500019121760503
 40
0.6768936955837546
 40
0.9260015286439872
 40
1.0
 40
1.0
 40
1.0
 40
1.0
 10
127.2927132932896
 20
139.94284679067
 30
0.0
 10
127.2577902173716
 20
139.9391162602772
 30
0.0
 10
127.1886073907688
 20
139.9317260567937
 30
0.0
 10
127.0894929786281
 20
139.8683106960855
 30
0.0
 10
127.0257674275778
 20
139.7821798447026
 30
0.0
 10
126.9845197905344
 20
139.6817396957654
 30
0.0
 10
126.9380267714157
 20
139.5174876503526
 30
0.0
 10
126.9057309498129
 20
139.3600537954945
 30
0.0
 10
126.8866182095939
 20
139.2265731633105
 30
0.0
 10
126.8822409704615
 20
139.1960031539908
 30
0.0
  0
SPLINE
  5
ED
330
1F
100
AcDbEntity
  8
0
  6
Continuous
 62
     7
370
    15
100
AcDbSpline
210
0.0
220
0.0
230
1.0
 70
     8
 71
     3
 72
    18
 73
    14
 74
     0
 42
0.00000001
 43
0.00000001
 12
1.0
 22
0.0
 32
0.0
 13
1.0
 23
0.0
 33
0.0
 40
0.0
 40
0.0
 40
0.0
 40
0.0
 40
0.0299785966576921
 40
0.0642999905160746
 40
0.1471656221178249
 40
0.2464034917967887
 40
0.3528519691169226
 40
0.4662145123618277
 40
0.586633419313979
 40
0.7143149523148351
 40
0.841977362347621
 40
0.961046710945445
 40
1.0
 40
1.0
 40
1.0
 40
1.0
 10
125.2929540304316
 20
139.9459440079157
 30
0.0
 10
125.2688720870323
 20
139.9441443859888
 30
0.0
 10
125.2172196114389
 20
139.9402844430385
 30
0.0
 10
125.13517633702
 20
139.9030459900376
 30
0.0
 10
125.0631616759987
 20
139.8354607043167
 30
0.0
 10
125.0066901118357
 20
139.7305089663648
 30
0.0
 10
124.9543890362315
 20
139.5755775750958
 30
0.0
 10
124.9104533987912
 20
139.3762166421363
 30
0.0
 10
124.8689480548717
 20
139.1246721025583
 30
0.0
 10
124.8288346743032
 20
138.8219366182923
 30
0.0
 10
124.7895513538287
 20
138.4706399495256
 30
0.0
 10
124.7595557886365
 20
138.1736178712436
 30
0.0
 10
124.7430637027042
 20
137.9910154660152
 30
0.0
 10
124.7389983295401
 20
137.9460031539908
 30
0.0
  0
SPLINE
  5
EE
330
1F
100
AcDbEntity
  8
0
  6
Continuous
 62
     7
370
    15
100
AcDbSpline
210
0.0
220
0.0
230
1.0
 70
     8
 71
     3
 72
    10
 73
     6
 74
     0
 42
0.00000001
 43
0.00000001
 12
1.0
 22
0.0
 32
0.0
 13
1.0
 23
0.0
 33
0.0
 40
0.0
 40
0.0
 40
0.0
 40
0.0
 40
0.1784146584726246
 40
0.970380965755684
 40
1.0
 40
1.0
 40
1.0
 40
1.0
 10
124.3379943985072
 20
132.9460031539908
 30
0.0
 10
124.3350008063572
 20
132.9129516337344
 30
0.0
 10
124.3187189331834
 20
132.7331874460788
 30
0.0
 10
124.3019229641408
 20
132.5623372748466
 30
0.0
 10
124.2882690392059
 20
132.4435875275811
 30
0.0
 10
124.2877768005427
 20
132.4393064716117
 30
0.0
  0
SPLINE
  5
EF
330
1F
100
AcDbEntity
  8
0
  6
Continuous
 62
     7
370
    15
100
AcDbSpline
210
0.0
220
0.0
230
1.0
 70
     8
 71
     3
 72
    20
 73
    16
 74
     0
 42
0.00000001
 43
0.00000001
 12
1.0
 22
0.0
 32
0.0
 13
1.0
 23
0.0
 33
0.0
 40
0.0
 40
0.0
 40
0.0
 40
0.0
 40
0.0549791949768532
 40
0.1034059515982799
 40
0.1810543173961478
 40
0.2416068921740859
 40
0.3007962215344141
 40
0.3595954985977022
 40
0.4180450729622228
 40
0.4761925702354887
 40
0.5340929787377273
 40
0.6496595927079516
 40
0.7674608564796065
 40
0.8880558780090007
 40
1.0
 40
1.0
 40
1.0
 40
1.0
 10
123.2932673908769
 20
139.9425944231189
 30
0.0
 10
123.2557099800447
 20
139.9380368842302
 30
0.0
 10
123.1850712628299
 20
139.9294649754213
 30
0.0
 10
123.0859260750057
 20
139.8625699522807
 30
0.0
 10
123.021033995006
 20
139.7701348751085
 30
0.0
 10
122.9955076215613
 20
139.7063171365828
 30
0.0
 10
122.9692883665112
 20
139.630926986702
 30
0.0
 10
122.9467356810505
 20
139.5469515140832
 30
0.0
 10
122.9253714797301
 20
139.4524125883278
 30
0.0
 10
122.9052902538766
 20
139.3481317701998
 30
0.0
 10
122.879620865199
 20
139.1960565406944
 30
0.0
 10
122.8488022625938
 20
138.9802694096037
 30
0.0
 10
122.8115032450864
 20
138.6714094451017
 30
0.0
 10
122.7748588959188
 20
138.3281551063134
 30
0.0
 10
122.7506396961212
 20
138.0701881843039
 30
0.0
 10
122.7389805964289
 20
137.9460031539908
 30
0.0
  0
SPLINE
  5
F0
330
1F
100
AcDbEntity
  8
0
  6
Continuous
 62
     7
370
    15
100
AcDbSpline
210
0.0
220
0.0
230
1.0
 70
     8
 71
     3
 72
     9
 73
     5
 74
     0
 42
0.00000001
 43
0.00000001
 12
1.0
 22
0.0
 32
0.0
 13
1.0
 23
0.0
 33
0.0
 40
0.0
 40
0.0
 40
0.0
 40
0.0
 40
0.3754889661374194
 40
1.0
 40
1.0
 40
1.0
 40
1.0
 10
122.3378963624586
 20
132.9460031539908
 30
0.0
 10
122.3315921566054
 20
132.8777112549528
 30
0.0
 10
122.314802832759
 20
132.6958366722173
 30
0.0
 10
122.2981793361447
 20
132.5414431547741
 30
0.0
 10
122.2877977790878
 20
132.445022699574
 30
0.0
  0
SPLINE
  5
F1
330
1F
100
AcDbEntity
  8
0
  6
Continuous
 62
     7
370
    15
100
AcDbSpline
210
0.0
220
0.0
230
1.0
 70
     8
 71
     3
 72
    16
 73
    12
 74
     0
 42
0.00000001
 43
0.00000001
 12
1.0
 22
0.0
 32
0.0
 13
1.0
 23
0.0
 33
0.0
 40
0.0
 40
0.0
 40
0.0
 40
0.0
 40
0.0939089706309907
 40
0.178241724166072
 40
0.2869436583298269
 40
0.3766129784647118
 40
0.4634318048287243
 40
0.5605849618328477
 40
0.7588121577432946
 40
0.9898439041220558
 40
1.0
 40
1.0
 40
1.0
 40
1.0
 10
121.2921093735213
 20
139.9422702838266
 30
0.0
 10
121.2569705539453
 20
139.9384589749857
 30
0.0
 10
121.1902761397238
 20
139.9312250094277
 30
0.0
 10
121.102811298842
 20
139.8762671525808
 30
0.0
 10
121.0406650122036
 20
139.804686301147
 30
0.0
 10
121.0072864688925
 20
139.7391689600891
 30
0.0
 10
120.9867625455706
 20
139.6863556153913
 30
0.0
 10
120.957940881873
 20
139.5966525009264
 30
0.0
 10
120.9235062995783
 20
139.4456131567216
 30
0.0
 10
120.8960899952789
 20
139.303759016966
 30
0.0
 10
120.8818625629161
 20
139.2003572628821
 30
0.0
 10
120.8812634648611
 20
139.1960031539908
 30
0.0
  0
SPLINE
  5
F2
330
1F
100
AcDbEntity
  8
0
  6
Continuous
 62
     7
370
    15
100
AcDbSpline
210
0.0
220
0.0
230
1.0
 70
     8
 71
     3
 72
     9
 73
     5
 74
     0
 42
0.00000001
 43
0.00000001
 12
1.0
 22
0.0
 32
0.0
 13
1.0
 23
0.0
 33
0.0
 40
0.0
 40
0.0
 40
0.0
 40
0.0
 40
0.4961078752329087
 40
1.0
 40
1.0
 40
1.0
 40
1.0
 10
120.191350806513
 20
131.6960031539908
 30
0.0
 10
120.1841589598875
 20
131.6525078311547
 30
0.0
 10
120.1696624219678
 20
131.5648347160772
 30
0.0
 10
120.1564704714508
 20
131.5107207347934
 30
0.0
 10
120.1498231514749
 20
131.4834531257848
 30
0.0
  0
SPLINE
  5
F3
330
1F
100
AcDbEntity
  8
0
  6
Continuous
 62
     7
370
    15
100
AcDbSpline
210
0.0
220
0.0
230
1.0
 70
     8
 71
     3
 72
     9
 73
     5
 74
     0
 42
0.00000001
 43
0.00000001
 12
1.0
 22
0.0
 32
0.0
 13
1.0
 23
0.0
 33
0.0
 40
0.0
 40
0.0
 40
0.0
 40
0.0
 40
0.7308525299291381
 40
0.9999999999999999
 40
0.9999999999999999
 40
0.9999999999999999
 40
0.9999999999999999
 10
120.6303553092903
 20
131.3527252619027
 30
0.0
 10
120.6457751430984
 20
131.420825097119
 30
0.0
 10
120.666873563336
 20
131.5140037240342
 30
0.0
 10
120.6879029208425
 20
131.657406625784
 30
0.0
 10
120.6935629192126
 20
131.6960031539908
 30
0.0
  0
SPLINE
  5
F4
330
1F
100
AcDbEntity
  8
0
  6
Continuous
 62
     7
370
    15
100
AcDbSpline
210
0.0
220
0.0
230
1.0
 70
     8
 71
     3
 72
    10
 73
     6
 74
     0
 42
0.00000001
 43
0.00000001
 12
1.0
 22
0.0
 32
0.0
 13
1.0
 23
0.0
 33
0.0
 40
0.0
 40
0.0
 40
0.0
 40
0.0
 40
0.151378860433981
 40
0.845828940196339
 40
1.0
 40
1.0
 40
1.0
 40
1.0
 10
121.2377753266488
 20
137.9460031539908
 30
0.0
 10
121.2403159289044
 20
137.9744774150878
 30
0.0
 10
121.2545115365812
 20
138.1335772657371
 30
0.0
 10
121.271196405626
 20
138.2997431416277
 30
0.0
 10
121.2852885206233
 20
138.4260141645995
 30
0.0
 10
121.2878486693194
 20
138.4489541274716
 30
0.0
  0
SPLINE
  5
F5
330
1F
100
AcDbEntity
  8
0
  6
Continuous
 62
     7
370
    15
100
AcDbSpline
210
0.0
220
0.0
230
1.0
 70
     8
 71
     3
 72
    17
 73
    13
 74
     0
 42
0.00000001
 43
0.00000001
 12
1.0
 22
0.0
 32
0.0
 13
1.0
 23
0.0
 33
0.0
 40
0.0
 40
0.0
 40
0.0
 40
0.0
 40
0.0407278841341873
 40
0.0829611158392536
 40
0.1732108329990907
 40
0.270139029453489
 40
0.3696211244016769
 40
0.506636385981822
 40
0.6493673267561012
 40
0.7952706302671192
 40
0.9040934706866706
 40
1.0
 40
1.0
 40
1.0
 40
1.0
 10
122.2822477928619
 20
130.950450877562
 30
0.0
 10
122.3132598149168
 20
130.9534121746143
 30
0.0
 10
122.3764300976064
 20
130.9594442215281
 30
0.0
 10
122.470368291553
 20
131.0130348656957
 30
0.0
 10
122.5368692753071
 20
131.091744982172
 30
0.0
 10
122.5847620258009
 20
131.1967502153729
 30
0.0
 10
122.6351289834952
 20
131.3617658727714
 30
0.0
 10
122.6807114304651
 20
131.5940900639682
 30
0.0
 10
122.7269189459438
 20
131.9108025538843
 30
0.0
 10
122.7684797101094
 20
132.2614118238293
 30
0.0
 10
122.8052440533058
 20
132.6115060859255
 30
0.0
 10
122.8266233744334
 20
132.8392944975549
 30
0.0
 10
122.8366386276973
 20
132.9460031539908
 30
0.0
  0
SPLINE
  5
F6
330
1F
100
AcDbEntity
  8
0
  6
Continuous
 62
     7
370
    15
100
AcDbSpline
210
0.0
220
0.0
230
1.0
 70
     8
 71
     3
 72
     9
 73
     5
 74
     0
 42
0.00000001
 43
0.00000001
 12
1.0
 22
0.0
 32
0.0
 13
1.0
 23
0.0
 33
0.0
 40
0.0
 40
0.0
 40
0.0
 40
0.0
 40
0.462613279958056
 40
1.0
 40
1.0
 40
1.0
 40
1.0
 10
123.2379763103424
 20
137.9460031539908
 30
0.0
 10
123.2456255030131
 20
138.0293852683946
 30
0.0
 10
123.2621602481277
 20
138.2096267746726
 30
0.0
 10
123.2786253595609
 20
138.3653834491094
 30
0.0
 10
123.2874734917892
 20
138.4490850175096
 30
0.0
  0
SPLINE
  5
F7
330
1F
100
AcDbEntity
  8
0
  6
Continuous
 62
     7
370
    15
100
AcDbSpline
210
0.0
220
0.0
230
1.0
 70
     8
 71
     3
 72
    20
 73
    16
 74
     0
 42
0.00000001
 43
0.00000001
 12
1.0
 22
0.0
 32
0.0
 13
1.0
 23
0.0
 33
0.0
 40
0.0
 40
0.0
 40
0.0
 40
0.0
 40
0.0458174314505911
 40
0.0880319953977385
 40
0.1727059031479722
 40
0.2424118978926971
 40
0.3070169175144182
 40
0.3681452226534366
 40
0.4258795485531379
 40
0.4802966800733198
 40
0.5973203938020498
 40
0.7240599363521221
 40
0.8630319096663394
 40
0.9753207116761395
 40
1.0
 40
1.0
 40
1.0
 40
1.0
 10
124.282389396126
 20
130.9474446861503
 30
0.0
 10
124.3139474632097
 20
130.950248477962
 30
0.0
 10
124.3745820192798
 20
130.9556355845729
 30
0.0
 10
124.4737615628679
 20
131.0102779433683
 30
0.0
 10
124.5494295571785
 20
131.1051387087134
 30
0.0
 10
124.5814618072648
 20
131.1846116364379
 30
0.0
 10
124.6096074335454
 20
131.2693213305475
 30
0.0
 10
124.6331375037069
 20
131.3615971517579
 30
0.0
 10
124.6539176613873
 20
131.4586634199969
 30
0.0
 10
124.6798040842399
 20
131.5985118643027
 30
0.0
 10
124.7111014919956
 20
131.7999185207194
 30
0.0
 10
124.7514561644024
 20
132.1100796035832
 30
0.0
 10
124.7910154859182
 20
132.4702783645068
 30
0.0
 10
124.8198716045009
 20
132.7577159539449
 30
0.0
 10
124.8341441329795
 20
132.917256668052
 30
0.0
 10
124.8367157965295
 20
132.9460031539908
 30
0.0
  0
SPLINE
  5
F8
330
1F
100
AcDbEntity
  8
0
  6
Continuous
 62
     7
370
    15
100
AcDbSpline
210
0.0
220
0.0
230
1.0
 70
     8
 71
     3
 72
    10
 73
     6
 74
     0
 42
0.00000001
 43
0.00000001
 12
1.0
 22
0.0
 32
0.0
 13
1.0
 23
0.0
 33
0.0
 40
0.0
 40
0.0
 40
0.0
 40
0.0
 40
0.1014820592823547
 40
0.8608013663259892
 40
1.0
 40
1.0
 40
1.0
 40
1.0
 10
125.2375286378261
 20
137.9460031539908
 30
0.0
 10
125.239231951039
 20
137.9650344847371
 30
0.0
 10
125.2536799662969
 20
138.1264639593189
 30
0.0
 10
125.2704525591888
 20
138.2968361528467
 30
0.0
 10
125.285406504151
 20
138.4305950508698
 30
0.0
 10
125.2877231732039
 20
138.4513170142306
 30
0.0
  0
SPLINE
  5
F9
330
1F
100
AcDbEntity
  8
0
  6
Continuous
 62
     7
370
    15
100
AcDbSpline
210
0.0
220
0.0
230
1.0
 70
     8
 71
     3
 72
    25
 73
    21
 74
     0
 42
0.00000001
 43
0.00000001
 12
1.0
 22
0.0
 32
0.0
 13
1.0
 23
0.0
 33
0.0
 40
0.0
 40
0.0
 40
0.0
 40
0.0
 40
0.0327483717267117
 40
0.0590899187578206
 40
0.0792126810263345
 40
0.0935570868480492
 40
0.0989390706535185
 40
0.1035233696470965
 40
0.1078466405338335
 40
0.1125335877932553
 40
0.1180862243498111
 40
0.1248153838637784
 40
0.151264491560047
 40
0.1838523345195464
 40
0.2408602074461496
 40
0.3602358819560121
 40
0.5035831777044599
 40
0.6695185222514658
 40
0.856034782532665
 40
1.0
 40
1.0
 40
1.0
 40
1.0
 10
126.2816910994069
 20
130.9471162922742
 30
0.0
 10
126.2983992949933
 20
130.94812334417
 30
0.0
 10
126.3285469288367
 20
130.9499404303812
 30
0.0
 10
126.3715737387599
 20
130.9670373371416
 30
0.0
 10
126.4058282997539
 20
130.9878349385453
 30
0.0
 10
126.4300534346583
 20
131.007477870041
 30
0.0
 10
126.4459907411773
 20
131.0225158681436
 30
0.0
 10
126.4555491023211
 20
131.0321112911676
 30
0.0
 10
126.4637457767737
 20
131.0405912576433
 30
0.0
 10
126.4703632100114
 20
131.0473397564013
 30
0.0
 10
126.4756898901948
 20
131.0523854395176
 30
0.0
 10
126.4839456525068
 20
131.0590363962474
 30
0.0
 10
126.4883705823093
 20
131.0575162165121
 30
0.0
 10
126.4966691705373
 20
131.0573204459648
 30
0.0
 10
126.5122329648345
 20
131.0636033938817
 30
0.0
 10
126.5374295817272
 20
131.0919791748937
 30
0.0
 10
126.5723710026158
 20
131.1646419966518
 30
0.0
 10
126.6131666060163
 20
131.2953131088713
 30
0.0
 10
126.6540789228416
 20
131.4703946299942
 30
0.0
 10
126.679728089704
 20
131.6275449256015
 30
0.0
 10
126.6909014477705
 20
131.6960031539908
 30
0.0
  0
SPLINE
  5
FA
330
1F
100
AcDbEntity
  8
0
  6
Continuous
 62
     7
370
    15
100
AcDbSpline
210
0.0
220
0.0
230
1.0
 70
     8
 71
     3
 72
    22
 73
    18
 74
     0
 42
0.00000001
 43
0.00000001
 12
1.0
 22
0.0
 32
0.0
 13
1.0
 23
0.0
 33
0.0
 40
0.0
 40
0.0
 40
0.0
 40
0.0
 40
0.0425078200605709
 40
0.1139819102958184
 40
0.1900093850557788
 40
0.2707072639231592
 40
0.3557343248310758
 40
0.4389023805855243
 40
0.5181938035341218
 40
0.5935888063355067
 40
0.6651349252503752
 40
0.7329438667129257
 40
0.7970734663129869
 40
0.8560797514004131
 40
0.9093365625006933
 40
0.957239262427397
 40
1.0
 40
1.0
 40
1.0
 40
1.0
 10
128.0368426850142
 20
135.4461918006295
 30
0.0
 10
128.0295902198345
 20
135.5430405690047
 30
0.0
 10
128.0101432137457
 20
135.8027341409984
 30
0.0
 10
127.9776719576335
 20
136.2334220039456
 30
0.0
 10
127.9386176370749
 20
136.7399534871317
 30
0.0
 10
127.8972336377037
 20
137.2552027010235
 30
0.0
 10
127.8547111370087
 20
137.7536670327219
 30
0.0
 10
127.8122695820504
 20
138.2110110191966
 30
0.0
 10
127.7710293385158
 20
138.6091671500185
 30
0.0
 10
127.7309341681723
 20
138.9451410096377
 30
0.0
 10
127.6916602949586
 20
139.2201611564234
 30
0.0
 10
127.6521756696201
 20
139.4386574329953
 30
0.0
 10
127.6138015217272
 20
139.6018562778771
 30
0.0
 10
127.5703607948599
 20
139.7316166372878
 30
0.0
 10
127.5073421798613
 20
139.8364483165657
 30
0.0
 10
127.419967555757
 20
139.9208581182523
 30
0.0
 10
127.3261587754977
 20
139.9358208550074
 30
0.0
 10
127.2819145603508
 20
139.9428779187743
 30
0.0
  0
SPLINE
  5
FB
330
1F
100
AcDbEntity
  8
0
  6
Continuous
 62
     7
370
    15
100
AcDbSpline
210
0.0
220
0.0
230
1.0
 70
     8
 71
     3
 72
    37
 73
    33
 74
     0
 42
0.00000001
 43
0.00000001
 12
1.0
 22
0.0
 32
0.0
 13
1.0
 23
0.0
 33
0.0
 40
0.0
 40
0.0
 40
0.0
 40
0.0
 40
0.0084609509673789
 40
0.0367192777535744
 40
0.0684553259267024
 40
0.1036909036190053
 40
0.1423993521085051
 40
0.1845125063144033
 40
0.2278973016808009
 40
0.2683772147918603
 40
0.3058694652896261
 40
0.3403548505337152
 40
0.3717942129632255
 40
0.4089107382921934
 40
0.4425785271579574
 40
0.4785331211954535
 40
0.517141559551795
 40
0.5584516267958695
 40
0.6023383021390613
 40
0.6369108888447101
 40
0.6728766469508795
 40
0.7102229450092081
 40
0.7489647273524352
 40
0.800516882217314
 40
0.8466878193856662
 40
0.8872049908351216
 40
0.913867470716907
 40
0.9374904125175881
 40
0.9501564676351222
 40
0.9646970725107907
 40
0.9813009298430142
 40
1.0
 40
1.0
 40
1.0
 40
1.0
 10
126.4376547813046
 20
131.3938839335858
 30
0.0
 10
126.4383472606526
 20
131.3947589050069
 30
0.0
 10
126.4413525187629
 20
131.3985561517657
 30
0.0
 10
126.4292981686792
 20
131.4425409483027
 30
0.0
 10
126.4101580484235
 20
131.5389418144625
 30
0.0
 10
126.3814616762416
 20
131.7001504009486
 30
0.0
 10
126.3472016348994
 20
131.9331322040158
 30
0.0
 10
126.3084303717738
 20
132.2437399557352
 30
0.0
 10
126.268357828505
 20
132.6165049248549
 30
0.0
 10
126.2297330092579
 20
133.0218455163363
 30
0.0
 10
126.1938707522711
 20
133.4311904368874
 30
0.0
 10
126.1608727111662
 20
133.8304939851277
 30
0.0
 10
126.1279676570387
 20
134.2449455770183
 30
0.0
 10
126.0952682468306
 20
134.6695413047536
 30
0.0
 10
126.0610805175615
 20
135.1220203865433
 30
0.0
 10
126.0263705297415
 20
135.5851693897939
 30
0.0
 10
125.9891887016883
 20
136.0796875410015
 30
0.0
 10
125.949515776607
 20
136.5985075276387
 30
0.0
 10
125.9111534142423
 20
137.083461374604
 30
0.0
 10
125.8744786808513
 20
137.5251719787432
 30
0.0
 10
125.8398106871198
 20
137.9192409337825
 30
0.0
 10
125.8036711308548
 20
138.2993156989738
 30
0.0
 10
125.7623040467019
 20
138.6906891312628
 30
0.0
 10
125.7179563242953
 20
139.048846083792
 30
0.0
 10
125.6712316207441
 20
139.347057623191
 30
0.0
 10
125.6312886423612
 20
139.5418771824029
 30
0.0
 10
125.5933958826404
 20
139.6721088296736
 30
0.0
 10
125.5689886425794
 20
139.7390622517157
 30
0.0
 10
125.530848086564
 20
139.8089724374342
 30
0.0
 10
125.4791718661057
 20
139.8709477103342
 30
0.0
 10
125.3975644233995
 20
139.931157986023
 30
0.0
 10
125.322835141729
 20
139.9408250629599
 30
0.0
 10
125.2832529263118
 20
139.9459454697565
 30
0.0
  0
LWPOLYLINE
  5
FC
330
1F
100
AcDbEntity
  8
0
  6
Continuous
 62
     7
370
    15
100
AcDbPolyline
 90
       37
 70
   128
 43
0.0
 10
124.4237462991
 20
131.4139738862
 10
124.4237837705
 20
131.4139710851
 10
124.4254026794
 20
131.4541757352
 10
124.4098151823
 20
131.5456949474
 10
124.3842848789
 20
131.6916898426
 10
124.3538524315
 20
131.8915887943
 10
124.3218059245
 20
132.1379231447
 10
124.2895871109
 20
132.4215694509
 10
124.2572389159
 20
132.7385099086
 10
124.2247963949
 20
133.0846218483
 10
124.1922903164
 20
133.455765116
 10
124.1597471619
 20
133.8477886227
 10
124.1166670601
 20
134.3915237024
 10
124.0778185897
 20
134.8991215734
 10
124.0443411236
 20
135.3439833133
 10
124.0227649273
 20
135.6318938659
 10
124.0037412492
 20
135.8852598666
 10
123.9815369035
 20
136.1791381081
 10
123.9544612562
 20
136.5327442839
 10
123.922483371
 20
136.9402308531
 10
123.8855620854
 20
137.3916771391
 10
123.8436460117
 20
137.8715731096
 10
123.7966735361
 20
138.358691659
 10
123.7641329641
 20
138.6605258159
 10
123.7340488784
 20
138.9106496219
 10
123.7063801951
 20
139.1143442029
 10
123.6690578738
 20
139.3465317001
 10
123.6361655561
 20
139.5088826298
 10
123.6163116886
 20
139.5875692058
 10
123.5978040361
 20
139.6481776395
 10
123.5799726834
 20
139.6954036095
 10
123.5527154798
 20
139.7508486767
 10
123.4988410003
 20
139.8293812217
 10
123.4439596478
 20
139.8831359991
 10
123.3719849414
 20
139.925754941
 10
123.2835462904
 20
139.9425917816
 10
123.2835462904
 20
139.9425917816
  0
SPLINE
  5
FD
330
1F
100
AcDbEntity
  8
0
  6
Continuous
 62
     7
370
    15
100
AcDbSpline
210
0.0
220
0.0
230
1.0
 70
     8
 71
     3
 72
    43
 73
    39
 74
     0
 42
0.00000001
 43
0.00000001
 12
1.0
 22
0.0
 32
0.0
 13
1.0
 23
0.0
 33
0.0
 40
0.0
 40
0.0
 40
0.0
 40
0.0
 40
0.0152344423624083
 40
0.033292947279737
 40
0.0657667020993269
 40
0.0932946988682162
 40
0.1264976562432923
 40
0.1651674509369345
 40
0.2097278563285164
 40
0.2470059940502639
 40
0.287369655727777
 40
0.3251406693406622
 40
0.3576504504425735
 40
0.3849057904304176
 40
0.406885088050134
 40
0.4245531221476315
 40
0.4449976515258603
 40
0.4696205794665957
 40
0.4984141132052778
 40
0.5313635757517778
 40
0.5667888641755416
 40
0.6026359593702075
 40
0.638946608647803
 40
0.6757371404855664
 40
0.7129961574259376
 40
0.7506986880123722
 40
0.7887115890755929
 40
0.8240128587649604
 40
0.8552778905111272
 40
0.8825281477515358
 40
0.9057544141619681
 40
0.9126311060655575
 40
0.9217055280379517
 40
0.9348108350444267
 40
0.9474071572006046
 40
0.9624606380288513
 40
0.9800065832757856
 40
1.0
 40
1.0
 40
1.0
 40
1.0
 10
122.4471490132441
 20
131.3883798582691
 30
0.0
 10
122.4470674981413
 20
131.3909341189062
 30
0.0
 10
122.4468893571922
 20
131.3965161325242
 30
0.0
 10
122.4321720197404
 20
131.4454924160154
 30
0.0
 10
122.4146452240406
 20
131.5239825727192
 30
0.0
 10
122.387684088569
 20
131.6660090455758
 30
0.0
 10
122.3563889782596
 20
131.8673560056475
 30
0.0
 10
122.3199864393382
 20
132.1473281166637
 30
0.0
 10
122.281943743635
 20
132.488798001512
 30
0.0
 10
122.243296146987
 20
132.8788846282465
 30
0.0
 10
122.2066551653076
 20
133.2827896550176
 30
0.0
 10
122.1714549056099
 20
133.6991661087396
 30
0.0
 10
122.1404077879155
 20
134.0852659141141
 30
0.0
 10
122.1144011081832
 20
134.4189319289768
 30
0.0
 10
122.0931267846737
 20
134.6970381253953
 30
0.0
 10
122.0740232948256
 20
134.9494793102784
 30
0.0
 10
122.0540849334039
 20
135.2148522155289
 30
0.0
 10
122.0306103580042
 20
135.5286077017333
 30
0.0
 10
122.0031485308274
 20
135.8952710214693
 30
0.0
 10
121.9722205769381
 20
136.3043361753723
 30
0.0
 10
121.9390007970751
 20
136.7345332760537
 30
0.0
 10
121.9046706978077
 20
137.1637290318087
 30
0.0
 10
121.8699023960124
 20
137.5781489759874
 30
0.0
 10
121.8346641477388
 20
137.973056150337
 30
0.0
 10
121.7989208228898
 20
138.3432978536692
 30
0.0
 10
121.7626504170209
 20
138.6831716666304
 30
0.0
 10
121.7268619159239
 20
138.9782665857364
 30
0.0
 10
121.6927843575541
 20
139.2178234294043
 30
0.0
 10
121.6614345368718
 20
139.3994285606474
 30
0.0
 10
121.6336183157326
 20
139.5310926584507
 30
0.0
 10
121.612131951709
 20
139.6115462859158
 30
0.0
 10
121.5981577868543
 20
139.656862175641
 30
0.0
 10
121.5820622867091
 20
139.7033886148676
 30
0.0
 10
121.5548956435934
 20
139.7626124468096
 30
0.0
 10
121.5128716188533
 20
139.8256599258848
 30
0.0
 10
121.4554483681181
 20
139.8834030449213
 30
0.0
 10
121.3772620238578
 20
139.9321117321307
 30
0.0
 10
121.3153018378337
 20
139.9387419954568
 30
0.0
 10
121.2823019210946
 20
139.9422732653216
 30
0.0
  0
LINE
  5
FE
330
1F
100
AcDbEntity
  8
0
  6
Continuous
 62
     7
370
    15
100
AcDbLine
 10
112.0752209977
 20
142.246003154
 30
0.0
 11
112.0752209977
 21
141.446003154
 31
0.0
  0
LINE
  5
FF
330
1F
100
AcDbEntity
  8
0
  6
Continuous
 62
     7
370
    15
100
AcDbLine
 10
120.0752209977
 20
141.446003154
 30
0.0
 11
120.0752209977
 21
142.246003154
 31
0.0
  0
LINE
  5
100
330
1F
100
AcDbEntity
  8
0
  6
Continuous
 62
     7
370
    15
100
AcDbLine
 10
112.0752209977
 20
129.446003154
 30
0.0
 11
112.0752209977
 21
128.646003154
 31
0.0
  0
LINE
  5
101
330
1F
100
AcDbEntity
  8
0
  6
Continuous
 62
     7
370
    15
100
AcDbLine
 10
120.0752209977
 20
128.646003154
 30
0.0
 11
120.0752209977
 21
129.446003154
 31
0.0
  0
LINE
  5
102
330
1F
100
AcDbEntity
  8
0
  6
Continuous
 62
     7
370
    15
100
AcDbLine
 10
131.0752209977
 20
139.1987799037
 30
0.0
 11
128.0752209977
 21
139.1987799037
 31
0.0
  0
LINE
  5
103
330
1F
100
AcDbEntity
  8
0
  6
Continuous
 62
     7
370
    15
100
AcDbLine
 10
131.0752209977
 20
139.1987799037
 30
0.0
 11
131.0752209977
 21
131.6932264043
 31
0.0
  0
LINE
  5
104
330
1F
100
AcDbEntity
  8
0
  6
Continuous
 62
     7
370
    15
100
AcDbLine
 10
131.0752209977
 20
131.6932264043
 30
0.0
 11
128.0752209977
 21
131.6932264043
 31
0.0
  0
LINE
  5
105
330
1F
100
AcDbEntity
  8
0
  6
Continuous
 62
     7
370
    15
100
AcDbLine
 10
128.0752209977
 20
139.1987799037
 30
0.0
 11
128.0752209977
 21
131.6932264043
 31
0.0
  0
LINE
  5
106
330
1F
100
AcDbEntity
  8
0
  6
Continuous
 62
     7
370
    15
100
AcDbLine
 10
131.0752209977
 20
142.9515566535
 30
0.0
 11
128.0752209977
 21
142.9515566535
 31
0.0
  0
LINE
  5
107
330
1F
100
AcDbEntity
  8
0
  6
Continuous
 62
     7
370
    15
100
AcDbLine
 10
128.0752209977
 20
142.9515566535
 30
0.0
 11
128.0752209977
 21
139.1987799037
 31
0.0
  0
LINE
  5
108
330
1F
100
AcDbEntity
  8
0
  6
Continuous
 62
     7
370
    15
100
AcDbLine
 10
131.0752209977
 20
142.9515566535
 30
0.0
 11
131.0752209977
 21
139.1987799037
 31
0.0
  0
LINE
  5
109
330
1F
100
AcDbEntity
  8
0
  6
Continuous
 62
     7
370
    15
100
AcDbLine
 10
131.0752209977
 20
127.9404496545
 30
0.0
 11
128.0752209977
 21
127.9404496545
 31
0.0
  0
LINE
  5
10A
330
1F
100
AcDbEntity
  8
0
  6
Continuous
 62
     7
370
    15
100
AcDbLine
 10
128.0752209977
 20
131.6932264043
 30
0.0
 11
128.0752209977
 21
127.9404496545
 31
0.0
  0
LINE
  5
10B
330
1F
100
AcDbEntity
  8
0
  6
Continuous
 62
     7
370
    15
100
AcDbLine
 10
131.0752209977
 20
131.6932264043
 30
0.0
 11
131.0752209977
 21
127.9404496545
 31
0.0
  0
LINE
  5
10C
330
1F
100
AcDbEntity
  8
0
  6
Continuous
 62
     7
370
    15
100
AcDbLine
 10
143.0752209977
 20
139.446003154
 30
0.0
 11
143.0752209977
 21
131.446003154
 31
0.0
  0
LINE
  5
10D
330
1F
100
AcDbEntity
  8
0
  6
Continuous
 62
     7
370
    15
100
AcDbLine
 10
142.0752209977
 20
130.446003154
 30
0.0
 11
142.0752209977
 21
140.446003154
 31
0.0
  0
LINE
  5
10E
330
1F
100
AcDbEntity
  8
0
  6
Continuous
 62
     7
370
    15
100
AcDbLine
 10
132.5752209977
 20
140.446003154
 30
0.0
 11
132.5752209977
 21
130.446003154
 31
0.0
  0
LINE
  5
10F
330
1F
100
AcDbEntity
  8
0
  6
Continuous
 62
     7
370
    15
100
AcDbLine
 10
126.5752209977
 20
139.196003154
 30
0.0
 11
126.5752209977
 21
131.696003154
 31
0.0
  0
LINE
  5
110
330
1F
100
AcDbEntity
  8
0
  6
Continuous
 62
     7
370
    15
100
AcDbLine
 10
126.0752209977
 20
134.9330518713
 30
0.0
 11
126.0752209977
 21
138.696003154
 31
0.0
  0
LINE
  5
111
330
1F
100
AcDbEntity
  8
0
  6
Continuous
 62
     7
370
    15
100
AcDbLine
 10
143.7752209977
 20
137.9733540531
 30
0.0
 11
143.1752209977
 21
137.9733540531
 31
0.0
  0
LINE
  5
112
330
1F
100
AcDbEntity
  8
0
  6
Continuous
 62
     7
370
    15
100
AcDbLine
 10
143.7752209977
 20
131.946003154
 30
0.0
 11
143.7752209977
 21
137.9733540531
 31
0.0
  0
LINE
  5
113
330
1F
100
AcDbEntity
  8
0
  6
Continuous
 62
     7
370
    15
100
AcDbLine
 10
143.1752209977
 20
131.946003154
 30
0.0
 11
143.1752209977
 21
137.9733540531
 31
0.0
  0
LINE
  5
114
330
1F
100
AcDbEntity
  8
0
  6
Continuous
 62
     7
370
    15
100
AcDbLine
 10
143.1752209977
 20
137.9733540531
 30
0.0
 11
143.1752209977
 21
138.0289340018
 31
0.0
  0
LINE
  5
115
330
1F
100
AcDbEntity
  8
0
  6
Continuous
 62
     7
370
    15
100
AcDbLine
 10
143.7752209977
 20
138.0289340018
 30
0.0
 11
143.7752209977
 21
137.9733540531
 31
0.0
  0
LINE
  5
116
330
1F
100
AcDbEntity
  8
0
  6
Continuous
 62
     7
370
    15
100
AcDbLine
 10
119.582623883
 20
126.146003154
 30
0.0
 11
119.582623883
 21
128.646003154
 31
0.0
  0
LINE
  5
117
330
1F
100
AcDbEntity
  8
0
  6
Continuous
 62
     7
370
    15
100
AcDbLine
 10
116.0752209977
 20
126.146003154
 30
0.0
 11
119.582623883
 21
126.146003154
 31
0.0
  0
LINE
  5
118
330
1F
100
AcDbEntity
  8
0
  6
Continuous
 62
     7
370
    15
100
AcDbLine
 10
116.0752209977
 20
126.146003154
 30
0.0
 11
116.0752209977
 21
128.646003154
 31
0.0
  0
LINE
  5
119
330
1F
100
AcDbEntity
  8
0
  6
Continuous
 62
     7
370
    15
100
AcDbLine
 10
116.0752209977
 20
128.646003154
 30
0.0
 11
116.163511455
 21
128.646003154
 31
0.0
  0
LINE
  5
11A
330
1F
100
AcDbEntity
  8
0
  6
Continuous
 62
     7
370
    15
100
AcDbLine
 10
119.4943334256
 20
128.646003154
 30
0.0
 11
119.582623883
 21
128.646003154
 31
0.0
  0
LINE
  5
11B
330
1F
100
AcDbEntity
  8
0
  6
Continuous
 62
     7
370
    15
100
AcDbLine
 10
112.5678181123
 20
126.146003154
 30
0.0
 11
112.5678181123
 21
128.646003154
 31
0.0
  0
LINE
  5
11C
330
1F
100
AcDbEntity
  8
0
  6
Continuous
 62
     7
370
    15
100
AcDbLine
 10
112.5678181123
 20
128.646003154
 30
0.0
 11
112.6561085697
 21
128.646003154
 31
0.0
  0
LINE
  5
11D
330
1F
100
AcDbEntity
  8
0
  6
Continuous
 62
     7
370
    15
100
AcDbLine
 10
115.9869305403
 20
128.646003154
 30
0.0
 11
116.0752209977
 21
128.646003154
 31
0.0
  0
LINE
  5
11E
330
1F
100
AcDbEntity
  8
0
  6
Continuous
 62
     7
370
    15
100
AcDbLine
 10
112.5678181123
 20
126.146003154
 30
0.0
 11
116.0752209977
 21
126.146003154
 31
0.0
  0
LINE
  5
11F
330
1F
100
AcDbEntity
  8
0
  6
Continuous
 62
     7
370
    15
100
AcDbLine
 10
118.4252209977
 20
123.646003154
 30
0.0
 11
113.7252209977
 21
123.646003154
 31
0.0
  0
LINE
  5
120
330
1F
100
AcDbEntity
  8
0
  6
Continuous
 62
     7
370
    15
100
AcDbLine
 10
117.8072718052
 20
118.646003154
 30
0.0
 11
114.0752209977
 21
118.646003154
 31
0.0
  0
LINE
  5
121
330
1F
100
AcDbEntity
  8
0
  6
Continuous
 62
     7
370
    15
100
AcDbLine
 10
118.0752209977
 20
118.646003154
 30
0.0
 11
117.8072718052
 21
118.646003154
 31
0.0
  0
LINE
  5
122
330
1F
100
AcDbEntity
  8
0
  6
Continuous
 62
     7
370
    15
100
AcDbLine
 10
118.1103806966
 20
121.146003154
 30
0.0
 11
113.7252209977
 21
121.146003154
 31
0.0
  0
LINE
  5
123
330
1F
100
AcDbEntity
  8
0
  6
Continuous
 62
     7
370
    15
100
AcDbLine
 10
118.4252209977
 20
121.146003154
 30
0.0
 11
118.1103806966
 21
121.146003154
 31
0.0
  0
LINE
  5
124
330
1F
100
AcDbEntity
  8
0
  6
Continuous
 62
     7
370
    15
100
AcDbLine
 10
138.1411303693
 20
133.5585445452
 30
0.0
 11
138.1411303693
 21
130.3275546319
 31
0.0
  0
SPLINE
  5
125
330
1F
100
AcDbEntity
  8
0
  6
Continuous
 62
     7
370
    15
100
AcDbSpline
210
0.0
220
0.0
230
1.0
 70
     8
 71
     3
 72
     8
 73
     4
 74
     0
 42
0.00000001
 43
0.00000001
 12
1.0
 22
0.0
 32
0.0
 13
1.0
 23
0.0
 33
0.0
 40
0.0
 40
0.0
 40
0.0
 40
0.0
 40
1.0
 40
1.0
 40
1.0
 40
1.0
 10
137.6602531543049
 20
131.4045512696634
 30
0.0
 10
137.8645526748794
 20
131.0506941200665
 30
0.0
 10
138.0324092589164
 20
130.6892184652895
 30
0.0
 10
138.1411303693468
 20
130.3275546319086
 30
0.0
  0
SPLINE
  5
126
330
1F
100
AcDbEntity
  8
0
  6
Continuous
 62
     7
370
    15
100
AcDbSpline
210
0.0
220
0.0
230
1.0
 70
     8
 71
     3
 72
    10
 73
     6
 74
     0
 42
0.00000001
 43
0.00000001
 12
1.0
 22
0.0
 32
0.0
 13
1.0
 23
0.0
 33
0.0
 40
0.0
 40
0.0
 40
0.0
 40
0.0
 40
0.5
 40
0.5
 40
1.0
 40
1.0
 40
1.0
 40
1.0
 10
138.1411303693468
 20
133.5585445451731
 30
0.0
 10
138.0861883510699
 20
133.1930122053166
 30
0.0
 10
138.0164474171335
 20
132.8288388504498
 30
0.0
 10
137.8543499610909
 20
132.1112354838941
 30
0.0
 10
137.7618101198828
 20
131.7563549181501
 30
0.0
 10
137.660253154305
 20
131.4045512696634
 30
0.0
  0
SPLINE
  5
127
330
1F
100
AcDbEntity
  8
0
  6
Continuous
 62
     7
370
    15
100
AcDbSpline
210
0.0
220
0.0
230
1.0
 70
     8
 71
     3
 72
     8
 73
     4
 74
     0
 42
0.00000001
 43
0.00000001
 12
1.0
 22
0.0
 32
0.0
 13
1.0
 23
0.0
 33
0.0
 40
0.0
 40
0.0
 40
0.0
 40
0.0
 40
1.0
 40
1.0
 40
1.0
 40
1.0
 10
135.6220075843887
 20
139.4874550383182
 30
0.0
 10
135.4177080638142
 20
139.8413121879151
 30
0.0
 10
135.2498514797772
 20
140.2027878426921
 30
0.0
 10
135.1411303693468
 20
140.5644516760731
 30
0.0
  0
LINE
  5
128
330
1F
100
AcDbEntity
  8
0
  6
Continuous
 62
     7
370
    15
100
AcDbLine
 10
135.1411303693
 20
142.4519102849
 30
0.0
 11
135.1411303693
 21
140.5644516761
 31
0.0
  0
SPLINE
  5
129
330
1F
100
AcDbEntity
  8
0
  6
Continuous
 62
     7
370
    15
100
AcDbSpline
210
0.0
220
0.0
230
1.0
 70
     8
 71
     3
 72
     8
 73
     4
 74
     0
 42
0.00000001
 43
0.00000001
 12
1.0
 22
0.0
 32
0.0
 13
1.0
 23
0.0
 33
0.0
 40
0.0
 40
0.0
 40
0.0
 40
0.0
 40
1.0
 40
1.0
 40
1.0
 40
1.0
 10
135.1411303693468
 20
142.4519102848907
 30
0.0
 10
135.2512937870471
 20
142.8183719939933
 30
0.0
 10
135.418457547612
 20
143.1763479170658
 30
0.0
 10
135.6220075843886
 20
143.5289069226456
 30
0.0
  0
LINE
  5
12A
330
1F
100
AcDbEntity
  8
0
  6
Continuous
 62
     7
370
    15
100
AcDbLine
 10
135.6220075844
 20
143.5289069226
 30
0.0
 11
137.6602531543
 21
143.5289069226
 31
0.0
  0
SPLINE
  5
12B
330
1F
100
AcDbEntity
  8
0
  6
Continuous
 62
     7
370
    15
100
AcDbSpline
210
0.0
220
0.0
230
1.0
 70
     8
 71
     3
 72
     8
 73
     4
 74
     0
 42
0.00000001
 43
0.00000001
 12
1.0
 22
0.0
 32
0.0
 13
1.0
 23
0.0
 33
0.0
 40
0.0
 40
0.0
 40
0.0
 40
0.0
 40
1.0
 40
1.0
 40
1.0
 40
1.0
 10
137.6602531543049
 20
143.5289069226456
 30
0.0
 10
137.8645526748794
 20
143.1750497730486
 30
0.0
 10
138.0324092589164
 20
142.8135741182717
 30
0.0
 10
138.1411303693468
 20
142.4519102848907
 30
0.0
  0
LINE
  5
12C
330
1F
100
AcDbEntity
  8
0
  6
Continuous
 62
     7
370
    15
100
AcDbLine
 10
138.1411303693
 20
142.4519102849
 30
0.0
 11
138.1411303693
 21
140.5644516761
 31
0.0
  0
SPLINE
  5
12D
330
1F
100
AcDbEntity
  8
0
  6
Continuous
 62
     7
370
    15
100
AcDbSpline
210
0.0
220
0.0
230
1.0
 70
     8
 71
     3
 72
     8
 73
     4
 74
     0
 42
0.00000001
 43
0.00000001
 12
1.0
 22
0.0
 32
0.0
 13
1.0
 23
0.0
 33
0.0
 40
0.0
 40
0.0
 40
0.0
 40
0.0
 40
1.0
 40
1.0
 40
1.0
 40
1.0
 10
138.1411303693468
 20
140.564451676073
 30
0.0
 10
138.0309669516465
 20
140.1979899669705
 30
0.0
 10
137.8638031910816
 20
139.840014043898
 30
0.0
 10
137.660253154305
 20
139.4874550383182
 30
0.0
  0
LINE
  5
12E
330
1F
100
AcDbEntity
  8
0
  6
Continuous
 62
     7
370
    15
100
AcDbLine
 10
135.6220075844
 20
139.4874550383
 30
0.0
 11
137.6602531543
 21
139.4874550383
 31
0.0
  0
SPLINE
  5
12F
330
1F
100
AcDbEntity
  8
0
  6
Continuous
 62
     7
370
    15
100
AcDbSpline
210
0.0
220
0.0
230
1.0
 70
     8
 71
     3
 72
    10
 73
     6
 74
     0
 42
0.00000001
 43
0.00000001
 12
1.0
 22
0.0
 32
0.0
 13
1.0
 23
0.0
 33
0.0
 40
0.0
 40
0.0
 40
0.0
 40
0.0
 40
0.5
 40
0.5
 40
1.0
 40
1.0
 40
1.0
 40
1.0
 10
135.6220075843887
 20
131.4045512696634
 30
0.0
 10
135.5202726617323
 20
131.7569713795532
 30
0.0
 10
135.4275544425035
 20
132.1125843926431
 30
0.0
 10
135.2651581783805
 20
132.8319691707387
 30
0.0
 10
135.1956587329355
 20
133.1957642732389
 30
0.0
 10
135.1411303693468
 20
133.5585445451731
 30
0.0
  0
LINE
  5
130
330
1F
100
AcDbEntity
  8
0
  6
Continuous
 62
     7
370
    15
100
AcDbLine
 10
135.1411303693
 20
137.3334617628
 30
0.0
 11
135.1411303693
 21
133.5585445452
 31
0.0
  0
SPLINE
  5
131
330
1F
100
AcDbEntity
  8
0
  6
Continuous
 62
     7
370
    15
100
AcDbSpline
210
0.0
220
0.0
230
1.0
 70
     8
 71
     3
 72
    10
 73
     6
 74
     0
 42
0.00000001
 43
0.00000001
 12
1.0
 22
0.0
 32
0.0
 13
1.0
 23
0.0
 33
0.0
 40
0.0
 40
0.0
 40
0.0
 40
0.0
 40
0.5
 40
0.5
 40
1.0
 40
1.0
 40
1.0
 40
1.0
 10
135.1411303693468
 20
137.3334617628085
 30
0.0
 10
135.1960723876237
 20
137.698994102665
 30
0.0
 10
135.2658133215601
 20
138.0631674575318
 30
0.0
 10
135.4279107776027
 20
138.7807708240875
 30
0.0
 10
135.5204506188108
 20
139.1356513898315
 30
0.0
 10
135.6220075843886
 20
139.4874550383182
 30
0.0
  0
SPLINE
  5
132
330
1F
100
AcDbEntity
  8
0
  6
Continuous
 62
     7
370
    15
100
AcDbSpline
210
0.0
220
0.0
230
1.0
 70
     8
 71
     3
 72
    10
 73
     6
 74
     0
 42
0.00000001
 43
0.00000001
 12
1.0
 22
0.0
 32
0.0
 13
1.0
 23
0.0
 33
0.0
 40
0.0
 40
0.0
 40
0.0
 40
0.0
 40
0.5
 40
0.5
 40
1.0
 40
1.0
 40
1.0
 40
1.0
 10
137.6602531543049
 20
139.4874550383182
 30
0.0
 10
137.7619880769613
 20
139.1350349284284
 30
0.0
 10
137.8547062961901
 20
138.7794219153385
 30
0.0
 10
138.0171025603131
 20
138.0600371372429
 30
0.0
 10
138.0866020057581
 20
137.6962420347427
 30
0.0
 10
138.1411303693468
 20
137.3334617628085
 30
0.0
  0
LINE
  5
133
330
1F
100
AcDbEntity
  8
0
  6
Continuous
 62
     7
370
    15
100
AcDbLine
 10
138.1411303693
 20
137.3334617628
 30
0.0
 11
138.1411303693
 21
133.5585445452
 31
0.0
  0
LINE
  5
134
330
1F
100
AcDbEntity
  8
0
  6
Continuous
 62
     7
370
    15
100
AcDbLine
 10
135.6220075844
 20
131.4045512697
 30
0.0
 11
137.6602531543
 21
131.4045512697
 31
0.0
  0
LINE
  5
135
330
1F
100
AcDbEntity
  8
0
  6
Continuous
 62
     7
370
    15
100
AcDbLine
 10
138.1411303693
 20
140.5644516761
 30
0.0
 11
138.1411303693
 21
137.3334617628
 31
0.0
  0
LINE
  5
136
330
1F
100
AcDbEntity
  8
0
  6
Continuous
 62
     7
370
    15
100
AcDbLine
 10
135.1411303693
 20
137.3334617628
 30
0.0
 11
135.1411303693
 21
140.5644516761
 31
0.0
  0
SPLINE
  5
137
330
1F
100
AcDbEntity
  8
0
  6
Continuous
 62
     7
370
    15
100
AcDbSpline
210
0.0
220
0.0
230
1.0
 70
     8
 71
     3
 72
     8
 73
     4
 74
     0
 42
0.00000001
 43
0.00000001
 12
1.0
 22
0.0
 32
0.0
 13
1.0
 23
0.0
 33
0.0
 40
0.0
 40
0.0
 40
0.0
 40
0.0
 40
1.0
 40
1.0
 40
1.0
 40
1.0
 10
135.1411303693468
 20
130.3275546319086
 30
0.0
 10
135.2512937870471
 20
130.6940163410111
 30
0.0
 10
135.418457547612
 20
131.0519922640837
 30
0.0
 10
135.6220075843886
 20
131.4045512696634
 30
0.0
  0
LINE
  5
138
330
1F
100
AcDbEntity
  8
0
  6
Continuous
 62
     7
370
    15
100
AcDbLine
 10
135.1411303693
 20
130.3275546319
 30
0.0
 11
135.1411303693
 21
133.5585445452
 31
0.0
  0
SPLINE
  5
139
330
1F
100
AcDbEntity
  8
0
  6
Continuous
 62
     7
370
    15
100
AcDbSpline
210
0.0
220
0.0
230
1.0
 70
     8
 71
     3
 72
     8
 73
     4
 74
     0
 42
0.00000001
 43
0.00000001
 12
1.0
 22
0.0
 32
0.0
 13
1.0
 23
0.0
 33
0.0
 40
0.0
 40
0.0
 40
0.0
 40
0.0
 40
1.0
 40
1.0
 40
1.0
 40
1.0
 10
135.6220075843887
 20
127.3630993853361
 30
0.0
 10
135.4177080638142
 20
127.716956534933
 30
0.0
 10
135.2498514797772
 20
128.07843218971
 30
0.0
 10
135.1411303693468
 20
128.4400960230909
 30
0.0
  0
SPLINE
  5
13A
330
1F
100
AcDbEntity
  8
0
  6
Continuous
 62
     7
370
    15
100
AcDbSpline
210
0.0
220
0.0
230
1.0
 70
     8
 71
     3
 72
     8
 73
     4
 74
     0
 42
0.00000001
 43
0.00000001
 12
1.0
 22
0.0
 32
0.0
 13
1.0
 23
0.0
 33
0.0
 40
0.0
 40
0.0
 40
0.0
 40
0.0
 40
1.0
 40
1.0
 40
1.0
 40
1.0
 10
138.1411303693468
 20
128.4400960230909
 30
0.0
 10
138.0309669516465
 20
128.0736343139884
 30
0.0
 10
137.8638031910816
 20
127.7156583909158
 30
0.0
 10
137.6602531543049
 20
127.363099385336
 30
0.0
  0
LINE
  5
13B
330
1F
100
AcDbEntity
  8
0
  6
Continuous
 62
     7
370
    15
100
AcDbLine
 10
135.6220075844
 20
127.3630993853
 30
0.0
 11
137.6602531543
 21
127.3630993853
 31
0.0
  0
LINE
  5
13C
330
1F
100
AcDbEntity
  8
0
  6
Continuous
 62
     7
370
    15
100
AcDbLine
 10
135.1411303693
 20
130.3275546319
 30
0.0
 11
135.1411303693
 21
128.4400960231
 31
0.0
  0
LINE
  5
13D
330
1F
100
AcDbEntity
  8
0
  6
Continuous
 62
     7
370
    15
100
AcDbLine
 10
138.1411303693
 20
130.3275546319
 30
0.0
 11
138.1411303693
 21
128.4400960231
 31
0.0
  0
LINE
  5
13E
330
1F
100
AcDbEntity
  8
0
  6
Continuous
 62
     7
370
    15
100
AcDbLine
 10
135.1411303693
 20
142.4519102849
 30
0.0
 11
135.1411303693
 21
142.696003154
 31
0.0
  0
LINE
  5
13F
330
1F
100
AcDbEntity
  8
0
  6
Continuous
 62
     7
370
    15
100
AcDbLine
 10
138.1411303693
 20
142.696003154
 30
0.0
 11
138.1411303693
 21
142.4519102849
 31
0.0
  0
LINE
  5
140
330
1F
100
AcDbEntity
  8
0
  6
Continuous
 62
     7
370
    15
100
AcDbLine
 10
135.1411303693
 20
128.196003154
 30
0.0
 11
135.1411303693
 21
128.4400960231
 31
0.0
  0
LINE
  5
141
330
1F
100
AcDbEntity
  8
0
  6
Continuous
 62
     7
370
    15
100
AcDbLine
 10
138.1411303693
 20
128.4400960231
 30
0.0
 11
138.1411303693
 21
128.196003154
 31
0.0
  0
LINE
  5
142
330
1F
100
AcDbEntity
  8
0
  6
Continuous
 62
     7
370
    15
100
AcDbLine
 10
141.1411303693
 20
133.5585445452
 30
0.0
 11
141.1411303693
 21
130.3275546319
 31
0.0
  0
SPLINE
  5
143
330
1F
100
AcDbEntity
  8
0
  6
Continuous
 62
     7
370
    15
100
AcDbSpline
210
0.0
220
0.0
230
1.0
 70
     8
 71
     3
 72
     8
 73
     4
 74
     0
 42
0.00000001
 43
0.00000001
 12
1.0
 22
0.0
 32
0.0
 13
1.0
 23
0.0
 33
0.0
 40
0.0
 40
0.0
 40
0.0
 40
0.0
 40
1.0
 40
1.0
 40
1.0
 40
1.0
 10
140.6602531543049
 20
131.4045512696634
 30
0.0
 10
140.8645526748794
 20
131.0506941200665
 30
0.0
 10
141.0324092589164
 20
130.6892184652895
 30
0.0
 10
141.1411303693468
 20
130.3275546319086
 30
0.0
  0
SPLINE
  5
144
330
1F
100
AcDbEntity
  8
0
  6
Continuous
 62
     7
370
    15
100
AcDbSpline
210
0.0
220
0.0
230
1.0
 70
     8
 71
     3
 72
    10
 73
     6
 74
     0
 42
0.00000001
 43
0.00000001
 12
1.0
 22
0.0
 32
0.0
 13
1.0
 23
0.0
 33
0.0
 40
0.0
 40
0.0
 40
0.0
 40
0.0
 40
0.5
 40
0.5
 40
1.0
 40
1.0
 40
1.0
 40
1.0
 10
141.1411303693468
 20
133.5585445451731
 30
0.0
 10
141.0861883510699
 20
133.1930122053166
 30
0.0
 10
141.0164474171335
 20
132.8288388504498
 30
0.0
 10
140.8543499610909
 20
132.1112354838941
 30
0.0
 10
140.7618101198828
 20
131.7563549181501
 30
0.0
 10
140.660253154305
 20
131.4045512696634
 30
0.0
  0
SPLINE
  5
145
330
1F
100
AcDbEntity
  8
0
  6
Continuous
 62
     7
370
    15
100
AcDbSpline
210
0.0
220
0.0
230
1.0
 70
     8
 71
     3
 72
    10
 73
     6
 74
     0
 42
0.00000001
 43
0.00000001
 12
1.0
 22
0.0
 32
0.0
 13
1.0
 23
0.0
 33
0.0
 40
0.0
 40
0.0
 40
0.0
 40
0.0
 40
0.5
 40
0.5
 40
1.0
 40
1.0
 40
1.0
 40
1.0
 10
138.6220075843887
 20
131.4045512696634
 30
0.0
 10
138.5202726617323
 20
131.7569713795532
 30
0.0
 10
138.4275544425036
 20
132.1125843926431
 30
0.0
 10
138.2651581783805
 20
132.8319691707387
 30
0.0
 10
138.1956587329355
 20
133.1957642732389
 30
0.0
 10
138.1411303693468
 20
133.5585445451731
 30
0.0
  0
SPLINE
  5
146
330
1F
100
AcDbEntity
  8
0
  6
Continuous
 62
     7
370
    15
100
AcDbSpline
210
0.0
220
0.0
230
1.0
 70
     8
 71
     3
 72
    10
 73
     6
 74
     0
 42
0.00000001
 43
0.00000001
 12
1.0
 22
0.0
 32
0.0
 13
1.0
 23
0.0
 33
0.0
 40
0.0
 40
0.0
 40
0.0
 40
0.0
 40
0.5
 40
0.5
 40
1.0
 40
1.0
 40
1.0
 40
1.0
 10
138.1411303693468
 20
137.3334617628085
 30
0.0
 10
138.1960723876237
 20
137.698994102665
 30
0.0
 10
138.26581332156
 20
138.0631674575318
 30
0.0
 10
138.4279107776027
 20
138.7807708240875
 30
0.0
 10
138.5204506188108
 20
139.1356513898315
 30
0.0
 10
138.6220075843886
 20
139.4874550383182
 30
0.0
  0
LINE
  5
147
330
1F
100
AcDbEntity
  8
0
  6
Continuous
 62
     7
370
    15
100
AcDbLine
 10
138.6220075844
 20
139.4874550383
 30
0.0
 11
140.6602531543
 21
139.4874550383
 31
0.0
  0
SPLINE
  5
148
330
1F
100
AcDbEntity
  8
0
  6
Continuous
 62
     7
370
    15
100
AcDbSpline
210
0.0
220
0.0
230
1.0
 70
     8
 71
     3
 72
    10
 73
     6
 74
     0
 42
0.00000001
 43
0.00000001
 12
1.0
 22
0.0
 32
0.0
 13
1.0
 23
0.0
 33
0.0
 40
0.0
 40
0.0
 40
0.0
 40
0.0
 40
0.5
 40
0.5
 40
1.0
 40
1.0
 40
1.0
 40
1.0
 10
140.6602531543049
 20
139.4874550383182
 30
0.0
 10
140.7619880769613
 20
139.1350349284284
 30
0.0
 10
140.8547062961901
 20
138.7794219153385
 30
0.0
 10
141.0171025603131
 20
138.0600371372429
 30
0.0
 10
141.0866020057581
 20
137.6962420347427
 30
0.0
 10
141.1411303693468
 20
137.3334617628085
 30
0.0
  0
LINE
  5
149
330
1F
100
AcDbEntity
  8
0
  6
Continuous
 62
     7
370
    15
100
AcDbLine
 10
141.1411303693
 20
137.3334617628
 30
0.0
 11
141.1411303693
 21
133.5585445452
 31
0.0
  0
LINE
  5
14A
330
1F
100
AcDbEntity
  8
0
  6
Continuous
 62
     7
370
    15
100
AcDbLine
 10
138.6220075844
 20
131.4045512697
 30
0.0
 11
140.6602531543
 21
131.4045512697
 31
0.0
  0
LINE
  5
14B
330
1F
100
AcDbEntity
  8
0
  6
Continuous
 62
     7
370
    15
100
AcDbLine
 10
141.1411303693
 20
140.5644516761
 30
0.0
 11
141.1411303693
 21
137.3334617628
 31
0.0
  0
SPLINE
  5
14C
330
1F
100
AcDbEntity
  8
0
  6
Continuous
 62
     7
370
    15
100
AcDbSpline
210
0.0
220
0.0
230
1.0
 70
     8
 71
     3
 72
     8
 73
     4
 74
     0
 42
0.00000001
 43
0.00000001
 12
1.0
 22
0.0
 32
0.0
 13
1.0
 23
0.0
 33
0.0
 40
0.0
 40
0.0
 40
0.0
 40
0.0
 40
1.0
 40
1.0
 40
1.0
 40
1.0
 10
141.1411303693468
 20
140.564451676073
 30
0.0
 10
141.0309669516465
 20
140.1979899669705
 30
0.0
 10
140.8638031910817
 20
139.840014043898
 30
0.0
 10
140.6602531543049
 20
139.4874550383182
 30
0.0
  0
SPLINE
  5
14D
330
1F
100
AcDbEntity
  8
0
  6
Continuous
 62
     7
370
    15
100
AcDbSpline
210
0.0
220
0.0
230
1.0
 70
     8
 71
     3
 72
     8
 73
     4
 74
     0
 42
0.00000001
 43
0.00000001
 12
1.0
 22
0.0
 32
0.0
 13
1.0
 23
0.0
 33
0.0
 40
0.0
 40
0.0
 40
0.0
 40
0.0
 40
1.0
 40
1.0
 40
1.0
 40
1.0
 10
138.6220075843887
 20
139.4874550383182
 30
0.0
 10
138.4177080638142
 20
139.8413121879151
 30
0.0
 10
138.2498514797772
 20
140.2027878426921
 30
0.0
 10
138.1411303693468
 20
140.5644516760731
 30
0.0
  0
SPLINE
  5
14E
330
1F
100
AcDbEntity
  8
0
  6
Continuous
 62
     7
370
    15
100
AcDbSpline
210
0.0
220
0.0
230
1.0
 70
     8
 71
     3
 72
     8
 73
     4
 74
     0
 42
0.00000001
 43
0.00000001
 12
1.0
 22
0.0
 32
0.0
 13
1.0
 23
0.0
 33
0.0
 40
0.0
 40
0.0
 40
0.0
 40
0.0
 40
1.0
 40
1.0
 40
1.0
 40
1.0
 10
138.1411303693468
 20
142.4519102848907
 30
0.0
 10
138.2512937870472
 20
142.8183719939933
 30
0.0
 10
138.418457547612
 20
143.1763479170658
 30
0.0
 10
138.6220075843886
 20
143.5289069226456
 30
0.0
  0
LINE
  5
14F
330
1F
100
AcDbEntity
  8
0
  6
Continuous
 62
     7
370
    15
100
AcDbLine
 10
138.6220075844
 20
143.5289069226
 30
0.0
 11
140.6602531543
 21
143.5289069226
 31
0.0
  0
SPLINE
  5
150
330
1F
100
AcDbEntity
  8
0
  6
Continuous
 62
     7
370
    15
100
AcDbSpline
210
0.0
220
0.0
230
1.0
 70
     8
 71
     3
 72
     8
 73
     4
 74
     0
 42
0.00000001
 43
0.00000001
 12
1.0
 22
0.0
 32
0.0
 13
1.0
 23
0.0
 33
0.0
 40
0.0
 40
0.0
 40
0.0
 40
0.0
 40
1.0
 40
1.0
 40
1.0
 40
1.0
 10
140.6602531543049
 20
143.5289069226456
 30
0.0
 10
140.8645526748794
 20
143.1750497730486
 30
0.0
 10
141.0324092589164
 20
142.8135741182717
 30
0.0
 10
141.1411303693468
 20
142.4519102848907
 30
0.0
  0
LINE
  5
151
330
1F
100
AcDbEntity
  8
0
  6
Continuous
 62
     7
370
    15
100
AcDbLine
 10
141.1411303693
 20
142.4519102849
 30
0.0
 11
141.1411303693
 21
140.5644516761
 31
0.0
  0
SPLINE
  5
152
330
1F
100
AcDbEntity
  8
0
  6
Continuous
 62
     7
370
    15
100
AcDbSpline
210
0.0
220
0.0
230
1.0
 70
     8
 71
     3
 72
     8
 73
     4
 74
     0
 42
0.00000001
 43
0.00000001
 12
1.0
 22
0.0
 32
0.0
 13
1.0
 23
0.0
 33
0.0
 40
0.0
 40
0.0
 40
0.0
 40
0.0
 40
1.0
 40
1.0
 40
1.0
 40
1.0
 10
138.1411303693468
 20
130.3275546319086
 30
0.0
 10
138.2512937870472
 20
130.6940163410111
 30
0.0
 10
138.418457547612
 20
131.0519922640837
 30
0.0
 10
138.6220075843886
 20
131.4045512696634
 30
0.0
  0
SPLINE
  5
153
330
1F
100
AcDbEntity
  8
0
  6
Continuous
 62
     7
370
    15
100
AcDbSpline
210
0.0
220
0.0
230
1.0
 70
     8
 71
     3
 72
     8
 73
     4
 74
     0
 42
0.00000001
 43
0.00000001
 12
1.0
 22
0.0
 32
0.0
 13
1.0
 23
0.0
 33
0.0
 40
0.0
 40
0.0
 40
0.0
 40
0.0
 40
1.0
 40
1.0
 40
1.0
 40
1.0
 10
138.6220075843887
 20
127.3630993853361
 30
0.0
 10
138.4177080638142
 20
127.716956534933
 30
0.0
 10
138.2498514797772
 20
128.07843218971
 30
0.0
 10
138.1411303693468
 20
128.4400960230909
 30
0.0
  0
SPLINE
  5
154
330
1F
100
AcDbEntity
  8
0
  6
Continuous
 62
     7
370
    15
100
AcDbSpline
210
0.0
220
0.0
230
1.0
 70
     8
 71
     3
 72
     8
 73
     4
 74
     0
 42
0.00000001
 43
0.00000001
 12
1.0
 22
0.0
 32
0.0
 13
1.0
 23
0.0
 33
0.0
 40
0.0
 40
0.0
 40
0.0
 40
0.0
 40
1.0
 40
1.0
 40
1.0
 40
1.0
 10
141.1411303693468
 20
128.4400960230909
 30
0.0
 10
141.0309669516465
 20
128.0736343139884
 30
0.0
 10
140.8638031910817
 20
127.7156583909158
 30
0.0
 10
140.6602531543049
 20
127.363099385336
 30
0.0
  0
LINE
  5
155
330
1F
100
AcDbEntity
  8
0
  6
Continuous
 62
     7
370
    15
100
AcDbLine
 10
138.6220075844
 20
127.3630993853
 30
0.0
 11
140.6602531543
 21
127.3630993853
 31
0.0
  0
LINE
  5
156
330
1F
100
AcDbEntity
  8
0
  6
Continuous
 62
     7
370
    15
100
AcDbLine
 10
141.1411303693
 20
130.3275546319
 30
0.0
 11
141.1411303693
 21
128.4400960231
 31
0.0
  0
LINE
  5
157
330
1F
100
AcDbEntity
  8
0
  6
Continuous
 62
     7
370
    15
100
AcDbLine
 10
141.1411303693
 20
142.696003154
 30
0.0
 11
141.1411303693
 21
142.4519102849
 31
0.0
  0
LINE
  5
158
330
1F
100
AcDbEntity
  8
0
  6
Continuous
 62
     7
370
    15
100
AcDbLine
 10
141.1411303693
 20
128.4400960231
 30
0.0
 11
141.1411303693
 21
128.196003154
 31
0.0
  0
LINE
  5
159
330
1F
100
AcDbEntity
  8
0
  6
Continuous
 62
     7
370
    15
100
AcDbLine
 10
119.582623883
 20
142.246003154
 30
0.0
 11
119.582623883
 21
144.746003154
 31
0.0
  0
LINE
  5
15A
330
1F
100
AcDbEntity
  8
0
  6
Continuous
 62
     7
370
    15
100
AcDbLine
 10
116.0752209977
 20
142.246003154
 30
0.0
 11
116.0752209978
 21
144.746003154
 31
0.0
  0
LINE
  5
15B
330
1F
100
AcDbEntity
  8
0
  6
Continuous
 62
     7
370
    15
100
AcDbLine
 10
116.0752209978
 20
144.746003154
 30
0.0
 11
119.582623883
 21
144.746003154
 31
0.0
  0
LINE
  5
15C
330
1F
100
AcDbEntity
  8
0
  6
Continuous
 62
     7
370
    15
100
AcDbLine
 10
116.0752209977
 20
142.246003154
 30
0.0
 11
116.163511455
 21
142.246003154
 31
0.0
  0
LINE
  5
15D
330
1F
100
AcDbEntity
  8
0
  6
Continuous
 62
     7
370
    15
100
AcDbLine
 10
119.4943334256
 20
142.246003154
 30
0.0
 11
119.582623883
 21
142.246003154
 31
0.0
  0
LINE
  5
15E
330
1F
100
AcDbEntity
  8
0
  6
Continuous
 62
     7
370
    15
100
AcDbLine
 10
112.5678181123
 20
142.246003154
 30
0.0
 11
112.5678181123
 21
144.746003154
 31
0.0
  0
LINE
  5
15F
330
1F
100
AcDbEntity
  8
0
  6
Continuous
 62
     7
370
    15
100
AcDbLine
 10
112.5678181123
 20
144.746003154
 30
0.0
 11
116.0752209978
 21
144.746003154
 31
0.0
  0
LINE
  5
160
330
1F
100
AcDbEntity
  8
0
  6
Continuous
 62
     7
370
    15
100
AcDbLine
 10
112.5678181123
 20
142.246003154
 30
0.0
 11
112.6561085697
 21
142.246003154
 31
0.0
  0
LINE
  5
161
330
1F
100
AcDbEntity
  8
0
  6
Continuous
 62
     7
370
    15
100
AcDbLine
 10
115.9869305403
 20
142.246003154
 30
0.0
 11
116.0752209977
 21
142.246003154
 31
0.0
  0
LINE
  5
162
330
1F
100
AcDbEntity
  8
0
  6
Continuous
 62
     7
370
    15
100
AcDbLine
 10
120.0752209977
 20
141.446003154
 30
0.0
 11
118.0752209977
 21
141.446003154
 31
0.0
  0
LINE
  5
163
330
1F
100
AcDbEntity
  8
0
  6
Continuous
 62
     7
370
    15
100
AcDbLine
 10
114.0752209977
 20
141.446003154
 30
0.0
 11
112.0752209977
 21
141.446003154
 31
0.0
  0
LINE
  5
164
330
1F
100
AcDbEntity
  8
0
  6
Continuous
 62
     7
370
    15
100
AcDbLine
 10
120.0752209977
 20
141.446003154
 30
0.0
 11
120.0752209977
 21
135.446003154
 31
0.0
  0
LINE
  5
165
330
1F
100
AcDbEntity
  8
0
  6
Continuous
 62
     7
370
    15
100
AcDbLine
 10
120.0752209977
 20
135.446003154
 30
0.0
 11
112.0752209977
 21
135.446003154
 31
0.0
  0
LINE
  5
166
330
1F
100
AcDbEntity
  8
0
  6
Continuous
 62
     7
370
    15
100
AcDbLine
 10
112.0752209977
 20
141.446003154
 30
0.0
 11
112.0752209977
 21
135.446003154
 31
0.0
  0
LINE
  5
167
330
1F
100
AcDbEntity
  8
0
  6
Continuous
 62
     7
370
    15
100
AcDbLine
 10
120.0752209977
 20
135.446003154
 30
0.0
 11
120.0752209977
 21
129.446003154
 31
0.0
  0
LINE
  5
168
330
1F
100
AcDbEntity
  8
0
  6
Continuous
 62
     7
370
    15
100
AcDbLine
 10
120.0752209977
 20
129.446003154
 30
0.0
 11
118.0752209977
 21
129.446003154
 31
0.0
  0
LINE
  5
169
330
1F
100
AcDbEntity
  8
0
  6
Continuous
 62
     7
370
    15
100
AcDbLine
 10
114.0752209977
 20
129.446003154
 30
0.0
 11
112.0752209977
 21
129.446003154
 31
0.0
  0
LINE
  5
16A
330
1F
100
AcDbEntity
  8
0
  6
Continuous
 62
     7
370
    15
100
AcDbLine
 10
112.0752209977
 20
135.446003154
 30
0.0
 11
112.0752209977
 21
129.446003154
 31
0.0
  0
LINE
  5
16B
330
1F
100
AcDbEntity
  8
0
  6
Continuous
 62
     7
370
    15
100
AcDbLine
 10
121.0752209977
 20
139.196003154
 30
0.0
 11
121.0752209977
 21
131.696003154
 31
0.0
  0
LINE
  5
16C
330
1F
100
AcDbEntity
  8
0
  6
Continuous
 62
     7
370
    15
100
AcDbLine
 10
106.5752209977
 20
138.946003154
 30
0.0
 11
106.5752209977
 21
131.946003154
 31
0.0
  0
LINE
  5
16D
330
1F
100
AcDbEntity
  8
0
  6
Continuous
 62
     7
370
    15
100
AcDbLine
 10
108.5752209977
 20
138.946003154
 30
0.0
 11
108.5752209977
 21
131.946003154
 31
0.0
  0
LINE
  5
16E
330
1F
100
AcDbEntity
  8
0
  6
Continuous
 62
     7
370
    15
100
AcDbLine
 10
145.0752209977
 20
137.446003154
 30
0.0
 11
145.0752209977
 21
133.446003154
 31
0.0
  0
LINE
  5
16F
330
1F
100
AcDbEntity
  8
0
  6
Continuous
 62
     7
370
    15
100
AcDbLine
 10
144.5752209977
 20
132.946003154
 30
0.0
 11
144.5752209977
 21
137.946003154
 31
0.0
  0
SPLINE
  5
170
330
1F
100
AcDbEntity
  8
0
  6
Continuous
 62
     7
370
    15
100
AcDbSpline
210
0.0
220
0.0
230
1.0
 70
    24
 71
     3
 72
    12
 73
     8
 74
     0
 42
0.00000001
 43
0.00000001
 12
1.0
 22
0.0
 32
0.0
 13
1.0
 23
0.0
 33
0.0
 40
0.0
 40
0.0
 40
0.0
 40
0.0
 40
0.2129821290599578
 40
0.4253184967852425
 40
0.6520055322121997
 40
0.8632997294329632
 40
0.9999999999999999
 40
0.9999999999999999
 40
0.9999999999999999
 40
0.9999999999999999
 10
127.7877827575906
 20
135.4460031539908
 30
0.0
 10
127.7599573304449
 20
135.4460031539908
 30
0.0
 10
127.7043908427856
 20
135.4460031539908
 30
0.0
 10
127.6287243339984
 20
135.4460031539908
 30
0.0
 10
127.5709893284067
 20
135.4460031539908
 30
0.0
 10
127.5412639343037
 20
135.4460031539908
 30
0.0
 10
127.5415374186793
 20
135.4460031539908
 30
0.0
 10
127.5416448496634
 20
135.4460031539908
 30
0.0
  0
SPLINE
  5
171
330
1F
100
AcDbEntity
  8
0
  6
Continuous
 62
     7
370
    15
100
AcDbSpline
210
0.0
220
0.0
230
1.0
 70
     8
 71
     3
 72
    12
 73
     8
 74
     0
 42
0.00000001
 43
0.00000001
 12
1.0
 22
0.0
 32
0.0
 13
1.0
 23
0.0
 33
0.0
 40
-0.0000637491377567
 40
-0.0000637491377567
 40
-0.0000637491377567
 40
-0.0000637491377567
 40
0.0
 40
0.1666666666667
 40
0.3333333333333
 40
0.5
 40
0.5000618884271515
 40
0.5000618884271515
 40
0.5000618884271515
 40
0.5000618884271515
 10
120.3877826299743
 20
131.6447735078183
 30
0.0
 10
120.3877495049531
 20
131.6447735217202
 30
0.0
 10
120.3011138395489
 20
131.6447917030555
 30
0.0
 10
120.1278756337652
 20
131.5497427880389
 30
0.0
 10
120.1278756337652
 20
131.2646505661398
 30
0.0
 10
120.3011128726953
 20
131.169602181598
 30
0.0
 10
120.3877475712459
 20
131.1696198320588
 30
0.0
 10
120.3877797294137
 20
131.169619845161
 30
0.0
  0
SPLINE
  5
172
330
1F
100
AcDbEntity
  8
0
  6
Continuous
 62
     7
370
    15
100
AcDbSpline
210
0.0
220
0.0
230
1.0
 70
    24
 71
     3
 72
    12
 73
     8
 74
     0
 42
0.00000001
 43
0.00000001
 12
1.0
 22
0.0
 32
0.0
 13
1.0
 23
0.0
 33
0.0
 40
0.0
 40
0.0
 40
0.0
 40
0.0
 40
0.2104504258644447
 40
0.420261179836618
 40
0.6443063345843699
 40
0.8532296879983328
 40
1.0
 40
1.0
 40
1.0
 40
1.0
 10
127.7877827575906
 20
135.4460031539908
 30
0.0
 10
127.8156046909768
 20
135.4460031539908
 30
0.0
 10
127.8711639919484
 20
135.4460031539908
 30
0.0
 10
127.9468288867776
 20
135.4460031539908
 30
0.0
 10
128.0047151701903
 20
135.4460031539908
 30
0.0
 10
128.0348466758352
 20
135.4460031539908
 30
0.0
 10
128.0344854512635
 20
135.4460031539908
 30
0.0
 10
128.0343363987268
 20
135.4460031539908
 30
0.0
  0
SPLINE
  5
173
330
1F
100
AcDbEntity
  8
0
  6
Continuous
 62
     7
370
    15
100
AcDbSpline
210
0.0
220
0.0
230
1.0
 70
     8
 71
     3
 72
    10
 73
     6
 74
     0
 42
0.00000001
 43
0.00000001
 12
1.0
 22
0.0
 32
0.0
 13
1.0
 23
0.0
 33
0.0
 40
0.5000618884285881
 40
0.5000618884285881
 40
0.5000618884285881
 40
0.5000618884285881
 40
0.6666666666666999
 40
0.8333333333333001
 40
0.9999362508604824
 40
0.9999362508604824
 40
0.9999362508604824
 40
0.9999362508604824
 10
120.3877797294137
 20
131.169619845161
 30
0.0
 10
120.4743501056548
 20
131.1696551166023
 30
0.0
 10
120.6474908760352
 20
131.2646858539591
 30
0.0
 10
120.6474908760352
 20
131.5497064392712
 30
0.0
 10
120.4743520389976
 20
131.6447371764288
 30
0.0
 10
120.3877826299743
 20
131.6447735078183
 30
0.0
  0
LINE
  5
174
330
1F
100
AcDbEntity
  8
0
  6
Continuous
 62
     7
370
    15
100
AcDbLine
 10
118.0752209977
 20
141.446003154
 30
0.0
 11
114.0752209977
 21
141.446003154
 31
0.0
  0
LINE
  5
175
330
1F
100
AcDbEntity
  8
0
  6
Continuous
 62
     7
370
    15
100
AcDbLine
 10
120.0752209977
 20
142.246003154
 30
0.0
 11
119.582623883
 21
142.246003154
 31
0.0
  0
LINE
  5
176
330
1F
100
AcDbEntity
  8
0
  6
Continuous
 62
     7
370
    15
100
AcDbLine
 10
119.4943334256
 20
142.246003154
 30
0.0
 11
116.163511455
 21
142.246003154
 31
0.0
  0
LINE
  5
177
330
1F
100
AcDbEntity
  8
0
  6
Continuous
 62
     7
370
    15
100
AcDbLine
 10
115.9869305403
 20
142.246003154
 30
0.0
 11
112.6561085697
 21
142.246003154
 31
0.0
  0
LINE
  5
178
330
1F
100
AcDbEntity
  8
0
  6
Continuous
 62
     7
370
    15
100
AcDbLine
 10
112.5678181123
 20
142.246003154
 30
0.0
 11
112.0752209977
 21
142.246003154
 31
0.0
  0
LINE
  5
179
330
1F
100
AcDbEntity
  8
0
  6
Continuous
 62
     7
370
    15
100
AcDbLine
 10
118.0752209977
 20
129.446003154
 30
0.0
 11
114.0752209977
 21
129.446003154
 31
0.0
  0
LINE
  5
17A
330
1F
100
AcDbEntity
  8
0
  6
Continuous
 62
     7
370
    15
100
AcDbLine
 10
120.0752209977
 20
128.646003154
 30
0.0
 11
119.582623883
 21
128.646003154
 31
0.0
  0
LINE
  5
17B
330
1F
100
AcDbEntity
  8
0
  6
Continuous
 62
     7
370
    15
100
AcDbLine
 10
119.4943334256
 20
128.646003154
 30
0.0
 11
116.163511455
 21
128.646003154
 31
0.0
  0
LINE
  5
17C
330
1F
100
AcDbEntity
  8
0
  6
Continuous
 62
     7
370
    15
100
AcDbLine
 10
115.9869305403
 20
128.646003154
 30
0.0
 11
112.6561085697
 21
128.646003154
 31
0.0
  0
LINE
  5
17D
330
1F
100
AcDbEntity
  8
0
  6
Continuous
 62
     7
370
    15
100
AcDbLine
 10
112.5678181123
 20
128.646003154
 30
0.0
 11
112.0752209977
 21
128.646003154
 31
0.0
  0
SPLINE
  5
17E
330
1F
100
AcDbEntity
  8
0
  6
Continuous
 62
     8
370
    15
100
AcDbSpline
210
0.0
220
0.0
230
1.0
 70
     8
 71
     3
 72
    20
 73
    16
 74
     0
 42
0.00000001
 43
0.00000001
 12
1.0
 22
0.0
 32
0.0
 13
1.0
 23
0.0
 33
0.0
 40
0.0
 40
0.0
 40
0.0
 40
0.0
 40
0.0770006287049286
 40
0.1539076769257603
 40
0.230781643991496
 40
0.3077373386862239
 40
0.3847960099075158
 40
0.4619006963366351
 40
0.538968649918701
 40
0.6159431747980821
 40
0.6928458585138574
 40
0.769790407462336
 40
0.8468309124018344
 40
0.9239301818683685
 40
0.9999999999999999
 40
0.9999999999999999
 40
0.9999999999999999
 40
0.9999999999999999
 10
127.7877827532167
 20
135.4460110597514
 30
0.0
 10
127.7749391330864
 20
135.6275401983167
 30
0.0
 10
127.7492675019475
 20
135.9903778592661
 30
0.0
 10
127.7107085470177
 20
136.5268999553423
 30
0.0
 10
127.6721353145148
 20
137.0470419798766
 30
0.0
 10
127.633589195554
 20
137.5431527848169
 30
0.0
 10
127.5950624793238
 20
138.0090781107363
 30
0.0
 10
127.5565422116262
 20
138.4385383429715
 30
0.0
 10
127.5180153802607
 20
138.8252132223004
 30
0.0
 10
127.4794693209343
 20
139.1628850936248
 30
0.0
 10
127.4408956853273
 20
139.4445416559792
 30
0.0
 10
127.4023406350347
 20
139.6655625769284
 30
0.0
 10
127.363808478387
 20
139.823770883219
 30
0.0
 10
127.3254578699208
 20
139.9236504274848
 30
0.0
 10
127.2999264027961
 20
139.9362465408938
 30
0.0
 10
127.2872464678871
 20
139.9425022682811
 30
0.0
  0
SPLINE
  5
17F
330
1F
100
AcDbEntity
  8
0
  6
Continuous
 62
     8
370
    15
100
AcDbSpline
210
0.0
220
0.0
230
1.0
 70
     8
 71
     3
 72
    34
 73
    30
 74
     0
 42
0.00000001
 43
0.00000001
 12
1.0
 22
0.0
 32
0.0
 13
1.0
 23
0.0
 33
0.0
 40
0.0
 40
0.0
 40
0.0
 40
0.0
 40
0.0014150146755851
 40
0.0399636756580481
 40
0.0785222813655246
 40
0.1171281310175896
 40
0.1557692878542206
 40
0.1944088746926247
 40
0.2330110136820831
 40
0.2715667774072315
 40
0.3101174012769459
 40
0.3487115210709721
 40
0.3873470631998137
 40
0.4259907618882949
 40
0.4646041404395079
 40
0.503169432103344
 40
0.5417151784493613
 40
0.5802973277763014
 40
0.6189252248872403
 40
0.6575707079656897
 40
0.6961941898843939
 40
0.7347705655915351
 40
0.7733153119127241
 40
0.8118859076883939
 40
0.8505044223852276
 40
0.8891492953523519
 40
0.9277813180447011
 40
0.9663695460525982
 40
1.0
 40
1.0
 40
1.0
 40
1.0
 10
126.2860703734091
 20
130.9482409048357
 30
0.0
 10
126.2855993058881
 20
130.9478652660877
 30
0.0
 10
126.272295140251
 20
130.9372562559156
 30
0.0
 10
126.2461060586476
 20
130.9777946930982
 30
0.0
 10
126.2075494514956
 20
131.077319138594
 30
0.0
 10
126.1690136024297
 20
131.2486731030383
 30
0.0
 10
126.1304912965684
 20
131.4783177028031
 30
0.0
 10
126.0919680388602
 20
131.7650554799686
 30
0.0
 10
126.0534320593752
 20
132.1044819061649
 30
0.0
 10
126.0148682844446
 20
132.4931111681223
 30
0.0
 10
125.9762999309702
 20
132.927054338723
 30
0.0
 10
125.9377605800442
 20
133.3983698582944
 30
0.0
 10
125.899236089527
 20
133.8993535901919
 30
0.0
 10
125.8607142836379
 20
134.4224287901858
 30
0.0
 10
125.8221824415975
 20
134.9600288877545
 30
0.0
 10
125.783626321633
 20
135.5046348552364
 30
0.0
 10
125.745053368535
 20
136.0483562125162
 30
0.0
 10
125.7065080999943
 20
136.5830303113169
 30
0.0
 10
125.6679811226352
 20
137.1013924286951
 30
0.0
 10
125.629459912332
 20
137.5962045207587
 30
0.0
 10
125.5909314896361
 20
138.0601789920665
 30
0.0
 10
125.5523828657114
 20
138.4861203309343
 30
0.0
 10
125.5138089440705
 20
138.8661435807178
 30
0.0
 10
125.4752565905063
 20
139.1942443293379
 30
0.0
 10
125.4367265173131
 20
139.4677417472539
 30
0.0
 10
125.3982050855165
 20
139.6842122491512
 30
0.0
 10
125.3596795145012
 20
139.8384191957277
 30
0.0
 10
125.3227742809208
 20
139.9316463354774
 30
0.0
 10
125.2987005051309
 20
139.938833804081
 30
0.0
 10
125.2874899431804
 20
139.9421808304366
 30
0.0
  0
SPLINE
  5
180
330
1F
100
AcDbEntity
  8
0
  6
Continuous
 62
     8
370
    15
100
AcDbSpline
210
0.0
220
0.0
230
1.0
 70
     8
 71
     3
 72
    34
 73
    30
 74
     0
 42
0.00000001
 43
0.00000001
 12
1.0
 22
0.0
 32
0.0
 13
1.0
 23
0.0
 33
0.0
 40
0.0
 40
0.0
 40
0.0
 40
0.0
 40
0.0077616297554976
 40
0.0462890942117263
 40
0.0848493767577421
 40
0.1234047952867274
 40
0.1619207661863299
 40
0.200391713548643
 40
0.2388626609109554
 40
0.2773786318105554
 40
0.3159340503395384
 40
0.354494332885551
 40
0.3930217973417789
 40
0.4315015372779568
 40
0.4699664555349402
 40
0.5084704939922637
 40
0.5470189423110849
 40
0.5855818046532338
 40
0.6241197873550061
 40
0.6626101537209604
 40
0.7010727134793047
 40
0.7395650035995862
 40
0.7781046391349806
 40
0.8166677044630283
 40
0.8552147800171511
 40
0.8937167955333339
 40
0.932181037501066
 40
0.9706624730981592
 40
1.0
 40
1.0
 40
1.0
 40
1.0
 10
124.2882637794407
 20
130.9527215214632
 30
0.0
 10
124.2856721563624
 20
130.9511190544252
 30
0.0
 10
124.2702161389265
 20
130.9415622023167
 30
0.0
 10
124.2419333569549
 20
130.9891299266652
 30
0.0
 10
124.2034081857344
 20
131.0960954034399
 30
0.0
 10
124.1648851962503
 20
131.2708993819007
 30
0.0
 10
124.1263473643677
 20
131.5041853658108
 30
0.0
 10
124.0877812555979
 20
131.7961081646171
 30
0.0
 10
124.0492150741743
 20
132.1439638628396
 30
0.0
 10
124.0106774605841
 20
132.5406500400633
 30
0.0
 10
123.9721536696705
 20
132.9792901696721
 30
0.0
 10
123.9336314857254
 20
133.4531120300528
 30
0.0
 10
123.8950983240506
 20
133.9553865868126
 30
0.0
 10
123.8565395700097
 20
134.479408335536
 30
0.0
 10
123.8179678112575
 20
135.0182272302448
 30
0.0
 10
123.7794246896445
 20
135.5634427050092
 30
0.0
 10
123.7408986238312
 20
136.1071199982427
 30
0.0
 10
123.702377300423
 20
136.6414395092783
 30
0.0
 10
123.6638477928786
 20
137.158532084306
 30
0.0
 10
123.6252967076091
 20
137.6506224031708
 30
0.0
 10
123.5867226713874
 20
138.1092953591637
 30
0.0
 10
123.5481728286558
 20
138.5276595153574
 30
0.0
 10
123.5096438782204
 20
138.9013543379449
 30
0.0
 10
123.4711226020492
 20
139.225755160619
 30
0.0
 10
123.4325961667484
 20
139.496005566958
 30
0.0
 10
123.3940517003297
 20
139.7081785716606
 30
0.0
 10
123.3554803714005
 20
139.8543918855168
 30
0.0
 10
123.3199883976143
 20
139.9341991034067
 30
0.0
 10
123.2973805144028
 20
139.9359483522829
 30
0.0
 10
123.287600662906
 20
139.9367050526816
 30
0.0
  0
SPLINE
  5
181
330
1F
100
AcDbEntity
  8
0
  6
Continuous
 62
     8
370
    15
100
AcDbSpline
210
0.0
220
0.0
230
1.0
 70
     8
 71
     3
 72
    34
 73
    30
 74
     0
 42
0.00000001
 43
0.00000001
 12
1.0
 22
0.0
 32
0.0
 13
1.0
 23
0.0
 33
0.0
 40
0.0
 40
0.0
 40
0.0
 40
0.0
 40
0.011511379992696
 40
0.0500362383399517
 40
0.0885197930198263
 40
0.1269599763832766
 40
0.1654052848774125
 40
0.2038968357791848
 40
0.2424257272486466
 40
0.2809561842185743
 40
0.3194514351525831
 40
0.3578995774872874
 40
0.3963378035867983
 40
0.4348175077477747
 40
0.4733401183779731
 40
0.5118739407064972
 40
0.5503800887192621
 40
0.5888383254673286
 40
0.6272728770581516
 40
0.6657406965597789
 40
0.7042550785256823
 40
0.7427899047796643
 40
0.7813056714955415
 40
0.8197753213656161
 40
0.8582102635426331
 40
0.8966669758659698
 40
0.9351716562469063
 40
0.9737051994136757
 40
1.0
 40
1.0
 40
1.0
 40
1.0
 10
122.2878361473335
 20
130.9571211574934
 30
0.0
 10
122.283998156285
 20
130.9551997861103
 30
0.0
 10
122.2673156529733
 20
130.9468482073661
 30
0.0
 10
122.2378023027568
 20
130.9970022544516
 30
0.0
 10
122.1992624504955
 20
131.1088521021506
 30
0.0
 10
122.1606942295276
 20
131.2897567102343
 30
0.0
 10
122.1221304251911
 20
131.5331827816669
 30
0.0
 10
122.0835944308003
 20
131.834572289696
 30
0.0
 10
122.0450712622686
 20
132.1879075850325
 30
0.0
 10
122.0065486146499
 20
132.5877040708867
 30
0.0
 10
121.9680140417945
 20
133.0284254526728
 30
0.0
 10
121.9294526780801
 20
133.5045838854242
 30
0.0
 10
121.8908825023262
 20
134.0105094627055
 30
0.0
 10
121.8523413824182
 20
134.5378136645272
 30
0.0
 10
121.8138161583151
 20
135.0783882039958
 30
0.0
 10
121.7752946307746
 20
135.6242656681488
 30
0.0
 10
121.7367639644183
 20
136.1674496556729
 30
0.0
 10
121.6982103272516
 20
136.7000227596011
 30
0.0
 10
121.6596366345933
 20
137.2135259067795
 30
0.0
 10
121.6210891971771
 20
137.7003809087432
 30
0.0
 10
121.582561285866
 20
138.1546764479532
 30
0.0
 10
121.5440400936397
 20
138.5703581132241
 30
0.0
 10
121.5055126228359
 20
138.9413265851239
 30
0.0
 10
121.4669662387892
 20
139.2616205694597
 30
0.0
 10
121.4283927762676
 20
139.5243378045359
 30
0.0
 10
121.3898382504732
 20
139.7255598897491
 30
0.0
 10
121.3513060706056
 20
139.8619722820868
 30
0.0
 10
121.3168641461639
 20
139.9355631741417
 30
0.0
 10
121.2952427973504
 20
139.9353875020843
 30
0.0
 10
121.2864730367403
 20
139.9353162483478
 30
0.0
  0
LINE
  5
182
330
1F
100
AcDbEntity
  8
0
  6
Continuous
 62
     8
370
    15
100
AcDbLine
 10
120.3877826261
 20
131.644775602
 30
0.0
 11
120.3990240576
 21
131.696003154
 31
0.0
  0
SPLINE
  5
183
330
1F
100
AcDbEntity
  8
0
  6
Continuous
 62
     8
370
    15
100
AcDbSpline
210
0.0
220
0.0
230
1.0
 70
     8
 71
     3
 72
    11
 73
     7
 74
     0
 42
0.00000001
 43
0.00000001
 12
1.0
 22
0.0
 32
0.0
 13
1.0
 23
0.0
 33
0.0
 40
0.0
 40
0.0
 40
0.0
 40
0.0
 40
0.0572825245462227
 40
0.4070881658956528
 40
0.7565639992743058
 40
1.0
 40
1.0
 40
1.0
 40
1.0
 10
121.0752209976584
 20
138.5800452633393
 30
0.0
 10
121.077324813082
 20
138.5973804690765
 30
0.0
 10
121.0922759411785
 20
138.7205761062258
 30
0.0
 10
121.1200550386691
 20
138.9049554802215
 30
0.0
 10
121.1547062320289
 20
139.1113404474321
 30
0.0
 10
121.1765335816697
 20
139.1988950224324
 30
0.0
 10
121.1854953908248
 20
139.2348429228745
 30
0.0
  0
SPLINE
  5
184
330
1F
100
AcDbEntity
  8
0
  6
Continuous
 62
     8
370
    15
100
AcDbSpline
210
0.0
220
0.0
230
1.0
 70
     8
 71
     3
 72
    12
 73
     8
 74
     0
 42
0.00000001
 43
0.00000001
 12
1.0
 22
0.0
 32
0.0
 13
1.0
 23
0.0
 33
0.0
 40
0.0
 40
0.0
 40
0.0
 40
0.0
 40
0.0067084444072569
 40
0.2191708974251479
 40
0.4318337358361592
 40
0.7510238368725645
 40
1.0
 40
1.0
 40
1.0
 40
1.0
 10
122.3907322175808
 20
131.6543598780392
 30
0.0
 10
122.3911376545619
 20
131.6556757640601
 30
0.0
 10
122.404383644483
 20
131.6986669409427
 30
0.0
 10
122.4305145702473
 20
131.8363148844578
 30
0.0
 10
122.4754683830748
 20
132.1092745599927
 30
0.0
 10
122.5226027466853
 20
132.4708665001053
 30
0.0
 10
122.556909804904
 20
132.8012331639687
 30
0.0
 10
122.5719435023658
 20
132.9460031539908
 30
0.0
  0
SPLINE
  5
185
330
1F
100
AcDbEntity
  8
0
  6
Continuous
 62
     8
370
    15
100
AcDbSpline
210
0.0
220
0.0
230
1.0
 70
     8
 71
     3
 72
    12
 73
     8
 74
     0
 42
0.00000001
 43
0.00000001
 12
1.0
 22
0.0
 32
0.0
 13
1.0
 23
0.0
 33
0.0
 40
0.0
 40
0.0
 40
0.0
 40
0.0
 40
0.2382333288911003
 40
0.4497689569376629
 40
0.6610539681295025
 40
0.8723248873775072
 40
1.0
 40
1.0
 40
1.0
 40
1.0
 10
123.0037654027292
 20
137.9460031539908
 30
0.0
 10
123.0182289336551
 20
138.0865783992095
 30
0.0
 10
123.0455351348842
 20
138.3519752759082
 30
0.0
 10
123.0856721273279
 20
138.673170159916
 30
0.0
 10
123.1242376040737
 20
138.9371086961161
 30
0.0
 10
123.1577103665827
 20
139.12612941219
 30
0.0
 10
123.1782931474464
 20
139.2047828142672
 30
0.0
 10
123.1860463252911
 20
139.2344101915606
 30
0.0
  0
SPLINE
  5
186
330
1F
100
AcDbEntity
  8
0
  6
Continuous
 62
     8
370
    15
100
AcDbSpline
210
0.0
220
0.0
230
1.0
 70
     8
 71
     3
 72
    13
 73
     9
 74
     0
 42
0.00000001
 43
0.00000001
 12
1.0
 22
0.0
 32
0.0
 13
1.0
 23
0.0
 33
0.0
 40
0.0
 40
0.0
 40
0.0
 40
0.0
 40
0.0318496038015878
 40
0.2436506581113575
 40
0.4555308043718334
 40
0.6672744322532619
 40
0.8787567823781274
 40
1.0
 40
1.0
 40
1.0
 40
1.0
 10
124.390312081155
 20
131.6572233208463
 30
0.0
 10
124.3922463544802
 20
131.6638486617589
 30
0.0
 10
124.4070436176294
 20
131.7145327670813
 30
0.0
 10
124.4346605842063
 20
131.862546501453
 30
0.0
 10
124.4731857371114
 20
132.0997466900598
 30
0.0
 10
124.5117140535151
 20
132.3918568557826
 30
0.0
 10
124.5447928381945
 20
132.6736583365355
 30
0.0
 10
124.5650217341331
 20
132.8732669592674
 30
0.0
 10
124.5723930234786
 20
132.9460031539908
 30
0.0
  0
SPLINE
  5
187
330
1F
100
AcDbEntity
  8
0
  6
Continuous
 62
     8
370
    15
100
AcDbSpline
210
0.0
220
0.0
230
1.0
 70
     8
 71
     3
 72
    12
 73
     8
 74
     0
 42
0.00000001
 43
0.00000001
 12
1.0
 22
0.0
 32
0.0
 13
1.0
 23
0.0
 33
0.0
 40
0.0
 40
0.0
 40
0.0
 40
0.0
 40
0.0536025079515105
 40
0.2653489529406233
 40
0.4771095215915117
 40
0.6891212711821579
 40
1.0
 40
1.0
 40
1.0
 40
1.0
 10
125.0030354772777
 20
137.9460031539908
 30
0.0
 10
125.0062835510742
 20
137.9789161120031
 30
0.0
 10
125.0223625185312
 20
138.1418454091668
 30
0.0
 10
125.0513260735992
 20
138.3983686989369
 30
0.0
 10
125.0898900638867
 20
138.7039846568463
 30
0.0
 10
125.1343957844744
 20
139.0038802751769
 30
0.0
 10
125.1660698904226
 20
139.1483187219671
 30
0.0
 10
125.1849013784688
 20
139.2341929969535
 30
0.0
  0
SPLINE
  5
188
330
1F
100
AcDbEntity
  8
0
  6
Continuous
 62
     8
370
    15
100
AcDbSpline
210
0.0
220
0.0
230
1.0
 70
     8
 71
     3
 72
     9
 73
     5
 74
     0
 42
0.00000001
 43
0.00000001
 12
1.0
 22
0.0
 32
0.0
 13
1.0
 23
0.0
 33
0.0
 40
0.0
 40
0.0
 40
0.0
 40
0.0
 40
0.2679061270002094
 40
1.0
 40
1.0
 40
1.0
 40
1.0
 10
126.3897075410466
 20
131.6586650647056
 30
0.0
 10
126.3932314816411
 20
131.6707719314734
 30
0.0
 10
126.4063851210666
 20
131.7159626365285
 30
0.0
 10
126.4195529233659
 20
131.7887465233235
 30
0.0
 10
126.4291929907501
 20
131.8420311608991
 30
0.0
  0
LINE
  5
189
330
1F
100
AcDbEntity
  8
0
  6
Continuous
 62
     8
370
    15
100
AcDbLine
 10
127.1753910981
 20
139.196003154
 30
0.0
 11
127.1851793996
 21
139.2332494882
 31
0.0
  0
DIMENSION
  5
18A
330
1F
100
AcDbEntity
  8
0
  6
Continuous
 62
     7
370
     0
100
AcDbDimension
  2
_D
 10
96.5752209977
 20
131.946003154
 30
0.0
 11
96.5752209977
 21
135.446003154
 31
0.0
 70
   160
  1
%%c<>
 71
     2
 42
-1.0
  3
SLDDIMSTYLE1
100
AcDbAlignedDimension
 13
106.5752209977
 23
138.946003154
 33
0.0
 14
106.5752209977
 24
131.946003154
 34
0.0
 50
90.0
100
AcDbRotatedDimension
  0
DIMENSION
  5
198
330
1F
100
AcDbEntity
  8
0
  6
Continuous
 62
     7
370
     0
100
AcDbDimension
  2
_D_1
 10
106.5752209977
 20
158.0978118651
 30
0.0
 11
118.0237436194
 21
158.0978118651
 31
0.0
 70
   160
  1
<>
 71
     2
 42
-1.0
  3
SLDDIMSTYLE1
100
AcDbAlignedDimension
 13
112.0752209977
 23
141.446003154
 33
0.0
 14
106.5752209977
 24
138.946003154
 34
0.0
100
AcDbRotatedDimension
  0
DIMENSION
  5
1A4
330
1F
100
AcDbEntity
  8
0
  6
Continuous
 62
     7
370
     0
100
AcDbDimension
  2
_D_2
 10
131.0752209977
 20
158.0978118651
 30
0.0
 11
128.5752209977
 21
158.0978118651
 31
0.0
 70
   160
  1
<>
 71
     2
 42
-1.0
  3
SLDDIMSTYLE1
100
AcDbAlignedDimension
 13
126.0752209977
 23
138.696003154
 33
0.0
 14
131.0752209977
 24
142.9515566535
 34
0.0
100
AcDbRotatedDimension
  0
DIMENSION
  5
1B0
330
1F
100
AcDbEntity
  8
0
  6
Continuous
 62
     7
370
     0
100
AcDbDimension
  2
_D_3
 10
143.0752209977
 20
158.0978118651
 30
0.0
 11
137.0752209977
 21
158.0978118651
 31
0.0
 70
   160
  1
<>
 71
     2
 42
-1.0
  3
SLDDIMSTYLE2
100
AcDbAlignedDimension
 13
131.0752209977
 23
142.9515566535
 33
0.0
 14
143.0752209977
 24
139.446003154
 34
0.0
100
AcDbRotatedDimension
  0
DIMENSION
  5
1BB
330
1F
100
AcDbEntity
  8
0
  6
Continuous
 62
     7
370
     0
100
AcDbDimension
  2
_D_4
 10
145.0752209977
 20
169.153771925
 30
0.0
 11
138.0752209977
 21
169.153771925
 31
0.0
 70
   160
  1
<>
 71
     2
 42
-1.0
  3
SLDDIMSTYLE2
100
AcDbAlignedDimension
 13
131.0752209977
 23
142.9515566535
 33
0.0
 14
145.0752209977
 24
137.446003154
 34
0.0
100
AcDbRotatedDimension
  0
DIMENSION
  5
1C5
330
1F
100
AcDbEntity
  8
0
  6
Continuous
 62
     7
370
     0
100
AcDbDimension
  2
_D_5
 10
155.0752209977
 20
132.946003154
 30
0.0
 11
155.0752209977
 21
120.2917286892
 31
0.0
 70
   160
  1
%%c<>
 71
     2
 42
-1.0
  3
SLDDIMSTYLE1
100
AcDbAlignedDimension
 13
144.5752209977
 23
137.946003154
 33
0.0
 14
144.5752209977
 24
132.946003154
 34
0.0
 50
90.0
100
AcDbRotatedDimension
  0
DIMENSION
  5
1D2
330
1F
100
AcDbEntity
  8
0
  6
Continuous
 62
     7
370
     0
100
AcDbDimension
  2
_D_6
 10
164.2582253756
 20
127.3630993853
 30
0.0
 11
164.2582253756
 21
135.446003154
 31
0.0
 70
   160
  1
<>
 71
     2
 42
-1.0
  3
SLDDIMSTYLE2
100
AcDbAlignedDimension
 13
140.6602531543
 23
143.5289069226
 33
0.0
 14
140.6602531543
 24
127.3630993853
 34
0.0
 50
90.0
100
AcDbRotatedDimension
  0
DIMENSION
  5
1DC
330
1F
100
AcDbEntity
  8
0
  6
Continuous
 62
     7
370
     0
100
AcDbDimension
  2
_D_7
 10
131.0752209977
 20
120.2917286892
 30
0.0
 11
136.0940441574
 21
120.2917286892
 31
0.0
 70
   160
  1
<>
 71
     2
 42
-1.0
  3
SLDDIMSTYLE1
100
AcDbAlignedDimension
 13
128.0752209977
 23
127.9404496545
 33
0.0
 14
131.0752209977
 24
127.9404496545
 34
0.0
 50
0.0
100
AcDbRotatedDimension
  0
DIMENSION
  5
1E8
330
1F
100
AcDbEntity
  8
0
  6
Continuous
 62
     7
370
     0
100
AcDbDimension
  2
_D_8
 10
121.0752209977
 20
106.9093828178
 30
0.0
 11
131.8872664963
 21
106.9093828178
 31
0.0
 70
   160
  1
<>st
 71
     2
 42
-1.0
  3
SLDDIMSTYLE1
100
AcDbAlignedDimension
 13
126.0752209977
 23
132.196003154
 33
0.0
 14
121.0752209977
 24
131.696003154
 34
0.0
100
AcDbRotatedDimension
  0
DIMENSION
  5
1F5
330
1F
100
AcDbEntity
  8
0
  6
Continuous
 62
     7
370
     0
100
AcDbDimension
  2
_D_9
 10
145.0752209977
 20
93.4547774861
 30
0.0
 11
125.8252209977
 21
93.4547774861
 31
0.0
 70
   160
  1
<>
 71
     2
 42
-1.0
  3
SLDDIMSTYLE2
100
AcDbAlignedDimension
 13
106.5752209977
 23
131.946003154
 33
0.0
 14
145.0752209977
 24
133.446003154
 34
0.0
100
AcDbRotatedDimension
  0
MTEXT
  5
1FF
330
1F
100
AcDbEntity
  8
0
  6
Continuous
 62
     7
370
     0
100
AcDbMText
 10
88.0946581229
 20
112.5287563746
 30
0.0
 40
3.5
 41
0.0
 71
     1
 72
     1
  1
BF-6
  7
SLDTEXTSTYLE1
 73
     1
 44
1.0
  0
LEADER
  5
200
330
1F
100
AcDbEntity
  8
0
  6
Continuous
 62
     7
370
     0
100
AcDbLeader
  3
SLDDIMSTYLE0
 76
     3
 10
115.4098936662
 20
123.646003154
 30
0.0
 10
97.5802919708
 20
108.1204379562
 30
0.0
 10
87.9562043796
 20
108.1204379562
 30
0.0
  0
MTEXT
  5
201
330
1F
100
AcDbEntity
  8
0
  6
Continuous
 62
     7
370
     0
100
AcDbMText
 10
91.6799659635
 20
159.1433448073
 30
0.0
 40
3.5
 41
0.0
 71
     1
 72
     1
  1
PF
  7
SLDTEXTSTYLE1
 73
     1
 44
1.0
  0
LEADER
  5
202
330
1F
100
AcDbEntity
  8
0
  6
Continuous
 62
     7
370
     0
100
AcDbLeader
  3
SLDDIMSTYLE0
 76
     3
 10
114.3490141629
 20
143.4780946118
 30
0.0
 10
97.0328467153
 20
154.4708029197
 30
0.0
 10
91.6058394161
 20
154.4708029197
 30
0.0
  0
MTEXT
  5
203
330
1F
100
AcDbEntity
  8
0
  6
Continuous
 62
     7
370
     0
100
AcDbMText
 10
156.3315194787
 20
161.5838545319
 30
0.0
 40
3.5
 41
0.0
 71
     1
 72
     1
  1
M10 P=1.0
  7
SLDTEXTSTYLE1
 73
     1
 44
1.0
  0
LEADER
  5
204
330
1F
100
AcDbEntity
  8
0
  6
Continuous
 62
     7
370
     0
100
AcDbLeader
  3
SLDDIMSTYLE0
 76
     3
 10
141.7827037115
 20
140.446003154
 30
0.0
 10
155.704379562
 20
157.0255474453
 30
0.0
 10
179.0145985401
 20
157.0255474453
 30
0.0
  0
ENDSEC
  0
SECTION
  2
OBJECTS
  0
DICTIONARY
  5
C
330
0
100
AcDbDictionary
281
     1
  3
ACAD_GROUP
350
D
  3
ACAD_LAYOUT
350
1A
  3
ACAD_MLINESTYLE
350
17
  3
ACAD_PLOTSETTINGS
350
19
  3
ACAD_PLOTSTYLENAME
350
E
  0
DICTIONARY
  5
D
102
{ACAD_REACTORS
330
C
102
}
330
C
100
AcDbDictionary
281
     1
  0
DICTIONARY
  5
1A
102
{ACAD_REACTORS
330
C
102
}
330
C
100
AcDbDictionary
281
     1
  3
Layout1
350
1E
  3
Layout2
350
26
  3
Model
350
22
  0
DICTIONARY
  5
17
102
{ACAD_REACTORS
330
C
102
}
330
C
100
AcDbDictionary
281
     1
  3
Standard
350
18
  0
DICTIONARY
  5
19
102
{ACAD_REACTORS
330
C
102
}
330
C
100
AcDbDictionary
281
     1
  0
ACDBDICTIONARYWDFLT
  5
E
102
{ACAD_REACTORS
330
C
102
}
330
C
100
AcDbDictionary
281
     1
  3
Normal
350
F
100
AcDbDictionaryWithDefault
340
F
  0
LAYOUT
  5
1E
102
{ACAD_REACTORS
330
1A
102
}
330
1A
100
AcDbPlotSettings
  1

  2
none_device
  4

  6

 40
0.0
 41
0.0
 42
0.0
 43
0.0
 44
0.0
 45
0.0
 46
0.0
 47
0.0
 48
0.0
 49
0.0
140
0.0
141
0.0
142
1.0
143
1.0
 70
   688
 72
     0
 73
     0
 74
     5
  7

 75
    16
147
1.0
148
0.0
149
0.0
100
AcDbLayout
  1
Layout1
 70
     1
 71
     1
 10
0.0
 20
0.0
 11
420.0
 21
297.0
 12
0.0
 22
0.0
 32
0.0
 14
1.0000000000E+20
 24
1.0000000000E+20
 34
1.0000000000E+20
 15
-1.0000000000E+20
 25
-1.0000000000E+20
 35
-1.0000000000E+20
146
0.0
 13
0.0
 23
0.0
 33
0.0
 16
1.0
 26
0.0
 36
0.0
 17
0.0
 27
1.0
 37
0.0
 76
     0
330
1B
  0
LAYOUT
  5
26
102
{ACAD_REACTORS
330
1A
102
}
330
1A
100
AcDbPlotSettings
  1

  2
none_device
  4

  6

 40
0.0
 41
0.0
 42
0.0
 43
0.0
 44
0.0
 45
0.0
 46
0.0
 47
0.0
 48
0.0
 49
0.0
140
0.0
141
0.0
142
1.0
143
1.0
 70
   688
 72
     0
 73
     0
 74
     5
  7

 75
    16
147
1.0
148
0.0
149
0.0
100
AcDbLayout
  1
Layout2
 70
     1
 71
     2
 10
0.0
 20
0.0
 11
0.0
 21
0.0
 12
0.0
 22
0.0
 32
0.0
 14
0.0
 24
0.0
 34
0.0
 15
0.0
 25
0.0
 35
0.0
146
0.0
 13
0.0
 23
0.0
 33
0.0
 16
1.0
 26
0.0
 36
0.0
 17
0.0
 27
1.0
 37
0.0
 76
     0
330
23
  0
LAYOUT
  5
22
102
{ACAD_REACTORS
330
1A
102
}
330
1A
100
AcDbPlotSettings
  1

  2
none_device
  4

  6

 40
0.0
 41
0.0
 42
0.0
 43
0.0
 44
0.0
 45
0.0
 46
0.0
 47
0.0
 48
0.0
 49
0.0
140
0.0
141
0.0
142
1.0
143
1.0
 70
  1712
 72
     0
 73
     0
 74
     0
  7

 75
     0
147
1.0
148
0.0
149
0.0
100
AcDbLayout
  1
Model
 70
     1
 71
     0
 10
0.0
 20
0.0
 11
210.0
 21
297.0
 12
0.0
 22
0.0
 32
0.0
 14
0.0
 24
0.0
 34
0.0
 15
210.0
 25
297.0
 35
0.0
146
0.0
 13
0.0
 23
0.0
 33
0.0
 16
1.0
 26
0.0
 36
0.0
 17
0.0
 27
1.0
 37
0.0
 76
     0
330
1F
331
29
  0
MLINESTYLE
  5
18
102
{ACAD_REACTORS
330
17
102
}
330
17
100
AcDbMlineStyle
  2
Standard
 70
     0
  3

 62
   256
 51
90.0
 52
90.0
 71
     2
 49
0.5
 62
   256
  6
BYLAYER
 49
-0.5
 62
   256
  6
BYLAYER
  0
ACDBPLACEHOLDER
  5
F
102
{ACAD_REACTORS
330
E
102
}
330
E
  0
ENDSEC
  0
EOF
