  0
SECTION
  2
HEADER
  9
$ACADVER
  1
AC1015
  9
$ACADMAINTVER
 70
     6
  9
$DWGCODEPAGE
  3
DOS932
  9
$INSBASE
 10
0.0
 20
0.0
 30
0.0
  9
$EXTMIN
 10
0.0
 20
0.0
 30
0.0
  9
$EXTMAX
 10
210.0
 20
297.0
 30
0.0
  9
$LIMMIN
 10
0.0
 20
0.0
  9
$LIMMAX
 10
210.0
 20
297.0
  9
$ORTHOMODE
 70
     0
  9
$REGENMODE
 70
     1
  9
$FILLMODE
 70
     1
  9
$QTEXTMODE
 70
     0
  9
$MIRRTEXT
 70
     1
  9
$LTSCALE
 40
1.0
  9
$ATTMODE
 70
     1
  9
$TEXTSIZE
 40
3.5
  9
$TRACEWID
 40
1.0
  9
$TEXTSTYLE
  7
Standard
  9
$CLAYER
  8
0
  9
$CELTYPE
  6
ByLayer
  9
$CECOLOR
 62
   256
  9
$CELTSCALE
 40
1.0
  9
$DISPSILH
 70
     0
  9
$DIMSCALE
 40
1.0
  9
$DIMASZ
 40
2.0
  9
$DIMEXO
 40
1.0
  9
$DIMDLI
 40
3.75
  9
$DIMRND
 40
0.0
  9
$DIMDLE
 40
0.0
  9
$DIMEXE
 40
1.0
  9
$DIMTP
 40
0.0
  9
$DIMTM
 40
0.0
  9
$DIMTXT
 40
3.5
  9
$DIMCEN
 40
2.5
  9
$DIMTSZ
 40
0.0
  9
$DIMTOL
 70
     0
  9
$DIMLIM
 70
     0
  9
$DIMTIH
 70
     1
  9
$DIMTOH
 70
     1
  9
$DIMSE1
 70
     0
  9
$DIMSE2
 70
     0
  9
$DIMTAD
 70
     1
  9
$DIMZIN
 70
     0
  9
$DIMBLK
  1

  9
$DIMASO
 70
     1
  9
$DIMSHO
 70
     1
  9
$DIMPOST
  1

  9
$DIMAPOST
  1

  9
$DIMALT
 70
     0
  9
$DIMALTD
 70
     3
  9
$DIMALTF
 40
0.0393700787
  9
$DIMLFAC
 40
1.0
  9
$DIMTOFL
 70
     1
  9
$DIMTVP
 40
0.0
  9
$DIMTIX
 70
     0
  9
$DIMSOXD
 70
     0
  9
$DIMSAH
 70
     0
  9
$DIMBLK1
  1

  9
$DIMBLK2
  1

  9
$DIMSTYLE
  2
ISO-25
  9
$DIMCLRD
 70
     0
  9
$DIMCLRE
 70
     0
  9
$DIMCLRT
 70
     0
  9
$DIMTFAC
 40
1.0
  9
$DIMGAP
 40
1.524
  9
$DIMJUST
 70
     0
  9
$DIMSD1
 70
     0
  9
$DIMSD2
 70
     0
  9
$DIMTOLJ
 70
     0
  9
$DIMTZIN
 70
     0
  9
$DIMALTZ
 70
     0
  9
$DIMALTTZ
 70
     0
  9
$DIMUPT
 70
     0
  9
$DIMDEC
 70
     2
  9
$DIMTDEC
 70
     2
  9
$DIMALTU
 70
     2
  9
$DIMALTTD
 70
     3
  9
$DIMTXSTY
  7
Standard
  9
$DIMAUNIT
 70
     0
  9
$DIMADEC
 70
     2
  9
$DIMALTRND
 40
0.0
  9
$DIMAZIN
 70
     0
  9
$DIMDSEP
 70
    44
  9
$DIMATFIT
 70
     3
  9
$DIMFRAC
 70
     0
  9
$DIMLDRBLK
  1

  9
$DIMLUNIT
 70
     2
  9
$DIMLWD
 70
    -2
  9
$DIMLWE
 70
    -2
  9
$DIMTMOVE
 70
     0
  9
$LUNITS
 70
     2
  9
$LUPREC
 70
     2
  9
$SKETCHINC
 40
1.0
  9
$FILLETRAD
 40
10.0
  9
$AUNITS
 70
     0
  9
$AUPREC
 70
     2
  9
$MENU
  1
.
  9
$ELEVATION
 40
0.0
  9
$PELEVATION
 40
0.0
  9
$THICKNESS
 40
0.0
  9
$LIMCHECK
 70
     0
  9
$CHAMFERA
 40
10.0
  9
$CHAMFERB
 40
10.0
  9
$CHAMFERC
 40
20.0
  9
$CHAMFERD
 40
0.0
  9
$SKPOLY
 70
     0
  9
$TDCREATE
 40
2456909.870292685
  9
$TDUCREATE
 40
2456909.495292685
  9
$TDUPDATE
 40
2456909.870294317
  9
$TDUUPDATE
 40
2456909.495294317
  9
$TDINDWG
 40
0.0000000116
  9
$TDUSRTIMER
 40
0.0000000116
  9
$USRTIMER
 70
     1
  9
$ANGBASE
 50
0.0
  9
$ANGDIR
 70
     0
  9
$PDMODE
 70
     0
  9
$PDSIZE
 40
-1.0
  9
$PLINEWID
 40
0.0
  9
$SPLFRAME
 70
     0
  9
$SPLINETYPE
 70
     6
  9
$SPLINESEGS
 70
     8
  9
$HANDSEED
  5
1C4
  9
$SURFTAB1
 70
     6
  9
$SURFTAB2
 70
     6
  9
$SURFTYPE
 70
     6
  9
$SURFU
 70
     6
  9
$SURFV
 70
     6
  9
$UCSBASE
  2

  9
$UCSNAME
  2

  9
$UCSORG
 10
0.0
 20
0.0
 30
0.0
  9
$UCSXDIR
 10
1.0
 20
0.0
 30
0.0
  9
$UCSYDIR
 10
0.0
 20
1.0
 30
0.0
  9
$UCSORTHOREF
  2

  9
$UCSORTHOVIEW
 70
     0
  9
$UCSORGTOP
 10
0.0
 20
0.0
 30
0.0
  9
$UCSORGBOTTOM
 10
0.0
 20
0.0
 30
0.0
  9
$UCSORGLEFT
 10
0.0
 20
0.0
 30
0.0
  9
$UCSORGRIGHT
 10
0.0
 20
0.0
 30
0.0
  9
$UCSORGFRONT
 10
0.0
 20
0.0
 30
0.0
  9
$UCSORGBACK
 10
0.0
 20
0.0
 30
0.0
  9
$PUCSBASE
  2

  9
$PUCSNAME
  2

  9
$PUCSORG
 10
0.0
 20
0.0
 30
0.0
  9
$PUCSXDIR
 10
1.0
 20
0.0
 30
0.0
  9
$PUCSYDIR
 10
0.0
 20
1.0
 30
0.0
  9
$PUCSORTHOREF
  2

  9
$PUCSORTHOVIEW
 70
     0
  9
$PUCSORGTOP
 10
0.0
 20
0.0
 30
0.0
  9
$PUCSORGBOTTOM
 10
0.0
 20
0.0
 30
0.0
  9
$PUCSORGLEFT
 10
0.0
 20
0.0
 30
0.0
  9
$PUCSORGRIGHT
 10
0.0
 20
0.0
 30
0.0
  9
$PUCSORGFRONT
 10
0.0
 20
0.0
 30
0.0
  9
$PUCSORGBACK
 10
0.0
 20
0.0
 30
0.0
  9
$USERI1
 70
     0
  9
$USERI2
 70
     0
  9
$USERI3
 70
     0
  9
$USERI4
 70
     0
  9
$USERI5
 70
     0
  9
$USERR1
 40
0.0
  9
$USERR2
 40
0.0
  9
$USERR3
 40
0.0
  9
$USERR4
 40
0.0
  9
$USERR5
 40
0.0
  9
$WORLDVIEW
 70
     1
  9
$SHADEDGE
 70
     3
  9
$SHADEDIF
 70
    70
  9
$TILEMODE
 70
     1
  9
$MAXACTVP
 70
    64
  9
$PINSBASE
 10
0.0
 20
0.0
 30
0.0
  9
$PLIMCHECK
 70
     0
  9
$PEXTMIN
 10
1.0000000000E+20
 20
1.0000000000E+20
 30
1.0000000000E+20
  9
$PEXTMAX
 10
-1.0000000000E+20
 20
-1.0000000000E+20
 30
-1.0000000000E+20
  9
$PLIMMIN
 10
0.0
 20
0.0
  9
$PLIMMAX
 10
420.0
 20
297.0
  9
$UNITMODE
 70
     0
  9
$VISRETAIN
 70
     1
  9
$PLINEGEN
 70
     0
  9
$PSLTSCALE
 70
     1
  9
$TREEDEPTH
 70
  3020
  9
$CMLSTYLE
  2
Standard
  9
$CMLJUST
 70
     0
  9
$CMLSCALE
 40
20.0
  9
$PROXYGRAPHICS
 70
     1
  9
$MEASUREMENT
 70
     1
  9
$CELWEIGHT
370
    -1
  9
$ENDCAPS
280
     0
  9
$JOINSTYLE
280
     0
  9
$LWDISPLAY
290
     1
  9
$INSUNITS
 70
     4
  9
$HYPERLINKBASE
  1

  9
$STYLESHEET
  1

  9
$XEDIT
290
     1
  9
$CEPSNTYPE
380
     0
  9
$PSTYLEMODE
290
     1
  9
$FINGERPRINTGUID
  2
{47B88618-F9AB-4F2C-8860-8C6428FB0343}
  9
$VERSIONGUID
  2
{FAEB1C32-E019-11D5-929B-00C0DF256EC4}
  9
$EXTNAMES
290
     1
  9
$PSVPSCALE
 40
0.0
  9
$OLESTARTUP
290
     0
  0
ENDSEC
  0
SECTION
  2
CLASSES
  0
CLASS
  1
ACDBDICTIONARYWDFLT
  2
AcDbDictionaryWithDefault
  3
ObjectDBX Classes
 90
        0
280
     0
281
     0
  0
CLASS
  1
VISUALSTYLE
  2
AcDbVisualStyle
  3
ObjectDBX Classes
 90
     4095
280
     0
281
     0
  0
CLASS
  1
MATERIAL
  2
AcDbMaterial
  3
ObjectDBX Classes
 90
     1153
280
     0
281
     0
  0
CLASS
  1
ACDBPLACEHOLDER
  2
AcDbPlaceHolder
  3
ObjectDBX Classes
 90
        0
280
     0
281
     0
  0
CLASS
  1
LAYOUT
  2
AcDbLayout
  3
ObjectDBX Classes
 90
        0
280
     0
281
     0
  0
ENDSEC
  0
SECTION
  2
TABLES
  0
TABLE
  2
VPORT
  5
8
330
0
100
AcDbSymbolTable
 70
     1
  0
VPORT
  5
29
330
8
100
AcDbSymbolTableRecord
100
AcDbViewportTableRecord
  2
*Active
 70
     0
 10
0.0
 20
0.0
 11
1.0
 21
1.0
 12
105.0
 22
148.5
 13
0.0
 23
0.0
 14
10.0
 24
10.0
 15
10.0
 25
10.0
 16
0.0
 26
0.0
 36
1.0
 17
0.0
 27
0.0
 37
0.0
 40
297.0
 41
0.7070707071
 42
50.0
 43
0.0
 44
0.0
 50
0.0
 51
0.0
 71
     0
 72
  2000
 73
     1
 74
     3
 75
     0
 76
     0
 77
     0
 78
     0
281
     0
 65
     1
110
0.0
120
0.0
130
0.0
111
1.0
121
0.0
131
0.0
112
0.0
122
1.0
132
0.0
 79
     0
146
0.0
  0
ENDTAB
  0
TABLE
  2
LTYPE
  5
5
330
0
100
AcDbSymbolTable
 70
     6
  0
LTYPE
  5
14
330
5
100
AcDbSymbolTableRecord
100
AcDbLinetypeTableRecord
  2
ByBlock
 70
     0
  3

 72
    65
 73
     0
 40
0.0
  0
LTYPE
  5
15
330
5
100
AcDbSymbolTableRecord
100
AcDbLinetypeTableRecord
  2
ByLayer
 70
     0
  3

 72
    65
 73
     0
 40
0.0
  0
LTYPE
  5
16
330
5
100
AcDbSymbolTableRecord
100
AcDbLinetypeTableRecord
  2
Continuous
 70
     0
  3
Solid line
 72
    65
 73
     0
 40
0.0
  0
LTYPE
  5
3F
330
5
100
AcDbSymbolTableRecord
100
AcDbLinetypeTableRecord
  2
HIDDEN
 70
     0
  3
Hidden __ __ __ __ __ __ __ __ __ __ __ __ __ __
 72
    65
 73
     2
 40
1.905
 49
1.27
 74
     0
 49
-0.635
 74
     0
  0
LTYPE
  5
40
330
5
100
AcDbSymbolTableRecord
100
AcDbLinetypeTableRecord
  2
PHANTOM
 70
     0
  3
Phantom ______  __  __  ______  __  __  ______
 72
    65
 73
     6
 40
12.7
 49
6.35
 74
     0
 49
-1.27
 74
     0
 49
1.27
 74
     0
 49
-1.27
 74
     0
 49
1.27
 74
     0
 49
-1.27
 74
     0
  0
LTYPE
  5
41
330
5
100
AcDbSymbolTableRecord
100
AcDbLinetypeTableRecord
  2
CENTER
 70
     0
  3
Center ____ _ ____ _ ____ _ ____ _ ____ _ ____
 72
    65
 73
     4
 40
10.16
 49
6.35
 74
     0
 49
-1.27
 74
     0
 49
1.27
 74
     0
 49
-1.27
 74
     0
  0
LTYPE
  5
42
330
5
100
AcDbSymbolTableRecord
100
AcDbLinetypeTableRecord
  2
CENTERX2
 70
     0
  3
Center (2x) ________  __  ________  __  _____
 72
    65
 73
     4
 40
20.32
 49
12.7
 74
     0
 49
-2.54
 74
     0
 49
2.54
 74
     0
 49
-2.54
 74
     0
  0
LTYPE
  5
43
330
5
100
AcDbSymbolTableRecord
100
AcDbLinetypeTableRecord
  2
DOT2
 70
     0
  3
Dot (.5x) ........................................
 72
    65
 73
     2
 40
0.635
 49
0.0
 74
     0
 49
-0.635
 74
     0
  0
ENDTAB
  0
TABLE
  2
LAYER
  5
2
330
0
100
AcDbSymbolTable
 70
     1
  0
LAYER
  5
10
330
2
100
AcDbSymbolTableRecord
100
AcDbLayerTableRecord
  2
0
 70
     0
 62
     7
  6
Continuous
370
    -3
390
F
  0
ENDTAB
  0
TABLE
  2
STYLE
  5
3
330
0
100
AcDbSymbolTable
 70
     3
  0
STYLE
  5
11
330
3
100
AcDbSymbolTableRecord
100
AcDbTextStyleTableRecord
  2
Standard
 70
     0
 40
0.0
 41
1.0
 50
0.0
 71
     0
 42
3.5
  3
txt
  4
bigfont
  0
STYLE
  5
4C
330
3
100
AcDbSymbolTableRecord
100
AcDbTextStyleTableRecord
  2
SLDTEXTSTYLE0
 70
     0
 40
0.0
 41
0.7
 50
0.0
 71
     0
 42
0.2
  3
TXT
  4
bigfont
  0
STYLE
  5
8F
330
3
100
AcDbSymbolTableRecord
100
AcDbTextStyleTableRecord
  2
SLDTEXTSTYLE1
 70
     0
 40
0.0
 41
0.75
 50
0.0
 71
     0
 42
0.2
  3
TXT
  4
bigfont
  0
ENDTAB
  0
TABLE
  2
VIEW
  5
6
330
0
100
AcDbSymbolTable
 70
     0
  0
ENDTAB
  0
TABLE
  2
UCS
  5
7
330
0
100
AcDbSymbolTable
 70
     0
  0
ENDTAB
  0
TABLE
  2
APPID
  5
9
330
0
100
AcDbSymbolTable
 70
     1
  0
APPID
  5
12
330
9
100
AcDbSymbolTableRecord
100
AcDbRegAppTableRecord
  2
ACAD
 70
     0
  0
ENDTAB
  0
TABLE
  2
DIMSTYLE
  5
A
330
0
100
AcDbSymbolTable
 70
     4
100
AcDbDimStyleTable
  0
DIMSTYLE
105
27
330
A
100
AcDbSymbolTableRecord
100
AcDbDimStyleTableRecord
  2
ISO-25
 70
     0
 41
2.5
 42
0.625
 43
3.75
 44
1.25
 73
     0
 74
     0
 77
     1
 78
     8
140
2.5
141
2.5
143
0.0393700787
147
0.625
171
     3
172
     1
178
     0
271
     2
272
     2
274
     3
278
    44
283
     0
284
     8
340
11
  0
DIMSTYLE
105
90
102
{ACAD_REACTORS
330
8E
330
9A
330
A4
330
187
330
19E
330
1A9
330
1B3
102
}
330
A
100
AcDbSymbolTableRecord
100
AcDbDimStyleTableRecord
  2
SLDDIMSTYLE0
 70
     0
 41
2.0
 44
0.0
 45
0.000000001
 73
     0
 74
     0
 77
     3
 78
    12
 79
     3
140
3.5
147
0.875
173
     1
178
     0
271
     1
272
     1
276
     2
284
    12
340
8F
  0
DIMSTYLE
105
B0
330
A
100
AcDbSymbolTableRecord
100
AcDbDimStyleTableRecord
  2
SLDDIMSTYLE1
 70
     0
 41
2.0
 44
0.0
 45
0.000000001
140
0.0
146
2.0
147
0.0
173
     1
178
     0
271
     0
272
     0
276
     2
340
11
  0
DIMSTYLE
105
16E
102
{ACAD_REACTORS
330
16D
330
17B
330
191
102
}
330
A
100
AcDbSymbolTableRecord
100
AcDbDimStyleTableRecord
  2
SLDDIMSTYLE2
 70
     0
 41
2.0
 44
0.0
 45
0.000000001
 73
     0
 74
     0
 77
     3
 78
    12
 79
     3
140
3.5
147
0.875
172
     1
173
     1
178
     0
271
     1
272
     1
276
     2
284
    12
289
     0
340
8F
  0
ENDTAB
  0
TABLE
  2
BLOCK_RECORD
  5
1
330
0
100
AcDbSymbolTable
 70
    12
  0
BLOCK_RECORD
  5
1F
330
1
100
AcDbSymbolTableRecord
100
AcDbBlockTableRecord
  2
*Model_Space
340
22
  0
BLOCK_RECORD
  5
1B
330
1
100
AcDbSymbolTableRecord
100
AcDbBlockTableRecord
  2
*Paper_Space
340
1E
  0
BLOCK_RECORD
  5
23
330
1
100
AcDbSymbolTableRecord
100
AcDbBlockTableRecord
  2
*Paper_Space0
340
26
  0
BLOCK_RECORD
  5
91
330
1
100
AcDbSymbolTableRecord
100
AcDbBlockTableRecord
  2
_D
340
0
  0
BLOCK_RECORD
  5
9B
330
1
100
AcDbSymbolTableRecord
100
AcDbBlockTableRecord
  2
_D_1
340
0
  0
BLOCK_RECORD
  5
A5
330
1
100
AcDbSymbolTableRecord
100
AcDbBlockTableRecord
  2
_D_2
340
0
  0
BLOCK_RECORD
  5
B2
330
1
100
AcDbSymbolTableRecord
100
AcDbBlockTableRecord
  2
SW_CENTERMARKSYMBOL_0
340
0
102
{BLKREFS
331
BD
102
}
  0
BLOCK_RECORD
  5
16F
330
1
100
AcDbSymbolTableRecord
100
AcDbBlockTableRecord
  2
_D_3
340
0
  0
BLOCK_RECORD
  5
17C
330
1
100
AcDbSymbolTableRecord
100
AcDbBlockTableRecord
  2
_D_4
340
0
  0
BLOCK_RECORD
  5
188
330
1
100
AcDbSymbolTableRecord
100
AcDbBlockTableRecord
  2
_D_5
340
0
  0
BLOCK_RECORD
  5
192
330
1
100
AcDbSymbolTableRecord
100
AcDbBlockTableRecord
  2
_D_6
340
0
  0
BLOCK_RECORD
  5
19F
330
1
100
AcDbSymbolTableRecord
100
AcDbBlockTableRecord
  2
_D_7
340
0
  0
BLOCK_RECORD
  5
1AA
330
1
100
AcDbSymbolTableRecord
100
AcDbBlockTableRecord
  2
_D_8
340
0
  0
BLOCK_RECORD
  5
1B4
330
1
100
AcDbSymbolTableRecord
100
AcDbBlockTableRecord
  2
_D_9
340
0
  0
ENDTAB
  0
ENDSEC
  0
SECTION
  2
BLOCKS
  0
BLOCK
  5
20
330
1F
100
AcDbEntity
  8
0
100
AcDbBlockBegin
  2
*Model_Space
 70
     0
 10
0.0
 20
0.0
 30
0.0
  3
*Model_Space
  1

  0
ENDBLK
  5
21
330
1F
100
AcDbEntity
  8
0
100
AcDbBlockEnd
  0
BLOCK
  5
1C
330
1B
100
AcDbEntity
 67
     1
  8
0
100
AcDbBlockBegin
  2
*Paper_Space
 70
     0
 10
0.0
 20
0.0
 30
0.0
  3
*Paper_Space
  1

  0
ENDBLK
  5
1D
330
1B
100
AcDbEntity
 67
     1
  8
0
100
AcDbBlockEnd
  0
BLOCK
  5
24
330
23
100
AcDbEntity
  8
0
100
AcDbBlockBegin
  2
*Paper_Space0
 70
     0
 10
0.0
 20
0.0
 30
0.0
  3
*Paper_Space0
  1

  0
ENDBLK
  5
25
330
23
100
AcDbEntity
  8
0
100
AcDbBlockEnd
  0
BLOCK
  5
92
330
91
100
AcDbEntity
  8
0
100
AcDbBlockBegin
  2
_D
 70
     0
 10
0.0
 20
0.0
 30
0.0
  3
_D
  1

  0
SOLID
  5
94
330
91
100
AcDbEntity
  8
0
  6
Continuous
 62
     7
370
     0
100
AcDbTrace
 10
29.7952554745
 20
174.6443430657
 30
0.0
 11
29.0452554745
 21
172.6443430657
 31
0.0
 12
30.5452554745
 22
172.6443430657
 32
0.0
 13
30.5452554745
 23
172.6443430657
 33
0.0
  0
SOLID
  5
95
330
91
100
AcDbEntity
  8
0
  6
Continuous
 62
     7
370
     0
100
AcDbTrace
 10
29.7952554745
 20
156.0443430657
 30
0.0
 11
30.5452554745
 21
158.0443430657
 31
0.0
 12
29.0452554745
 22
158.0443430657
 32
0.0
 13
29.0452554745
 23
158.0443430657
 33
0.0
  0
LINE
  5
96
330
91
100
AcDbEntity
  8
0
  6
Continuous
 62
     7
370
     0
100
AcDbLine
 10
48.7452554745
 20
174.6443430657
 30
0.0
 11
28.7952554745
 21
174.6443430657
 31
0.0
  0
LINE
  5
97
330
91
100
AcDbEntity
  8
0
  6
Continuous
 62
     7
370
     0
100
AcDbLine
 10
48.7452554745
 20
156.0443430657
 30
0.0
 11
28.7952554745
 21
156.0443430657
 31
0.0
  0
LINE
  5
98
330
91
100
AcDbEntity
  8
0
  6
Continuous
 62
     7
370
     0
100
AcDbLine
 10
29.7952554745
 20
174.6443430657
 30
0.0
 11
29.7952554745
 21
156.0443430657
 31
0.0
  0
MTEXT
  5
99
330
91
100
AcDbEntity
  8
0
  6
Continuous
 62
     7
370
     0
100
AcDbMText
 10
25.2835185599
 20
161.4747453195
 30
24.85
 40
3.5
 41
0.0
 71
     1
 72
     1
  1
18.6
  7
SLDTEXTSTYLE1
 11
-7.044195017643634E-15
 21
1.0
 31
0.0
 73
     1
 44
1.0
  0
ENDBLK
  5
93
330
91
100
AcDbEntity
  8
0
100
AcDbBlockEnd
  0
BLOCK
  5
9C
330
9B
100
AcDbEntity
  8
0
100
AcDbBlockBegin
  2
_D_1
 70
     0
 10
0.0
 20
0.0
 30
0.0
  3
_D_1
  1

  0
SOLID
  5
9E
330
9B
100
AcDbEntity
  8
0
  6
Continuous
 62
     7
370
     0
100
AcDbTrace
 10
37.3880279115
 20
171.3443430657
 30
0.0
 11
36.6380279115
 21
169.3443430657
 31
0.0
 12
38.1380279115
 22
169.3443430657
 32
0.0
 13
38.1380279115
 23
169.3443430657
 33
0.0
  0
SOLID
  5
9F
330
9B
100
AcDbEntity
  8
0
  6
Continuous
 62
     7
370
     0
100
AcDbTrace
 10
37.3880279115
 20
159.3443430657
 30
0.0
 11
38.1380279115
 21
161.3443430657
 31
0.0
 12
36.6380279115
 22
161.3443430657
 32
0.0
 13
36.6380279115
 23
161.3443430657
 33
0.0
  0
LINE
  5
A0
330
9B
100
AcDbEntity
  8
0
  6
Continuous
 62
     7
370
     0
100
AcDbLine
 10
49.3311538593
 20
171.3443430657
 30
0.0
 11
36.3880279115
 21
171.3443430657
 31
0.0
  0
LINE
  5
A1
330
9B
100
AcDbEntity
  8
0
  6
Continuous
 62
     7
370
     0
100
AcDbLine
 10
49.3311538593
 20
159.3443430657
 30
0.0
 11
36.3880279115
 21
159.3443430657
 31
0.0
  0
LINE
  5
A2
330
9B
100
AcDbEntity
  8
0
  6
Continuous
 62
     7
370
     0
100
AcDbLine
 10
37.3880279115
 20
171.3443430657
 30
0.0
 11
37.3880279115
 21
159.3443430657
 31
0.0
  0
MTEXT
  5
A3
330
9B
100
AcDbEntity
  8
0
  6
Continuous
 62
     7
370
     0
100
AcDbMText
 10
32.8762909969
 20
163.4143286564
 30
24.85
 40
3.5
 41
0.0
 71
     1
 72
     1
  1
12
  7
SLDTEXTSTYLE1
 11
-7.044195017643634E-15
 21
1.0
 31
0.0
 73
     1
 44
1.0
  0
ENDBLK
  5
9D
330
9B
100
AcDbEntity
  8
0
100
AcDbBlockEnd
  0
BLOCK
  5
A6
330
A5
100
AcDbEntity
  8
0
100
AcDbBlockBegin
  2
_D_2
 70
     0
 10
0.0
 20
0.0
 30
0.0
  3
_D_2
  1

  0
SOLID
  5
A8
330
A5
100
AcDbEntity
  8
0
  6
Continuous
 62
     7
370
     0
100
AcDbTrace
 10
45.7952554745
 20
184.6443430657
 30
0.0
 11
47.7952554745
 21
183.8943430657
 31
0.0
 12
47.7952554745
 22
185.3943430657
 32
0.0
 13
47.7952554745
 23
185.3943430657
 33
0.0
  0
SOLID
  5
A9
330
A5
100
AcDbEntity
  8
0
  6
Continuous
 62
     7
370
     0
100
AcDbTrace
 10
61.7952554745
 20
184.6443430657
 30
0.0
 11
59.7952554745
 21
185.3943430657
 31
0.0
 12
59.7952554745
 22
183.8943430657
 32
0.0
 13
59.7952554745
 23
183.8943430657
 33
0.0
  0
LINE
  5
AA
330
A5
100
AcDbEntity
  8
0
  6
Continuous
 62
     7
370
     0
100
AcDbLine
 10
45.7952554745
 20
166.3443430657
 30
0.0
 11
45.7952554745
 21
185.6443430657
 31
0.0
  0
LINE
  5
AB
330
A5
100
AcDbEntity
  8
0
  6
Continuous
 62
     7
370
     0
100
AcDbLine
 10
61.7952554745
 20
166.3443430657
 30
0.0
 11
61.7952554745
 21
185.6443430657
 31
0.0
  0
LINE
  5
AC
330
A5
100
AcDbEntity
  8
0
  6
Continuous
 62
     7
370
     0
100
AcDbLine
 10
45.7952554745
 20
184.6443430657
 30
0.0
 11
61.7952554745
 21
184.6443430657
 31
0.0
  0
MTEXT
  5
AD
330
A5
100
AcDbEntity
  8
0
  6
Continuous
 62
     7
370
     0
100
AcDbMText
 10
47.6825462304
 20
189.1560801549
 30
24.85
 40
3.5
 41
0.0
 71
     1
 72
     1
  1
%%c
  7
SLDTEXTSTYLE1
 73
     1
 44
1.0
  0
MTEXT
  5
AE
330
A5
100
AcDbEntity
  8
0
  6
Continuous
 62
     7
370
     0
100
AcDbMText
 10
52.9609836287
 20
189.2095523316
 30
24.85
 40
3.5
 41
0.0
 71
     1
 72
     1
  1
16
  7
SLDTEXTSTYLE1
 73
     1
 44
1.0
  0
ENDBLK
  5
A7
330
A5
100
AcDbEntity
  8
0
100
AcDbBlockEnd
  0
BLOCK
  5
B3
330
B2
100
AcDbEntity
  8
0
100
AcDbBlockBegin
  2
SW_CENTERMARKSYMBOL_0
 70
     0
 10
0.0
 20
0.0
 30
0.0
  3
SW_CENTERMARKSYMBOL_0
  1

  0
LINE
  5
B5
330
B2
100
AcDbEntity
  8
0
  6
Continuous
 62
     0
370
     0
100
AcDbLine
 10
0.0
 20
0.0
 30
0.0
 11
0.0
 21
2.5
 31
0.0
  0
LINE
  5
B6
330
B2
100
AcDbEntity
  8
0
  6
Continuous
 62
     0
370
     0
100
AcDbLine
 10
0.0
 20
0.0
 30
0.0
 11
-2.5
 21
0.0
 31
0.0
  0
LINE
  5
B7
330
B2
100
AcDbEntity
  8
0
  6
Continuous
 62
     0
370
     0
100
AcDbLine
 10
0.0
 20
0.0
 30
0.0
 11
0.0
 21
-2.5
 31
0.0
  0
LINE
  5
B8
330
B2
100
AcDbEntity
  8
0
  6
Continuous
 62
     0
370
     0
100
AcDbLine
 10
0.0
 20
0.0
 30
0.0
 11
2.5
 21
0.0
 31
0.0
  0
LINE
  5
B9
330
B2
100
AcDbEntity
  8
0
  6
Continuous
 62
     0
370
     0
100
AcDbLine
 10
0.0
 20
5.0
 30
0.0
 11
0.0
 21
10.5
 31
0.0
  0
LINE
  5
BA
330
B2
100
AcDbEntity
  8
0
  6
Continuous
 62
     0
370
     0
100
AcDbLine
 10
-5.0
 20
0.0
 30
0.0
 11
-10.5
 21
0.0
 31
0.0
  0
LINE
  5
BB
330
B2
100
AcDbEntity
  8
0
  6
Continuous
 62
     0
370
     0
100
AcDbLine
 10
0.0
 20
-5.0
 30
0.0
 11
0.0
 21
-10.5
 31
0.0
  0
LINE
  5
BC
330
B2
100
AcDbEntity
  8
0
  6
Continuous
 62
     0
370
     0
100
AcDbLine
 10
5.0
 20
0.0
 30
0.0
 11
10.5
 21
0.0
 31
0.0
  0
ENDBLK
  5
B4
330
B2
100
AcDbEntity
  8
0
100
AcDbBlockEnd
  0
BLOCK
  5
170
330
16F
100
AcDbEntity
  8
0
100
AcDbBlockBegin
  2
_D_3
 70
     0
 10
0.0
 20
0.0
 30
0.0
  3
_D_3
  1

  0
SOLID
  5
172
330
16F
100
AcDbEntity
  8
0
  6
Continuous
 62
     7
370
     0
100
AcDbTrace
 10
89.371907316
 20
168.8443430657
 30
0.0
 11
90.121907316
 21
170.8443430657
 31
0.0
 12
88.621907316
 22
170.8443430657
 32
0.0
 13
88.621907316
 23
170.8443430657
 33
0.0
  0
SOLID
  5
173
330
16F
100
AcDbEntity
  8
0
  6
Continuous
 62
     7
370
     0
100
AcDbTrace
 10
89.371907316
 20
161.8443430657
 30
0.0
 11
88.621907316
 21
159.8443430657
 31
0.0
 12
90.121907316
 22
159.8443430657
 32
0.0
 13
90.121907316
 23
159.8443430657
 33
0.0
  0
LINE
  5
174
330
16F
100
AcDbEntity
  8
0
  6
Continuous
 62
     7
370
     0
100
AcDbLine
 10
98.371907316
 20
168.8443430657
 30
0.0
 11
88.371907316
 21
168.8443430657
 31
0.0
  0
LINE
  5
175
330
16F
100
AcDbEntity
  8
0
  6
Continuous
 62
     7
370
     0
100
AcDbLine
 10
98.371907316
 20
161.8443430657
 30
0.0
 11
88.371907316
 21
161.8443430657
 31
0.0
  0
LINE
  5
176
330
16F
100
AcDbEntity
  8
0
  6
Continuous
 62
     7
370
     0
100
AcDbLine
 10
89.371907316
 20
168.8443430657
 30
0.0
 11
89.371907316
 21
173.8443430657
 31
0.0
  0
LINE
  5
177
330
16F
100
AcDbEntity
  8
0
  6
Continuous
 62
     7
370
     0
100
AcDbLine
 10
89.371907316
 20
168.8443430657
 30
0.0
 11
89.371907316
 21
161.8443430657
 31
0.0
  0
LINE
  5
178
330
16F
100
AcDbEntity
  8
0
  6
Continuous
 62
     7
370
     0
100
AcDbLine
 10
89.371907316
 20
161.8443430657
 30
0.0
 11
89.371907316
 21
156.8443430657
 31
0.0
  0
MTEXT
  5
179
330
16F
100
AcDbEntity
  8
0
  6
Continuous
 62
     7
370
     0
100
AcDbMText
 10
84.8601702268
 20
161.6104832893
 30
0.1
 40
3.5
 41
0.0
 71
     1
 72
     1
  1
%%c
  7
SLDTEXTSTYLE1
 11
-7.044195017643634E-15
 21
1.0
 31
0.0
 73
     1
 44
1.0
  0
MTEXT
  5
17A
330
16F
100
AcDbEntity
  8
0
  6
Continuous
 62
     7
370
     0
100
AcDbMText
 10
84.8066980501
 20
166.8889206877
 30
0.1
 40
3.5
 41
0.0
 71
     1
 72
     1
  1
7
  7
SLDTEXTSTYLE1
 11
-7.044195017643634E-15
 21
1.0
 31
0.0
 73
     1
 44
1.0
  0
ENDBLK
  5
171
330
16F
100
AcDbEntity
  8
0
100
AcDbBlockEnd
  0
BLOCK
  5
17D
330
17C
100
AcDbEntity
  8
0
100
AcDbBlockBegin
  2
_D_4
 70
     0
 10
0.0
 20
0.0
 30
0.0
  3
_D_4
  1

  0
SOLID
  5
17F
330
17C
100
AcDbEntity
  8
0
  6
Continuous
 62
     7
370
     0
100
AcDbTrace
 10
104.871907316
 20
184.6443430657
 30
0.0
 11
106.871907316
 21
183.8943430657
 31
0.0
 12
106.871907316
 22
185.3943430657
 32
0.0
 13
106.871907316
 23
185.3943430657
 33
0.0
  0
SOLID
  5
180
330
17C
100
AcDbEntity
  8
0
  6
Continuous
 62
     7
370
     0
100
AcDbTrace
 10
99.371907316
 20
184.6443430657
 30
0.0
 11
97.371907316
 21
185.3943430657
 31
0.0
 12
97.371907316
 22
183.8943430657
 32
0.0
 13
97.371907316
 23
183.8943430657
 33
0.0
  0
LINE
  5
181
330
17C
100
AcDbEntity
  8
0
  6
Continuous
 62
     7
370
     0
100
AcDbLine
 10
104.871907316
 20
172.3443430657
 30
0.0
 11
104.871907316
 21
185.6443430657
 31
0.0
  0
LINE
  5
182
330
17C
100
AcDbEntity
  8
0
  6
Continuous
 62
     7
370
     0
100
AcDbLine
 10
99.371907316
 20
169.8443430657
 30
0.0
 11
99.371907316
 21
185.6443430657
 31
0.0
  0
LINE
  5
183
330
17C
100
AcDbEntity
  8
0
  6
Continuous
 62
     7
370
     0
100
AcDbLine
 10
104.871907316
 20
184.6443430657
 30
0.0
 11
118.7071559735
 21
184.6443430657
 31
0.0
  0
LINE
  5
184
330
17C
100
AcDbEntity
  8
0
  6
Continuous
 62
     7
370
     0
100
AcDbLine
 10
104.871907316
 20
184.6443430657
 30
0.0
 11
99.371907316
 21
184.6443430657
 31
0.0
  0
LINE
  5
185
330
17C
100
AcDbEntity
  8
0
  6
Continuous
 62
     7
370
     0
100
AcDbLine
 10
99.371907316
 20
184.6443430657
 30
0.0
 11
94.371907316
 21
184.6443430657
 31
0.0
  0
MTEXT
  5
186
330
17C
100
AcDbEntity
  8
0
  6
Continuous
 62
     7
370
     0
100
AcDbMText
 10
112.241878339
 20
189.1560799803
 30
0.1
 40
3.5
 41
0.0
 71
     1
 72
     1
  1
5.5
  7
SLDTEXTSTYLE1
 73
     1
 44
1.0
  0
ENDBLK
  5
17E
330
17C
100
AcDbEntity
  8
0
100
AcDbBlockEnd
  0
BLOCK
  5
189
330
188
100
AcDbEntity
  8
0
100
AcDbBlockBegin
  2
_D_5
 70
     0
 10
0.0
 20
0.0
 30
0.0
  3
_D_5
  1

  0
SOLID
  5
18B
330
188
100
AcDbEntity
  8
0
  6
Continuous
 62
     7
370
     0
100
AcDbTrace
 10
99.371907316
 20
196.6443430657
 30
0.0
 11
101.371907316
 21
195.8943430657
 31
0.0
 12
101.371907316
 22
197.3943430657
 32
0.0
 13
101.371907316
 23
197.3943430657
 33
0.0
  0
SOLID
  5
18C
330
188
100
AcDbEntity
  8
0
  6
Continuous
 62
     7
370
     0
100
AcDbTrace
 10
148.871907316
 20
196.6443430657
 30
0.0
 11
146.871907316
 21
197.3943430657
 31
0.0
 12
146.871907316
 22
195.8943430657
 32
0.0
 13
146.871907316
 23
195.8943430657
 33
0.0
  0
LINE
  5
18D
330
188
100
AcDbEntity
  8
0
  6
Continuous
 62
     7
370
     0
100
AcDbLine
 10
99.371907316
 20
169.8443430657
 30
0.0
 11
99.371907316
 21
197.6443430657
 31
0.0
  0
LINE
  5
18E
330
188
100
AcDbEntity
  8
0
  6
Continuous
 62
     7
370
     0
100
AcDbLine
 10
148.871907316
 20
168.3443430657
 30
0.0
 11
148.871907316
 21
197.6443430657
 31
0.0
  0
LINE
  5
18F
330
188
100
AcDbEntity
  8
0
  6
Continuous
 62
     7
370
     0
100
AcDbLine
 10
99.371907316
 20
196.6443430657
 30
0.0
 11
148.871907316
 21
196.6443430657
 31
0.0
  0
MTEXT
  5
190
330
188
100
AcDbEntity
  8
0
  6
Continuous
 62
     7
370
     0
100
AcDbMText
 10
119.9135774009
 20
201.1560799803
 30
0.1
 40
3.5
 41
0.0
 71
     1
 72
     1
  1
49.5
  7
SLDTEXTSTYLE1
 73
     1
 44
1.0
  0
ENDBLK
  5
18A
330
188
100
AcDbEntity
  8
0
100
AcDbBlockEnd
  0
BLOCK
  5
193
330
192
100
AcDbEntity
  8
0
100
AcDbBlockBegin
  2
_D_6
 70
     0
 10
0.0
 20
0.0
 30
0.0
  3
_D_6
  1

  0
SOLID
  5
195
330
192
100
AcDbEntity
  8
0
  6
Continuous
 62
     7
370
     0
100
AcDbTrace
 10
158.871907316
 20
167.8443430657
 30
0.0
 11
159.621907316
 21
169.8443430657
 31
0.0
 12
158.121907316
 22
169.8443430657
 32
0.0
 13
158.121907316
 23
169.8443430657
 33
0.0
  0
SOLID
  5
196
330
192
100
AcDbEntity
  8
0
  6
Continuous
 62
     7
370
     0
100
AcDbTrace
 10
158.871907316
 20
162.8443430657
 30
0.0
 11
158.121907316
 21
160.8443430657
 31
0.0
 12
159.621907316
 22
160.8443430657
 32
0.0
 13
159.621907316
 23
160.8443430657
 33
0.0
  0
LINE
  5
197
330
192
100
AcDbEntity
  8
0
  6
Continuous
 62
     7
370
     0
100
AcDbLine
 10
149.371907316
 20
167.8443430657
 30
0.0
 11
159.871907316
 21
167.8443430657
 31
0.0
  0
LINE
  5
198
330
192
100
AcDbEntity
  8
0
  6
Continuous
 62
     7
370
     0
100
AcDbLine
 10
149.371907316
 20
162.8443430657
 30
0.0
 11
159.871907316
 21
162.8443430657
 31
0.0
  0
LINE
  5
199
330
192
100
AcDbEntity
  8
0
  6
Continuous
 62
     7
370
     0
100
AcDbLine
 10
158.871907316
 20
167.8443430657
 30
0.0
 11
158.871907316
 21
179.2694909675
 31
0.0
  0
LINE
  5
19A
330
192
100
AcDbEntity
  8
0
  6
Continuous
 62
     7
370
     0
100
AcDbLine
 10
158.871907316
 20
167.8443430657
 30
0.0
 11
158.871907316
 21
162.8443430657
 31
0.0
  0
LINE
  5
19B
330
192
100
AcDbEntity
  8
0
  6
Continuous
 62
     7
370
     0
100
AcDbLine
 10
158.871907316
 20
162.8443430657
 30
0.0
 11
158.871907316
 21
157.8443430657
 31
0.0
  0
MTEXT
  5
19C
330
192
100
AcDbEntity
  8
0
  6
Continuous
 62
     7
370
     0
100
AcDbMText
 10
154.3601702268
 20
171.4049421427
 30
0.1
 40
3.5
 41
0.0
 71
     1
 72
     1
  1
%%c
  7
SLDTEXTSTYLE1
 11
-7.044195017643634E-15
 21
1.0
 31
0.0
 73
     1
 44
1.0
  0
MTEXT
  5
19D
330
192
100
AcDbEntity
  8
0
  6
Continuous
 62
     7
370
     0
100
AcDbMText
 10
154.3066980501
 20
176.6833795411
 30
0.1
 40
3.5
 41
0.0
 71
     1
 72
     1
  1
5
  7
SLDTEXTSTYLE1
 11
-7.044195017643634E-15
 21
1.0
 31
0.0
 73
     1
 44
1.0
  0
ENDBLK
  5
194
330
192
100
AcDbEntity
  8
0
100
AcDbBlockEnd
  0
BLOCK
  5
1A0
330
19F
100
AcDbEntity
  8
0
100
AcDbBlockBegin
  2
_D_7
 70
     0
 10
0.0
 20
0.0
 30
0.0
  3
_D_7
  1

  0
SOLID
  5
1A2
330
19F
100
AcDbEntity
  8
0
  6
Continuous
 62
     7
370
     0
100
AcDbTrace
 10
170.871907316
 20
171.3443430657
 30
0.0
 11
170.121907316
 21
169.3443430657
 31
0.0
 12
171.621907316
 22
169.3443430657
 32
0.0
 13
171.621907316
 23
169.3443430657
 33
0.0
  0
SOLID
  5
1A3
330
19F
100
AcDbEntity
  8
0
  6
Continuous
 62
     7
370
     0
100
AcDbTrace
 10
170.871907316
 20
159.3443430657
 30
0.0
 11
171.621907316
 21
161.3443430657
 31
0.0
 12
170.121907316
 22
161.3443430657
 32
0.0
 13
170.121907316
 23
161.3443430657
 33
0.0
  0
LINE
  5
1A4
330
19F
100
AcDbEntity
  8
0
  6
Continuous
 62
     7
370
     0
100
AcDbLine
 10
147.571907316
 20
171.3443430657
 30
0.0
 11
171.871907316
 21
171.3443430657
 31
0.0
  0
LINE
  5
1A5
330
19F
100
AcDbEntity
  8
0
  6
Continuous
 62
     7
370
     0
100
AcDbLine
 10
147.571907316
 20
159.3443430657
 30
0.0
 11
171.871907316
 21
159.3443430657
 31
0.0
  0
LINE
  5
1A6
330
19F
100
AcDbEntity
  8
0
  6
Continuous
 62
     7
370
     0
100
AcDbLine
 10
170.871907316
 20
171.3443430657
 30
0.0
 11
170.871907316
 21
159.3443430657
 31
0.0
  0
MTEXT
  5
1A7
330
19F
100
AcDbEntity
  8
0
  6
Continuous
 62
     7
370
     0
100
AcDbMText
 10
166.3601702268
 20
160.3174275762
 30
0.1
 40
3.5
 41
0.0
 71
     1
 72
     1
  1
%%c
  7
SLDTEXTSTYLE1
 11
-7.044195017643634E-15
 21
1.0
 31
0.0
 73
     1
 44
1.0
  0
MTEXT
  5
1A8
330
19F
100
AcDbEntity
  8
0
  6
Continuous
 62
     7
370
     0
100
AcDbMText
 10
166.3066980501
 20
165.5958649745
 30
0.1
 40
3.5
 41
0.0
 71
     1
 72
     1
  1
12
  7
SLDTEXTSTYLE1
 11
-7.044195017643634E-15
 21
1.0
 31
0.0
 73
     1
 44
1.0
  0
ENDBLK
  5
1A1
330
19F
100
AcDbEntity
  8
0
100
AcDbBlockEnd
  0
BLOCK
  5
1AB
330
1AA
100
AcDbEntity
  8
0
100
AcDbBlockBegin
  2
_D_8
 70
     0
 10
0.0
 20
0.0
 30
0.0
  3
_D_8
  1

  0
SOLID
  5
1AD
330
1AA
100
AcDbEntity
  8
0
  6
Continuous
 62
     7
370
     0
100
AcDbTrace
 10
128.871907316
 20
138.5443430657
 30
0.0
 11
130.871907316
 21
137.7943430657
 31
0.0
 12
130.871907316
 22
139.2943430657
 32
0.0
 13
130.871907316
 23
139.2943430657
 33
0.0
  0
SOLID
  5
1AE
330
1AA
100
AcDbEntity
  8
0
  6
Continuous
 62
     7
370
     0
100
AcDbTrace
 10
146.871907316
 20
138.5443430657
 30
0.0
 11
144.871907316
 21
139.2943430657
 31
0.0
 12
144.871907316
 22
137.7943430657
 32
0.0
 13
144.871907316
 23
137.7943430657
 33
0.0
  0
LINE
  5
1AF
330
1AA
100
AcDbEntity
  8
0
  6
Continuous
 62
     7
370
     0
100
AcDbLine
 10
128.871907316
 20
156.6443430657
 30
0.0
 11
128.871907316
 21
137.5443430657
 31
0.0
  0
LINE
  5
1B0
330
1AA
100
AcDbEntity
  8
0
  6
Continuous
 62
     7
370
     0
100
AcDbLine
 10
146.871907316
 20
158.6443430657
 30
0.0
 11
146.871907316
 21
137.5443430657
 31
0.0
  0
LINE
  5
1B1
330
1AA
100
AcDbEntity
  8
0
  6
Continuous
 62
     7
370
     0
100
AcDbLine
 10
128.871907316
 20
138.5443430657
 30
0.0
 11
146.871907316
 21
138.5443430657
 31
0.0
  0
MTEXT
  5
1B2
330
1AA
100
AcDbEntity
  8
0
  6
Continuous
 62
     7
370
     0
100
AcDbMText
 10
134.3710696123
 20
143.0560799803
 30
0.1
 40
3.5
 41
0.0
 71
     1
 72
     1
  1
18
  7
SLDTEXTSTYLE1
 73
     1
 44
1.0
  0
ENDBLK
  5
1AC
330
1AA
100
AcDbEntity
  8
0
100
AcDbBlockEnd
  0
BLOCK
  5
1B5
330
1B4
100
AcDbEntity
  8
0
100
AcDbBlockBegin
  2
_D_9
 70
     0
 10
0.0
 20
0.0
 30
0.0
  3
_D_9
  1

  0
SOLID
  5
1B7
330
1B4
100
AcDbEntity
  8
0
  6
Continuous
 62
     7
370
     0
100
AcDbTrace
 10
124.871907316
 20
138.5443430657
 30
0.0
 11
122.871907316
 21
139.2943430657
 31
0.0
 12
122.871907316
 22
137.7943430657
 32
0.0
 13
122.871907316
 23
137.7943430657
 33
0.0
  0
SOLID
  5
1B8
330
1B4
100
AcDbEntity
  8
0
  6
Continuous
 62
     7
370
     0
100
AcDbTrace
 10
114.871907316
 20
138.5443430657
 30
0.0
 11
116.871907316
 21
137.7943430657
 31
0.0
 12
116.871907316
 22
139.2943430657
 32
0.0
 13
116.871907316
 23
139.2943430657
 33
0.0
  0
LINE
  5
1B9
330
1B4
100
AcDbEntity
  8
0
  6
Continuous
 62
     7
370
     0
100
AcDbLine
 10
124.871907316
 20
160.8943430657
 30
0.0
 11
124.871907316
 21
137.5443430657
 31
0.0
  0
LINE
  5
1BA
330
1B4
100
AcDbEntity
  8
0
  6
Continuous
 62
     7
370
     0
100
AcDbLine
 10
114.871907316
 20
160.5943430657
 30
0.0
 11
114.871907316
 21
137.5443430657
 31
0.0
  0
LINE
  5
1BB
330
1B4
100
AcDbEntity
  8
0
  6
Continuous
 62
     7
370
     0
100
AcDbLine
 10
124.871907316
 20
138.5443430657
 30
0.0
 11
114.871907316
 21
138.5443430657
 31
0.0
  0
MTEXT
  5
1BC
330
1B4
100
AcDbEntity
  8
0
  6
Continuous
 62
     7
370
     0
100
AcDbMText
 10
114.8591893934
 20
143.0560799803
 30
0.1
 40
3.5
 41
0.0
 71
     1
 72
     1
  1
10
  7
SLDTEXTSTYLE1
 73
     1
 44
1.0
  0
MTEXT
  5
1BD
330
1B4
100
AcDbEntity
  8
0
  6
Continuous
 62
     7
370
     0
100
AcDbMText
 10
120.0314117804
 20
143.0560799803
 30
0.1
 40
3.5
 41
0.0
 71
     1
 72
     1
  1
st
  7
SLDTEXTSTYLE1
 73
     1
 44
1.0
  0
ENDBLK
  5
1B6
330
1B4
100
AcDbEntity
  8
0
100
AcDbBlockEnd
  0
ENDSEC
  0
SECTION
  2
ENTITIES
  0
LINE
  5
44
330
1F
100
AcDbEntity
  8
0
  6
Continuous
 62
     7
370
     0
100
AcDbLine
 10
20.2604743903
 20
285.0
 30
0.0
 11
196.7604743903
 21
285.0
 31
0.0
  0
LINE
  5
45
330
1F
100
AcDbEntity
  8
0
  6
Continuous
 62
     7
370
     0
100
AcDbLine
 10
20.2604743903
 20
285.0
 30
0.0
 11
20.2604743903
 21
10.0
 31
0.0
  0
LINE
  5
46
330
1F
100
AcDbEntity
  8
0
  6
Continuous
 62
     7
370
     0
100
AcDbLine
 10
20.2604743903
 20
10.0
 30
0.0
 11
196.7604743903
 21
10.0
 31
0.0
  0
LINE
  5
47
330
1F
100
AcDbEntity
  8
0
  6
Continuous
 62
     7
370
     0
100
AcDbLine
 10
196.7604743903
 20
285.0
 30
0.0
 11
196.7604743903
 21
10.0
 31
0.0
  0
LINE
  5
48
330
1F
100
AcDbEntity
  8
0
  6
Continuous
 62
     7
370
     0
100
AcDbLine
 10
127.0104743903
 20
50.75
 30
0.0
 11
196.7604743903
 21
50.75
 31
0.0
  0
LINE
  5
49
330
1F
100
AcDbEntity
  8
0
  6
Continuous
 62
     7
370
     0
100
AcDbLine
 10
127.0104743903
 20
50.75
 30
0.0
 11
127.0104743903
 21
10.0
 31
0.0
  0
LINE
  5
4A
330
1F
100
AcDbEntity
  8
0
  6
Continuous
 62
     7
370
     0
100
AcDbLine
 10
127.0104743903
 20
22.75
 30
0.0
 11
196.7604743903
 21
22.75
 31
0.0
  0
LINE
  5
4B
330
1F
100
AcDbEntity
  8
0
  6
Continuous
 62
     7
370
     0
100
AcDbLine
 10
127.0104743903
 20
36.75
 30
0.0
 11
196.7604743903
 21
36.75
 31
0.0
  0
MTEXT
  5
4D
330
1F
100
AcDbEntity
  8
0
  6
Continuous
 62
     7
370
     0
100
AcDbMText
 10
161.0270443726
 20
30.4171582345
 30
0.0
 40
4.2333333333
 41
0.0
 71
     2
 72
     1
  1
VFIL2-SS-10-P12
  7
SLDTEXTSTYLE0
 73
     1
 44
1.0
  0
MTEXT
  5
4E
330
1F
100
AcDbEntity
  8
0
  6
Continuous
 62
     7
370
     0
100
AcDbMText
 10
161.3686533351
 20
43.9409718514
 30
0.0
 40
4.2333333333
 41
0.0
 71
     2
 72
     1
  1
吸着金具・ミニ用
  7
SLDTEXTSTYLE0
 73
     1
 44
1.0
  0
MTEXT
  5
4F
330
1F
100
AcDbEntity
  8
0
  6
Continuous
 62
     7
370
     0
100
AcDbMText
 10
162.6373320617
 20
16.8228189052
 30
0.0
 40
4.2333333333
 41
0.0
 71
     2
 72
     1
  1
211034
  7
SLDTEXTSTYLE0
 73
     1
 44
1.0
  0
LINE
  5
50
330
1F
100
AcDbEntity
  8
0
  6
Continuous
 62
     7
370
    15
100
AcDbLine
 10
51.4452554745
 20
153.5443430657
 30
0.0
 11
51.7952554745
 21
151.0443430657
 31
0.0
  0
LINE
  5
51
330
1F
100
AcDbEntity
  8
0
  6
Continuous
 62
     7
370
    15
100
AcDbLine
 10
55.7952554745
 20
151.0443430657
 30
0.0
 11
56.1452554745
 21
153.5443430657
 31
0.0
  0
LINE
  5
52
330
1F
100
AcDbEntity
  8
0
  6
Continuous
 62
     7
370
    15
100
AcDbLine
 10
51.4452554745
 20
151.0443430657
 30
0.0
 11
51.7952554745
 21
148.5443430657
 31
0.0
  0
LINE
  5
53
330
1F
100
AcDbEntity
  8
0
  6
Continuous
 62
     7
370
    15
100
AcDbLine
 10
55.7952554745
 20
148.5443430657
 30
0.0
 11
56.1452554745
 21
151.0443430657
 31
0.0
  0
LINE
  5
54
330
1F
100
AcDbEntity
  8
0
  6
Continuous
 62
     7
370
    15
100
AcDbLine
 10
55.8952554745
 20
153.5443430657
 30
0.0
 11
55.8952554745
 21
156.0443430657
 31
0.0
  0
LINE
  5
55
330
1F
100
AcDbEntity
  8
0
  6
Continuous
 62
     7
370
    15
100
AcDbLine
 10
51.6952554745
 20
156.0443430657
 30
0.0
 11
51.6952554745
 21
153.5443430657
 31
0.0
  0
LINE
  5
56
330
1F
100
AcDbEntity
  8
0
  6
Continuous
 62
     7
370
    15
100
AcDbLine
 10
49.7952554745
 20
172.1443430657
 30
0.0
 11
49.7952554745
 21
171.3443430657
 31
0.0
  0
LINE
  5
57
330
1F
100
AcDbEntity
  8
0
  6
Continuous
 62
     7
370
    15
100
AcDbLine
 10
57.7952554745
 20
171.3443430657
 30
0.0
 11
57.7952554745
 21
172.1443430657
 31
0.0
  0
LINE
  5
58
330
1F
100
AcDbEntity
  8
0
  6
Continuous
 62
     7
370
    15
100
AcDbLine
 10
49.7952554745
 20
159.3443430657
 30
0.0
 11
49.7952554745
 21
158.5443430657
 31
0.0
  0
LINE
  5
59
330
1F
100
AcDbEntity
  8
0
  6
Continuous
 62
     7
370
    15
100
AcDbLine
 10
57.7952554745
 20
158.5443430657
 30
0.0
 11
57.7952554745
 21
159.3443430657
 31
0.0
  0
CIRCLE
  5
5A
330
1F
100
AcDbEntity
  8
0
  6
Continuous
 62
     7
370
    15
100
AcDbCircle
 10
53.7952554745
 20
165.3443430657
 30
0.0
 40
3.5
  0
CIRCLE
  5
5B
330
1F
100
AcDbEntity
  8
0
  6
Continuous
 62
     7
370
    15
100
AcDbCircle
 10
53.7952554745
 20
165.3443430657
 30
0.0
 40
1.25
  0
LINE
  5
5C
330
1F
100
AcDbEntity
  8
0
  6
Continuous
 62
     7
370
    15
100
AcDbLine
 10
46.8670522442
 20
165.3443430657
 30
0.0
 11
50.3311538593
 21
171.3443430657
 31
0.0
  0
LINE
  5
5D
330
1F
100
AcDbEntity
  8
0
  6
Continuous
 62
     7
370
    15
100
AcDbLine
 10
50.3311538593
 20
171.3443430657
 30
0.0
 11
57.2593570896
 21
171.3443430657
 31
0.0
  0
LINE
  5
5E
330
1F
100
AcDbEntity
  8
0
  6
Continuous
 62
     7
370
    15
100
AcDbLine
 10
57.2593570896
 20
171.3443430657
 30
0.0
 11
60.7234587047
 21
165.3443430657
 31
0.0
  0
LINE
  5
5F
330
1F
100
AcDbEntity
  8
0
  6
Continuous
 62
     7
370
    15
100
AcDbLine
 10
60.7234587047
 20
165.3443430657
 30
0.0
 11
57.2593570896
 21
159.3443430657
 31
0.0
  0
LINE
  5
60
330
1F
100
AcDbEntity
  8
0
  6
Continuous
 62
     7
370
    15
100
AcDbLine
 10
57.2593570896
 20
159.3443430657
 30
0.0
 11
50.3311538593
 21
159.3443430657
 31
0.0
  0
LINE
  5
61
330
1F
100
AcDbEntity
  8
0
  6
Continuous
 62
     7
370
    15
100
AcDbLine
 10
50.3311538593
 20
159.3443430657
 30
0.0
 11
46.8670522442
 21
165.3443430657
 31
0.0
  0
ARC
  5
62
330
1F
100
AcDbEntity
  8
0
  6
Continuous
 62
     7
370
    15
100
AcDbCircle
 10
53.7952554745
 20
165.3443430657
 30
0.0
 40
7.7
100
AcDbArc
 50
121.2974122203
 51
238.7025877797
  0
ARC
  5
63
330
1F
100
AcDbEntity
  8
0
  6
Continuous
 62
     7
370
    15
100
AcDbCircle
 10
53.7952554745
 20
165.3443430657
 30
0.0
 40
7.700000000000008
100
AcDbArc
 50
301.2974122203
 51
58.7025877797
  0
ARC
  5
64
330
1F
100
AcDbEntity
  8
0
  6
Continuous
 62
     7
370
    15
100
AcDbCircle
 10
53.7952554745
 20
165.3443430657
 30
0.0
 40
7.999999999999988
100
AcDbArc
 50
120.4143653546
 51
239.5856346455
  0
ARC
  5
65
330
1F
100
AcDbEntity
  8
0
  6
Continuous
 62
     7
370
    15
100
AcDbCircle
 10
53.7952554745
 20
165.3443430657
 30
0.0
 40
8.000000000000014
100
AcDbArc
 50
300.4143653546
 51
59.5856346455
  0
LINE
  5
66
330
1F
100
AcDbEntity
  8
0
  6
Continuous
 62
     7
370
    15
100
AcDbLine
 10
55.8202554745
 20
156.0443430657
 30
0.0
 11
55.8202554745
 21
158.5443430657
 31
0.0
  0
LINE
  5
67
330
1F
100
AcDbEntity
  8
0
  6
Continuous
 62
     7
370
    15
100
AcDbLine
 10
51.7702554745
 20
156.0443430657
 30
0.0
 11
55.8202554745
 21
156.0443430657
 31
0.0
  0
LINE
  5
68
330
1F
100
AcDbEntity
  8
0
  6
Continuous
 62
     7
370
    15
100
AcDbLine
 10
51.7702554745
 20
156.0443430657
 30
0.0
 11
51.7702554744
 21
158.5443430657
 31
0.0
  0
LINE
  5
69
330
1F
100
AcDbEntity
  8
0
  6
Continuous
 62
     7
370
    15
100
AcDbLine
 10
51.7702554744
 20
158.5443430657
 30
0.0
 11
51.8722045131
 21
158.5443430657
 31
0.0
  0
LINE
  5
6A
330
1F
100
AcDbEntity
  8
0
  6
Continuous
 62
     7
370
    15
100
AcDbLine
 10
55.7183064358
 20
158.5443430657
 30
0.0
 11
55.8202554745
 21
158.5443430657
 31
0.0
  0
LINE
  5
6B
330
1F
100
AcDbEntity
  8
0
  6
Continuous
 62
     7
370
    15
100
AcDbLine
 10
49.7452554745
 20
158.5443430657
 30
0.0
 11
49.7452554745
 21
156.0443430657
 31
0.0
  0
LINE
  5
6C
330
1F
100
AcDbEntity
  8
0
  6
Continuous
 62
     7
370
    15
100
AcDbLine
 10
49.7452554745
 20
158.5443430657
 30
0.0
 11
49.7962299938
 21
158.5443430657
 31
0.0
  0
LINE
  5
6D
330
1F
100
AcDbEntity
  8
0
  6
Continuous
 62
     7
370
    15
100
AcDbLine
 10
51.7192809551
 20
158.5443430657
 30
0.0
 11
51.7702554744
 21
158.5443430657
 31
0.0
  0
LINE
  5
6E
330
1F
100
AcDbEntity
  8
0
  6
Continuous
 62
     7
370
    15
100
AcDbLine
 10
49.7452554745
 20
156.0443430657
 30
0.0
 11
51.7702554745
 21
156.0443430657
 31
0.0
  0
LINE
  5
6F
330
1F
100
AcDbEntity
  8
0
  6
Continuous
 62
     7
370
    15
100
AcDbLine
 10
57.8452554745
 20
156.0443430657
 30
0.0
 11
57.8452554745
 21
158.5443430657
 31
0.0
  0
LINE
  5
70
330
1F
100
AcDbEntity
  8
0
  6
Continuous
 62
     7
370
    15
100
AcDbLine
 10
55.8202554745
 20
158.5443430657
 30
0.0
 11
55.8712299938
 21
158.5443430657
 31
0.0
  0
LINE
  5
71
330
1F
100
AcDbEntity
  8
0
  6
Continuous
 62
     7
370
    15
100
AcDbLine
 10
57.7942809551
 20
158.5443430657
 30
0.0
 11
57.8452554745
 21
158.5443430657
 31
0.0
  0
LINE
  5
72
330
1F
100
AcDbEntity
  8
0
  6
Continuous
 62
     7
370
    15
100
AcDbLine
 10
55.8202554745
 20
156.0443430657
 30
0.0
 11
57.8452554745
 21
156.0443430657
 31
0.0
  0
LINE
  5
73
330
1F
100
AcDbEntity
  8
0
  6
Continuous
 62
     7
370
    15
100
AcDbLine
 10
56.1452554745
 20
153.5443430657
 30
0.0
 11
51.4452554745
 21
153.5443430657
 31
0.0
  0
LINE
  5
74
330
1F
100
AcDbEntity
  8
0
  6
Continuous
 62
     7
370
    15
100
AcDbLine
 10
55.7952554745
 20
148.5443430657
 30
0.0
 11
51.7952554745
 21
148.5443430657
 31
0.0
  0
LINE
  5
75
330
1F
100
AcDbEntity
  8
0
  6
Continuous
 62
     7
370
    15
100
AcDbLine
 10
56.1452554745
 20
151.0443430657
 30
0.0
 11
51.4452554745
 21
151.0443430657
 31
0.0
  0
LINE
  5
76
330
1F
100
AcDbEntity
  8
0
  6
Continuous
 62
     7
370
    15
100
AcDbLine
 10
55.8202554745
 20
172.1443430657
 30
0.0
 11
55.8202554745
 21
174.6443430657
 31
0.0
  0
LINE
  5
77
330
1F
100
AcDbEntity
  8
0
  6
Continuous
 62
     7
370
    15
100
AcDbLine
 10
51.7702554745
 20
172.1443430657
 30
0.0
 11
51.8722045131
 21
172.1443430657
 31
0.0
  0
LINE
  5
78
330
1F
100
AcDbEntity
  8
0
  6
Continuous
 62
     7
370
    15
100
AcDbLine
 10
55.7183064358
 20
172.1443430657
 30
0.0
 11
55.8202554745
 21
172.1443430657
 31
0.0
  0
LINE
  5
79
330
1F
100
AcDbEntity
  8
0
  6
Continuous
 62
     7
370
    15
100
AcDbLine
 10
51.7702554745
 20
172.1443430657
 30
0.0
 11
51.7702554745
 21
174.6443430657
 31
0.0
  0
LINE
  5
7A
330
1F
100
AcDbEntity
  8
0
  6
Continuous
 62
     7
370
    15
100
AcDbLine
 10
51.7702554745
 20
174.6443430657
 30
0.0
 11
55.8202554745
 21
174.6443430657
 31
0.0
  0
LINE
  5
7B
330
1F
100
AcDbEntity
  8
0
  6
Continuous
 62
     7
370
    15
100
AcDbLine
 10
49.7452554745
 20
172.1443430657
 30
0.0
 11
49.7962299938
 21
172.1443430657
 31
0.0
  0
LINE
  5
7C
330
1F
100
AcDbEntity
  8
0
  6
Continuous
 62
     7
370
    15
100
AcDbLine
 10
51.7192809551
 20
172.1443430657
 30
0.0
 11
51.7702554745
 21
172.1443430657
 31
0.0
  0
LINE
  5
7D
330
1F
100
AcDbEntity
  8
0
  6
Continuous
 62
     7
370
    15
100
AcDbLine
 10
49.7452554745
 20
172.1443430657
 30
0.0
 11
49.7452554745
 21
174.6443430657
 31
0.0
  0
LINE
  5
7E
330
1F
100
AcDbEntity
  8
0
  6
Continuous
 62
     7
370
    15
100
AcDbLine
 10
49.7452554745
 20
174.6443430657
 30
0.0
 11
51.7702554745
 21
174.6443430657
 31
0.0
  0
LINE
  5
7F
330
1F
100
AcDbEntity
  8
0
  6
Continuous
 62
     7
370
    15
100
AcDbLine
 10
57.8452554745
 20
172.1443430657
 30
0.0
 11
57.8452554744
 21
174.6443430657
 31
0.0
  0
LINE
  5
80
330
1F
100
AcDbEntity
  8
0
  6
Continuous
 62
     7
370
    15
100
AcDbLine
 10
55.8202554745
 20
172.1443430657
 30
0.0
 11
55.8712299938
 21
172.1443430657
 31
0.0
  0
LINE
  5
81
330
1F
100
AcDbEntity
  8
0
  6
Continuous
 62
     7
370
    15
100
AcDbLine
 10
57.7942809551
 20
172.1443430657
 30
0.0
 11
57.8452554745
 21
172.1443430657
 31
0.0
  0
LINE
  5
82
330
1F
100
AcDbEntity
  8
0
  6
Continuous
 62
     7
370
    15
100
AcDbLine
 10
55.8202554745
 20
174.6443430657
 30
0.0
 11
57.8452554744
 21
174.6443430657
 31
0.0
  0
LINE
  5
83
330
1F
100
AcDbEntity
  8
0
  6
Continuous
 62
     7
370
    15
100
AcDbLine
 10
57.7942809551
 20
172.1443430657
 30
0.0
 11
55.8712299938
 21
172.1443430657
 31
0.0
  0
LINE
  5
84
330
1F
100
AcDbEntity
  8
0
  6
Continuous
 62
     7
370
    15
100
AcDbLine
 10
55.7183064358
 20
172.1443430657
 30
0.0
 11
51.8722045131
 21
172.1443430657
 31
0.0
  0
LINE
  5
85
330
1F
100
AcDbEntity
  8
0
  6
Continuous
 62
     7
370
    15
100
AcDbLine
 10
51.7192809551
 20
172.1443430657
 30
0.0
 11
49.7962299938
 21
172.1443430657
 31
0.0
  0
LINE
  5
86
330
1F
100
AcDbEntity
  8
0
  6
Continuous
 62
     7
370
    15
100
AcDbLine
 10
57.7952554745
 20
171.3443430657
 30
0.0
 11
57.2593570896
 21
171.3443430657
 31
0.0
  0
LINE
  5
87
330
1F
100
AcDbEntity
  8
0
  6
Continuous
 62
     7
370
    15
100
AcDbLine
 10
50.3311538593
 20
171.3443430657
 30
0.0
 11
49.7952554745
 21
171.3443430657
 31
0.0
  0
LINE
  5
88
330
1F
100
AcDbEntity
  8
0
  6
Continuous
 62
     7
370
    15
100
AcDbLine
 10
50.3311538593
 20
159.3443430657
 30
0.0
 11
49.7952554745
 21
159.3443430657
 31
0.0
  0
LINE
  5
89
330
1F
100
AcDbEntity
  8
0
  6
Continuous
 62
     7
370
    15
100
AcDbLine
 10
57.7952554745
 20
159.3443430657
 30
0.0
 11
57.2593570896
 21
159.3443430657
 31
0.0
  0
LINE
  5
8A
330
1F
100
AcDbEntity
  8
0
  6
Continuous
 62
     7
370
    15
100
AcDbLine
 10
50.8302218597
 20
158.5443430657
 30
0.0
 11
49.7962299938
 21
158.5443430657
 31
0.0
  0
LINE
  5
8B
330
1F
100
AcDbEntity
  8
0
  6
Continuous
 62
     7
370
    15
100
AcDbLine
 10
57.7942809551
 20
158.5443430657
 30
0.0
 11
55.8712299938
 21
158.5443430657
 31
0.0
  0
LINE
  5
8C
330
1F
100
AcDbEntity
  8
0
  6
Continuous
 62
     7
370
    15
100
AcDbLine
 10
55.7183064358
 20
158.5443430657
 30
0.0
 11
51.8722045131
 21
158.5443430657
 31
0.0
  0
LINE
  5
8D
330
1F
100
AcDbEntity
  8
0
  6
Continuous
 62
     7
370
    15
100
AcDbLine
 10
51.7192809551
 20
158.5443430657
 30
0.0
 11
50.8302218597
 21
158.5443430657
 31
0.0
  0
DIMENSION
  5
8E
330
1F
100
AcDbEntity
  8
0
  6
Continuous
 62
     7
370
     0
100
AcDbDimension
  2
_D
 10
29.7952554745
 20
156.0443430657
 30
0.0
 11
29.7952554745
 21
166.00043985
 31
0.0
 70
   160
  1
<>
 71
     2
 42
-1.0
  3
SLDDIMSTYLE0
100
AcDbAlignedDimension
 13
49.7452554745
 23
174.6443430657
 33
0.0
 14
49.7452554745
 24
156.0443430657
 34
0.0
 50
90.0
100
AcDbRotatedDimension
  0
DIMENSION
  5
9A
330
1F
100
AcDbEntity
  8
0
  6
Continuous
 62
     7
370
     0
100
AcDbDimension
  2
_D_1
 10
37.3880279115
 20
159.3443430657
 30
0.0
 11
37.3880279115
 21
166.00043985
 31
0.0
 70
   160
  1
<>
 71
     2
 42
-1.0
  3
SLDDIMSTYLE0
100
AcDbAlignedDimension
 13
50.3311538593
 23
171.3443430657
 33
0.0
 14
50.3311538593
 24
159.3443430657
 34
0.0
 50
90.0
100
AcDbRotatedDimension
  0
DIMENSION
  5
A4
330
1F
100
AcDbEntity
  8
0
  6
Continuous
 62
     7
370
     0
100
AcDbDimension
  2
_D_2
 10
61.7952554745
 20
184.6443430657
 30
0.0
 11
52.9078763559
 21
184.6443430657
 31
0.0
 70
   160
  1
%%c<>
 71
     2
 42
-1.0
  3
SLDDIMSTYLE0
100
AcDbAlignedDimension
 13
45.7952554745
 23
165.3443430657
 33
0.0
 14
61.7952554745
 24
165.3443430657
 34
0.0
100
AcDbRotatedDimension
  0
MTEXT
  5
AF
330
1F
100
AcDbEntity
  8
0
  6
Continuous
 62
     7
370
     0
100
AcDbMText
 10
28.2777159951
 20
188.1303857325
 30
0.0
 40
3.5
 41
0.0
 71
     1
 72
     1
  1
M3
  7
SLDTEXTSTYLE1
 73
     1
 44
1.0
  0
LEADER
  5
B1
330
1F
100
AcDbEntity
  8
0
  6
Continuous
 62
     7
370
     0
100
AcDbLeader
  3
SLDDIMSTYLE1
 76
     3
 10
53.5377922674
 20
166.5675407999
 30
0.0
 10
35.5527549824
 20
183.5873388042
 30
0.0
 10
28.2532239156
 20
183.5873388042
 30
0.0
  0
INSERT
  5
BD
330
1F
100
AcDbEntity
  8
0
  6
Continuous
 62
     7
370
     0
100
AcDbBlockReference
  2
SW_CENTERMARKSYMBOL_0
 10
53.7952554745
 20
165.3443430657
 30
0.0
  0
LINE
  5
BE
330
1F
100
AcDbEntity
  8
0
  6
Continuous
 62
     7
370
    15
100
AcDbLine
 10
112.871907316
 20
161.5943430657
 30
0.0
 11
114.871907316
 21
161.5943430657
 31
0.0
  0
LINE
  5
BF
330
1F
100
AcDbEntity
  8
0
  6
Continuous
 62
     7
370
    15
100
AcDbLine
 10
114.7692971893
 20
169.0943430657
 30
0.0
 11
112.871907316
 21
169.0943430657
 31
0.0
  0
LINE
  5
C0
330
1F
100
AcDbEntity
  8
0
  6
Continuous
 62
     7
370
    15
100
AcDbLine
 10
99.371907316
 20
161.8443430657
 30
0.0
 11
101.371907316
 21
161.8443430657
 31
0.0
  0
LINE
  5
C1
330
1F
100
AcDbEntity
  8
0
  6
Continuous
 62
     7
370
    15
100
AcDbLine
 10
101.371907316
 20
168.8443430657
 30
0.0
 11
99.371907316
 21
168.8443430657
 31
0.0
  0
LINE
  5
C2
330
1F
100
AcDbEntity
  8
0
  6
Continuous
 62
     7
370
    15
100
AcDbLine
 10
148.371907316
 20
162.8443430657
 30
0.0
 11
148.871907316
 21
163.3443430657
 31
0.0
  0
LINE
  5
C3
330
1F
100
AcDbEntity
  8
0
  6
Continuous
 62
     7
370
    15
100
AcDbLine
 10
148.871907316
 20
167.3443430657
 30
0.0
 11
148.371907316
 21
167.8443430657
 31
0.0
  0
LINE
  5
C4
330
1F
100
AcDbEntity
  8
0
  6
Continuous
 62
     7
370
    15
100
AcDbLine
 10
147.571907316
 20
162.8443430657
 30
0.0
 11
148.371907316
 21
162.8443430657
 31
0.0
  0
LINE
  5
C5
330
1F
100
AcDbEntity
  8
0
  6
Continuous
 62
     7
370
    15
100
AcDbLine
 10
148.371907316
 20
167.8443430657
 30
0.0
 11
147.571907316
 21
167.8443430657
 31
0.0
  0
LINE
  5
C6
330
1F
100
AcDbEntity
  8
0
  6
Continuous
 62
     7
370
    15
100
AcDbLine
 10
114.871907316
 20
162.8443430657
 30
0.0
 11
115.3166853212
 21
162.8443430657
 31
0.0
  0
LINE
  5
C7
330
1F
100
AcDbEntity
  8
0
  6
Continuous
 62
     7
370
    15
100
AcDbLine
 10
115.8156050975
 20
162.8443430657
 30
0.0
 11
117.3169172168
 21
162.8443430657
 31
0.0
  0
LINE
  5
C8
330
1F
100
AcDbEntity
  8
0
  6
Continuous
 62
     7
370
    15
100
AcDbLine
 10
117.8154002198
 20
162.8443430657
 30
0.0
 11
119.3166313466
 21
162.8443430657
 31
0.0
  0
LINE
  5
C9
330
1F
100
AcDbEntity
  8
0
  6
Continuous
 62
     7
370
    15
100
AcDbLine
 10
119.8155117511
 20
162.8443430657
 30
0.0
 11
121.3169630949
 21
162.8443430657
 31
0.0
  0
LINE
  5
CA
330
1F
100
AcDbEntity
  8
0
  6
Continuous
 62
     7
370
    15
100
AcDbLine
 10
121.8157687
 20
162.8443430657
 30
0.0
 11
123.3168702883
 21
162.8443430657
 31
0.0
  0
LINE
  5
CB
330
1F
100
AcDbEntity
  8
0
  6
Continuous
 62
     7
370
    15
100
AcDbLine
 10
123.8157034133
 20
162.8443430657
 30
0.0
 11
124.871907316
 21
162.8443430657
 31
0.0
  0
LINE
  5
CC
330
1F
100
AcDbEntity
  8
0
  6
Continuous
 62
     7
370
    15
100
AcDbLine
 10
124.871907316
 20
167.8443430657
 30
0.0
 11
123.4141156409
 21
167.8443430657
 31
0.0
  0
LINE
  5
CD
330
1F
100
AcDbEntity
  8
0
  6
Continuous
 62
     7
370
    15
100
AcDbLine
 10
122.9156815804
 20
167.8443430657
 30
0.0
 11
121.4140386755
 21
167.8443430657
 31
0.0
  0
LINE
  5
CE
330
1F
100
AcDbEntity
  8
0
  6
Continuous
 62
     7
370
    15
100
AcDbLine
 10
120.9156874734
 20
167.8443430657
 30
0.0
 11
119.4143492963
 21
167.8443430657
 31
0.0
  0
LINE
  5
CF
330
1F
100
AcDbEntity
  8
0
  6
Continuous
 62
     7
370
    15
100
AcDbLine
 10
118.9157446339
 20
167.8443430657
 30
0.0
 11
117.4146814876
 21
167.8443430657
 31
0.0
  0
LINE
  5
D0
330
1F
100
AcDbEntity
  8
0
  6
Continuous
 62
     7
370
    15
100
AcDbLine
 10
116.9157949835
 20
167.8443430657
 30
0.0
 11
115.4141742774
 21
167.8443430657
 31
0.0
  0
LINE
  5
D1
330
1F
100
AcDbEntity
  8
0
  6
Continuous
 62
     7
370
    15
100
AcDbLine
 10
114.9157711547
 20
167.8443430657
 30
0.0
 11
114.871907316
 21
167.8443430657
 31
0.0
  0
LINE
  5
D2
330
1F
100
AcDbEntity
  8
0
  6
Continuous
 62
     7
370
    15
100
AcDbLine
 10
101.371907316
 20
162.8443430657
 30
0.0
 11
104.871907316
 21
162.8443430657
 31
0.0
  0
LINE
  5
D3
330
1F
100
AcDbEntity
  8
0
  6
Continuous
 62
     7
370
    15
100
AcDbLine
 10
104.871907316
 20
167.8443430657
 30
0.0
 11
101.371907316
 21
167.8443430657
 31
0.0
  0
LINE
  5
D4
330
1F
100
AcDbEntity
  8
0
  6
Continuous
 62
     7
370
    15
100
AcDbLine
 10
146.871907316
 20
163.8443430657
 30
0.0
 11
146.971907316
 21
163.8443430657
 31
0.0
  0
LINE
  5
D5
330
1F
100
AcDbEntity
  8
0
  6
Continuous
 62
     7
370
    15
100
AcDbLine
 10
146.971907316
 20
166.8443430657
 30
0.0
 11
146.871907316
 21
166.8443430657
 31
0.0
  0
LINE
  5
D6
330
1F
100
AcDbEntity
  8
0
  6
Continuous
 62
     7
370
    15
100
AcDbLine
 10
128.571907316
 20
157.3443430657
 30
0.0
 11
128.871907316
 21
157.6443430657
 31
0.0
  0
LINE
  5
D7
330
1F
100
AcDbEntity
  8
0
  6
Continuous
 62
     7
370
    15
100
AcDbLine
 10
128.871907316
 20
173.0443430657
 30
0.0
 11
128.571907316
 21
173.3443430657
 31
0.0
  0
LINE
  5
D8
330
1F
100
AcDbEntity
  8
0
  6
Continuous
 62
     7
370
    15
100
AcDbLine
 10
128.571907316
 20
173.3443430657
 30
0.0
 11
127.171907316
 21
173.3443430657
 31
0.0
  0
LINE
  5
D9
330
1F
100
AcDbEntity
  8
0
  6
Continuous
 62
     7
370
    15
100
AcDbLine
 10
127.171907316
 20
157.3443430657
 30
0.0
 11
128.571907316
 21
157.3443430657
 31
0.0
  0
LINE
  5
DA
330
1F
100
AcDbEntity
  8
0
  6
Continuous
 62
     7
370
    15
100
AcDbLine
 10
127.171907316
 20
173.3443430657
 30
0.0
 11
126.871907316
 21
173.0443430657
 31
0.0
  0
LINE
  5
DB
330
1F
100
AcDbEntity
  8
0
  6
Continuous
 62
     7
370
    15
100
AcDbLine
 10
126.871907316
 20
157.6443430657
 30
0.0
 11
127.171907316
 21
157.3443430657
 31
0.0
  0
LINE
  5
DC
330
1F
100
AcDbEntity
  8
0
  6
Continuous
 62
     7
370
    15
100
AcDbLine
 10
146.571907316
 20
159.3443430657
 30
0.0
 11
146.871907316
 21
159.6443430657
 31
0.0
  0
LINE
  5
DD
330
1F
100
AcDbEntity
  8
0
  6
Continuous
 62
     7
370
    15
100
AcDbLine
 10
146.871907316
 20
171.0443430657
 30
0.0
 11
146.571907316
 21
171.3443430657
 31
0.0
  0
LINE
  5
DE
330
1F
100
AcDbEntity
  8
0
  6
Continuous
 62
     7
370
    15
100
AcDbLine
 10
146.571907316
 20
171.3443430657
 30
0.0
 11
128.871907316
 21
171.3443430657
 31
0.0
  0
LINE
  5
DF
330
1F
100
AcDbEntity
  8
0
  6
Continuous
 62
     7
370
    15
100
AcDbLine
 10
128.871907316
 20
159.3443430657
 30
0.0
 11
146.571907316
 21
159.3443430657
 31
0.0
  0
LINE
  5
E0
330
1F
100
AcDbEntity
  8
0
  6
Continuous
 62
     7
370
    15
100
AcDbLine
 10
126.7691281927
 20
169.0943430657
 30
0.0
 11
125.271396866
 21
169.0943430657
 31
0.0
  0
LINE
  5
E1
330
1F
100
AcDbEntity
  8
0
  6
Continuous
 62
     7
370
    15
100
AcDbLine
 10
125.171907316
 20
161.5943430657
 30
0.0
 11
125.4603071544
 21
161.5943430657
 31
0.0
  0
LINE
  5
E2
330
1F
100
AcDbEntity
  8
0
  6
Continuous
 62
     7
370
    15
100
AcDbLine
 10
125.9603627228
 20
161.5943430657
 30
0.0
 11
126.871907316
 21
161.5943430657
 31
0.0
  0
LINE
  5
E3
330
1F
100
AcDbEntity
  8
0
  6
Continuous
 62
     7
370
    15
100
AcDbLine
 10
124.871907316
 20
161.8943430657
 30
0.0
 11
125.171907316
 21
161.5943430657
 31
0.0
  0
LINE
  5
E4
330
1F
100
AcDbEntity
  8
0
  6
Continuous
 62
     7
370
    15
100
AcDbLine
 10
146.971907316
 20
161.8443430657
 30
0.0
 11
147.571907316
 21
161.8443430657
 31
0.0
  0
LINE
  5
E5
330
1F
100
AcDbEntity
  8
0
  6
Continuous
 62
     7
370
    15
100
AcDbLine
 10
147.571907316
 20
167.9272739135
 30
0.0
 11
146.971907316
 21
167.9272739135
 31
0.0
  0
LINE
  5
E6
330
1F
100
AcDbEntity
  8
0
  6
Continuous
 62
     7
370
    15
100
AcDbLine
 10
106.521907316
 20
153.5443430657
 30
0.0
 11
106.871907316
 21
151.0443430657
 31
0.0
  0
LINE
  5
E7
330
1F
100
AcDbEntity
  8
0
  6
Continuous
 62
     7
370
    15
100
AcDbLine
 10
110.871907316
 20
151.0443430657
 30
0.0
 11
111.221907316
 21
153.5443430657
 31
0.0
  0
LINE
  5
E8
330
1F
100
AcDbEntity
  8
0
  6
Continuous
 62
     7
370
    15
100
AcDbLine
 10
106.521907316
 20
151.0443430657
 30
0.0
 11
106.871907316
 21
148.5443430657
 31
0.0
  0
LINE
  5
E9
330
1F
100
AcDbEntity
  8
0
  6
Continuous
 62
     7
370
    15
100
AcDbLine
 10
110.871907316
 20
148.5443430657
 30
0.0
 11
111.221907316
 21
151.0443430657
 31
0.0
  0
LINE
  5
EA
330
1F
100
AcDbEntity
  8
0
  6
Continuous
 62
     7
370
    15
100
AcDbLine
 10
110.971907316
 20
153.5443430657
 30
0.0
 11
110.971907316
 21
156.0443430657
 31
0.0
  0
LINE
  5
EB
330
1F
100
AcDbEntity
  8
0
  6
Continuous
 62
     7
370
    15
100
AcDbLine
 10
106.771907316
 20
156.0443430657
 30
0.0
 11
106.771907316
 21
153.5443430657
 31
0.0
  0
LWPOLYLINE
  5
EC
330
1F
100
AcDbEntity
  8
0
  6
Continuous
 62
     7
370
    15
100
AcDbPolyline
 90
       32
 70
   128
 43
0.0
 10
114.702846785
 20
169.4088763825
 10
114.7064429812
 20
169.3954465427
 10
114.7250472654
 20
169.3267464311
 10
114.7519484886
 20
169.1987978262
 10
114.7857536444
 20
168.995260425
 10
114.825404126
 20
168.7020431414
 10
114.8683549194
 20
168.3252794502
 10
114.9104155287
 20
167.903645159
 10
114.951377304
 20
167.4500811859
 10
114.991176239
 20
166.9752086452
 10
115.0297599061
 20
166.4894614357
 10
115.0668103122
 20
166.0066289701
 10
115.0999975291
 20
165.566145579
 10
115.1287967222
 20
165.1817176229
 10
115.153201218
 20
164.8568594563
 10
115.1753628602
 20
164.5643075323
 10
115.2024639334
 20
164.2119246837
 10
115.2351117805
 20
163.7986009137
 10
115.2733581388
 20
163.3349826919
 10
115.317270654
 20
162.8377147221
 10
115.3652292455
 20
162.3478337539
 10
115.4095486941
 20
161.9548005837
 10
115.4494087951
 20
161.6571973199
 10
115.484977928
 20
161.4383713156
 10
115.5164480152
 20
161.2817724969
 10
115.544034522
 20
161.1724861431
 10
115.5679764568
 20
161.097664221
 10
115.5918557086
 20
161.0400727082
 10
115.6832320167
 20
160.9162448245
 10
115.7641050298
 20
160.865482234
 10
115.8713386636
 20
160.8444703904
 10
115.8713386636
 20
160.8444703904
  0
SPLINE
  5
ED
330
1F
100
AcDbEntity
  8
0
  6
Continuous
 62
     7
370
    15
100
AcDbSpline
210
0.0
220
0.0
230
1.0
 70
     8
 71
     3
 72
    40
 73
    36
 74
     0
 42
0.00000001
 43
0.00000001
 12
1.0
 22
0.0
 32
0.0
 13
1.0
 23
0.0
 33
0.0
 40
0.0
 40
0.0
 40
0.0
 40
0.0
 40
0.0002635677144803
 40
0.0097794383779535
 40
0.0188702516123283
 40
0.0293482501269931
 40
0.0412244057621882
 40
0.0545085699253295
 40
0.085320939988461
 40
0.121836418956613
 40
0.1640522199551586
 40
0.2089210495085366
 40
0.2503643842741444
 40
0.2882215996994341
 40
0.3225108472105983
 40
0.3532140208963793
 40
0.3885187156705259
 40
0.4196579797822025
 40
0.4528751511502158
 40
0.4885194295992197
 40
0.5267386508424405
 40
0.5693594737937611
 40
0.6046266054231227
 40
0.6427117635129773
 40
0.6836008161053725
 40
0.72729415782944
 40
0.7721812145628422
 40
0.8132762682854348
 40
0.8502291074529522
 40
0.8830197914056273
 40
0.9116340311337485
 40
0.9362817890846187
 40
0.964170950430259
 40
0.9810576020914882
 40
0.9999999999999999
 40
0.9999999999999999
 40
0.9999999999999999
 40
0.9999999999999999
 10
116.728965601355
 20
169.3550472526192
 30
0.0
 10
116.7288736246835
 20
169.3550426209497
 30
0.0
 10
116.7254609146219
 20
169.3548707670976
 30
0.0
 10
116.7263186957087
 20
169.3468324493127
 30
0.0
 10
116.7282070004814
 20
169.3291167360181
 30
0.0
 10
116.733151731591
 20
169.303115759244
 30
0.0
 10
116.7402174007008
 20
169.2663999567999
 30
0.0
 10
116.7533291595268
 20
169.1969714343875
 30
0.0
 10
116.7751571290217
 20
169.070017953533
 30
0.0
 10
116.8073310011784
 20
168.8495792568664
 30
0.0
 10
116.8451054133074
 20
168.5450856098222
 30
0.0
 10
116.8849833550536
 20
168.1731706214964
 30
0.0
 10
116.9235663488217
 20
167.7694170850233
 30
0.0
 10
116.9589857920719
 20
167.3662042932082
 30
0.0
 10
116.9910828339054
 20
166.9786047799363
 30
0.0
 10
117.0224000813585
 20
166.5850635349437
 30
0.0
 10
117.0527643443982
 20
166.1918304959586
 30
0.0
 10
117.0839327747761
 20
165.7802531733214
 30
0.0
 10
117.1152285474021
 20
165.3628824766505
 30
0.0
 10
117.1487746172195
 20
164.9152006597313
 30
0.0
 10
117.1852674756106
 20
164.4333922849068
 30
0.0
 10
117.2216350195211
 20
163.9649419179748
 30
0.0
 10
117.2579642519546
 20
163.5147599754949
 30
0.0
 10
117.293813834168
 20
163.0920379183483
 30
0.0
 10
117.3324229528565
 20
162.6679139230844
 30
0.0
 10
117.3733430508453
 20
162.2613032510475
 30
0.0
 10
117.4144783428387
 20
161.9057299401216
 30
0.0
 10
117.4541360818138
 20
161.6167156791267
 30
0.0
 10
117.4913473834637
 20
161.3965598776309
 30
0.0
 10
117.5254815858934
 20
161.2348620901134
 30
0.0
 10
117.560619246803
 20
161.1150347952892
 30
0.0
 10
117.590231221479
 20
161.0321485508223
 30
0.0
 10
117.6548102301819
 20
160.9317777268041
 30
0.0
 10
117.7575594308087
 20
160.8586078185994
 30
0.0
 10
117.831760680524
 20
160.8497757062035
 30
0.0
 10
117.8709900101962
 20
160.8451062720604
 30
0.0
  0
SPLINE
  5
EE
330
1F
100
AcDbEntity
  8
0
  6
Continuous
 62
     7
370
    15
100
AcDbSpline
210
0.0
220
0.0
230
1.0
 70
     8
 71
     3
 72
    38
 73
    34
 74
     0
 42
0.00000001
 43
0.00000001
 12
1.0
 22
0.0
 32
0.0
 13
1.0
 23
0.0
 33
0.0
 40
0.0
 40
0.0
 40
0.0
 40
0.0
 40
0.0080921609718572
 40
0.0333958593709557
 40
0.0615489516019071
 40
0.0925664421087192
 40
0.1264373126192283
 40
0.1630915397738339
 40
0.2005051664254453
 40
0.2375000538949567
 40
0.2741029262421126
 40
0.3103292537928019
 40
0.3461630159841642
 40
0.3927576166777998
 40
0.4336588036727845
 40
0.4678511236843716
 40
0.4891282197464442
 40
0.5124474078745948
 40
0.5423714497138946
 40
0.5789182399125157
 40
0.6220866554718627
 40
0.6718596848671061
 40
0.7086725842705963
 40
0.7446744202005916
 40
0.7778129528212746
 40
0.8220991408628733
 40
0.8598551314007528
 40
0.8910493701941227
 40
0.9156651800050772
 40
0.9348912096168759
 40
0.9547272620183916
 40
0.9763662848709158
 40
1.0
 40
1.0
 40
1.0
 40
1.0
 10
118.7045216856455
 20
169.4083936517343
 30
0.0
 10
118.704160208514
 20
169.4077919142669
 30
0.0
 10
118.7026684142341
 20
169.4053085800984
 30
0.0
 10
118.7195589530944
 20
169.3554171586811
 30
0.0
 10
118.7385966066813
 20
169.2675382627747
 30
0.0
 10
118.7654040363589
 20
169.1263062822437
 30
0.0
 10
118.7957475684366
 20
168.9303441479504
 30
0.0
 10
118.8294842901938
 20
168.6749910115582
 30
0.0
 10
118.8644381592416
 20
168.3693294103562
 30
0.0
 10
118.8995528823214
 20
168.0243704645539
 30
0.0
 10
118.934394685513
 20
167.6481428540783
 30
0.0
 10
118.9689123051479
 20
167.2477161925879
 30
0.0
 10
119.0066290614949
 20
166.7857991110402
 30
0.0
 10
119.045901217466
 20
166.2824005399714
 30
0.0
 10
119.0846746703648
 20
165.7708907338173
 30
0.0
 10
119.1154088047557
 20
165.3609977977996
 30
0.0
 10
119.1405170375402
 20
165.0262013584903
 30
0.0
 10
119.1642585239414
 20
164.7109931889677
 30
0.0
 10
119.1928673525161
 20
164.3352419359381
 30
0.0
 10
119.2278249287928
 20
163.886458476743
 30
0.0
 10
119.2691834563404
 20
163.3772206523745
 30
0.0
 10
119.3107944419403
 20
162.8999920168379
 30
0.0
 10
119.3501623132941
 20
162.4893155639644
 30
0.0
 10
119.3843231204296
 20
162.1668394407676
 30
0.0
 10
119.42118333101
 20
161.8567249459338
 30
0.0
 10
119.4591777383477
 20
161.5837905720823
 30
0.0
 10
119.4977936732158
 20
161.3620004627821
 30
0.0
 10
119.5313927467349
 20
161.2115701141601
 30
0.0
 10
119.5611936743001
 20
161.1118528359376
 30
0.0
 10
119.5898513834223
 20
161.0374200541336
 30
0.0
 10
119.6404808824392
 20
160.9538911151537
 30
0.0
 10
119.7292121990527
 20
160.869210707325
 30
0.0
 10
119.8221907412314
 20
160.8543794833118
 30
0.0
 10
119.8707283043861
 20
160.846637143463
 30
0.0
  0
SPLINE
  5
EF
330
1F
100
AcDbEntity
  8
0
  6
Continuous
 62
     7
370
    15
100
AcDbSpline
210
0.0
220
0.0
230
1.0
 70
     8
 71
     3
 72
    12
 73
     8
 74
     0
 42
0.00000001
 43
0.00000001
 12
1.0
 22
0.0
 32
0.0
 13
1.0
 23
0.0
 33
0.0
 40
0.0
 40
0.0
 40
0.0
 40
0.0
 40
0.2386962411750432
 40
0.4622880874918574
 40
0.6710886644390198
 40
0.9567313132137852
 40
1.0
 40
1.0
 40
1.0
 40
1.0
 10
120.5044921913607
 20
169.3550212959914
 30
0.0
 10
120.4895418915549
 20
169.2756873079745
 30
0.0
 10
120.4605873279194
 20
169.122039485902
 30
0.0
 10
120.4185832512344
 20
168.8163830493625
 30
0.0
 10
120.3737428445112
 20
168.4292539582005
 30
0.0
 10
120.3402138567992
 20
168.1044910458224
 30
0.0
 10
120.3197768962942
 20
167.8745871970126
 30
0.0
 10
120.3170883892489
 20
167.8443430656934
 30
0.0
  0
SPLINE
  5
F0
330
1F
100
AcDbEntity
  8
0
  6
Continuous
 62
     7
370
    15
100
AcDbSpline
210
0.0
220
0.0
230
1.0
 70
     8
 71
     3
 72
     9
 73
     5
 74
     0
 42
0.00000001
 43
0.00000001
 12
1.0
 22
0.0
 32
0.0
 13
1.0
 23
0.0
 33
0.0
 40
0.0
 40
0.0
 40
0.0
 40
0.0
 40
0.9168140813112727
 40
1.0
 40
1.0
 40
1.0
 40
1.0
 10
119.915592014339
 20
162.8443430656934
 30
0.0
 10
119.9002431106874
 20
162.6777109946574
 30
0.0
 10
119.8835015444698
 20
162.4959597820258
 30
0.0
 10
119.8669040551756
 20
162.3515597896977
 30
0.0
 10
119.8655233777807
 20
162.3395477436772
 30
0.0
  0
SPLINE
  5
F1
330
1F
100
AcDbEntity
  8
0
  6
Continuous
 62
     7
370
    15
100
AcDbSpline
210
0.0
220
0.0
230
1.0
 70
     8
 71
     3
 72
    18
 73
    14
 74
     0
 42
0.00000001
 43
0.00000001
 12
1.0
 22
0.0
 32
0.0
 13
1.0
 23
0.0
 33
0.0
 40
0.0
 40
0.0
 40
0.0
 40
0.0
 40
0.0628866453774066
 40
0.1182812963455973
 40
0.1878485066055925
 40
0.2468726127566283
 40
0.3090080627319712
 40
0.3755361709286341
 40
0.5046271476745289
 40
0.6477719006949239
 40
0.8014815876727829
 40
0.9157404435795647
 40
1.0
 40
1.0
 40
1.0
 40
1.0
 10
118.8716785723045
 20
169.8425791917183
 30
0.0
 10
118.829358583019
 20
169.8368034682435
 30
0.0
 10
118.7497603922746
 20
169.8259401115509
 30
0.0
 10
118.6546803686676
 20
169.7515409389248
 30
0.0
 10
118.5966660724158
 20
169.6642197123819
 30
0.0
 10
118.5705488092735
 20
169.598909008398
 30
0.0
 10
118.5439552328335
 20
169.5195989668618
 30
0.0
 10
118.5117911285052
 20
169.395083152385
 30
0.0
 10
118.4726929514544
 20
169.1961307323008
 30
0.0
 10
118.4266569478661
 20
168.8834834841386
 30
0.0
 10
118.3833979967148
 20
168.5175869238439
 30
0.0
 10
118.3464326283221
 20
168.1627082313154
 30
0.0
 10
118.3256849705795
 20
167.9392065649746
 30
0.0
 10
118.3168787927663
 20
167.8443430656934
 30
0.0
  0
SPLINE
  5
F2
330
1F
100
AcDbEntity
  8
0
  6
Continuous
 62
     7
370
    15
100
AcDbSpline
210
0.0
220
0.0
230
1.0
 70
     8
 71
     3
 72
    10
 73
     6
 74
     0
 42
0.00000001
 43
0.00000001
 12
1.0
 22
0.0
 32
0.0
 13
1.0
 23
0.0
 33
0.0
 40
0.0
 40
0.0
 40
0.0
 40
0.0
 40
0.2590444088768183
 40
0.9515953171523015
 40
1.0
 40
1.0
 40
1.0
 40
1.0
 10
117.9157668344441
 20
162.8443430656934
 30
0.0
 10
117.9114522537943
 20
162.7972996857609
 30
0.0
 10
117.8956027137113
 20
162.6244866138987
 30
0.0
 10
117.8789248779604
 20
162.4555452205267
 30
0.0
 10
117.8667046230093
 20
162.3462566742663
 30
0.0
 10
117.8659063058465
 20
162.3391171405561
 30
0.0
  0
SPLINE
  5
F3
330
1F
100
AcDbEntity
  8
0
  6
Continuous
 62
     7
370
    15
100
AcDbSpline
210
0.0
220
0.0
230
1.0
 70
     8
 71
     3
 72
    20
 73
    16
 74
     0
 42
0.00000001
 43
0.00000001
 12
1.0
 22
0.0
 32
0.0
 13
1.0
 23
0.0
 33
0.0
 40
0.0
 40
0.0
 40
0.0
 40
0.0
 40
0.0779283603074924
 40
0.1423782484471318
 40
0.2021609766069409
 40
0.2468363564183836
 40
0.2934307660820869
 40
0.3444999046251757
 40
0.400046383314602
 40
0.5026014510247452
 40
0.617749464497612
 40
0.745593447784355
 40
0.8766227930695253
 40
0.9973713234817989
 40
1.0
 40
1.0
 40
1.0
 40
1.0
 10
116.8712025320511
 20
169.8414693402991
 30
0.0
 10
116.8288522355163
 20
169.8355692341066
 30
0.0
 10
116.7514765404797
 20
169.8247895027991
 30
0.0
 10
116.6626316659676
 20
169.7531061033655
 30
0.0
 10
116.6072744440511
 20
169.6764443464322
 30
0.0
 10
116.5792458857626
 20
169.6153368201821
 30
0.0
 10
116.5560868551041
 20
169.5530267295793
 30
0.0
 10
116.5340549536957
 20
169.4789302081897
 30
0.0
 10
116.5066406046892
 20
169.3670337994725
 30
0.0
 10
116.4742179972808
 20
169.1985696522385
 30
0.0
 10
116.4359968129845
 20
168.9467199604922
 30
0.0
 10
116.3962603798833
 20
168.6309941808653
 30
0.0
 10
116.3564696576267
 20
168.2601016952544
 30
0.0
 10
116.3297800598519
 20
167.9920134753505
 30
0.0
 10
116.3168754738232
 20
167.847423697547
 30
0.0
 10
116.3166005285305
 20
167.8443430656934
 30
0.0
  0
SPLINE
  5
F4
330
1F
100
AcDbEntity
  8
0
  6
Continuous
 62
     7
370
    15
100
AcDbSpline
210
0.0
220
0.0
230
1.0
 70
     8
 71
     3
 72
     9
 73
     5
 74
     0
 42
0.00000001
 43
0.00000001
 12
1.0
 22
0.0
 32
0.0
 13
1.0
 23
0.0
 33
0.0
 40
0.0
 40
0.0
 40
0.0
 40
0.0
 40
0.6201766459970134
 40
1.0
 40
1.0
 40
1.0
 40
1.0
 10
115.9158192962801
 20
162.8443430656934
 30
0.0
 10
115.9053934220343
 20
162.7317639253072
 30
0.0
 10
115.8885822855409
 20
162.550236386157
 30
0.0
 10
115.8718238912786
 20
162.3978643833721
 30
0.0
 10
115.8654586617622
 20
162.3399899382181
 30
0.0
  0
SPLINE
  5
F5
330
1F
100
AcDbEntity
  8
0
  6
Continuous
 62
     7
370
    15
100
AcDbSpline
210
0.0
220
0.0
230
1.0
 70
     8
 71
     3
 72
    14
 73
    10
 74
     0
 42
0.00000001
 43
0.00000001
 12
1.0
 22
0.0
 32
0.0
 13
1.0
 23
0.0
 33
0.0
 40
0.0
 40
0.0
 40
0.0
 40
0.0
 40
0.1481684394512523
 40
0.2765892993066292
 40
0.3881164695093621
 40
0.4960480522530115
 40
0.7226892209026459
 40
0.9643199701019455
 40
1.0
 40
1.0
 40
1.0
 40
1.0
 10
114.8705951100141
 20
169.8418123577754
 30
0.0
 10
114.814849451263
 20
169.8314435760635
 30
0.0
 10
114.710787798522
 20
169.8120879421716
 30
0.0
 10
114.6229595578656
 20
169.7110253319162
 30
0.0
 10
114.5846256408316
 20
169.6374697189935
 30
0.0
 10
114.5500667257355
 20
169.5458645790172
 30
0.0
 10
114.5089045476512
 20
169.3854789666114
 30
0.0
 10
114.4775645879344
 20
169.2249345536122
 30
0.0
 10
114.4613579822533
 20
169.1092301104865
 30
0.0
 10
114.4592727687715
 20
169.0943430656934
 30
0.0
  0
SPLINE
  5
F6
330
1F
100
AcDbEntity
  8
0
  6
Continuous
 62
     7
370
    15
100
AcDbSpline
210
0.0
220
0.0
230
1.0
 70
     8
 71
     3
 72
    19
 73
    15
 74
     0
 42
0.00000001
 43
0.00000001
 12
1.0
 22
0.0
 32
0.0
 13
1.0
 23
0.0
 33
0.0
 40
0.0
 40
0.0
 40
0.0
 40
0.0
 40
0.0572067797005653
 40
0.1082395576970292
 40
0.1735387109411795
 40
0.2285990435659064
 40
0.2871458537206268
 40
0.3523035198286896
 40
0.4494239192487658
 40
0.558211840953284
 40
0.6786229845467142
 40
0.8097402152862874
 40
0.9377417193493941
 40
1.0
 40
1.0
 40
1.0
 40
1.0
 10
115.8599777955414
 20
160.8444953926665
 30
0.0
 10
115.8992775410598
 20
160.8492673031653
 30
0.0
 10
115.9736356345372
 20
160.8582961190588
 30
0.0
 10
116.0658100371357
 20
160.9242722137204
 30
0.0
 10
116.1261494448935
 20
161.0065054414342
 30
0.0
 10
116.1541542379734
 20
161.0712634607816
 30
0.0
 10
116.179161510676
 20
161.1420785580723
 30
0.0
 10
116.2072724823571
 20
161.2443503247143
 30
0.0
 10
116.239158622037
 20
161.3921291311689
 30
0.0
 10
116.2754221411432
 20
161.6055183017575
 30
0.0
 10
116.3141559855154
 20
161.8838924002758
 30
0.0
 10
116.354154844481
 20
162.2279613587351
 30
0.0
 10
116.3879103277797
 20
162.5549762872627
 30
0.0
 10
116.4077920778109
 20
162.7729997418939
 30
0.0
 10
116.4142979380753
 20
162.8443430656934
 30
0.0
  0
SPLINE
  5
F7
330
1F
100
AcDbEntity
  8
0
  6
Continuous
 62
     7
370
    15
100
AcDbSpline
210
0.0
220
0.0
230
1.0
 70
     8
 71
     3
 72
     9
 73
     5
 74
     0
 42
0.00000001
 43
0.00000001
 12
1.0
 22
0.0
 32
0.0
 13
1.0
 23
0.0
 33
0.0
 40
0.0
 40
0.0
 40
0.0
 40
0.0
 40
0.5220020134436524
 40
1.0
 40
1.0
 40
1.0
 40
1.0
 10
116.8156067039566
 20
167.8443430656934
 30
0.0
 10
116.8243391839914
 20
167.9389866953198
 30
0.0
 10
116.8410680084209
 20
168.1202956312798
 30
0.0
 10
116.857697183576
 20
168.2722812283297
 30
0.0
 10
116.8656458958182
 20
168.3449300377051
 30
0.0
  0
SPLINE
  5
F8
330
1F
100
AcDbEntity
  8
0
  6
Continuous
 62
     7
370
    15
100
AcDbSpline
210
0.0
220
0.0
230
1.0
 70
     8
 71
     3
 72
    26
 73
    22
 74
     0
 42
0.00000001
 43
0.00000001
 12
1.0
 22
0.0
 32
0.0
 13
1.0
 23
0.0
 33
0.0
 40
0.0
 40
0.0
 40
0.0
 40
0.0
 40
0.0157852968852199
 40
0.0285652828195452
 40
0.0386889220437264
 40
0.0429787573352935
 40
0.0469287336103692
 40
0.0507309490997695
 40
0.0546001481362007
 40
0.0632855158427549
 40
0.081620013384062
 40
0.1043791608105491
 40
0.1449591519153848
 40
0.2319843382561935
 40
0.3271791310205729
 40
0.4374573828849074
 40
0.5560569981178125
 40
0.6745128082873217
 40
0.7929825218097514
 40
0.9116002975931816
 40
1.0
 40
1.0
 40
1.0
 40
1.0
 10
117.8601011261368
 20
160.8450618509187
 30
0.0
 10
117.8790618841577
 20
160.8461465788896
 30
0.0
 10
117.9133735236078
 20
160.8481095170272
 30
0.0
 10
117.9618248829199
 20
160.866422321762
 30
0.0
 10
117.9958003080588
 20
160.8863282333573
 30
0.0
 10
118.0175305084441
 20
160.9025792619784
 30
0.0
 10
118.0308129894241
 20
160.9137385872084
 30
0.0
 10
118.042088954537
 20
160.9241338174935
 30
0.0
 10
118.055090300516
 20
160.9369391013726
 30
0.0
 10
118.0708614582782
 20
160.9533619728391
 30
0.0
 10
118.0786026048949
 20
160.9578791337463
 30
0.0
 10
118.0891118474753
 20
160.9635372557237
 30
0.0
 10
118.1095757850889
 20
160.9834352076356
 30
0.0
 10
118.1390109472273
 20
161.0327814907049
 30
0.0
 10
118.1772293175634
 20
161.1364879701052
 30
0.0
 10
118.2186523742685
 20
161.2981567332793
 30
0.0
 10
118.2615851528106
 20
161.5248629250056
 30
0.0
 10
118.3037682039595
 20
161.8098450040397
 30
0.0
 10
118.3447374063827
 20
162.1468526588867
 30
0.0
 10
118.3814592002205
 20
162.4916858533948
 30
0.0
 10
118.4044325152367
 20
162.7388150373106
 30
0.0
 10
118.414242480214
 20
162.8443430656934
 30
0.0
  0
SPLINE
  5
F9
330
1F
100
AcDbEntity
  8
0
  6
Continuous
 62
     7
370
    15
100
AcDbSpline
210
0.0
220
0.0
230
1.0
 70
     8
 71
     3
 72
     9
 73
     5
 74
     0
 42
0.00000001
 43
0.00000001
 12
1.0
 22
0.0
 32
0.0
 13
1.0
 23
0.0
 33
0.0
 40
0.0
 40
0.0
 40
0.0
 40
0.0
 40
0.2867285744455683
 40
1.0
 40
1.0
 40
1.0
 40
1.0
 10
118.8157925778345
 20
167.8443430656934
 30
0.0
 10
118.820595966441
 20
167.8976119997196
 30
0.0
 10
118.8373483554063
 20
168.0833937416657
 30
0.0
 10
118.8539565724479
 20
168.2388279531156
 30
0.0
 10
118.8658027390931
 20
168.3496947346964
 30
0.0
  0
SPLINE
  5
FA
330
1F
100
AcDbEntity
  8
0
  6
Continuous
 62
     7
370
    15
100
AcDbSpline
210
0.0
220
0.0
230
1.0
 70
     8
 71
     3
 72
    19
 73
    15
 74
     0
 42
0.00000001
 43
0.00000001
 12
1.0
 22
0.0
 32
0.0
 13
1.0
 23
0.0
 33
0.0
 40
0.0
 40
0.0
 40
0.0
 40
0.0
 40
0.0453419070931023
 40
0.0868642565221235
 40
0.1583838421499305
 40
0.2166031646867321
 40
0.2752112077934303
 40
0.3645534505256833
 40
0.4666525450829555
 40
0.5815418783725855
 40
0.7093562354305082
 40
0.8468707645704739
 40
0.9779896567565975
 40
1.0
 40
1.0
 40
1.0
 40
1.0
 10
119.8603111719519
 20
160.8466126361407
 30
0.0
 10
119.8913300805355
 20
160.8496122612574
 30
0.0
 10
119.9507548953476
 20
160.8553588260208
 30
0.0
 10
120.0419585125772
 20
160.9055186977246
 30
0.0
 10
120.1133868196499
 20
160.9853960799266
 30
0.0
 10
120.1495443428299
 20
161.0604442049022
 30
0.0
 10
120.1775569104235
 20
161.1361112796079
 30
0.0
 10
120.2098907101729
 20
161.2517902051563
 30
0.0
 10
120.245371796245
 20
161.4223236059873
 30
0.0
 10
120.2834889518446
 20
161.6569895397908
 30
0.0
 10
120.3240779874
 20
161.9640337978095
 30
0.0
 10
120.3656648291495
 20
162.3388651117579
 30
0.0
 10
120.3961126112351
 20
162.640266493868
 30
0.0
 10
120.4121065585636
 20
162.818696119253
 30
0.0
 10
120.414405481232
 20
162.8443430656934
 30
0.0
  0
SPLINE
  5
FB
330
1F
100
AcDbEntity
  8
0
  6
Continuous
 62
     7
370
    15
100
AcDbSpline
210
0.0
220
0.0
230
1.0
 70
     8
 71
     3
 72
     9
 73
     5
 74
     0
 42
0.00000001
 43
0.00000001
 12
1.0
 22
0.0
 32
0.0
 13
1.0
 23
0.0
 33
0.0
 40
0.0
 40
0.0
 40
0.0
 40
0.0
 40
0.3464900963696886
 40
1.0
 40
1.0
 40
1.0
 40
1.0
 10
120.8157260663645
 20
167.8443430656934
 30
0.0
 10
120.8214998034489
 20
167.9081869441663
 30
0.0
 10
120.8381633016119
 20
168.0924458281628
 30
0.0
 10
120.8547825409726
 20
168.2455012303018
 30
0.0
 10
120.8656433784855
 20
168.3455244514038
 30
0.0
  0
LWPOLYLINE
  5
FC
330
1F
100
AcDbEntity
  8
0
  6
Continuous
 62
     7
370
    15
100
AcDbPolyline
 90
       34
 70
   128
 43
0.0
 10
120.0000383358
 20
161.312410688
 10
120.0036426783
 20
161.3138983436
 10
120.0007667292
 20
161.368346255
 10
119.9815632376
 20
161.4775680511
 10
119.9548458984
 20
161.6359899642
 10
119.9256580199
 20
161.8355841281
 10
119.895061257
 20
162.0766920311
 10
119.8630662347
 20
162.361413704
 10
119.8297034679
 20
162.6909980363
 10
119.7950005612
 20
163.065971574
 10
119.758982209
 20
163.4846503563
 10
119.7216701953
 20
163.9436964178
 10
119.6842288369
 20
164.4236309985
 10
119.6517044465
 20
164.8510352154
 10
119.6247006697
 20
165.2099873829
 10
119.6032269769
 20
165.4962877845
 10
119.5872906702
 20
165.7084385056
 10
119.5721101861
 20
165.9097516252
 10
119.5508504402
 20
166.1895481568
 10
119.5234388029
 20
166.5448233388
 10
119.4898450451
 20
166.9682700098
 10
119.4500296773
 20
167.4470053562
 10
119.4040794862
 20
167.9587079552
 10
119.3582132503
 20
168.4145095723
 10
119.3156920449
 20
168.7805261141
 10
119.2762792986
 20
169.0671078517
 10
119.2396847484
 20
169.2854043228
 10
119.2055644396
 20
169.4468149557
 10
119.173520726
 20
169.5625243827
 10
119.1327252155
 20
169.6622955701
 10
119.0398437163
 20
169.7780631293
 10
118.9617244685
 20
169.8240464715
 10
118.8611505199
 20
169.8425763525
 10
118.8611505199
 20
169.8425763525
  0
LWPOLYLINE
  5
FD
330
1F
100
AcDbEntity
  8
0
  6
Continuous
 62
     7
370
    15
100
AcDbPolyline
 90
       33
 70
   128
 43
0.0
 10
117.9964475681
 20
161.310812025
 10
118.0004751299
 20
161.3095332011
 10
118.0006703733
 20
161.3484079743
 10
117.9857618611
 20
161.4406658289
 10
117.9597447127
 20
161.5979801406
 10
117.9260392259
 20
161.8297030355
 10
117.8870178643
 20
162.1429470029
 10
117.8466021381
 20
162.5184928725
 10
117.808331166
 20
162.9181671343
 10
117.7722610181
 20
163.3275961238
 10
117.7384326199
 20
163.7350938771
 10
117.7068810774
 20
164.1313895486
 10
117.6684039103
 20
164.6302247871
 10
117.6339824503
 20
165.0857194149
 10
117.6014830312
 20
165.519043234
 10
117.5700182308
 20
165.9372965897
 10
117.539588769
 20
166.3367282135
 10
117.5068641476
 20
166.7564793725
 10
117.4786697432
 20
167.1065255375
 10
117.4473118159
 20
167.4794639657
 10
117.4127499023
 20
167.8659424531
 10
117.3749345573
 20
168.2545066951
 10
117.3338334153
 20
168.6315266347
 10
117.2929664247
 20
168.9538048416
 10
117.2543298
 20
169.2051035138
 10
117.216908483
 20
169.3964078784
 10
117.1793308702
 20
169.5385874384
 10
117.1398704881
 20
169.6423647061
 10
117.113228111
 20
169.6911152258
 10
117.0631483176
 20
169.753709672
 10
116.9802708478
 20
169.8138357817
 10
116.8604524437
 20
169.8414670113
 10
116.8604524437
 20
169.8414670113
  0
LWPOLYLINE
  5
FE
330
1F
100
AcDbEntity
  8
0
  6
Continuous
 62
     7
370
    15
100
AcDbPolyline
 90
       34
 70
   128
 43
0.0
 10
115.9997881863
 20
161.3132012961
 10
116.0036966938
 20
161.3152476609
 10
116.0007052226
 20
161.3708968267
 10
115.9812995387
 20
161.4801389944
 10
115.9542881504
 20
161.6389934442
 10
115.9247323798
 20
161.8405633434
 10
115.8938042879
 20
162.085315107
 10
115.861532189
 20
162.375267825
 10
115.8279469783
 20
162.710237933
 10
115.7930765881
 20
163.0891346668
 10
115.7569459876
 20
163.5099914405
 10
115.7195771828
 20
163.9698830811
 10
115.6821296411
 20
164.4499838477
 10
115.6496081036
 20
164.8777658967
 10
115.6226084128
 20
165.2371581725
 10
115.6011400052
 20
165.5237943437
 10
115.5852101601
 20
165.7361273921
 10
115.5700229487
 20
165.9377272253
 10
115.5487545734
 20
166.2177625853
 10
115.5213333075
 20
166.5729484986
 10
115.4877281504
 20
166.9954758847
 10
115.4478985778
 20
167.4716645922
 10
115.401931215
 20
167.9796379651
 10
115.3560368086
 20
168.4334445622
 10
115.3134480375
 20
168.7989500806
 10
115.2739020553
 20
169.0845866892
 10
115.237074211
 20
169.300480094
 10
115.202578049
 20
169.4583791369
 10
115.1699653089
 20
169.5710108308
 10
115.1283563574
 20
169.6680223312
 10
115.0354461704
 20
169.7798554093
 10
114.9583869547
 20
169.8240671544
 10
114.85976608
 20
169.8418199616
 10
114.85976608
 20
169.8418199616
  0
SPLINE
  5
FF
330
1F
100
AcDbEntity
  8
0
  6
Continuous
 62
     7
370
    15
100
AcDbSpline
210
0.0
220
0.0
230
1.0
 70
     8
 71
     3
 72
    26
 73
    22
 74
     0
 42
0.00000001
 43
0.00000001
 12
1.0
 22
0.0
 32
0.0
 13
1.0
 23
0.0
 33
0.0
 40
0.0
 40
0.0
 40
0.0
 40
0.0
 40
0.0152722982642524
 40
0.0277579930251068
 40
0.0378290761499751
 40
0.0421884462282953
 40
0.0462666532324484
 40
0.0502413670394327
 40
0.0543047169543973
 40
0.0633574528140567
 40
0.0820125483093474
 40
0.1049359259919692
 40
0.1457730110631965
 40
0.233236600597774
 40
0.3288500395361899
 40
0.4397044857856192
 40
0.5590957335338314
 40
0.6784575526158656
 40
0.7977288022992098
 40
0.9169544205742327
 40
1.0
 40
1.0
 40
1.0
 40
1.0
 10
121.860611482661
 20
160.8460612562953
 30
0.0
 10
121.8795899248395
 20
160.8471714694915
 30
0.0
 10
121.9140839778304
 20
160.8491893249332
 30
0.0
 10
121.9627588557413
 20
160.8674011452983
 30
0.0
 10
121.9968458181731
 20
160.8871337681491
 30
0.0
 10
122.0186048585052
 20
160.9031722370034
 30
0.0
 10
122.0320116127849
 20
160.9142747322558
 30
0.0
 10
122.0434039263167
 20
160.9246359322767
 30
0.0
 10
122.0565583324893
 20
160.9374383757774
 30
0.0
 10
122.0725840182415
 20
160.9540560323351
 30
0.0
 10
122.0809878042513
 20
160.9595660699978
 30
0.0
 10
122.0920103207697
 20
160.9661009939165
 30
0.0
 10
122.1131450063662
 20
160.9873714712837
 30
0.0
 10
122.1428507646325
 20
161.0381143067843
 30
0.0
 10
122.1809442346917
 20
161.1450223225061
 30
0.0
 10
122.221871270584
 20
161.3109581053307
 30
0.0
 10
122.2642791537397
 20
161.5419695288104
 30
0.0
 10
122.3061119266052
 20
161.8293690915631
 30
0.0
 10
122.3468682707002
 20
162.1660483484426
 30
0.0
 10
122.3828791156325
 20
162.5041843651302
 30
0.0
 10
122.4051918170864
 20
162.7453349503295
 30
0.0
 10
122.4143526429572
 20
162.8443430656934
 30
0.0
  0
SPLINE
  5
100
330
1F
100
AcDbEntity
  8
0
  6
Continuous
 62
     7
370
    15
100
AcDbSpline
210
0.0
220
0.0
230
1.0
 70
     8
 71
     3
 72
     9
 73
     5
 74
     0
 42
0.00000001
 43
0.00000001
 12
1.0
 22
0.0
 32
0.0
 13
1.0
 23
0.0
 33
0.0
 40
0.0
 40
0.0
 40
0.0
 40
0.0
 40
0.3270594059050427
 40
1.0
 40
1.0
 40
1.0
 40
1.0
 10
122.8156930626371
 20
167.8443430656934
 30
0.0
 10
122.8211654555002
 20
167.9050216569735
 30
0.0
 10
122.8378975621582
 20
168.0905493934782
 30
0.0
 10
122.8544784847272
 20
168.2442538170048
 30
0.0
 10
122.8656364606114
 20
168.3476877630878
 30
0.0
  0
SPLINE
  5
101
330
1F
100
AcDbEntity
  8
0
  6
Continuous
 62
     7
370
    15
100
AcDbSpline
210
0.0
220
0.0
230
1.0
 70
     8
 71
     3
 72
    19
 73
    15
 74
     0
 42
0.00000001
 43
0.00000001
 12
1.0
 22
0.0
 32
0.0
 13
1.0
 23
0.0
 33
0.0
 40
0.0
 40
0.0
 40
0.0
 40
0.0
 40
0.0570902646414605
 40
0.1080221922448473
 40
0.1732150734253311
 40
0.2282443660329821
 40
0.2869727475701722
 40
0.3525586071233203
 40
0.4506344906433002
 40
0.5608163906420794
 40
0.6830512821525659
 40
0.8163625479502981
 40
0.9463505366845034
 40
1.0
 40
1.0
 40
1.0
 40
1.0
 10
123.8600832798745
 20
160.8446220508707
 30
0.0
 10
123.8993694422345
 20
160.8493642242058
 30
0.0
 10
123.9737039616076
 20
160.8583370317917
 30
0.0
 10
124.0658534728535
 20
160.9241648590799
 30
0.0
 10
124.1261660179094
 20
161.0063007285089
 30
0.0
 10
124.1541727343034
 20
161.0710461059903
 30
0.0
 10
124.1792345875707
 20
161.1420711642811
 30
0.0
 10
124.207502083514
 20
161.2451345407492
 30
0.0
 10
124.2396660455097
 20
161.3947454309108
 30
0.0
 10
124.2763467461401
 20
161.611664091429
 30
0.0
 10
124.3156244218226
 20
161.8955337171826
 30
0.0
 10
124.356233445636
 20
162.2471311348495
 30
0.0
 10
124.3895167599668
 20
162.571071029093
 30
0.0
 10
124.4087012232872
 20
162.7825575345351
 30
0.0
 10
124.4143059414406
 20
162.8443430656934
 30
0.0
  0
SPLINE
  5
102
330
1F
100
AcDbEntity
  8
0
  6
Continuous
 62
     7
370
    15
100
AcDbSpline
210
0.0
220
0.0
230
1.0
 70
     8
 71
     3
 72
     9
 73
     5
 74
     0
 42
0.00000001
 43
0.00000001
 12
1.0
 22
0.0
 32
0.0
 13
1.0
 23
0.0
 33
0.0
 40
0.0
 40
0.0
 40
0.0
 40
0.0
 40
0.5662457140979432
 40
1.0
 40
1.0
 40
1.0
 40
1.0
 10
124.8155381942138
 20
167.8443430656934
 30
0.0
 10
124.8250343599807
 20
167.9468577317751
 30
0.0
 10
124.8418047575847
 20
168.1279004549771
 30
0.0
 10
124.858472744197
 20
168.2796892761133
 30
0.0
 10
124.8657025548274
 20
168.3455283278331
 30
0.0
  0
SPLINE
  5
103
330
1F
100
AcDbEntity
  8
0
  6
Continuous
 62
     7
370
    15
100
AcDbSpline
210
0.0
220
0.0
230
1.0
 70
     8
 71
     3
 72
    20
 73
    16
 74
     0
 42
0.00000001
 43
0.00000001
 12
1.0
 22
0.0
 32
0.0
 13
1.0
 23
0.0
 33
0.0
 40
0.0
 40
0.0
 40
0.0
 40
0.0
 40
0.0252184597229358
 40
0.0462325737271404
 40
0.0637507138504062
 40
0.0790261739162113
 40
0.0939870229191349
 40
0.1107033653771195
 40
0.1748950552790544
 40
0.2552127647678924
 40
0.4081812759073259
 40
0.575419688974776
 40
0.7691304176747774
 40
0.9774944976217337
 40
1.0
 40
1.0
 40
1.0
 40
1.0
 10
125.8601964632978
 20
160.8448392146532
 30
0.0
 10
125.8793547514099
 20
160.8459038746228
 30
0.0
 10
125.9144773154903
 20
160.8478556976555
 30
0.0
 10
125.9637548457876
 20
160.8660023943609
 30
0.0
 10
126.0033468135067
 20
160.8885513152235
 30
0.0
 10
126.034056621591
 20
160.9125094524209
 30
0.0
 10
126.055966500287
 20
160.9334564897869
 30
0.0
 10
126.0822315759303
 20
160.9609998469233
 30
0.0
 10
126.0889292678274
 20
160.9618925522509
 30
0.0
 10
126.1162060187126
 20
160.9922955191686
 30
0.0
 10
126.1451599269596
 20
161.0466906513358
 30
0.0
 10
126.1837689347723
 20
161.1559363166071
 30
0.0
 10
126.2242082829082
 20
161.3261356346341
 30
0.0
 10
126.2539082681122
 20
161.4761438809063
 30
0.0
 10
126.2693407533427
 20
161.5838442747904
 30
0.0
 10
126.270845134429
 20
161.5943430656934
 30
0.0
  0
LWPOLYLINE
  5
104
330
1F
100
AcDbEntity
  8
0
  6
Continuous
 62
     7
370
    15
100
AcDbPolyline
 90
       33
 70
   128
 43
0.0
 10
125.996492507
 20
161.3107744972
 10
126.0005719726
 20
161.3094947996
 10
126.0007968121
 20
161.3482391179
 10
125.9860512888
 20
161.4395220887
 10
125.9603332205
 20
161.5945208715
 10
125.9270635928
 20
161.8221227003
 10
125.888613596
 20
162.1290488165
 10
125.8488052141
 20
162.4968214128
 10
125.8110549484
 20
162.8886649784
 10
125.7754177573
 20
163.2908171209
 10
125.741933939
 20
163.6920708478
 10
125.7106380864
 20
164.083470786
 10
125.672362892
 20
164.5781752836
 10
125.6379888739
 20
165.0323329448
 10
125.6054914362
 20
165.4655550529
 10
125.5740285963
 20
165.8842419661
 10
125.5436012158
 20
166.2845708011
 10
125.5107731083
 20
166.7071346127
 10
125.4823650177
 20
167.0614506649
 10
125.4506763052
 20
167.4403585363
 10
125.4156658701
 20
167.8342295008
 10
125.3772834282
 20
168.2312788756
 10
125.335497796
 20
168.6171957062
 10
125.294132022
 20
168.9455007502
 10
125.2554198592
 20
169.1989411907
 10
125.2183989272
 20
169.389837388
 10
125.1817753721
 20
169.5304017696
 10
125.1439244972
 20
169.6326317454
 10
125.1180578609
 20
169.6817927797
 10
125.0678239779
 20
169.7474152981
 10
124.9834119764
 20
169.8115836961
 10
124.8603775571
 20
169.8414174776
 10
124.8603775571
 20
169.8414174776
  0
SPLINE
  5
105
330
1F
100
AcDbEntity
  8
0
  6
Continuous
 62
     7
370
    15
100
AcDbSpline
210
0.0
220
0.0
230
1.0
 70
     8
 71
     3
 72
    38
 73
    34
 74
     0
 42
0.00000001
 43
0.00000001
 12
1.0
 22
0.0
 32
0.0
 13
1.0
 23
0.0
 33
0.0
 40
0.0
 40
0.0
 40
0.0
 40
0.0
 40
0.0222373674283857
 40
0.056297010835481
 40
0.0904895780500824
 40
0.1246846088367997
 40
0.1596273308306832
 40
0.1959651513862627
 40
0.2337232802877992
 40
0.2728942869499739
 40
0.3134467615069829
 40
0.3553461072791468
 40
0.3955875318793308
 40
0.4296495319653998
 40
0.457476889499388
 40
0.479044115365385
 40
0.4944550304818436
 40
0.5114522174839756
 40
0.5346547074698045
 40
0.564060223750691
 40
0.5996663377557507
 40
0.6414995079832689
 40
0.6891441552720544
 40
0.7353842300258315
 40
0.7777656085313224
 40
0.8162683711107355
 40
0.8509035415749392
 40
0.8816945214086563
 40
0.9086387435707222
 40
0.9342998861084865
 40
0.9644435760143784
 40
0.9815474383809295
 40
1.0
 40
1.0
 40
1.0
 40
1.0
 10
123.9992715174447
 20
161.3188551708277
 30
0.0
 10
124.0025508175569
 20
161.3224692184543
 30
0.0
 10
124.0108528251818
 20
161.3316186863061
 30
0.0
 10
123.994799649043
 20
161.4061538373529
 30
0.0
 10
123.9701646412833
 20
161.5396577598696
 30
0.0
 10
123.9383884332405
 20
161.7363304342209
 30
0.0
 10
123.9052186547966
 20
161.9843683740699
 30
0.0
 10
123.8708397144407
 20
162.2820017897141
 30
0.0
 10
123.8349682190132
 20
162.6318194576465
 30
0.0
 10
123.7976800151178
 20
163.0321170764433
 30
0.0
 10
123.758989544751
 20
163.4807405503333
 30
0.0
 10
123.7198678189225
 20
163.9625170347761
 30
0.0
 10
123.682761384529
 20
164.4397093456445
 30
0.0
 10
123.6501720657875
 20
164.8695793336474
 30
0.0
 10
123.6235639939525
 20
165.2243346695153
 30
0.0
 10
123.6029128780301
 20
165.5002882385196
 30
0.0
 10
123.5857182606826
 20
165.7295997431359
 30
0.0
 10
123.5679996888416
 20
165.964950435085
 30
0.0
 10
123.5458071382047
 20
166.2573068102344
 30
0.0
 10
123.5176470238655
 20
166.6221131985224
 30
0.0
 10
123.4834770878229
 20
167.0515783086165
 30
0.0
 10
123.4433976554668
 20
167.5298318195075
 30
0.0
 10
123.3999276852909
 20
168.0092656781467
 30
0.0
 10
123.3560810299391
 20
168.4423599519335
 30
0.0
 10
123.3147245178446
 20
168.7980679308286
 30
0.0
 10
123.2763852840163
 20
169.076987350376
 30
0.0
 10
123.2409639790848
 20
169.2878494292668
 30
0.0
 10
123.2077424446107
 20
169.4438570311897
 30
0.0
 10
123.1768411592353
 20
169.5551264949652
 30
0.0
 10
123.1391351482382
 20
169.6600634287818
 30
0.0
 10
123.0636185926178
 20
169.7653150625025
 30
0.0
 10
122.9621072690057
 20
169.8306982558544
 30
0.0
 10
122.8946859385337
 20
169.8381462690735
 30
0.0
 10
122.8596965859633
 20
169.8420115318716
 30
0.0
  0
SPLINE
  5
106
330
1F
100
AcDbEntity
  8
0
  6
Continuous
 62
     7
370
    15
100
AcDbSpline
210
0.0
220
0.0
230
1.0
 70
     8
 71
     3
 72
    31
 73
    27
 74
     0
 42
0.00000001
 43
0.00000001
 12
1.0
 22
0.0
 32
0.0
 13
1.0
 23
0.0
 33
0.0
 40
0.0
 40
0.0
 40
0.0
 40
0.0
 40
0.0082503179158255
 40
0.0338125576023094
 40
0.0703297496869526
 40
0.1096273540568043
 40
0.1516766327892387
 40
0.1964721817154235
 40
0.2430972266060935
 40
0.2869989592032861
 40
0.3464375030658743
 40
0.3981620498802724
 40
0.4421832136365222
 40
0.4784998728150967
 40
0.5031086902279208
 40
0.5369754841209768
 40
0.5802312208779494
 40
0.6188307452777151
 40
0.6626939556661602
 40
0.7118585873003471
 40
0.7663865984667048
 40
0.8262753672955333
 40
0.8914588483209064
 40
0.937875390479199
 40
0.9866910445486337
 40
1.0
 40
1.0
 40
1.0
 40
1.0
 10
121.9964793537392
 20
161.3139600272116
 30
0.0
 10
121.998238603245
 20
161.3139934769217
 30
0.0
 10
122.0054485951339
 20
161.3141305650028
 30
0.0
 10
122.0011070111163
 20
161.343445620385
 30
0.0
 10
121.9912201938639
 20
161.4110031637803
 30
0.0
 10
121.9674660226747
 20
161.5433542432547
 30
0.0
 10
121.9372836003814
 20
161.7403638347422
 30
0.0
 10
121.9020848645103
 20
162.0084547612146
 30
0.0
 10
121.8650736212613
 20
162.3350626158664
 30
0.0
 10
121.824145016813
 20
162.7421329262132
 30
0.0
 10
121.7815943698816
 20
163.2119140583472
 30
0.0
 10
121.7388697959636
 20
163.72433674151
 30
0.0
 10
121.7024381522773
 20
164.184911103137
 30
0.0
 10
121.6734842244124
 20
164.5621200310401
 30
0.0
 10
121.6473456079095
 20
164.9076645775442
 30
0.0
 10
121.6192999531024
 20
165.2817272374556
 30
0.0
 10
121.587381951498
 20
165.7085686134207
 30
0.0
 10
121.55268895048
 20
166.1681806520575
 30
0.0
 10
121.5163173752561
 20
166.6401367525349
 30
0.0
 10
121.4755326617498
 20
167.1491192033726
 30
0.0
 10
121.4303608157418
 20
167.6795740010593
 30
0.0
 10
121.3807899056793
 20
168.2095593698122
 30
0.0
 10
121.3333790298908
 20
168.651426308175
 30
0.0
 10
121.289013982002
 20
168.9915341839304
 30
0.0
 10
121.2589874097987
 20
169.19233681318
 30
0.0
 10
121.2418213745016
 20
169.2712607043345
 30
0.0
 10
121.2381438946622
 20
169.288168569986
 30
0.0
  0
LINE
  5
107
330
1F
100
AcDbEntity
  8
0
  6
Continuous
 62
     7
370
    15
100
AcDbLine
 10
121.2208838994
 20
169.3701030209
 30
0.0
 11
121.2066859788
 21
169.4375015808
 31
0.0
  0
SPLINE
  5
108
330
1F
100
AcDbEntity
  8
0
  6
Continuous
 62
     7
370
    15
100
AcDbSpline
210
0.0
220
0.0
230
1.0
 70
     8
 71
     3
 72
    12
 73
     8
 74
     0
 42
0.00000001
 43
0.00000001
 12
1.0
 22
0.0
 32
0.0
 13
1.0
 23
0.0
 33
0.0
 40
0.0
 40
0.0
 40
0.0
 40
0.0
 40
0.2202608693271893
 40
0.4203432737287513
 40
0.5993276214077267
 40
0.8259375330437226
 40
1.0
 40
1.0
 40
1.0
 40
1.0
 10
121.2754812135218
 20
169.0624979683418
 30
0.0
 10
121.2615124346418
 20
169.1574070990112
 30
0.0
 10
121.2348545799699
 20
169.3385305768862
 30
0.0
 10
121.1787359596761
 20
169.5429695705715
 30
0.0
 10
121.1010924047461
 20
169.70643047928
 30
0.0
 10
121.0049961145969
 20
169.8206235404827
 30
0.0
 10
120.9016246679077
 20
169.8363809549687
 30
0.0
 10
120.8567174320089
 20
169.8432263842642
 30
0.0
  0
LINE
  5
109
330
1F
100
AcDbEntity
  8
0
  6
Continuous
 62
     7
370
    15
100
AcDbLine
 10
120.7508253983
 20
169.2022692506
 30
0.0
 11
120.7779082594
 21
169.0599762627
 31
0.0
  0
SPLINE
  5
10A
330
1F
100
AcDbEntity
  8
0
  6
Continuous
 62
     7
370
    15
100
AcDbSpline
210
0.0
220
0.0
230
1.0
 70
     8
 71
     3
 72
    39
 73
    35
 74
     0
 42
0.00000001
 43
0.00000001
 12
1.0
 22
0.0
 32
0.0
 13
1.0
 23
0.0
 33
0.0
 40
0.0
 40
0.0
 40
0.0
 40
0.0
 40
0.0081482387588122
 40
0.0335252350169119
 40
0.0612197046808184
 40
0.0912253546492364
 40
0.1235456641852068
 40
0.1581834630618706
 40
0.1937842874649495
 40
0.2293294839929954
 40
0.2647892320146429
 40
0.300142374690497
 40
0.3353908172205098
 40
0.381878572917874
 40
0.4228384361245106
 40
0.4566422263725923
 40
0.4772791269572426
 40
0.4978917813726291
 40
0.5241186008274349
 40
0.5560040572596302
 40
0.5935842058709947
 40
0.6369091768595451
 40
0.6690088007991126
 40
0.703665651046809
 40
0.7392298755158717
 40
0.7878192115854317
 40
0.8306085197347433
 40
0.8676116464125696
 40
0.8987897944175082
 40
0.9241010859971097
 40
0.9459031723218342
 40
0.9708579606707555
 40
0.984903158121695
 40
1.0
 40
1.0
 40
1.0
 40
1.0
 10
122.7045115049994
 20
169.4061586790944
 30
0.0
 10
122.7041144415741
 20
169.4056246625328
 30
0.0
 10
122.7024807578977
 20
169.403427496831
 30
0.0
 10
122.7194433765796
 20
169.3547151006503
 30
0.0
 10
122.7379238051234
 20
169.2711834292373
 30
0.0
 10
122.7637303891929
 20
169.1380053793017
 30
0.0
 10
122.7926280115454
 20
168.9537308808752
 30
0.0
 10
122.8246366690905
 20
168.7143728495116
 30
0.0
 10
122.8578966205118
 20
168.4278509908503
 30
0.0
 10
122.8915343105077
 20
168.1036895604106
 30
0.0
 10
122.9252272754355
 20
167.7483309830109
 30
0.0
 10
122.958937905257
 20
167.3659130997684
 30
0.0
 10
122.9962365806371
 20
166.9170193047055
 30
0.0
 10
123.0353712679912
 20
166.4203901451435
 30
0.0
 10
123.0739847087769
 20
165.9131275028736
 30
0.0
 10
123.1043588590693
 20
165.5081810666541
 30
0.0
 10
123.1282534814768
 20
165.1889135710291
 30
0.0
 10
123.1497459571515
 20
164.9023756051072
 30
0.0
 10
123.1748483801516
 20
164.5700505889043
 30
0.0
 10
123.20540864646
 20
164.1719582302416
 30
0.0
 10
123.2414664105592
 20
163.7161818863505
 30
0.0
 10
123.2776249641463
 20
163.2809143410148
 30
0.0
 10
123.3128659606212
 20
162.882250165471
 30
0.0
 10
123.3456801551953
 20
162.5355490262571
 30
0.0
 10
123.3838895149724
 20
162.1664778811853
 30
0.0
 10
123.4252317489986
 20
161.8192782311513
 30
0.0
 10
123.4679780410772
 20
161.5278678725364
 30
0.0
 10
123.5062642524394
 20
161.3215382620562
 30
0.0
 10
123.5408989086853
 20
161.1786087807286
 30
0.0
 10
123.5723592242384
 20
161.0827629122191
 30
0.0
 10
123.6091208789267
 20
160.9974933193144
 30
0.0
 10
123.6815303399038
 20
160.9094762172871
 30
0.0
 10
123.7760207424838
 20
160.8544051272099
 30
0.0
 10
123.8382423909353
 20
160.847937158978
 30
0.0
 10
123.8704759068355
 20
160.8445864705595
 30
0.0
  0
SPLINE
  5
10B
330
1F
100
AcDbEntity
  8
0
  6
Continuous
 62
     7
370
    15
100
AcDbSpline
210
0.0
220
0.0
230
1.0
 70
     8
 71
     3
 72
    36
 73
    32
 74
     0
 42
0.00000001
 43
0.00000001
 12
1.0
 22
0.0
 32
0.0
 13
1.0
 23
0.0
 33
0.0
 40
0.0
 40
0.0
 40
0.0
 40
0.0
 40
0.0119484489561981
 40
0.0377984253867559
 40
0.0678892995374893
 40
0.1022708137283936
 40
0.1409646815202653
 40
0.1838401453992645
 40
0.226042528530557
 40
0.264899483100677
 40
0.3004179592165226
 40
0.332613973889489
 40
0.3614737088441407
 40
0.3949015254398481
 40
0.4272566605409327
 40
0.4606069185137684
 40
0.4949458034123744
 40
0.5318968709280043
 40
0.5731583358283171
 40
0.6069636068354466
 40
0.643210544494216
 40
0.6818853141024911
 40
0.7229791407966216
 40
0.766258111149523
 40
0.8081168045856724
 40
0.8474485408805409
 40
0.8843037376706739
 40
0.9187188077500227
 40
0.950698404604113
 40
0.9780855344306086
 40
1.0
 40
1.0
 40
1.0
 40
1.0
 10
124.72176794361
 20
169.3787096901038
 30
0.0
 10
124.7205881339693
 20
169.3766984747679
 30
0.0
 10
124.7168558548391
 20
169.3703360780176
 30
0.0
 10
124.7308167276166
 20
169.3171023683943
 30
0.0
 10
124.7503753880344
 20
169.214412203866
 30
0.0
 10
124.7793853043901
 20
169.0446414792945
 30
0.0
 10
124.813974405861
 20
168.7995642123203
 30
0.0
 10
124.8526056648572
 20
168.4786068997344
 30
0.0
 10
124.8914828996507
 20
168.1069336624621
 30
0.0
 10
124.9281994746569
 20
167.7175994801253
 30
0.0
 10
124.9618645975368
 20
167.3318413773729
 30
0.0
 10
124.9924050325046
 20
166.9621032513428
 30
0.0
 10
125.0222970812718
 20
166.5863237534939
 30
0.0
 10
125.05226628495
 20
166.1984686748369
 30
0.0
 10
125.0836599610899
 20
165.7839430967303
 30
0.0
 10
125.1153640903751
 20
165.361016060936
 30
0.0
 10
125.1485548455671
 20
164.9180463747271
 30
0.0
 10
125.1842722176696
 20
164.4463539039862
 30
0.0
 10
125.2198256196554
 20
163.9880358805769
 30
0.0
 10
125.2551537447496
 20
163.5492884177614
 30
0.0
 10
125.2897143992378
 20
163.1397578789138
 30
0.0
 10
125.3266711812815
 20
162.7296943864381
 30
0.0
 10
125.3660650162684
 20
162.3309157859248
 30
0.0
 10
125.4064159556377
 20
161.9708307339216
 30
0.0
 10
125.4473903674869
 20
161.6620093402769
 30
0.0
 10
125.4890824528048
 20
161.4103544454576
 30
0.0
 10
125.5332696607873
 20
161.2125015390287
 30
0.0
 10
125.5838756453574
 20
161.0589760737321
 30
0.0
 10
125.6416587703996
 20
160.9587865516232
 30
0.0
 10
125.7115229224705
 20
160.8743162990458
 30
0.0
 10
125.8216381737072
 20
160.8539227108791
 30
0.0
 10
125.8705841938616
 20
160.84485779965
 30
0.0
  0
SPLINE
  5
10C
330
1F
100
AcDbEntity
  8
0
  6
Continuous
 62
     7
370
    15
100
AcDbSpline
210
0.0
220
0.0
230
1.0
 70
     8
 71
     3
 72
    14
 73
    10
 74
     0
 42
0.00000001
 43
0.00000001
 12
1.0
 22
0.0
 32
0.0
 13
1.0
 23
0.0
 33
0.0
 40
0.0
 40
0.0
 40
0.0
 40
0.0
 40
0.064101525547379
 40
0.20309043094723
 40
0.3575448789561257
 40
0.5275011356749271
 40
0.7128100600560167
 40
0.9066884774580389
 40
1.0
 40
1.0
 40
1.0
 40
1.0
 10
126.7027578958301
 20
169.4112406189868
 30
0.0
 10
126.7037778182075
 20
169.4073566265639
 30
0.0
 10
126.7070091995727
 20
169.3950511207551
 30
0.0
 10
126.7248235179522
 20
169.3329906097229
 30
0.0
 10
126.7494942621675
 20
169.214593930642
 30
0.0
 10
126.7807502557324
 20
169.0329615661615
 30
0.0
 10
126.815926714623
 20
168.7819355828843
 30
0.0
 10
126.8468856744084
 20
168.5294917024395
 30
0.0
 10
126.8657711832723
 20
168.3467164786116
 30
0.0
 10
126.8719073159879
 20
168.2873305738628
 30
0.0
  0
SPLINE
  5
10D
330
1F
100
AcDbEntity
  8
0
  6
Continuous
 62
     7
370
    15
100
AcDbSpline
210
0.0
220
0.0
230
1.0
 70
     8
 71
     3
 72
    15
 73
    11
 74
     0
 42
0.00000001
 43
0.00000001
 12
1.0
 22
0.0
 32
0.0
 13
1.0
 23
0.0
 33
0.0
 40
0.0
 40
0.0
 40
0.0
 40
0.0
 40
0.1245385663280075
 40
0.2326415271544997
 40
0.3658081559096079
 40
0.4844665445364813
 40
0.6137960596992306
 40
0.7541259273933002
 40
0.9583572584292527
 40
1.0
 40
1.0
 40
1.0
 40
1.0
 10
126.8715412687063
 20
169.8423232368865
 30
0.0
 10
126.8253206841921
 20
169.8353575413763
 30
0.0
 10
126.7389793388209
 20
169.8223454272259
 30
0.0
 10
126.641175160726
 20
169.7365222140877
 30
0.0
 10
126.5880206043295
 20
169.646110091329
 30
0.0
 10
126.5614686730481
 20
169.5741081783665
 30
0.0
 10
126.5319441280487
 20
169.477583750341
 30
0.0
 10
126.5007362604832
 20
169.3401167212962
 30
0.0
 10
126.4762579512778
 20
169.2149271090089
 30
0.0
 10
126.46159629064
 20
169.1118079578518
 30
0.0
 10
126.4591131018334
 20
169.0943430656934
 30
0.0
  0
SPLINE
  5
10E
330
1F
100
AcDbEntity
  8
0
  6
Continuous
 62
     7
370
    15
100
AcDbSpline
210
0.0
220
0.0
230
1.0
 70
     8
 71
     3
 72
    21
 73
    17
 74
     0
 42
0.00000001
 43
0.00000001
 12
1.0
 22
0.0
 32
0.0
 13
1.0
 23
0.0
 33
0.0
 40
0.0
 40
0.0
 40
0.0
 40
0.0
 40
0.1014189495582114
 40
0.1799459321309037
 40
0.235779280886711
 40
0.2696003880850555
 40
0.2956446517802716
 40
0.326000263221582
 40
0.3606658397752016
 40
0.3996392418258614
 40
0.4905011591720528
 40
0.5986190594615827
 40
0.7240243477362518
 40
0.8622772551977635
 40
0.991996788580238
 40
1.0
 40
1.0
 40
1.0
 40
1.0
 10
124.8707977865212
 20
169.8414234163898
 30
0.0
 10
124.8259483496239
 20
169.8341950398263
 30
0.0
 10
124.7463727499633
 20
169.8213698531706
 30
0.0
 10
124.6554152484532
 20
169.7368615244048
 30
0.0
 10
124.6020465032454
 20
169.6573611021075
 30
0.0
 10
124.5732433386272
 20
169.596192049766
 30
0.0
 10
124.5571723887022
 20
169.5525061847927
 30
0.0
 10
124.5425125827537
 20
169.5067655839212
 30
0.0
 10
124.5276546695674
 20
169.4527117482177
 30
0.0
 10
124.5059789954639
 20
169.3622145732148
 30
0.0
 10
124.4776638794477
 20
169.2169841145442
 30
0.0
 10
124.4416641538383
 20
168.986400379984
 30
0.0
 10
124.4019965186294
 20
168.6800484739282
 30
0.0
 10
124.360815561144
 20
168.3030207055303
 30
0.0
 10
124.3318973002028
 20
168.015004102341
 30
0.0
 10
124.3175075157576
 20
167.8537157017893
 30
0.0
 10
124.3166713104716
 20
167.8443430656934
 30
0.0
  0
SPLINE
  5
10F
330
1F
100
AcDbEntity
  8
0
  6
Continuous
 62
     7
370
    15
100
AcDbSpline
210
0.0
220
0.0
230
1.0
 70
     8
 71
     3
 72
    10
 73
     6
 74
     0
 42
0.00000001
 43
0.00000001
 12
1.0
 22
0.0
 32
0.0
 13
1.0
 23
0.0
 33
0.0
 40
0.0
 40
0.0
 40
0.0
 40
0.0
 40
0.0961538314453143
 40
0.8815195752629322
 40
1.0
 40
1.0
 40
1.0
 40
1.0
 10
123.9158911501768
 20
162.8443430656934
 30
0.0
 10
123.9142771122948
 20
162.8263964842787
 30
0.0
 10
123.8994799277536
 20
162.6618657257191
 30
0.0
 10
123.8826993637325
 20
162.4893940367416
 30
0.0
 10
123.867627484434
 20
162.356518244211
 30
0.0
 10
123.8656517913094
 20
162.3391002577394
 30
0.0
  0
SPLINE
  5
110
330
1F
100
AcDbEntity
  8
0
  6
Continuous
 62
     7
370
    15
100
AcDbSpline
210
0.0
220
0.0
230
1.0
 70
     8
 71
     3
 72
    18
 73
    14
 74
     0
 42
0.00000001
 43
0.00000001
 12
1.0
 22
0.0
 32
0.0
 13
1.0
 23
0.0
 33
0.0
 40
0.0
 40
0.0
 40
0.0
 40
0.0
 40
0.0682390890741664
 40
0.1481218745943453
 40
0.2115735075165963
 40
0.2722647996110452
 40
0.338835411907877
 40
0.4113078269034054
 40
0.525100308840867
 40
0.6510174133395857
 40
0.7866508613967812
 40
0.9203341730153828
 40
1.0
 40
1.0
 40
1.0
 40
1.0
 10
122.8701211172663
 20
169.8420133538117
 30
0.0
 10
122.8240124401891
 20
169.8350841668377
 30
0.0
 10
122.7239275214659
 20
169.820043459555
 30
0.0
 10
122.6264184316378
 20
169.7189596975246
 30
0.0
 10
122.5828707866799
 20
169.6345159270317
 30
0.0
 10
122.5575023627998
 20
169.5651771773807
 30
0.0
 10
122.5308035738409
 20
169.4734470060921
 30
0.0
 10
122.5005954440942
 20
169.3410460983715
 30
0.0
 10
122.4654775191331
 20
169.1464865966064
 30
0.0
 10
122.4252977661819
 20
168.8676667786817
 30
0.0
 10
122.3839336032606
 20
168.5218345075687
 30
0.0
 10
122.3474303345792
 20
168.1764255442893
 30
0.0
 10
122.3252150928359
 20
167.9346306905298
 30
0.0
 10
122.3169197905126
 20
167.8443430656934
 30
0.0
  0
SPLINE
  5
111
330
1F
100
AcDbEntity
  8
0
  6
Continuous
 62
     7
370
    15
100
AcDbSpline
210
0.0
220
0.0
230
1.0
 70
     8
 71
     3
 72
     9
 73
     5
 74
     0
 42
0.00000001
 43
0.00000001
 12
1.0
 22
0.0
 32
0.0
 13
1.0
 23
0.0
 33
0.0
 40
0.0
 40
0.0
 40
0.0
 40
0.0
 40
0.5163057018634465
 40
1.0
 40
1.0
 40
1.0
 40
1.0
 10
121.9155159493176
 20
162.8443430656934
 30
0.0
 10
121.9068312333652
 20
162.7486797634247
 30
0.0
 10
121.8900103539501
 20
162.5633955375806
 30
0.0
 10
121.873370994401
 20
162.4129766898877
 30
0.0
 10
121.8653226310625
 20
162.3402199509264
 30
0.0
  0
SPLINE
  5
112
330
1F
100
AcDbEntity
  8
0
  6
Continuous
 62
     7
370
    15
100
AcDbSpline
210
0.0
220
0.0
230
1.0
 70
     8
 71
     3
 72
    17
 73
    13
 74
     0
 42
0.00000001
 43
0.00000001
 12
1.0
 22
0.0
 32
0.0
 13
1.0
 23
0.0
 33
0.0
 40
0.0
 40
0.0
 40
0.0
 40
0.0
 40
0.3156157771649257
 40
0.366383345444108
 40
0.4077621434745179
 40
0.4422345855075962
 40
0.458178755171573
 40
0.4740355620030137
 40
0.5078267774874975
 40
0.5478939474794284
 40
0.6553160475751619
 40
1.0
 40
1.0
 40
1.0
 40
1.0
 10
120.8668981237799
 20
169.8433211207976
 30
0.0
 10
120.8420955508377
 20
169.8418855183051
 30
0.0
 10
120.8133034234865
 20
169.8402189956469
 30
0.0
 10
120.756983988628
 20
169.8044477669129
 30
0.0
 10
120.7363942054566
 20
169.7890737008336
 30
0.0
 10
120.719108323878
 20
169.7741980061263
 30
0.0
 10
120.7064300216232
 20
169.7621130974038
 30
0.0
 10
120.6942993608288
 20
169.7498066435499
 30
0.0
 10
120.6796666365536
 20
169.7333933165224
 30
0.0
 10
120.6578646151291
 20
169.7053491574462
 30
0.0
 10
120.6242032819098
 20
169.6488970781524
 30
0.0
 10
120.6149759883524
 20
169.6167603566229
 30
0.0
 10
120.6079411344816
 20
169.592259441112
 30
0.0
  0
SPLINE
  5
113
330
1F
100
AcDbEntity
  8
0
  6
Continuous
 62
     7
370
    15
100
AcDbSpline
210
0.0
220
0.0
230
1.0
 70
     8
 71
     3
 72
    10
 73
     6
 74
     0
 42
0.00000001
 43
0.00000001
 12
1.0
 22
0.0
 32
0.0
 13
1.0
 23
0.0
 33
0.0
 40
0.0
 40
0.0
 40
0.0
 40
0.0
 40
0.1248519273110434
 40
0.5622302624442607
 40
0.9999999999999999
 40
0.9999999999999999
 40
0.9999999999999999
 40
0.9999999999999999
 10
120.624641545541
 20
169.6295269159073
 30
0.0
 10
120.6196363970209
 20
169.6339009455556
 30
0.0
 10
120.5970973299304
 20
169.6535979729869
 30
0.0
 10
120.5569284418359
 20
169.5745752125173
 30
0.0
 10
120.5218491263051
 20
169.4279911613801
 30
0.0
 10
120.5043016240791
 20
169.3546663565857
 30
0.0
  0
SPLINE
  5
114
330
1F
100
AcDbEntity
  8
0
  6
Continuous
 62
     7
370
    15
100
AcDbSpline
210
0.0
220
0.0
230
1.0
 70
     8
 71
     3
 72
    37
 73
    33
 74
     0
 42
0.00000001
 43
0.00000001
 12
1.0
 22
0.0
 32
0.0
 13
1.0
 23
0.0
 33
0.0
 40
0.0
 40
0.0
 40
0.0
 40
0.0
 40
0.0403598374486914
 40
0.0786327979478194
 40
0.1148284924537605
 40
0.1489767916699683
 40
0.19131892330721
 40
0.230000896905773
 40
0.2649858308248834
 40
0.3104751200332159
 40
0.3476128452842544
 40
0.3764168329427363
 40
0.3968728491873961
 40
0.4089678014129352
 40
0.419187782950411
 40
0.4331300924534987
 40
0.4507981648203895
 40
0.4801504640388128
 40
0.5161214656259386
 40
0.5586989798717532
 40
0.5949921580874183
 40
0.6342911919756363
 40
0.672270280882663
 40
0.7082348744654385
 40
0.7530155964698471
 40
0.7941758461431141
 40
0.8317354052617948
 40
0.8813647454601665
 40
0.9236110832580589
 40
0.9626084670743766
 40
0.9814816288181037
 40
1.0
 40
1.0
 40
1.0
 40
1.0
 10
120.7122631364141
 20
169.3790385881071
 30
0.0
 10
120.724564013039
 20
169.3271357462356
 30
0.0
 10
120.7485297276546
 20
169.2260137909507
 30
0.0
 10
120.7835710105618
 20
169.0157531024154
 30
0.0
 10
120.8167448520579
 20
168.7774708396937
 30
0.0
 10
120.8511440212874
 20
168.4901530897288
 30
0.0
 10
120.8862887886221
 20
168.157726904237
 30
0.0
 10
120.92166834892
 20
167.7867564628173
 30
0.0
 10
120.9580141435681
 20
167.3765594171188
 30
0.0
 10
120.9939496684495
 20
166.9441132837352
 30
0.0
 10
121.0280170395493
 20
166.5136823651651
 30
0.0
 10
121.0544212925445
 20
166.1705602175522
 30
0.0
 10
121.0731600880923
 20
165.9235657019229
 30
0.0
 10
121.0862184608933
 20
165.7503234191388
 30
0.0
 10
121.0972853465687
 20
165.6030198085706
 30
0.0
 10
121.1100511995054
 20
165.4326797880204
 30
0.0
 10
121.1286546597875
 20
165.1841065437062
 30
0.0
 10
121.1539909662194
 20
164.846071505895
 30
0.0
 10
121.1869587311593
 20
164.410692807551
 30
0.0
 10
121.2221105460868
 20
163.9577522491089
 30
0.0
 10
121.2583087245351
 20
163.5099997736755
 30
0.0
 10
121.2930867573301
 20
163.1014615988562
 30
0.0
 10
121.3278549678904
 20
162.7198454126317
 30
0.0
 10
121.3645105322715
 20
162.3492527268059
 30
0.0
 10
121.4025527418774
 20
162.0053413708298
 30
0.0
 10
121.4420423020468
 20
161.7014631589409
 30
0.0
 10
121.4841136308874
 20
161.4331345134451
 30
0.0
 10
121.5308391108392
 20
161.2160913206943
 30
0.0
 10
121.5780680171928
 20
161.0573973629407
 30
0.0
 10
121.6560120805825
 20
160.933322201069
 30
0.0
 10
121.7627766603479
 20
160.8591338192864
 30
0.0
 10
121.8351769731547
 20
160.8503725160681
 30
0.0
 10
121.8710336434043
 20
160.8460334303891
 30
0.0
  0
LINE
  5
115
330
1F
100
AcDbEntity
  8
0
  6
Continuous
 62
     7
370
    15
100
AcDbLine
 10
104.871907316
 20
172.1443430657
 30
0.0
 11
104.871907316
 21
171.3443430657
 31
0.0
  0
LINE
  5
116
330
1F
100
AcDbEntity
  8
0
  6
Continuous
 62
     7
370
    15
100
AcDbLine
 10
112.871907316
 20
171.3443430657
 30
0.0
 11
112.871907316
 21
172.1443430657
 31
0.0
  0
LINE
  5
117
330
1F
100
AcDbEntity
  8
0
  6
Continuous
 62
     7
370
    15
100
AcDbLine
 10
104.871907316
 20
159.3443430657
 30
0.0
 11
104.871907316
 21
158.5443430657
 31
0.0
  0
LINE
  5
118
330
1F
100
AcDbEntity
  8
0
  6
Continuous
 62
     7
370
    15
100
AcDbLine
 10
112.871907316
 20
158.5443430657
 30
0.0
 11
112.871907316
 21
159.3443430657
 31
0.0
  0
LINE
  5
119
330
1F
100
AcDbEntity
  8
0
  6
Continuous
 62
     7
370
    15
100
AcDbLine
 10
112.871907316
 20
171.3443430657
 30
0.0
 11
110.871907316
 21
171.3443430657
 31
0.0
  0
LINE
  5
11A
330
1F
100
AcDbEntity
  8
0
  6
Continuous
 62
     7
370
    15
100
AcDbLine
 10
106.871907316
 20
171.3443430657
 30
0.0
 11
104.871907316
 21
171.3443430657
 31
0.0
  0
LINE
  5
11B
330
1F
100
AcDbEntity
  8
0
  6
Continuous
 62
     7
370
    15
100
AcDbLine
 10
112.871907316
 20
165.3443430657
 30
0.0
 11
104.871907316
 21
165.3443430657
 31
0.0
  0
LINE
  5
11C
330
1F
100
AcDbEntity
  8
0
  6
Continuous
 62
     7
370
    15
100
AcDbLine
 10
104.871907316
 20
171.3443430657
 30
0.0
 11
104.871907316
 21
165.3443430657
 31
0.0
  0
LINE
  5
11D
330
1F
100
AcDbEntity
  8
0
  6
Continuous
 62
     7
370
    15
100
AcDbLine
 10
112.871907316
 20
171.3443430657
 30
0.0
 11
112.871907316
 21
165.3443430657
 31
0.0
  0
LINE
  5
11E
330
1F
100
AcDbEntity
  8
0
  6
Continuous
 62
     7
370
    15
100
AcDbLine
 10
112.871907316
 20
159.3443430657
 30
0.0
 11
110.871907316
 21
159.3443430657
 31
0.0
  0
LINE
  5
11F
330
1F
100
AcDbEntity
  8
0
  6
Continuous
 62
     7
370
    15
100
AcDbLine
 10
106.871907316
 20
159.3443430657
 30
0.0
 11
104.871907316
 21
159.3443430657
 31
0.0
  0
LINE
  5
120
330
1F
100
AcDbEntity
  8
0
  6
Continuous
 62
     7
370
    15
100
AcDbLine
 10
104.871907316
 20
165.3443430657
 30
0.0
 11
104.871907316
 21
159.3443430657
 31
0.0
  0
LINE
  5
121
330
1F
100
AcDbEntity
  8
0
  6
Continuous
 62
     7
370
    15
100
AcDbLine
 10
112.871907316
 20
165.3443430657
 30
0.0
 11
112.871907316
 21
159.3443430657
 31
0.0
  0
LINE
  5
122
330
1F
100
AcDbEntity
  8
0
  6
Continuous
 62
     7
370
    15
100
AcDbLine
 10
114.871907316
 20
168.297870203
 30
0.0
 11
114.871907316
 21
161.5943430657
 31
0.0
  0
LINE
  5
123
330
1F
100
AcDbEntity
  8
0
  6
Continuous
 62
     7
370
    15
100
AcDbLine
 10
99.371907316
 20
168.8443430657
 30
0.0
 11
99.371907316
 21
161.8443430657
 31
0.0
  0
LINE
  5
124
330
1F
100
AcDbEntity
  8
0
  6
Continuous
 62
     7
370
    15
100
AcDbLine
 10
101.371907316
 20
168.8443430657
 30
0.0
 11
101.371907316
 21
161.8443430657
 31
0.0
  0
LINE
  5
125
330
1F
100
AcDbEntity
  8
0
  6
Continuous
 62
     7
370
    15
100
AcDbLine
 10
148.871907316
 20
167.3443430657
 30
0.0
 11
148.871907316
 21
163.3443430657
 31
0.0
  0
LINE
  5
126
330
1F
100
AcDbEntity
  8
0
  6
Continuous
 62
     7
370
    15
100
AcDbLine
 10
148.371907316
 20
162.8443430657
 30
0.0
 11
148.371907316
 21
167.8443430657
 31
0.0
  0
LINE
  5
127
330
1F
100
AcDbEntity
  8
0
  6
Continuous
 62
     7
370
    15
100
AcDbLine
 10
128.871907316
 20
173.0443430657
 30
0.0
 11
128.871907316
 21
157.6443430657
 31
0.0
  0
LINE
  5
128
330
1F
100
AcDbEntity
  8
0
  6
Continuous
 62
     7
370
    15
100
AcDbLine
 10
128.571907316
 20
173.3443430657
 30
0.0
 11
128.571907316
 21
157.3443430657
 31
0.0
  0
LINE
  5
129
330
1F
100
AcDbEntity
  8
0
  6
Continuous
 62
     7
370
    15
100
AcDbLine
 10
127.171907316
 20
173.3443430657
 30
0.0
 11
127.171907316
 21
157.3443430657
 31
0.0
  0
LINE
  5
12A
330
1F
100
AcDbEntity
  8
0
  6
Continuous
 62
     7
370
    15
100
AcDbLine
 10
126.871907316
 20
173.0443430657
 30
0.0
 11
126.871907316
 21
157.6443430657
 31
0.0
  0
LINE
  5
12B
330
1F
100
AcDbEntity
  8
0
  6
Continuous
 62
     7
370
    15
100
AcDbLine
 10
146.871907316
 20
171.0443430657
 30
0.0
 11
146.871907316
 21
159.6443430657
 31
0.0
  0
LINE
  5
12C
330
1F
100
AcDbEntity
  8
0
  6
Continuous
 62
     7
370
    15
100
AcDbLine
 10
146.571907316
 20
171.3443430657
 30
0.0
 11
146.571907316
 21
159.3443430657
 31
0.0
  0
LINE
  5
12D
330
1F
100
AcDbEntity
  8
0
  6
Continuous
 62
     7
370
    15
100
AcDbLine
 10
125.171907316
 20
164.6074885666
 30
0.0
 11
125.171907316
 21
161.5943430657
 31
0.0
  0
LINE
  5
12E
330
1F
100
AcDbEntity
  8
0
  6
Continuous
 62
     7
370
    15
100
AcDbLine
 10
124.871907316
 20
168.2885638566
 30
0.0
 11
124.871907316
 21
161.8943430657
 31
0.0
  0
LINE
  5
12F
330
1F
100
AcDbEntity
  8
0
  6
Continuous
 62
     7
370
    15
100
AcDbLine
 10
147.571907316
 20
167.8716939648
 30
0.0
 11
146.971907316
 21
167.8716939648
 31
0.0
  0
LINE
  5
130
330
1F
100
AcDbEntity
  8
0
  6
Continuous
 62
     7
370
    15
100
AcDbLine
 10
146.971907316
 20
161.8443430657
 30
0.0
 11
146.971907316
 21
167.8716939648
 31
0.0
  0
LINE
  5
131
330
1F
100
AcDbEntity
  8
0
  6
Continuous
 62
     7
370
    15
100
AcDbLine
 10
147.571907316
 20
161.8443430657
 30
0.0
 11
147.571907316
 21
167.8716939648
 31
0.0
  0
LINE
  5
132
330
1F
100
AcDbEntity
  8
0
  6
Continuous
 62
     7
370
    15
100
AcDbLine
 10
146.971907316
 20
167.8716939648
 30
0.0
 11
146.971907316
 21
167.9272739135
 31
0.0
  0
LINE
  5
133
330
1F
100
AcDbEntity
  8
0
  6
Continuous
 62
     7
370
    15
100
AcDbLine
 10
147.571907316
 20
167.9272739135
 30
0.0
 11
147.571907316
 21
167.8716939648
 31
0.0
  0
LINE
  5
134
330
1F
100
AcDbEntity
  8
0
  6
Continuous
 62
     7
370
    15
100
AcDbLine
 10
112.3793102013
 20
156.0443430657
 30
0.0
 11
112.3793102013
 21
158.5443430657
 31
0.0
  0
LINE
  5
135
330
1F
100
AcDbEntity
  8
0
  6
Continuous
 62
     7
370
    15
100
AcDbLine
 10
108.871907316
 20
156.0443430657
 30
0.0
 11
108.871907316
 21
158.5443430657
 31
0.0
  0
LINE
  5
136
330
1F
100
AcDbEntity
  8
0
  6
Continuous
 62
     7
370
    15
100
AcDbLine
 10
108.871907316
 20
158.5443430657
 30
0.0
 11
108.9601977733
 21
158.5443430657
 31
0.0
  0
LINE
  5
137
330
1F
100
AcDbEntity
  8
0
  6
Continuous
 62
     7
370
    15
100
AcDbLine
 10
112.291019744
 20
158.5443430657
 30
0.0
 11
112.3793102013
 21
158.5443430657
 31
0.0
  0
LINE
  5
138
330
1F
100
AcDbEntity
  8
0
  6
Continuous
 62
     7
370
    15
100
AcDbLine
 10
108.871907316
 20
156.0443430657
 30
0.0
 11
112.3793102013
 21
156.0443430657
 31
0.0
  0
LINE
  5
139
330
1F
100
AcDbEntity
  8
0
  6
Continuous
 62
     7
370
    15
100
AcDbLine
 10
105.3645044307
 20
156.0443430657
 30
0.0
 11
105.3645044307
 21
158.5443430657
 31
0.0
  0
LINE
  5
13A
330
1F
100
AcDbEntity
  8
0
  6
Continuous
 62
     7
370
    15
100
AcDbLine
 10
105.3645044307
 20
158.5443430657
 30
0.0
 11
105.452794888
 21
158.5443430657
 31
0.0
  0
LINE
  5
13B
330
1F
100
AcDbEntity
  8
0
  6
Continuous
 62
     7
370
    15
100
AcDbLine
 10
108.7836168586
 20
158.5443430657
 30
0.0
 11
108.871907316
 21
158.5443430657
 31
0.0
  0
LINE
  5
13C
330
1F
100
AcDbEntity
  8
0
  6
Continuous
 62
     7
370
    15
100
AcDbLine
 10
105.3645044307
 20
156.0443430657
 30
0.0
 11
108.871907316
 21
156.0443430657
 31
0.0
  0
LINE
  5
13D
330
1F
100
AcDbEntity
  8
0
  6
Continuous
 62
     7
370
    15
100
AcDbLine
 10
111.221907316
 20
153.5443430657
 30
0.0
 11
106.521907316
 21
153.5443430657
 31
0.0
  0
LINE
  5
13E
330
1F
100
AcDbEntity
  8
0
  6
Continuous
 62
     7
370
    15
100
AcDbLine
 10
110.9070670149
 20
151.0443430657
 30
0.0
 11
106.521907316
 21
151.0443430657
 31
0.0
  0
LINE
  5
13F
330
1F
100
AcDbEntity
  8
0
  6
Continuous
 62
     7
370
    15
100
AcDbLine
 10
111.221907316
 20
151.0443430657
 30
0.0
 11
110.9070670149
 21
151.0443430657
 31
0.0
  0
LINE
  5
140
330
1F
100
AcDbEntity
  8
0
  6
Continuous
 62
     7
370
    15
100
AcDbLine
 10
110.6039581236
 20
148.5443430657
 30
0.0
 11
106.871907316
 21
148.5443430657
 31
0.0
  0
LINE
  5
141
330
1F
100
AcDbEntity
  8
0
  6
Continuous
 62
     7
370
    15
100
AcDbLine
 10
110.871907316
 20
148.5443430657
 30
0.0
 11
110.6039581236
 21
148.5443430657
 31
0.0
  0
SPLINE
  5
142
330
1F
100
AcDbEntity
  8
0
  6
Continuous
 62
     7
370
    15
100
AcDbSpline
210
0.0
220
0.0
230
1.0
 70
     8
 71
     3
 72
    10
 73
     6
 74
     0
 42
0.00000001
 43
0.00000001
 12
1.0
 22
0.0
 32
0.0
 13
1.0
 23
0.0
 33
0.0
 40
0.0
 40
0.0
 40
0.0
 40
0.0
 40
0.027603073484365
 40
0.8012316268350939
 40
0.9999999999999999
 40
0.9999999999999999
 40
0.9999999999999999
 40
0.9999999999999999
 10
113.9389318933595
 20
161.5943430656934
 30
0.0
 10
113.9397933729367
 20
161.5938420151903
 30
0.0
 10
113.9647994536378
 20
161.5792980728309
 30
0.0
 10
114.0046334931463
 20
161.5731065107755
 30
0.0
 10
114.0413711046742
 20
161.5719083430135
 30
0.0
 10
114.048880666951
 20
161.5716634246572
 30
0.0
  0
SPLINE
  5
143
330
1F
100
AcDbEntity
  8
0
  6
Continuous
 62
     7
370
    15
100
AcDbSpline
210
0.0
220
0.0
230
1.0
 70
     8
 71
     3
 72
     9
 73
     5
 74
     0
 42
0.00000001
 43
0.00000001
 12
1.0
 22
0.0
 32
0.0
 13
1.0
 23
0.0
 33
0.0
 40
0.0
 40
0.0
 40
0.0
 40
0.0
 40
0.7636214933541217
 40
1.0
 40
1.0
 40
1.0
 40
1.0
 10
114.0488806669509
 20
161.5716634246572
 30
0.0
 10
114.0773281208587
 20
161.5730284283926
 30
0.0
 10
114.1145814645051
 20
161.574815968093
 30
0.0
 10
114.1459295667021
 20
161.5906097541346
 30
0.0
 10
114.1533395842856
 20
161.5943430656934
 30
0.0
  0
LINE
  5
144
330
1F
100
AcDbEntity
  8
0
  6
Continuous
 62
     7
370
    15
100
AcDbLine
 10
112.3793102013
 20
172.1443430657
 30
0.0
 11
112.3793102013
 21
174.6443430657
 31
0.0
  0
LINE
  5
145
330
1F
100
AcDbEntity
  8
0
  6
Continuous
 62
     7
370
    15
100
AcDbLine
 10
108.871907316
 20
172.1443430657
 30
0.0
 11
108.9601977733
 21
172.1443430657
 31
0.0
  0
LINE
  5
146
330
1F
100
AcDbEntity
  8
0
  6
Continuous
 62
     7
370
    15
100
AcDbLine
 10
112.291019744
 20
172.1443430657
 30
0.0
 11
112.3793102013
 21
172.1443430657
 31
0.0
  0
LINE
  5
147
330
1F
100
AcDbEntity
  8
0
  6
Continuous
 62
     7
370
    15
100
AcDbLine
 10
108.871907316
 20
172.1443430657
 30
0.0
 11
108.8719073161
 21
174.6443430657
 31
0.0
  0
LINE
  5
148
330
1F
100
AcDbEntity
  8
0
  6
Continuous
 62
     7
370
    15
100
AcDbLine
 10
108.8719073161
 20
174.6443430657
 30
0.0
 11
112.3793102013
 21
174.6443430657
 31
0.0
  0
LINE
  5
149
330
1F
100
AcDbEntity
  8
0
  6
Continuous
 62
     7
370
    15
100
AcDbLine
 10
105.3645044307
 20
172.1443430657
 30
0.0
 11
105.3645044307
 21
174.6443430657
 31
0.0
  0
LINE
  5
14A
330
1F
100
AcDbEntity
  8
0
  6
Continuous
 62
     7
370
    15
100
AcDbLine
 10
105.3645044307
 20
174.6443430657
 30
0.0
 11
108.8719073161
 21
174.6443430657
 31
0.0
  0
LINE
  5
14B
330
1F
100
AcDbEntity
  8
0
  6
Continuous
 62
     7
370
    15
100
AcDbLine
 10
105.3645044307
 20
172.1443430657
 30
0.0
 11
105.452794888
 21
172.1443430657
 31
0.0
  0
LINE
  5
14C
330
1F
100
AcDbEntity
  8
0
  6
Continuous
 62
     7
370
    15
100
AcDbLine
 10
108.7836168586
 20
172.1443430657
 30
0.0
 11
108.871907316
 21
172.1443430657
 31
0.0
  0
LINE
  5
14D
330
1F
100
AcDbEntity
  8
0
  6
Continuous
 62
     7
370
    15
100
AcDbLine
 10
110.871907316
 20
171.3443430657
 30
0.0
 11
106.871907316
 21
171.3443430657
 31
0.0
  0
LINE
  5
14E
330
1F
100
AcDbEntity
  8
0
  6
Continuous
 62
     7
370
    15
100
AcDbLine
 10
112.871907316
 20
172.1443430657
 30
0.0
 11
112.3793102013
 21
172.1443430657
 31
0.0
  0
LINE
  5
14F
330
1F
100
AcDbEntity
  8
0
  6
Continuous
 62
     7
370
    15
100
AcDbLine
 10
112.291019744
 20
172.1443430657
 30
0.0
 11
108.9601977733
 21
172.1443430657
 31
0.0
  0
LINE
  5
150
330
1F
100
AcDbEntity
  8
0
  6
Continuous
 62
     7
370
    15
100
AcDbLine
 10
108.7836168586
 20
172.1443430657
 30
0.0
 11
105.452794888
 21
172.1443430657
 31
0.0
  0
LINE
  5
151
330
1F
100
AcDbEntity
  8
0
  6
Continuous
 62
     7
370
    15
100
AcDbLine
 10
105.3645044307
 20
172.1443430657
 30
0.0
 11
104.871907316
 21
172.1443430657
 31
0.0
  0
LINE
  5
152
330
1F
100
AcDbEntity
  8
0
  6
Continuous
 62
     7
370
    15
100
AcDbLine
 10
112.871907316
 20
158.5443430657
 30
0.0
 11
112.3793102013
 21
158.5443430657
 31
0.0
  0
LINE
  5
153
330
1F
100
AcDbEntity
  8
0
  6
Continuous
 62
     7
370
    15
100
AcDbLine
 10
112.291019744
 20
158.5443430657
 30
0.0
 11
108.9601977733
 21
158.5443430657
 31
0.0
  0
LINE
  5
154
330
1F
100
AcDbEntity
  8
0
  6
Continuous
 62
     7
370
    15
100
AcDbLine
 10
108.7836168586
 20
158.5443430657
 30
0.0
 11
105.452794888
 21
158.5443430657
 31
0.0
  0
LINE
  5
155
330
1F
100
AcDbEntity
  8
0
  6
Continuous
 62
     7
370
    15
100
AcDbLine
 10
105.3645044307
 20
158.5443430657
 30
0.0
 11
104.871907316
 21
158.5443430657
 31
0.0
  0
LINE
  5
156
330
1F
100
AcDbEntity
  8
0
  6
Continuous
 62
     7
370
    15
100
AcDbLine
 10
110.871907316
 20
159.3443430657
 30
0.0
 11
106.871907316
 21
159.3443430657
 31
0.0
  0
SPLINE
  5
157
330
1F
100
AcDbEntity
  8
0
  6
Continuous
 62
     8
370
    15
100
AcDbSpline
210
0.0
220
0.0
230
1.0
 70
     8
 71
     3
 72
    27
 73
    23
 74
     0
 42
0.00000001
 43
0.00000001
 12
1.0
 22
0.0
 32
0.0
 13
1.0
 23
0.0
 33
0.0
 40
0.0
 40
0.0
 40
0.0
 40
0.0
 40
0.0217862428892845
 40
0.0741081315819004
 40
0.1263753455901583
 40
0.1786171169848445
 40
0.2309176267573463
 40
0.283242832693689
 40
0.335520490130247
 40
0.3877584906503639
 40
0.4400492043047044
 40
0.4923757570746606
 40
0.5446639928112068
 40
0.5969015994814446
 40
0.649181851105871
 40
0.7015075895443884
 40
0.7538058139320685
 40
0.806046341305082
 40
0.8583159620313283
 40
0.9106387731647584
 40
0.9629459611442845
 40
1.0
 40
1.0
 40
1.0
 40
1.0
 10
114.864580155205
 20
169.8273058640447
 30
0.0
 10
114.8718475999364
 20
169.8309914133289
 30
0.0
 10
114.8965685558697
 20
169.8435281858554
 30
0.0
 10
114.938691893735
 20
169.7393319679905
 30
0.0
 10
114.9910533118383
 20
169.5201405354311
 30
0.0
 10
115.0434467965887
 20
169.177113717376
 30
0.0
 10
115.0957691082584
 20
168.7320511895607
 30
0.0
 10
115.1480733222684
 20
168.1972019767446
 30
0.0
 10
115.2004193040277
 20
167.5868022432529
 30
0.0
 10
115.2528187822417
 20
166.9140077720827
 30
0.0
 10
115.3051503171801
 20
166.1984343575814
 30
0.0
 10
115.3574538233037
 20
165.4604548162666
 30
0.0
 10
115.4097879483462
 20
164.7192506379369
 30
0.0
 10
115.4621880228819
 20
163.9949626018914
 30
0.0
 10
115.5145309809214
 20
163.3082263971103
 30
0.0
 10
115.5668349430562
 20
162.6755568769168
 30
0.0
 10
115.6191591273875
 20
162.1131021237298
 30
0.0
 10
115.6715549994382
 20
161.6387476966831
 30
0.0
 10
115.7239106716762
 20
161.2665690138692
 30
0.0
 10
115.7762168884977
 20
161.0072198021428
 30
0.0
 10
115.8234649217001
 20
160.8611582771127
 30
0.0
 10
115.8533143451995
 20
160.8583938562514
 30
0.0
 10
115.8656915443197
 20
160.857247576577
 30
0.0
  0
SPLINE
  5
158
330
1F
100
AcDbEntity
  8
0
  6
Continuous
 62
     8
370
    15
100
AcDbSpline
210
0.0
220
0.0
230
1.0
 70
     8
 71
     3
 72
    27
 73
    23
 74
     0
 42
0.00000001
 43
0.00000001
 12
1.0
 22
0.0
 32
0.0
 13
1.0
 23
0.0
 33
0.0
 40
0.0
 40
0.0
 40
0.0
 40
0.0
 40
0.0101856888845798
 40
0.0625309435648791
 40
0.114819852589889
 40
0.1671416009501451
 40
0.219514851215892
 40
0.2718693775094029
 40
0.3241635093364089
 40
0.3764748737790521
 40
0.4288436795331174
 40
0.4812061630487871
 40
0.5335080655395097
 40
0.5858099680302328
 40
0.638172451545903
 40
0.690541257299967
 40
0.7428526217426057
 40
0.7951467535696037
 40
0.8475012798631029
 40
0.8998745301288361
 40
0.9521962784890754
 40
1.0
 40
1.0
 40
1.0
 40
1.0
 10
116.8652642018635
 20
169.8321893071024
 30
0.0
 10
116.8686572813774
 20
169.8351962067115
 30
0.0
 10
116.88948772947
 20
169.8536558584732
 30
0.0
 10
116.9277539462483
 20
169.7716259349097
 30
0.0
 10
116.9801511710586
 20
169.5775604552036
 30
0.0
 10
117.0325036820816
 20
169.2553070389198
 30
0.0
 10
117.0848087686102
 20
168.8322621400905
 30
0.0
 10
117.1371269742655
 20
168.3164809501815
 30
0.0
 10
117.1895167833374
 20
167.7202723031821
 30
0.0
 10
117.2418826260579
 20
167.0576169877709
 30
0.0
 10
117.2941904224347
 20
166.3495984427522
 30
0.0
 10
117.3465024872631
 20
165.6150630255776
 30
0.0
 10
117.3988812849344
 20
164.8729441891579
 30
0.0
 10
117.4512600820166
 20
164.1440402979576
 30
0.0
 10
117.5035721486146
 20
163.4476358266706
 30
0.0
 10
117.555879938503
 20
162.801251802181
 30
0.0
 10
117.6082458053795
 20
162.2223278385251
 30
0.0
 10
117.6606355243228
 20
161.7308892064093
 30
0.0
 10
117.7129540667368
 20
161.3365948090963
 30
0.0
 10
117.765257896135
 20
161.0508839210722
 30
0.0
 10
117.8161191961053
 20
160.873337640604
 30
0.0
 10
117.8495324609389
 20
160.857467232773
 30
0.0
 10
117.86548522909
 20
160.8498900942369
 30
0.0
  0
SPLINE
  5
159
330
1F
100
AcDbEntity
  8
0
  6
Continuous
 62
     8
370
    15
100
AcDbSpline
210
0.0
220
0.0
230
1.0
 70
     8
 71
     3
 72
    27
 73
    23
 74
     0
 42
0.00000001
 43
0.00000001
 12
1.0
 22
0.0
 32
0.0
 13
1.0
 23
0.0
 33
0.0
 40
0.0
 40
0.0
 40
0.0
 40
0.0
 40
0.0507458737214256
 40
0.1031198973732137
 40
0.155554801675034
 40
0.2080053672771739
 40
0.2604026125992866
 40
0.3127706935321127
 40
0.3651966123560443
 40
0.4176501124107421
 40
0.4700580145880525
 40
0.522423167686729
 40
0.5748390734706333
 40
0.62729338984508
 40
0.6797117795970106
 40
0.7320773275072163
 40
0.7844826291625392
 40
0.8369355954148735
 40
0.8893638052037515
 40
0.94173313319571
 40
0.9941279659234206
 40
0.9999999999999999
 40
0.9999999999999999
 40
0.9999999999999999
 40
0.9999999999999999
 10
118.8661463394101
 20
169.8407819969912
 30
0.0
 10
118.8830453341267
 20
169.8308910878558
 30
0.0
 10
118.9173855173396
 20
169.810791925891
 30
0.0
 10
118.9692307081774
 20
169.6246940212207
 30
0.0
 10
119.021545856597
 20
169.3305631556748
 30
0.0
 10
119.0738518510386
 20
168.928887195402
 30
0.0
 10
119.126207582803
 20
168.4325691142842
 30
0.0
 10
119.1786034389137
 20
167.8498832341605
 30
0.0
 10
119.2309276275217
 20
167.1992709139088
 30
0.0
 10
119.2832315885048
 20
166.4998198873656
 30
0.0
 10
119.3355745468711
 20
165.7696100792947
 30
0.0
 10
119.3879746212505
 20
165.0274052782112
 30
0.0
 10
119.4403087465919
 20
164.2941840371064
 30
0.0
 10
119.4926122516759
 20
163.5888544793704
 30
0.0
 10
119.54494379047
 20
162.9297152077952
 30
0.0
 10
119.5973432543122
 20
162.3366305103527
 30
0.0
 10
119.6496892897511
 20
161.8268624063139
 30
0.0
 10
119.7019933032482
 20
161.4112161244003
 30
0.0
 10
119.754316362758
 20
161.0959899447545
 30
0.0
 10
119.8067070594096
 20
160.9081830554789
 30
0.0
 10
119.8435627290539
 20
160.8314036508284
 30
0.0
 10
119.8629448690673
 20
160.8505703874197
 30
0.0
 10
119.8648981676206
 20
160.8525019779886
 30
0.0
  0
SPLINE
  5
15A
330
1F
100
AcDbEntity
  8
0
  6
Continuous
 62
     8
370
    15
100
AcDbSpline
210
0.0
220
0.0
230
1.0
 70
     8
 71
     3
 72
    13
 73
     9
 74
     0
 42
0.00000001
 43
0.00000001
 12
1.0
 22
0.0
 32
0.0
 13
1.0
 23
0.0
 33
0.0
 40
0.0
 40
0.0
 40
0.0
 40
0.0
 40
0.222517563203118
 40
0.4463090875040641
 40
0.5579663417906771
 40
0.6693188124980893
 40
0.8925262648901242
 40
1.0
 40
1.0
 40
1.0
 40
1.0
 10
120.7488807258291
 20
169.0763221677006
 30
0.0
 10
120.7163563504026
 20
169.0801354384884
 30
0.0
 10
120.6511213904774
 20
169.0877838118626
 30
0.0
 10
120.581871474213
 20
169.1326871837055
 30
0.0
 10
120.5395156882672
 20
169.1791540298083
 30
0.0
 10
120.5095908285728
 20
169.2330406812381
 30
0.0
 10
120.4934001522777
 20
169.2944116291699
 30
0.0
 10
120.5049860503908
 20
169.3383288059339
 30
0.0
 10
120.5087515495842
 20
169.3526022003715
 30
0.0
  0
SPLINE
  5
15B
330
1F
100
AcDbEntity
  8
0
  6
Continuous
 62
     8
370
    15
100
AcDbSpline
210
0.0
220
0.0
230
1.0
 70
     8
 71
     3
 72
    11
 73
     7
 74
     0
 42
0.00000001
 43
0.00000001
 12
1.0
 22
0.0
 32
0.0
 13
1.0
 23
0.0
 33
0.0
 40
0.0
 40
0.0
 40
0.0
 40
0.0
 40
0.3120908672798303
 40
0.6239007912832372
 40
0.9360086879908968
 40
1.0
 40
1.0
 40
1.0
 40
1.0
 10
120.7488807258291
 20
169.0763221974252
 30
0.0
 10
120.7314377379341
 20
168.9888477376274
 30
0.0
 10
120.6965674642704
 20
168.813977562282
 30
0.0
 10
120.6441646503266
 20
168.4246830729309
 30
0.0
 10
120.6057043675066
 20
168.0964833648439
 30
0.0
 10
120.584701846074
 20
167.881005497155
 30
0.0
 10
120.5811283769711
 20
167.8443430656934
 30
0.0
  0
SPLINE
  5
15C
330
1F
100
AcDbEntity
  8
0
  6
Continuous
 62
     8
370
    15
100
AcDbSpline
210
0.0
220
0.0
230
1.0
 70
     8
 71
     3
 72
    11
 73
     7
 74
     0
 42
0.00000001
 43
0.00000001
 12
1.0
 22
0.0
 32
0.0
 13
1.0
 23
0.0
 33
0.0
 40
0.0
 40
0.0
 40
0.0
 40
0.0
 40
0.1595294041248892
 40
0.4483618284066398
 40
0.736866693644977
 40
1.0
 40
1.0
 40
1.0
 40
1.0
 10
120.1496664645249
 20
162.8443430656934
 30
0.0
 10
120.1400290466161
 20
162.7488451900247
 30
0.0
 10
120.1129428154702
 20
162.4804457537036
 30
0.0
 10
120.0684485879656
 20
162.1195574615734
 30
0.0
 10
120.0176011960389
 20
161.7707054079675
 30
0.0
 10
119.9842354681085
 20
161.6254042746316
 30
0.0
 10
119.9683199010549
 20
161.5560951339655
 30
0.0
  0
SPLINE
  5
15D
330
1F
100
AcDbEntity
  8
0
  6
Continuous
 62
     8
370
    15
100
AcDbSpline
210
0.0
220
0.0
230
1.0
 70
     8
 71
     3
 72
    12
 73
     8
 74
     0
 42
0.00000001
 43
0.00000001
 12
1.0
 22
0.0
 32
0.0
 13
1.0
 23
0.0
 33
0.0
 40
0.0
 40
0.0
 40
0.0
 40
0.0
 40
0.0176211684889852
 40
0.305850795054314
 40
0.594056056466009
 40
0.8825963196706996
 40
1.0
 40
1.0
 40
1.0
 40
1.0
 10
118.7630149711633
 20
169.1338131503756
 30
0.0
 10
118.7619495366894
 20
169.1305770127688
 30
0.0
 10
118.7434567800291
 20
169.0744073404468
 30
0.0
 10
118.7074738062226
 20
168.870887480885
 30
0.0
 10
118.6550957283402
 20
168.5139886365905
 30
0.0
 10
118.6131345102223
 20
168.1623084560837
 30
0.0
 10
118.5885913096621
 20
167.9156729148166
 30
0.0
 10
118.5814931323923
 20
167.8443430656934
 30
0.0
  0
SPLINE
  5
15E
330
1F
100
AcDbEntity
  8
0
  6
Continuous
 62
     8
370
    15
100
AcDbSpline
210
0.0
220
0.0
230
1.0
 70
     8
 71
     3
 72
    12
 73
     8
 74
     0
 42
0.00000001
 43
0.00000001
 12
1.0
 22
0.0
 32
0.0
 13
1.0
 23
0.0
 33
0.0
 40
0.0
 40
0.0
 40
0.0
 40
0.0
 40
0.0992269101522879
 40
0.3855825772007441
 40
0.6716745687351792
 40
0.9580156664251875
 40
1.0
 40
1.0
 40
1.0
 40
1.0
 10
118.1498174928306
 20
162.8443430656934
 30
0.0
 10
118.1437766417881
 20
162.7831988784922
 30
0.0
 10
118.1203026979772
 20
162.5456006982637
 30
0.0
 10
118.0793781199261
 20
162.1996292000866
 30
0.0
 10
118.0269800870438
 20
161.83708933448
 30
0.0
 10
117.9895389099781
 20
161.6244744677932
 30
0.0
 10
117.9695500092221
 20
161.5621206430596
 30
0.0
 10
117.9669939456425
 20
161.554147201078
 30
0.0
  0
SPLINE
  5
15F
330
1F
100
AcDbEntity
  8
0
  6
Continuous
 62
     8
370
    15
100
AcDbSpline
210
0.0
220
0.0
230
1.0
 70
     8
 71
     3
 72
    11
 73
     7
 74
     0
 42
0.00000001
 43
0.00000001
 12
1.0
 22
0.0
 32
0.0
 13
1.0
 23
0.0
 33
0.0
 40
0.0
 40
0.0
 40
0.0
 40
0.0
 40
0.2477272490842506
 40
0.535235707388381
 40
0.8229683176423342
 40
1.0
 40
1.0
 40
1.0
 40
1.0
 10
116.7635553967511
 20
169.1339082517658
 30
0.0
 10
116.7485053466292
 20
169.0696584851729
 30
0.0
 10
116.7159884384047
 20
168.9308414216523
 30
0.0
 10
116.6660441830474
 20
168.5925920042094
 30
0.0
 10
116.6204485144087
 20
168.2273661915655
 30
0.0
 10
116.5922431382576
 20
167.9499953773307
 30
0.0
 10
116.5814995306463
 20
167.8443430656934
 30
0.0
  0
SPLINE
  5
160
330
1F
100
AcDbEntity
  8
0
  6
Continuous
 62
     8
370
    15
100
AcDbSpline
210
0.0
220
0.0
230
1.0
 70
     8
 71
     3
 72
    12
 73
     8
 74
     0
 42
0.00000001
 43
0.00000001
 12
1.0
 22
0.0
 32
0.0
 13
1.0
 23
0.0
 33
0.0
 40
0.0
 40
0.0
 40
0.0
 40
0.0
 40
0.0419177471915096
 40
0.3281606932657183
 40
0.614427838597497
 40
0.9010233647121927
 40
1.0
 40
1.0
 40
1.0
 40
1.0
 10
116.1502878727505
 20
162.8443430656934
 30
0.0
 10
116.1477359500837
 20
162.8180223432942
 30
0.0
 10
116.1277577602336
 20
162.6119657899607
 30
0.0
 10
116.0902817982941
 20
162.2880387302688
 30
0.0
 10
116.0379090253749
 20
161.9053207084553
 30
0.0
 10
115.9970226722534
 20
161.6629512783133
 30
0.0
 10
115.9735497851739
 20
161.5819457199043
 30
0.0
 10
115.9675242791437
 20
161.561151538131
 30
0.0
  0
LINE
  5
161
330
1F
100
AcDbEntity
  8
0
  6
Continuous
 62
     8
370
    15
100
AcDbLine
 10
114.7636157686
 20
169.1285503211
 30
0.0
 11
114.7556232401
 21
169.0943430657
 31
0.0
  0
LINE
  5
162
330
1F
100
AcDbEntity
  8
0
  6
Continuous
 62
     8
370
    15
100
AcDbLine
 10
120.7488818438
 20
169.0763246122
 30
0.0
 11
120.7738732445
 21
169.0811761768
 31
0.0
  0
LINE
  5
163
330
1F
100
AcDbEntity
  8
0
  6
Continuous
 62
     8
370
    15
100
AcDbLine
 10
120.7488818438
 20
169.0763245822
 30
0.0
 11
120.7643455819
 21
169.1312343879
 31
0.0
  0
SPLINE
  5
164
330
1F
100
AcDbEntity
  8
0
  6
Continuous
 62
     8
370
    15
100
AcDbSpline
210
0.0
220
0.0
230
1.0
 70
     8
 71
     3
 72
    11
 73
     7
 74
     0
 42
0.00000001
 43
0.00000001
 12
1.0
 22
0.0
 32
0.0
 13
1.0
 23
0.0
 33
0.0
 40
0.0
 40
0.0
 40
0.0
 40
0.0
 40
0.2104601786202576
 40
0.4957098353216846
 40
0.78075088929561
 40
1.0
 40
1.0
 40
1.0
 40
1.0
 10
121.966485440475
 20
161.5539864673541
 30
0.0
 10
121.9793698976679
 20
161.6062398912159
 30
0.0
 10
122.0097174541281
 20
161.7293156022951
 30
0.0
 10
122.0574526208925
 20
162.0397933341968
 30
0.0
 10
122.1057804845214
 20
162.4146933462077
 30
0.0
 10
122.1366841533145
 20
162.7141492778554
 30
0.0
 10
122.1501200725035
 20
162.8443430656934
 30
0.0
  0
SPLINE
  5
165
330
1F
100
AcDbEntity
  8
0
  6
Continuous
 62
     8
370
    15
100
AcDbSpline
210
0.0
220
0.0
230
1.0
 70
     8
 71
     3
 72
    12
 73
     8
 74
     0
 42
0.00000001
 43
0.00000001
 12
1.0
 22
0.0
 32
0.0
 13
1.0
 23
0.0
 33
0.0
 40
0.0
 40
0.0
 40
0.0
 40
0.0
 40
0.0017583275447543
 40
0.2867125708998376
 40
0.5719851776063399
 40
0.857240764906046
 40
1.0
 40
1.0
 40
1.0
 40
1.0
 10
122.5805897178854
 20
167.8443430656934
 30
0.0
 10
122.5806974079587
 20
167.8454636752947
 30
0.0
 10
122.5982573318028
 20
168.0281900738753
 30
0.0
 10
122.6332906847849
 20
168.3327958170902
 30
0.0
 10
122.6855998294438
 20
168.7319435551696
 30
0.0
 10
122.7292113512291
 20
169.0006253897745
 30
0.0
 10
122.7554263512
 20
169.0971719734725
 30
0.0
 10
122.7641700515301
 20
169.1293739340555
 30
0.0
  0
SPLINE
  5
166
330
1F
100
AcDbEntity
  8
0
  6
Continuous
 62
     8
370
    15
100
AcDbSpline
210
0.0
220
0.0
230
1.0
 70
     8
 71
     3
 72
    11
 73
     7
 74
     0
 42
0.00000001
 43
0.00000001
 12
1.0
 22
0.0
 32
0.0
 13
1.0
 23
0.0
 33
0.0
 40
0.0
 40
0.0
 40
0.0
 40
0.0
 40
0.1470665579043593
 40
0.4326501591326968
 40
0.7179037904508628
 40
1.0
 40
1.0
 40
1.0
 40
1.0
 10
123.9672416744268
 20
161.5611296000254
 30
0.0
 10
123.976226032193
 20
161.5944179141851
 30
0.0
 10
124.0026568120566
 20
161.6923476857367
 30
0.0
 10
124.0465002791313
 20
161.9632667832802
 30
0.0
 10
124.0986923701926
 20
162.3517851799885
 30
0.0
 10
124.1333922558156
 20
162.6807673889653
 30
0.0
 10
124.1506456425286
 20
162.8443430656934
 30
0.0
  0
SPLINE
  5
167
330
1F
100
AcDbEntity
  8
0
  6
Continuous
 62
     8
370
    15
100
AcDbSpline
210
0.0
220
0.0
230
1.0
 70
     8
 71
     3
 72
    11
 73
     7
 74
     0
 42
0.00000001
 43
0.00000001
 12
1.0
 22
0.0
 32
0.0
 13
1.0
 23
0.0
 33
0.0
 40
0.0
 40
0.0
 40
0.0
 40
0.0
 40
0.224884638284856
 40
0.5115900622630711
 40
0.7980590424821309
 40
1.0
 40
1.0
 40
1.0
 40
1.0
 10
124.5812377517245
 20
167.8443430656934
 30
0.0
 10
124.59493378789
 20
167.9765927222816
 30
0.0
 10
124.6260909004794
 20
168.2774474652478
 30
0.0
 10
124.6746368644121
 20
168.6550763814043
 30
0.0
 10
124.7218476511552
 20
168.963154354829
 30
0.0
 10
124.7516250896559
 20
169.0818566018352
 30
0.0
 10
124.7639370513475
 20
169.1309359582689
 30
0.0
  0
LINE
  5
168
330
1F
100
AcDbEntity
  8
0
  6
Continuous
 62
     8
370
    15
100
AcDbLine
 10
125.9665324338
 20
161.5571591806
 30
0.0
 11
125.9769940835
 21
161.5943430657
 31
0.0
  0
LINE
  5
169
330
1F
100
AcDbEntity
  8
0
  6
Continuous
 62
     8
370
    15
100
AcDbLine
 10
126.7549479176
 20
169.0943430657
 30
0.0
 11
126.7628183571
 21
169.1314417311
 31
0.0
  0
SPLINE
  5
16A
330
1F
100
AcDbEntity
  8
0
  6
Continuous
 62
     8
370
    15
100
AcDbSpline
210
0.0
220
0.0
230
1.0
 70
     8
 71
     3
 72
    27
 73
    23
 74
     0
 42
0.00000001
 43
0.00000001
 12
1.0
 22
0.0
 32
0.0
 13
1.0
 23
0.0
 33
0.0
 40
0.0
 40
0.0
 40
0.0
 40
0.0
 40
0.0384510593948946
 40
0.0907358065060287
 40
0.1430737594172019
 40
0.1953960846532641
 40
0.2476576599515892
 40
0.2999321973281031
 40
0.3522652155953704
 40
0.4045951075295735
 40
0.4568649604679998
 40
0.5091303889762957
 40
0.5614566500001977
 40
0.6137924052002752
 40
0.6660720126907022
 40
0.718330245385306
 40
0.7706481889074427
 40
0.8229878820193777
 40
0.8752779931246655
 40
0.9275317559716583
 40
0.9798401618297776
 40
1.0
 40
1.0
 40
1.0
 40
1.0
 10
125.8647412488784
 20
160.8568804972558
 30
0.0
 10
125.8519017759994
 20
160.8586826135066
 30
0.0
 10
125.8216035229701
 20
160.8629352004057
 30
0.0
 10
125.7738508720517
 20
161.0152804624842
 30
0.0
 10
125.7215463753419
 20
161.2814355232213
 30
0.0
 10
125.6692296133577
 20
161.6589247205234
 30
0.0
 10
125.616842394907
 20
162.1349217035701
 30
0.0
 10
125.5644731608093
 20
162.7010376903432
 30
0.0
 10
125.512164449581
 20
163.3373585330354
 30
0.0
 10
125.4598536255523
 20
164.0266024250861
 30
0.0
 10
125.4074779870037
 20
164.7514203223969
 30
0.0
 10
125.3550961540947
 20
165.4928808992674
 30
0.0
 10
125.3027827283289
 20
166.2300222375904
 30
0.0
 10
125.250475752606
 20
166.9437877980157
 30
0.0
 10
125.1981133040155
 20
167.6152689309978
 30
0.0
 10
125.1457212105973
 20
168.2233438836178
 30
0.0
 10
125.0934011187106
 20
168.753270803033
 30
0.0
 10
125.0410964854309
 20
169.1927304079721
 30
0.0
 10
124.98874730866
 20
169.532377423913
 30
0.0
 10
124.9363487116187
 20
169.7481942418044
 30
0.0
 10
124.89475278744
 20
169.8463595504473
 30
0.0
 10
124.8705968891487
 20
169.8314423610553
 30
0.0
 10
124.8638769940149
 20
169.8272925692653
 30
0.0
  0
SPLINE
  5
16B
330
1F
100
AcDbEntity
  8
0
  6
Continuous
 62
     8
370
    15
100
AcDbSpline
210
0.0
220
0.0
230
1.0
 70
     8
 71
     3
 72
    27
 73
    23
 74
     0
 42
0.00000001
 43
0.00000001
 12
1.0
 22
0.0
 32
0.0
 13
1.0
 23
0.0
 33
0.0
 40
0.0
 40
0.0
 40
0.0
 40
0.0
 40
0.0288276388486172
 40
0.0810856691644958
 40
0.13336238894197
 40
0.1855877017384392
 40
0.2377802357266844
 40
0.290029011518086
 40
0.3423081286351701
 40
0.3945440744536695
 40
0.4467345166310489
 40
0.4989731237929709
 40
0.5512525120459313
 40
0.6034987853462245
 40
0.6556904805410191
 40
0.7079184808192043
 40
0.7601960042099241
 40
0.8124518038452684
 40
0.8646479635783189
 40
0.9168654727179478
 40
0.9691390628742954
 40
0.9999999999999999
 40
0.9999999999999999
 40
0.9999999999999999
 40
0.9999999999999999
 10
123.8660707649177
 20
160.8599148839078
 30
0.0
 10
123.8564327900186
 20
160.8576358319541
 30
0.0
 10
123.8293233327307
 20
160.8512253710175
 30
0.0
 10
123.7848096188353
 20
160.9757925254445
 30
0.0
 10
123.7325034483314
 20
161.215212016012
 30
0.0
 10
123.6801512565152
 20
161.5701584400804
 30
0.0
 10
123.6277538379058
 20
162.028640602153
 30
0.0
 10
123.5754273536795
 20
162.5778566788284
 30
0.0
 10
123.5231236159535
 20
163.1998455400095
 30
0.0
 10
123.4707837121836
 20
163.878723356327
 30
0.0
 10
123.4183833234615
 20
164.5982953535693
 30
0.0
 10
123.3660463657907
 20
165.3381708288364
 30
0.0
 10
123.3137427837713
 20
166.0780363222757
 30
0.0
 10
123.2614138295929
 20
166.7986685682298
 30
0.0
 10
123.2090152705957
 20
167.4797907021774
 30
0.0
 10
123.1566660743653
 20
168.1013957019287
 30
0.0
 10
123.1043614808965
 20
168.6498749278295
 30
0.0
 10
123.0520412493271
 20
169.1108766916845
 30
0.0
 10
122.9996496742997
 20
169.4713901060597
 30
0.0
 10
122.9472852906784
 20
169.7111706665719
 30
0.0
 10
122.9021264895844
 20
169.8350882680227
 30
0.0
 10
122.8743703788978
 20
169.8295911988586
 30
0.0
 10
122.8640668429933
 20
169.8275505941737
 30
0.0
  0
SPLINE
  5
16C
330
1F
100
AcDbEntity
  8
0
  6
Continuous
 62
     8
370
    15
100
AcDbSpline
210
0.0
220
0.0
230
1.0
 70
     8
 71
     3
 72
    27
 73
    23
 74
     0
 42
0.00000001
 43
0.00000001
 12
1.0
 22
0.0
 32
0.0
 13
1.0
 23
0.0
 33
0.0
 40
0.0
 40
0.0
 40
0.0
 40
0.0
 40
0.0170017230420148
 40
0.0692756534619965
 40
0.121524911918873
 40
0.1737154895579615
 40
0.2259314848784048
 40
0.2782021013053398
 40
0.3304599679719176
 40
0.3826568162951671
 40
0.4348623073759982
 40
0.4871271495201709
 40
0.5393922259496678
 40
0.5915983986390906
 40
0.6437961902717
 40
0.6960545494241537
 40
0.7483250463480616
 40
0.8005409772191705
 40
0.852732893182402
 40
0.9049846669531273
 40
0.9572596874478982
 40
1.0
 40
1.0
 40
1.0
 40
1.0
 10
121.8651395395096
 20
160.8593442120205
 30
0.0
 10
121.8594588296682
 20
160.8559737900013
 30
0.0
 10
121.836312064754
 20
160.8422405826527
 30
0.0
 10
121.7957718730206
 20
160.941131186366
 30
0.0
 10
121.7434461835625
 20
161.1528158688097
 30
0.0
 10
121.691053003788
 20
161.4870794016073
 30
0.0
 10
121.6386937409965
 20
161.9266403192353
 30
0.0
 10
121.5863876024439
 20
162.4574647824745
 30
0.0
 10
121.5340727115956
 20
163.0642436677755
 30
0.0
 10
121.4816879944239
 20
163.7327483119359
 30
0.0
 10
121.4293154658492
 20
164.4463493490087
 30
0.0
 10
121.3770056657233
 20
165.1836464557863
 30
0.0
 10
121.3246958782888
 20
165.9251811620407
 30
0.0
 10
121.2723234140633
 20
166.6515055492943
 30
0.0
 10
121.2199391064001
 20
167.3412627489888
 30
0.0
 10
121.167624297884
 20
167.9769414082968
 30
0.0
 10
121.1153178094465
 20
168.5432596602373
 30
0.0
 10
121.0629579089905
 20
169.0244755118922
 30
0.0
 10
121.0105643276455
 20
169.4039538485395
 30
0.0
 10
120.9582418386222
 20
169.669412269526
 30
0.0
 10
120.9091093170181
 20
169.8242106497295
 30
0.0
 10
120.877355572028
 20
169.8312373610725
 30
0.0
 10
120.8630719301982
 20
169.8343981544874
 30
0.0
  0
DIMENSION
  5
16D
330
1F
100
AcDbEntity
  8
0
  6
Continuous
 62
     7
370
     0
100
AcDbDimension
  2
_D_3
 10
89.371907316
 20
161.8443430657
 30
0.0
 11
89.371907316
 21
165.5427577017
 31
0.0
 70
   160
  1
%%c<>
 71
     2
 42
-1.0
  3
SLDDIMSTYLE2
100
AcDbAlignedDimension
 13
99.371907316
 23
168.8443430657
 33
0.0
 14
99.371907316
 24
161.8443430657
 34
0.0
 50
90.0
100
AcDbRotatedDimension
  0
DIMENSION
  5
17B
330
1F
100
AcDbEntity
  8
0
  6
Continuous
 62
     7
370
     0
100
AcDbDimension
  2
_D_4
 10
99.371907316
 20
184.6443430657
 30
0.0
 11
115.4745171563
 21
184.6443430657
 31
0.0
 70
   160
  1
<>
 71
     2
 42
-1.0
  3
SLDDIMSTYLE2
100
AcDbAlignedDimension
 13
104.871907316
 23
171.3443430657
 33
0.0
 14
99.371907316
 24
168.8443430657
 34
0.0
100
AcDbRotatedDimension
  0
DIMENSION
  5
187
330
1F
100
AcDbEntity
  8
0
  6
Continuous
 62
     7
370
     0
100
AcDbDimension
  2
_D_5
 10
148.871907316
 20
196.6443430657
 30
0.0
 11
124.4392719313
 21
196.6443430657
 31
0.0
 70
   160
  1
<>
 71
     2
 42
-1.0
  3
SLDDIMSTYLE0
100
AcDbAlignedDimension
 13
99.371907316
 23
168.8443430657
 33
0.0
 14
148.871907316
 24
167.3443430657
 34
0.0
100
AcDbRotatedDimension
  0
DIMENSION
  5
191
330
1F
100
AcDbEntity
  8
0
  6
Continuous
 62
     7
370
     0
100
AcDbDimension
  2
_D_6
 10
158.871907316
 20
162.8443430657
 30
0.0
 11
158.871907316
 21
175.3372165551
 31
0.0
 70
   160
  1
%%c<>
 71
     2
 42
-1.0
  3
SLDDIMSTYLE2
100
AcDbAlignedDimension
 13
148.371907316
 23
167.8443430657
 33
0.0
 14
148.371907316
 24
162.8443430657
 34
0.0
 50
90.0
100
AcDbRotatedDimension
  0
DIMENSION
  5
19E
330
1F
100
AcDbEntity
  8
0
  6
Continuous
 62
     7
370
     0
100
AcDbDimension
  2
_D_7
 10
170.871907316
 20
159.3443430657
 30
0.0
 11
170.871907316
 21
165.5427577017
 31
0.0
 70
   160
  1
%%c<>
 71
     2
 42
-1.0
  3
SLDDIMSTYLE0
100
AcDbAlignedDimension
 13
146.571907316
 23
171.3443430657
 33
0.0
 14
146.571907316
 24
159.3443430657
 34
0.0
 50
90.0
100
AcDbRotatedDimension
  0
DIMENSION
  5
1A9
330
1F
100
AcDbEntity
  8
0
  6
Continuous
 62
     7
370
     0
100
AcDbDimension
  2
_D_8
 10
146.871907316
 20
138.5443430657
 30
0.0
 11
136.9571808058
 21
138.5443430657
 31
0.0
 70
   160
  1
<>
 71
     2
 42
-1.0
  3
SLDDIMSTYLE0
100
AcDbAlignedDimension
 13
128.871907316
 23
157.6443430657
 33
0.0
 14
146.871907316
 24
159.6443430657
 34
0.0
100
AcDbRotatedDimension
  0
DIMENSION
  5
1B3
330
1F
100
AcDbEntity
  8
0
  6
Continuous
 62
     7
370
     0
100
AcDbDimension
  2
_D_9
 10
114.871907316
 20
138.5443430657
 30
0.0
 11
119.1418282896
 21
138.5443430657
 31
0.0
 70
   160
  1
<>st
 71
     2
 42
-1.0
  3
SLDDIMSTYLE0
100
AcDbAlignedDimension
 13
124.871907316
 23
161.8943430657
 33
0.0
 14
114.871907316
 24
161.5943430657
 34
0.0
100
AcDbRotatedDimension
  0
MTEXT
  5
1BE
330
1F
100
AcDbEntity
  8
0
  6
Continuous
 62
     7
370
     0
100
AcDbMText
 10
84.8340599573
 20
142.0303857325
 30
0.0
 40
3.5
 41
0.0
 71
     1
 72
     1
  1
BF-6
  7
SLDTEXTSTYLE1
 73
     1
 44
1.0
  0
LEADER
  5
1BF
330
1F
100
AcDbEntity
  8
0
  6
Continuous
 62
     7
370
     0
100
AcDbLeader
  3
SLDDIMSTYLE1
 76
     3
 10
108.4889040706
 20
150.1118762966
 30
0.0
 10
94.4038686987
 20
137.5146541618
 30
0.0
 10
84.7596717468
 20
137.5146541618
 30
0.0
  0
LINE
  5
1C0
330
1F
100
AcDbEntity
  8
0
  6
CENTERX2
 62
     7
370
     0
100
AcDbLine
 10
122.871907316
 20
165.3443430657
 30
0.0
 11
97.6397972417
 21
165.3443430657
 31
0.0
  0
LINE
  5
1C1
330
1F
100
AcDbEntity
  8
0
  6
CENTERX2
 62
     7
370
     0
100
AcDbLine
 10
123.171907316
 20
165.3443430657
 30
0.0
 11
154.4859320444
 21
165.3443430657
 31
0.0
  0
LINE
  5
1C2
330
1F
100
AcDbEntity
  8
0
  6
CENTERX2
 62
     7
370
     0
100
AcDbLine
 10
144.571907316
 20
165.3443430657
 30
0.0
 11
154.4859320444
 21
165.3443430657
 31
0.0
  0
LINE
  5
1C3
330
1F
100
AcDbEntity
  8
0
  6
CENTERX2
 62
     7
370
     0
100
AcDbLine
 10
154.4859320444
 20
165.3443430657
 30
0.0
 11
126.871907316
 21
165.3443430657
 31
0.0
  0
ENDSEC
  0
SECTION
  2
OBJECTS
  0
DICTIONARY
  5
C
330
0
100
AcDbDictionary
281
     1
  3
ACAD_GROUP
350
D
  3
ACAD_LAYOUT
350
1A
  3
ACAD_MLINESTYLE
350
17
  3
ACAD_PLOTSETTINGS
350
19
  3
ACAD_PLOTSTYLENAME
350
E
  0
DICTIONARY
  5
D
102
{ACAD_REACTORS
330
C
102
}
330
C
100
AcDbDictionary
281
     1
  0
DICTIONARY
  5
1A
102
{ACAD_REACTORS
330
C
102
}
330
C
100
AcDbDictionary
281
     1
  3
Layout1
350
1E
  3
Layout2
350
26
  3
Model
350
22
  0
DICTIONARY
  5
17
102
{ACAD_REACTORS
330
C
102
}
330
C
100
AcDbDictionary
281
     1
  3
Standard
350
18
  0
DICTIONARY
  5
19
102
{ACAD_REACTORS
330
C
102
}
330
C
100
AcDbDictionary
281
     1
  0
ACDBDICTIONARYWDFLT
  5
E
102
{ACAD_REACTORS
330
C
102
}
330
C
100
AcDbDictionary
281
     1
  3
Normal
350
F
100
AcDbDictionaryWithDefault
340
F
  0
LAYOUT
  5
1E
102
{ACAD_REACTORS
330
1A
102
}
330
1A
100
AcDbPlotSettings
  1

  2
none_device
  4

  6

 40
0.0
 41
0.0
 42
0.0
 43
0.0
 44
0.0
 45
0.0
 46
0.0
 47
0.0
 48
0.0
 49
0.0
140
0.0
141
0.0
142
1.0
143
1.0
 70
   688
 72
     0
 73
     0
 74
     5
  7

 75
    16
147
1.0
148
0.0
149
0.0
100
AcDbLayout
  1
Layout1
 70
     1
 71
     1
 10
0.0
 20
0.0
 11
420.0
 21
297.0
 12
0.0
 22
0.0
 32
0.0
 14
1.0000000000E+20
 24
1.0000000000E+20
 34
1.0000000000E+20
 15
-1.0000000000E+20
 25
-1.0000000000E+20
 35
-1.0000000000E+20
146
0.0
 13
0.0
 23
0.0
 33
0.0
 16
1.0
 26
0.0
 36
0.0
 17
0.0
 27
1.0
 37
0.0
 76
     0
330
1B
  0
LAYOUT
  5
26
102
{ACAD_REACTORS
330
1A
102
}
330
1A
100
AcDbPlotSettings
  1

  2
none_device
  4

  6

 40
0.0
 41
0.0
 42
0.0
 43
0.0
 44
0.0
 45
0.0
 46
0.0
 47
0.0
 48
0.0
 49
0.0
140
0.0
141
0.0
142
1.0
143
1.0
 70
   688
 72
     0
 73
     0
 74
     5
  7

 75
    16
147
1.0
148
0.0
149
0.0
100
AcDbLayout
  1
Layout2
 70
     1
 71
     2
 10
0.0
 20
0.0
 11
0.0
 21
0.0
 12
0.0
 22
0.0
 32
0.0
 14
0.0
 24
0.0
 34
0.0
 15
0.0
 25
0.0
 35
0.0
146
0.0
 13
0.0
 23
0.0
 33
0.0
 16
1.0
 26
0.0
 36
0.0
 17
0.0
 27
1.0
 37
0.0
 76
     0
330
23
  0
LAYOUT
  5
22
102
{ACAD_REACTORS
330
1A
102
}
330
1A
100
AcDbPlotSettings
  1

  2
none_device
  4

  6

 40
0.0
 41
0.0
 42
0.0
 43
0.0
 44
0.0
 45
0.0
 46
0.0
 47
0.0
 48
0.0
 49
0.0
140
0.0
141
0.0
142
1.0
143
1.0
 70
  1712
 72
     0
 73
     0
 74
     0
  7

 75
     0
147
1.0
148
0.0
149
0.0
100
AcDbLayout
  1
Model
 70
     1
 71
     0
 10
0.0
 20
0.0
 11
210.0
 21
297.0
 12
0.0
 22
0.0
 32
0.0
 14
0.0
 24
0.0
 34
0.0
 15
210.0
 25
297.0
 35
0.0
146
0.0
 13
0.0
 23
0.0
 33
0.0
 16
1.0
 26
0.0
 36
0.0
 17
0.0
 27
1.0
 37
0.0
 76
     0
330
1F
331
29
  0
MLINESTYLE
  5
18
102
{ACAD_REACTORS
330
17
102
}
330
17
100
AcDbMlineStyle
  2
Standard
 70
     0
  3

 62
   256
 51
90.0
 52
90.0
 71
     2
 49
0.5
 62
   256
  6
BYLAYER
 49
-0.5
 62
   256
  6
BYLAYER
  0
ACDBPLACEHOLDER
  5
F
102
{ACAD_REACTORS
330
E
102
}
330
E
  0
ENDSEC
  0
EOF
