  0
SECTION
  2
HEADER
  9
$ACADVER
  1
AC1015
  9
$ACADMAINTVER
 70
     6
  9
$DWGCODEPAGE
  3
DOS932
  9
$INSBASE
 10
0.0
 20
0.0
 30
0.0
  9
$EXTMIN
 10
0.0
 20
0.0
 30
0.0
  9
$EXTMAX
 10
210.0
 20
297.0
 30
0.0
  9
$LIMMIN
 10
0.0
 20
0.0
  9
$LIMMAX
 10
210.0
 20
297.0
  9
$ORTHOMODE
 70
     0
  9
$REGENMODE
 70
     1
  9
$FILLMODE
 70
     1
  9
$QTEXTMODE
 70
     0
  9
$MIRRTEXT
 70
     1
  9
$LTSCALE
 40
1.0
  9
$ATTMODE
 70
     1
  9
$TEXTSIZE
 40
3.5
  9
$TRACEWID
 40
1.0
  9
$TEXTSTYLE
  7
Standard
  9
$CLAYER
  8
0
  9
$CELTYPE
  6
ByLayer
  9
$CECOLOR
 62
   256
  9
$CELTSCALE
 40
1.0
  9
$DISPSILH
 70
     0
  9
$DIMSCALE
 40
1.0
  9
$DIMASZ
 40
3.0
  9
$DIMEXO
 40
1.0
  9
$DIMDLI
 40
3.75
  9
$DIMRND
 40
0.0
  9
$DIMDLE
 40
0.0
  9
$DIMEXE
 40
1.0
  9
$DIMTP
 40
0.0
  9
$DIMTM
 40
0.0
  9
$DIMTXT
 40
3.5
  9
$DIMCEN
 40
2.5
  9
$DIMTSZ
 40
0.0
  9
$DIMTOL
 70
     0
  9
$DIMLIM
 70
     0
  9
$DIMTIH
 70
     1
  9
$DIMTOH
 70
     1
  9
$DIMSE1
 70
     0
  9
$DIMSE2
 70
     0
  9
$DIMTAD
 70
     1
  9
$DIMZIN
 70
     0
  9
$DIMBLK
  1

  9
$DIMASO
 70
     1
  9
$DIMSHO
 70
     1
  9
$DIMPOST
  1

  9
$DIMAPOST
  1

  9
$DIMALT
 70
     0
  9
$DIMALTD
 70
     3
  9
$DIMALTF
 40
0.0393700787
  9
$DIMLFAC
 40
1.0
  9
$DIMTOFL
 70
     1
  9
$DIMTVP
 40
0.0
  9
$DIMTIX
 70
     0
  9
$DIMSOXD
 70
     0
  9
$DIMSAH
 70
     0
  9
$DIMBLK1
  1

  9
$DIMBLK2
  1

  9
$DIMSTYLE
  2
ISO-25
  9
$DIMCLRD
 70
     0
  9
$DIMCLRE
 70
     0
  9
$DIMCLRT
 70
     0
  9
$DIMTFAC
 40
1.0
  9
$DIMGAP
 40
1.524
  9
$DIMJUST
 70
     0
  9
$DIMSD1
 70
     0
  9
$DIMSD2
 70
     0
  9
$DIMTOLJ
 70
     0
  9
$DIMTZIN
 70
     0
  9
$DIMALTZ
 70
     0
  9
$DIMALTTZ
 70
     0
  9
$DIMUPT
 70
     0
  9
$DIMDEC
 70
     1
  9
$DIMTDEC
 70
     3
  9
$DIMALTU
 70
     2
  9
$DIMALTTD
 70
     3
  9
$DIMTXSTY
  7
Standard
  9
$DIMAUNIT
 70
     0
  9
$DIMADEC
 70
     2
  9
$DIMALTRND
 40
0.0
  9
$DIMAZIN
 70
     0
  9
$DIMDSEP
 70
    44
  9
$DIMATFIT
 70
     3
  9
$DIMFRAC
 70
     0
  9
$DIMLDRBLK
  1

  9
$DIMLUNIT
 70
     2
  9
$DIMLWD
 70
    -2
  9
$DIMLWE
 70
    -2
  9
$DIMTMOVE
 70
     0
  9
$LUNITS
 70
     2
  9
$LUPREC
 70
     1
  9
$SKETCHINC
 40
1.0
  9
$FILLETRAD
 40
10.0
  9
$AUNITS
 70
     0
  9
$AUPREC
 70
     2
  9
$MENU
  1
.
  9
$ELEVATION
 40
0.0
  9
$PELEVATION
 40
0.0
  9
$THICKNESS
 40
0.0
  9
$LIMCHECK
 70
     0
  9
$CHAMFERA
 40
0.0
  9
$CHAMFERB
 40
0.0
  9
$CHAMFERC
 40
0.0
  9
$CHAMFERD
 40
0.0
  9
$SKPOLY
 70
     0
  9
$TDCREATE
 40
2458675.802819422
  9
$TDUCREATE
 40
2458675.427819422
  9
$TDUPDATE
 40
2458675.802821852
  9
$TDUUPDATE
 40
2458675.427821852
  9
$TDINDWG
 40
0.0000000116
  9
$TDUSRTIMER
 40
0.0000000116
  9
$USRTIMER
 70
     1
  9
$ANGBASE
 50
0.0
  9
$ANGDIR
 70
     0
  9
$PDMODE
 70
     0
  9
$PDSIZE
 40
-1.0
  9
$PLINEWID
 40
0.0
  9
$SPLFRAME
 70
     0
  9
$SPLINETYPE
 70
     6
  9
$SPLINESEGS
 70
     8
  9
$HANDSEED
  5
207
  9
$SURFTAB1
 70
     6
  9
$SURFTAB2
 70
     6
  9
$SURFTYPE
 70
     6
  9
$SURFU
 70
     6
  9
$SURFV
 70
     6
  9
$UCSBASE
  2

  9
$UCSNAME
  2

  9
$UCSORG
 10
0.0
 20
0.0
 30
0.0
  9
$UCSXDIR
 10
1.0
 20
0.0
 30
0.0
  9
$UCSYDIR
 10
0.0
 20
1.0
 30
0.0
  9
$UCSORTHOREF
  2

  9
$UCSORTHOVIEW
 70
     0
  9
$UCSORGTOP
 10
0.0
 20
0.0
 30
0.0
  9
$UCSORGBOTTOM
 10
0.0
 20
0.0
 30
0.0
  9
$UCSORGLEFT
 10
0.0
 20
0.0
 30
0.0
  9
$UCSORGRIGHT
 10
0.0
 20
0.0
 30
0.0
  9
$UCSORGFRONT
 10
0.0
 20
0.0
 30
0.0
  9
$UCSORGBACK
 10
0.0
 20
0.0
 30
0.0
  9
$PUCSBASE
  2

  9
$PUCSNAME
  2

  9
$PUCSORG
 10
0.0
 20
0.0
 30
0.0
  9
$PUCSXDIR
 10
1.0
 20
0.0
 30
0.0
  9
$PUCSYDIR
 10
0.0
 20
1.0
 30
0.0
  9
$PUCSORTHOREF
  2

  9
$PUCSORTHOVIEW
 70
     0
  9
$PUCSORGTOP
 10
0.0
 20
0.0
 30
0.0
  9
$PUCSORGBOTTOM
 10
0.0
 20
0.0
 30
0.0
  9
$PUCSORGLEFT
 10
0.0
 20
0.0
 30
0.0
  9
$PUCSORGRIGHT
 10
0.0
 20
0.0
 30
0.0
  9
$PUCSORGFRONT
 10
0.0
 20
0.0
 30
0.0
  9
$PUCSORGBACK
 10
0.0
 20
0.0
 30
0.0
  9
$USERI1
 70
     0
  9
$USERI2
 70
     0
  9
$USERI3
 70
     0
  9
$USERI4
 70
     0
  9
$USERI5
 70
     0
  9
$USERR1
 40
0.0
  9
$USERR2
 40
0.0
  9
$USERR3
 40
0.0
  9
$USERR4
 40
0.0
  9
$USERR5
 40
0.0
  9
$WORLDVIEW
 70
     1
  9
$SHADEDGE
 70
     3
  9
$SHADEDIF
 70
    70
  9
$TILEMODE
 70
     1
  9
$MAXACTVP
 70
    64
  9
$PINSBASE
 10
0.0
 20
0.0
 30
0.0
  9
$PLIMCHECK
 70
     0
  9
$PEXTMIN
 10
1.0000000000E+20
 20
1.0000000000E+20
 30
1.0000000000E+20
  9
$PEXTMAX
 10
-1.0000000000E+20
 20
-1.0000000000E+20
 30
-1.0000000000E+20
  9
$PLIMMIN
 10
0.0
 20
0.0
  9
$PLIMMAX
 10
420.0
 20
297.0
  9
$UNITMODE
 70
     0
  9
$VISRETAIN
 70
     1
  9
$PLINEGEN
 70
     0
  9
$PSLTSCALE
 70
     1
  9
$TREEDEPTH
 70
  3020
  9
$CMLSTYLE
  2
Standard
  9
$CMLJUST
 70
     0
  9
$CMLSCALE
 40
20.0
  9
$PROXYGRAPHICS
 70
     1
  9
$MEASUREMENT
 70
     1
  9
$CELWEIGHT
370
    -1
  9
$ENDCAPS
280
     0
  9
$JOINSTYLE
280
     0
  9
$LWDISPLAY
290
     1
  9
$INSUNITS
 70
     4
  9
$HYPERLINKBASE
  1

  9
$STYLESHEET
  1

  9
$XEDIT
290
     1
  9
$CEPSNTYPE
380
     0
  9
$PSTYLEMODE
290
     1
  9
$FINGERPRINTGUID
  2
{353BA07E-91EF-450C-9015-4EA83750D647}
  9
$VERSIONGUID
  2
{FAEB1C32-E019-11D5-929B-00C0DF256EC4}
  9
$EXTNAMES
290
     1
  9
$PSVPSCALE
 40
0.0
  9
$OLESTARTUP
290
     0
  0
ENDSEC
  0
SECTION
  2
CLASSES
  0
CLASS
  1
ACDBDICTIONARYWDFLT
  2
AcDbDictionaryWithDefault
  3
ObjectDBX Classes
 90
        0
280
     0
281
     0
  0
CLASS
  1
VISUALSTYLE
  2
AcDbVisualStyle
  3
ObjectDBX Classes
 90
     4095
280
     0
281
     0
  0
CLASS
  1
MATERIAL
  2
AcDbMaterial
  3
ObjectDBX Classes
 90
     1153
280
     0
281
     0
  0
CLASS
  1
SCALE
  2
AcDbScale
  3
ObjectDBX Classes
 90
     1153
280
     0
281
     0
  0
CLASS
  1
TABLESTYLE
  2
AcDbTableStyle
  3
ObjectDBX Classes
 90
     4095
280
     0
281
     0
  0
CLASS
  1
MLEADERSTYLE
  2
AcDbMLeaderStyle
  3
ACDB_MLEADERSTYLE_CLASS
 90
     4095
280
     0
281
     0
  0
CLASS
  1
SUN
  2
AcDbSun
  3
SCENEOE
 90
     1153
280
     0
281
     0
  0
CLASS
  1
ACDBPLACEHOLDER
  2
AcDbPlaceHolder
  3
ObjectDBX Classes
 90
        0
280
     0
281
     0
  0
CLASS
  1
LAYOUT
  2
AcDbLayout
  3
ObjectDBX Classes
 90
        0
280
     0
281
     0
  0
ENDSEC
  0
SECTION
  2
TABLES
  0
TABLE
  2
VPORT
  5
8
330
0
100
AcDbSymbolTable
 70
     1
  0
VPORT
  5
29
330
8
100
AcDbSymbolTableRecord
100
AcDbViewportTableRecord
  2
*Active
 70
     0
 10
0.0
 20
0.0
 11
1.0
 21
1.0
 12
105.0
 22
148.5
 13
0.0
 23
0.0
 14
10.0
 24
10.0
 15
10.0
 25
10.0
 16
0.0
 26
0.0
 36
1.0
 17
0.0
 27
0.0
 37
0.0
 40
297.0
 41
0.7070707071
 42
50.0
 43
0.0
 44
0.0
 50
0.0
 51
0.0
 71
     0
 72
  2000
 73
     1
 74
     3
 75
     0
 76
     0
 77
     0
 78
     0
281
     0
 65
     1
110
0.0
120
0.0
130
0.0
111
1.0
121
0.0
131
0.0
112
0.0
122
1.0
132
0.0
 79
     0
146
0.0
  0
ENDTAB
  0
TABLE
  2
LTYPE
  5
5
330
0
100
AcDbSymbolTable
 70
     6
  0
LTYPE
  5
14
330
5
100
AcDbSymbolTableRecord
100
AcDbLinetypeTableRecord
  2
ByBlock
 70
     0
  3

 72
    65
 73
     0
 40
0.0
  0
LTYPE
  5
15
330
5
100
AcDbSymbolTableRecord
100
AcDbLinetypeTableRecord
  2
ByLayer
 70
     0
  3

 72
    65
 73
     0
 40
0.0
  0
LTYPE
  5
16
330
5
100
AcDbSymbolTableRecord
100
AcDbLinetypeTableRecord
  2
Continuous
 70
     0
  3
Solid line
 72
    65
 73
     0
 40
0.0
  0
LTYPE
  5
6E
330
5
100
AcDbSymbolTableRecord
100
AcDbLinetypeTableRecord
  2
HIDDEN
 70
     0
  3
Hidden __ __ __ __ __ __ __ __ __ __ __ __ __ __
 72
    65
 73
     2
 40
1.905
 49
1.27
 74
     0
 49
-0.635
 74
     0
  0
LTYPE
  5
6F
330
5
100
AcDbSymbolTableRecord
100
AcDbLinetypeTableRecord
  2
PHANTOM
 70
     0
  3
Phantom ______  __  __  ______  __  __  ______
 72
    65
 73
     6
 40
12.7
 49
6.35
 74
     0
 49
-1.27
 74
     0
 49
1.27
 74
     0
 49
-1.27
 74
     0
 49
1.27
 74
     0
 49
-1.27
 74
     0
  0
LTYPE
  5
70
330
5
100
AcDbSymbolTableRecord
100
AcDbLinetypeTableRecord
  2
CENTER
 70
     0
  3
Center ____ _ ____ _ ____ _ ____ _ ____ _ ____
 72
    65
 73
     4
 40
10.16
 49
6.35
 74
     0
 49
-1.27
 74
     0
 49
1.27
 74
     0
 49
-1.27
 74
     0
  0
LTYPE
  5
71
330
5
100
AcDbSymbolTableRecord
100
AcDbLinetypeTableRecord
  2
CENTERX2
 70
     0
  3
Center (2x) ________  __  ________  __  _____
 72
    65
 73
     4
 40
20.32
 49
12.7
 74
     0
 49
-2.54
 74
     0
 49
2.54
 74
     0
 49
-2.54
 74
     0
  0
LTYPE
  5
72
330
5
100
AcDbSymbolTableRecord
100
AcDbLinetypeTableRecord
  2
DOT2
 70
     0
  3
Dot (.5x) ........................................
 72
    65
 73
     2
 40
0.635
 49
0.0
 74
     0
 49
-0.635
 74
     0
  0
ENDTAB
  0
TABLE
  2
LAYER
  5
2
330
0
100
AcDbSymbolTable
 70
     1
  0
LAYER
  5
10
330
2
100
AcDbSymbolTableRecord
100
AcDbLayerTableRecord
  2
0
 70
     0
 62
     7
  6
Continuous
370
    -3
390
F
  0
ENDTAB
  0
TABLE
  2
STYLE
  5
3
330
0
100
AcDbSymbolTable
 70
     2
  0
STYLE
  5
11
330
3
100
AcDbSymbolTableRecord
100
AcDbTextStyleTableRecord
  2
Standard
 70
     0
 40
0.0
 41
1.0
 50
0.0
 71
     0
 42
3.5
  3
txt
  4
bigfont
  0
STYLE
  5
7B
330
3
100
AcDbSymbolTableRecord
100
AcDbTextStyleTableRecord
  2
SLDTEXTSTYLE0
 70
     0
 40
0.0
 41
0.7
 50
0.0
 71
     0
 42
3.5
  3
TXT
  4
bigfont
  0
ENDTAB
  0
TABLE
  2
VIEW
  5
6
330
0
100
AcDbSymbolTable
 70
     0
  0
ENDTAB
  0
TABLE
  2
UCS
  5
7
330
0
100
AcDbSymbolTable
 70
     0
  0
ENDTAB
  0
TABLE
  2
APPID
  5
9
330
0
100
AcDbSymbolTable
 70
     1
  0
APPID
  5
12
330
9
100
AcDbSymbolTableRecord
100
AcDbRegAppTableRecord
  2
ACAD
 70
     0
  0
ENDTAB
  0
TABLE
  2
DIMSTYLE
  5
A
330
0
100
AcDbSymbolTable
 70
     5
100
AcDbDimStyleTable
  0
DIMSTYLE
105
27
330
A
100
AcDbSymbolTableRecord
100
AcDbDimStyleTableRecord
  2
ISO-25
 70
     0
 41
2.5
 42
0.625
 43
3.75
 44
1.25
 73
     0
 74
     0
 77
     1
 78
     8
140
2.5
141
2.5
143
0.0393700787
147
0.625
171
     3
172
     1
178
     0
271
     2
272
     2
274
     3
278
    44
283
     0
284
     8
340
11
  0
DIMSTYLE
105
A2
102
{ACAD_REACTORS
330
A1
102
}
330
A
100
AcDbSymbolTableRecord
100
AcDbDimStyleTableRecord
  2
SLDDIMSTYLE0
 70
     0
 41
3.0
 44
0.0
 45
0.000000001
 78
    12
 79
     3
140
3.5
141
0.0
147
0.875
173
     1
178
     0
271
     1
272
     3
276
     2
284
    12
340
7B
  0
DIMSTYLE
105
B2
330
A
100
AcDbSymbolTableRecord
100
AcDbDimStyleTableRecord
  2
SLDDIMSTYLE1
 70
     0
 41
3.0
 44
0.0
 45
0.000000001
146
3.0
147
0.0
173
     1
178
     0
271
     0
272
     0
276
     2
340
11
  0
DIMSTYLE
105
1A8
102
{ACAD_REACTORS
330
1A7
330
1CA
330
1D7
330
1EE
102
}
330
A
100
AcDbSymbolTableRecord
100
AcDbDimStyleTableRecord
  2
SLDDIMSTYLE2
 70
     0
 41
3.0
 44
0.0
 45
0.000000001
 73
     0
 74
     0
 77
     3
 78
    12
 79
     3
140
3.5
147
0.875
172
     1
173
     1
178
     0
271
     1
272
     3
276
     2
284
    12
289
     0
340
7B
  0
DIMSTYLE
105
1B5
102
{ACAD_REACTORS
330
1B4
330
1C0
330
1E4
330
1FB
102
}
330
A
100
AcDbSymbolTableRecord
100
AcDbDimStyleTableRecord
  2
SLDDIMSTYLE3
 70
     0
 41
3.0
 44
0.0
 45
0.000000001
 73
     0
 74
     0
 77
     3
 78
    12
 79
     3
140
3.5
147
0.875
173
     1
178
     0
271
     1
272
     3
276
     2
284
    12
340
7B
  0
ENDTAB
  0
TABLE
  2
BLOCK_RECORD
  5
1
330
0
100
AcDbSymbolTable
 70
    13
  0
BLOCK_RECORD
  5
1F
330
1
100
AcDbSymbolTableRecord
100
AcDbBlockTableRecord
  2
*Model_Space
340
22
  0
BLOCK_RECORD
  5
1B
330
1
100
AcDbSymbolTableRecord
100
AcDbBlockTableRecord
  2
*Paper_Space
340
1E
  0
BLOCK_RECORD
  5
23
330
1
100
AcDbSymbolTableRecord
100
AcDbBlockTableRecord
  2
*Paper_Space0
340
26
  0
BLOCK_RECORD
  5
A3
330
1
100
AcDbSymbolTableRecord
100
AcDbBlockTableRecord
  2
_D
340
0
  0
BLOCK_RECORD
  5
AC
330
1
100
AcDbSymbolTableRecord
100
AcDbBlockTableRecord
  2
SW_NOTE_0
340
0
102
{BLKREFS
331
B1
102
}
  0
BLOCK_RECORD
  5
B4
330
1
100
AcDbSymbolTableRecord
100
AcDbBlockTableRecord
  2
SW_NOTE_1
340
0
102
{BLKREFS
331
B9
102
}
  0
BLOCK_RECORD
  5
BB
330
1
100
AcDbSymbolTableRecord
100
AcDbBlockTableRecord
  2
SW_CENTERMARKSYMBOL_0
340
0
102
{BLKREFS
331
C6
102
}
  0
BLOCK_RECORD
  5
1A9
330
1
100
AcDbSymbolTableRecord
100
AcDbBlockTableRecord
  2
_D_1
340
0
  0
BLOCK_RECORD
  5
1B6
330
1
100
AcDbSymbolTableRecord
100
AcDbBlockTableRecord
  2
_D_2
340
0
  0
BLOCK_RECORD
  5
1C1
330
1
100
AcDbSymbolTableRecord
100
AcDbBlockTableRecord
  2
_D_3
340
0
  0
BLOCK_RECORD
  5
1CB
330
1
100
AcDbSymbolTableRecord
100
AcDbBlockTableRecord
  2
_D_4
340
0
  0
BLOCK_RECORD
  5
1D8
330
1
100
AcDbSymbolTableRecord
100
AcDbBlockTableRecord
  2
_D_5
340
0
  0
BLOCK_RECORD
  5
1E5
330
1
100
AcDbSymbolTableRecord
100
AcDbBlockTableRecord
  2
_D_6
340
0
  0
BLOCK_RECORD
  5
1EF
330
1
100
AcDbSymbolTableRecord
100
AcDbBlockTableRecord
  2
_D_7
340
0
  0
BLOCK_RECORD
  5
1FC
330
1
100
AcDbSymbolTableRecord
100
AcDbBlockTableRecord
  2
_D_8
340
0
  0
ENDTAB
  0
ENDSEC
  0
SECTION
  2
BLOCKS
  0
BLOCK
  5
20
330
1F
100
AcDbEntity
  8
0
100
AcDbBlockBegin
  2
*Model_Space
 70
     0
 10
0.0
 20
0.0
 30
0.0
  3
*Model_Space
  1

  0
ENDBLK
  5
21
330
1F
100
AcDbEntity
  8
0
100
AcDbBlockEnd
  0
BLOCK
  5
1C
330
1B
100
AcDbEntity
 67
     1
  8
0
100
AcDbBlockBegin
  2
*Paper_Space
 70
     0
 10
0.0
 20
0.0
 30
0.0
  3
*Paper_Space
  1

  0
ENDBLK
  5
1D
330
1B
100
AcDbEntity
 67
     1
  8
0
100
AcDbBlockEnd
  0
BLOCK
  5
24
330
23
100
AcDbEntity
  8
0
100
AcDbBlockBegin
  2
*Paper_Space0
 70
     0
 10
0.0
 20
0.0
 30
0.0
  3
*Paper_Space0
  1

  0
ENDBLK
  5
25
330
23
100
AcDbEntity
  8
0
100
AcDbBlockEnd
  0
BLOCK
  5
A4
330
A3
100
AcDbEntity
  8
0
100
AcDbBlockBegin
  2
_D
 70
     0
 10
0.0
 20
0.0
 30
0.0
  3
_D
  1

  0
ARC
  5
A6
330
A3
100
AcDbEntity
  8
0
  6
Continuous
 62
     7
370
    18
100
AcDbCircle
 10
70.16953561
 20
163.4637658613
 30
0.0
 40
8.000000000096188
100
AcDbArc
 50
102.2329623348
 51
127.4769961553
  0
SOLID
  5
A7
330
A3
100
AcDbEntity
  8
0
  6
Continuous
 62
     7
370
    18
100
AcDbTrace
 10
66.1270499721
 20
170.3672656889
 30
0.0
 11
65.2583209667
 21
173.3350611527
 31
0.0
 12
63.9639147491
 22
172.5770950956
 32
0.0
 13
63.9639147491
 23
172.5770950956
 33
0.0
  0
LINE
  5
A8
330
A3
100
AcDbEntity
  8
0
  6
Continuous
 62
     7
370
    18
100
AcDbLine
 10
66.1270499721
 20
170.3672656889
 30
0.0
 11
58.3738317361
 21
183.6077186057
 31
0.0
  0
LINE
  5
A9
330
A3
100
AcDbEntity
  8
0
  6
Continuous
 62
     7
370
    18
100
AcDbLine
 10
58.3738317361
 20
183.6077186057
 30
0.0
 11
48.8427899932
 21
183.6077186057
 31
0.0
  0
MTEXT
  5
AA
330
A3
100
AcDbEntity
  8
0
  6
Continuous
 62
     7
370
    18
100
AcDbMText
 10
48.8427899932
 20
188.1194559277
 30
0.0
 40
3.5
 41
0.0
 71
     1
 72
     1
  1
%%c
  7
SLDTEXTSTYLE0
 73
     1
 44
1.0
  0
MTEXT
  5
AB
330
A3
100
AcDbEntity
  8
0
  6
Continuous
 62
     7
370
    18
100
AcDbMText
 10
52.7127205083
 20
188.1194559277
 30
0.0
 40
3.5
 41
0.0
 71
     1
 72
     1
  1
16
  7
SLDTEXTSTYLE0
 73
     1
 44
1.0
  0
ENDBLK
  5
A5
330
A3
100
AcDbEntity
  8
0
100
AcDbBlockEnd
  0
BLOCK
  5
AD
330
AC
100
AcDbEntity
  8
0
100
AcDbBlockBegin
  2
SW_NOTE_0
 70
     0
 10
0.0
 20
0.0
 30
0.0
  3
SW_NOTE_0
  1

  0
LINE
  5
AF
330
AC
100
AcDbEntity
  8
0
  6
Continuous
 62
     0
370
     0
100
AcDbLine
 10
3.9558253648
 20
0.0
 30
0.0
 11
0.0
 21
0.0
 31
0.0
  0
MTEXT
  5
B0
330
AC
100
AcDbEntity
  8
0
  6
Continuous
 62
     0
370
     0
100
AcDbMText
 10
0.4475155291
 20
4.6235364621
 30
0.0
 40
3.5
 41
0.0
 71
     1
 72
     1
  1
M5
  7
SLDTEXTSTYLE0
 73
     1
 44
1.0
  0
ENDBLK
  5
AE
330
AC
100
AcDbEntity
  8
0
100
AcDbBlockEnd
  0
BLOCK
  5
B5
330
B4
100
AcDbEntity
  8
0
100
AcDbBlockBegin
  2
SW_NOTE_1
 70
     0
 10
0.0
 20
0.0
 30
0.0
  3
SW_NOTE_1
  1

  0
LINE
  5
B7
330
B4
100
AcDbEntity
  8
0
  6
Continuous
 62
     0
370
     0
100
AcDbLine
 10
-34.7434797858
 20
0.0
 30
0.0
 11
0.0
 21
0.0
 31
0.0
  0
MTEXT
  5
B8
330
B4
100
AcDbEntity
  8
0
  6
Continuous
 62
     0
370
     0
100
AcDbMText
 10
-35.2310853508
 20
4.6123515107
 30
0.0
 40
3.5
 41
0.0
 71
     1
 72
     1
  1
外径φ6配管用継手
  7
SLDTEXTSTYLE0
 73
     1
 44
1.0
  0
ENDBLK
  5
B6
330
B4
100
AcDbEntity
  8
0
100
AcDbBlockEnd
  0
BLOCK
  5
BC
330
BB
100
AcDbEntity
  8
0
100
AcDbBlockBegin
  2
SW_CENTERMARKSYMBOL_0
 70
     0
 10
0.0
 20
0.0
 30
0.0
  3
SW_CENTERMARKSYMBOL_0
  1

  0
LINE
  5
BE
330
BB
100
AcDbEntity
  8
0
  6
Continuous
 62
     0
370
    18
100
AcDbLine
 10
0.0
 20
0.0
 30
0.0
 11
0.0
 21
2.5
 31
0.0
  0
LINE
  5
BF
330
BB
100
AcDbEntity
  8
0
  6
Continuous
 62
     0
370
    18
100
AcDbLine
 10
0.0
 20
0.0
 30
0.0
 11
-2.5
 21
0.0
 31
0.0
  0
LINE
  5
C0
330
BB
100
AcDbEntity
  8
0
  6
Continuous
 62
     0
370
    18
100
AcDbLine
 10
0.0
 20
0.0
 30
0.0
 11
0.0
 21
-2.5
 31
0.0
  0
LINE
  5
C1
330
BB
100
AcDbEntity
  8
0
  6
Continuous
 62
     0
370
    18
100
AcDbLine
 10
0.0
 20
0.0
 30
0.0
 11
2.5
 21
0.0
 31
0.0
  0
LINE
  5
C2
330
BB
100
AcDbEntity
  8
0
  6
Continuous
 62
     0
370
    18
100
AcDbLine
 10
0.0
 20
5.0
 30
0.0
 11
0.0
 21
10.5000000001
 31
0.0
  0
LINE
  5
C3
330
BB
100
AcDbEntity
  8
0
  6
Continuous
 62
     0
370
    18
100
AcDbLine
 10
-5.0
 20
0.0
 30
0.0
 11
-10.5000000001
 21
0.0
 31
0.0
  0
LINE
  5
C4
330
BB
100
AcDbEntity
  8
0
  6
Continuous
 62
     0
370
    18
100
AcDbLine
 10
0.0
 20
-5.0
 30
0.0
 11
0.0
 21
-17.3151490864
 31
0.0
  0
LINE
  5
C5
330
BB
100
AcDbEntity
  8
0
  6
Continuous
 62
     0
370
    18
100
AcDbLine
 10
5.0
 20
0.0
 30
0.0
 11
10.5000000001
 21
0.0
 31
0.0
  0
ENDBLK
  5
BD
330
BB
100
AcDbEntity
  8
0
100
AcDbBlockEnd
  0
BLOCK
  5
1AA
330
1A9
100
AcDbEntity
  8
0
100
AcDbBlockBegin
  2
_D_1
 70
     0
 10
0.0
 20
0.0
 30
0.0
  3
_D_1
  1

  0
SOLID
  5
1AC
330
1A9
100
AcDbEntity
  8
0
  6
Continuous
 62
     7
370
    18
100
AcDbTrace
 10
105.4531436203
 20
138.4795890945
 30
0.0
 11
102.4531436203
 21
139.2295890946
 31
0.0
 12
102.4531436203
 22
137.7295890946
 32
0.0
 13
102.4531436203
 23
137.7295890946
 33
0.0
  0
SOLID
  5
1AD
330
1A9
100
AcDbEntity
  8
0
  6
Continuous
 62
     7
370
    18
100
AcDbTrace
 10
114.4531436203
 20
138.4795890941
 30
0.0
 11
117.4531436203
 21
137.729589094
 31
0.0
 12
117.4531436203
 22
139.229589094
 32
0.0
 13
117.4531436203
 23
139.229589094
 33
0.0
  0
LINE
  5
1AE
330
1A9
100
AcDbEntity
  8
0
  6
Continuous
 62
     7
370
    18
100
AcDbLine
 10
105.4531436212
 20
162.4637658613
 30
0.0
 11
105.4531436203
 21
137.4795890945
 31
0.0
  0
LINE
  5
1AF
330
1A9
100
AcDbEntity
  8
0
  6
Continuous
 62
     7
370
    18
100
AcDbLine
 10
114.4531436212
 20
162.4637658613
 30
0.0
 11
114.4531436203
 21
137.4795890941
 31
0.0
  0
LINE
  5
1B0
330
1A9
100
AcDbEntity
  8
0
  6
Continuous
 62
     7
370
    18
100
AcDbLine
 10
105.4531436203
 20
138.4795890945
 30
0.0
 11
100.4531436203
 21
138.4795890946
 31
0.0
  0
LINE
  5
1B1
330
1A9
100
AcDbEntity
  8
0
  6
Continuous
 62
     7
370
    18
100
AcDbLine
 10
105.4531436203
 20
138.4795890945
 30
0.0
 11
114.4531436203
 21
138.4795890941
 31
0.0
  0
LINE
  5
1B2
330
1A9
100
AcDbEntity
  8
0
  6
Continuous
 62
     7
370
    18
100
AcDbLine
 10
114.4531436203
 20
138.4795890941
 30
0.0
 11
119.4531436203
 21
138.4795890939
 31
0.0
  0
MTEXT
  5
1B3
330
1A9
100
AcDbEntity
  8
0
  6
Continuous
 62
     7
370
    18
100
AcDbMText
 10
108.9347408717
 20
142.9913259507
 30
0.0
 40
3.5
 41
0.0
 71
     1
 72
     1
  1
9
  7
SLDTEXTSTYLE0
 73
     1
 44
1.0
  0
ENDBLK
  5
1AB
330
1A9
100
AcDbEntity
  8
0
100
AcDbBlockEnd
  0
BLOCK
  5
1B7
330
1B6
100
AcDbEntity
  8
0
100
AcDbBlockBegin
  2
_D_2
 70
     0
 10
0.0
 20
0.0
 30
0.0
  3
_D_2
  1

  0
SOLID
  5
1B9
330
1B6
100
AcDbEntity
  8
0
  6
Continuous
 62
     7
370
    18
100
AcDbTrace
 10
127.4531436219
 20
178.2909229832
 30
0.0
 11
130.4531436219
 21
177.5409229832
 31
0.0
 12
130.4531436219
 22
179.0409229832
 32
0.0
 13
130.4531436219
 23
179.0409229832
 33
0.0
  0
SOLID
  5
1BA
330
1B6
100
AcDbEntity
  8
0
  6
Continuous
 62
     7
370
    18
100
AcDbTrace
 10
147.4531436215
 20
178.2909229832
 30
0.0
 11
144.4531436215
 21
179.0409229832
 31
0.0
 12
144.4531436215
 22
177.5409229832
 32
0.0
 13
144.4531436215
 23
177.5409229832
 33
0.0
  0
LINE
  5
1BB
330
1B6
100
AcDbEntity
  8
0
  6
Continuous
 62
     7
370
    18
100
AcDbLine
 10
127.4531436219
 20
168.6637658614
 30
0.0
 11
127.4531436219
 21
179.2909229832
 31
0.0
  0
LINE
  5
1BC
330
1B6
100
AcDbEntity
  8
0
  6
Continuous
 62
     7
370
    18
100
AcDbLine
 10
147.4531436215
 20
168.5638128208
 30
0.0
 11
147.4531436215
 21
179.2909229832
 31
0.0
  0
LINE
  5
1BD
330
1B6
100
AcDbEntity
  8
0
  6
Continuous
 62
     7
370
    18
100
AcDbLine
 10
127.4531436219
 20
178.2909229832
 30
0.0
 11
147.4531436215
 21
178.2909229832
 31
0.0
  0
MTEXT
  5
1BE
330
1B6
100
AcDbEntity
  8
0
  6
Continuous
 62
     7
370
    18
100
AcDbMText
 10
133.3795326267
 20
182.8026598395
 30
0.0
 40
3.5
 41
0.0
 71
     1
 72
     1
  1
20
  7
SLDTEXTSTYLE0
 73
     1
 44
1.0
  0
MTEXT
  5
1BF
330
1B6
100
AcDbEntity
  8
0
  6
Continuous
 62
     7
370
    18
100
AcDbMText
 10
137.4531436217
 20
182.8026598395
 30
0.0
 40
3.5
 41
0.0
 71
     1
 72
     1
  1
st
  7
SLDTEXTSTYLE0
 73
     1
 44
1.0
  0
ENDBLK
  5
1B8
330
1B6
100
AcDbEntity
  8
0
100
AcDbBlockEnd
  0
BLOCK
  5
1C2
330
1C1
100
AcDbEntity
  8
0
100
AcDbBlockBegin
  2
_D_3
 70
     0
 10
0.0
 20
0.0
 30
0.0
  3
_D_3
  1

  0
SOLID
  5
1C4
330
1C1
100
AcDbEntity
  8
0
  6
Continuous
 62
     7
370
    18
100
AcDbTrace
 10
175.4531436226
 20
188.6743935836
 30
0.0
 11
172.4531436227
 21
189.4243935837
 31
0.0
 12
172.4531436226
 22
187.9243935837
 32
0.0
 13
172.4531436226
 23
187.9243935837
 33
0.0
  0
SOLID
  5
1C5
330
1C1
100
AcDbEntity
  8
0
  6
Continuous
 62
     7
370
    18
100
AcDbTrace
 10
105.4531436225
 20
188.674393587
 30
0.0
 11
108.4531436225
 21
187.9243935869
 31
0.0
 12
108.4531436225
 22
189.4243935869
 32
0.0
 13
108.4531436225
 23
189.4243935869
 33
0.0
  0
LINE
  5
1C6
330
1C1
100
AcDbEntity
  8
0
  6
Continuous
 62
     7
370
    18
100
AcDbLine
 10
175.4531436216
 20
166.9637658613
 30
0.0
 11
175.4531436227
 21
189.6743935836
 31
0.0
  0
LINE
  5
1C7
330
1C1
100
AcDbEntity
  8
0
  6
Continuous
 62
     7
370
    18
100
AcDbLine
 10
105.4531436216
 20
169.6637658587
 30
0.0
 11
105.4531436226
 21
189.674393587
 31
0.0
  0
LINE
  5
1C8
330
1C1
100
AcDbEntity
  8
0
  6
Continuous
 62
     7
370
    18
100
AcDbLine
 10
175.4531436226
 20
188.6743935836
 30
0.0
 11
105.4531436225
 21
188.674393587
 31
0.0
  0
MTEXT
  5
1C9
330
1C1
100
AcDbEntity
  8
0
  6
Continuous
 62
     7
370
    18
100
AcDbMText
 10
138.4163381253
 20
193.1861304418
 30
0.0
 40
3.5
 41
0.0
 71
     1
 72
     1
  1
70
  7
SLDTEXTSTYLE0
 73
     1
 44
1.0
  0
ENDBLK
  5
1C3
330
1C1
100
AcDbEntity
  8
0
100
AcDbBlockEnd
  0
BLOCK
  5
1CC
330
1CB
100
AcDbEntity
  8
0
100
AcDbBlockBegin
  2
_D_4
 70
     0
 10
0.0
 20
0.0
 30
0.0
  3
_D_4
  1

  0
SOLID
  5
1CE
330
1CB
100
AcDbEntity
  8
0
  6
Continuous
 62
     7
370
    18
100
AcDbTrace
 10
95.4481426212
 20
168.9637658613
 30
0.0
 11
96.1981426212
 21
171.9637658613
 31
0.0
 12
94.6981426212
 22
171.9637658613
 32
0.0
 13
94.6981426212
 23
171.9637658613
 33
0.0
  0
SOLID
  5
1CF
330
1CB
100
AcDbEntity
  8
0
  6
Continuous
 62
     7
370
    18
100
AcDbTrace
 10
95.4481426212
 20
157.9637658613
 30
0.0
 11
94.6981426212
 21
154.9637658613
 31
0.0
 12
96.1981426212
 22
154.9637658613
 32
0.0
 13
96.1981426212
 23
154.9637658613
 33
0.0
  0
LINE
  5
1D0
330
1CB
100
AcDbEntity
  8
0
  6
Continuous
 62
     7
370
    18
100
AcDbLine
 10
104.7531436215
 20
168.9637658613
 30
0.0
 11
94.4481426212
 21
168.9637658613
 31
0.0
  0
LINE
  5
1D1
330
1CB
100
AcDbEntity
  8
0
  6
Continuous
 62
     7
370
    18
100
AcDbLine
 10
104.7531436215
 20
157.9637658613
 30
0.0
 11
94.4481426212
 21
157.9637658613
 31
0.0
  0
LINE
  5
1D2
330
1CB
100
AcDbEntity
  8
0
  6
Continuous
 62
     7
370
    18
100
AcDbLine
 10
95.4481426212
 20
168.9637658613
 30
0.0
 11
95.4481426212
 21
173.9637658613
 31
0.0
  0
LINE
  5
1D3
330
1CB
100
AcDbEntity
  8
0
  6
Continuous
 62
     7
370
    18
100
AcDbLine
 10
95.4481426212
 20
168.9637658613
 30
0.0
 11
95.4481426212
 21
157.9637658613
 31
0.0
  0
LINE
  5
1D4
330
1CB
100
AcDbEntity
  8
0
  6
Continuous
 62
     7
370
    18
100
AcDbLine
 10
95.4481426212
 20
157.9637658613
 30
0.0
 11
95.4481426212
 21
152.9637658613
 31
0.0
  0
MTEXT
  5
1D5
330
1CB
100
AcDbEntity
  8
0
  6
Continuous
 62
     7
370
    18
100
AcDbMText
 10
90.9364052991
 20
159.4919949899
 30
0.0
 40
3.5
 41
0.0
 71
     1
 72
     1
  1
%%c
  7
SLDTEXTSTYLE0
 11
-6.156016597943509E-15
 21
1.0
 31
0.0
 73
     1
 44
1.0
  0
MTEXT
  5
1D6
330
1CB
100
AcDbEntity
  8
0
  6
Continuous
 62
     7
370
    18
100
AcDbMText
 10
90.9364052991
 20
163.361925505
 30
0.0
 40
3.5
 41
0.0
 71
     1
 72
     1
  1
11
  7
SLDTEXTSTYLE0
 11
-6.156016597943509E-15
 21
1.0
 31
0.0
 73
     1
 44
1.0
  0
ENDBLK
  5
1CD
330
1CB
100
AcDbEntity
  8
0
100
AcDbBlockEnd
  0
BLOCK
  5
1D9
330
1D8
100
AcDbEntity
  8
0
100
AcDbBlockBegin
  2
_D_5
 70
     0
 10
0.0
 20
0.0
 30
0.0
  3
_D_5
  1

  0
SOLID
  5
1DB
330
1D8
100
AcDbEntity
  8
0
  6
Continuous
 62
     7
370
    18
100
AcDbTrace
 10
87.134847879
 20
170.4637658613
 30
0.0
 11
87.884847879
 21
173.4637658613
 31
0.0
 12
86.384847879
 22
173.4637658613
 32
0.0
 13
86.384847879
 23
173.4637658613
 33
0.0
  0
SOLID
  5
1DC
330
1D8
100
AcDbEntity
  8
0
  6
Continuous
 62
     7
370
    18
100
AcDbTrace
 10
87.134847879
 20
156.4637658613
 30
0.0
 11
86.384847879
 21
153.4637658613
 31
0.0
 12
87.884847879
 22
153.4637658613
 32
0.0
 13
87.884847879
 23
153.4637658613
 33
0.0
  0
LINE
  5
1DD
330
1D8
100
AcDbEntity
  8
0
  6
Continuous
 62
     7
370
    18
100
AcDbLine
 10
113.7531436215
 20
170.4637658613
 30
0.0
 11
86.134847879
 21
170.4637658613
 31
0.0
  0
LINE
  5
1DE
330
1D8
100
AcDbEntity
  8
0
  6
Continuous
 62
     7
370
    18
100
AcDbLine
 10
113.7531436215
 20
156.4637658613
 30
0.0
 11
86.134847879
 21
156.4637658613
 31
0.0
  0
LINE
  5
1DF
330
1D8
100
AcDbEntity
  8
0
  6
Continuous
 62
     7
370
    18
100
AcDbLine
 10
87.134847879
 20
170.4637658613
 30
0.0
 11
87.134847879
 21
175.4637658613
 31
0.0
  0
LINE
  5
1E0
330
1D8
100
AcDbEntity
  8
0
  6
Continuous
 62
     7
370
    18
100
AcDbLine
 10
87.134847879
 20
170.4637658613
 30
0.0
 11
87.134847879
 21
156.4637658613
 31
0.0
  0
LINE
  5
1E1
330
1D8
100
AcDbEntity
  8
0
  6
Continuous
 62
     7
370
    18
100
AcDbLine
 10
87.134847879
 20
156.4637658613
 30
0.0
 11
87.134847879
 21
151.4637658613
 31
0.0
  0
MTEXT
  5
1E2
330
1D8
100
AcDbEntity
  8
0
  6
Continuous
 62
     7
370
    18
100
AcDbMText
 10
82.623110557
 20
159.4919949899
 30
0.0
 40
3.5
 41
0.0
 71
     1
 72
     1
  1
%%c
  7
SLDTEXTSTYLE0
 11
-7.044195017643634E-15
 21
1.0
 31
0.0
 73
     1
 44
1.0
  0
MTEXT
  5
1E3
330
1D8
100
AcDbEntity
  8
0
  6
Continuous
 62
     7
370
    18
100
AcDbMText
 10
82.623110557
 20
163.361925505
 30
0.0
 40
3.5
 41
0.0
 71
     1
 72
     1
  1
14
  7
SLDTEXTSTYLE0
 11
-7.044195017643634E-15
 21
1.0
 31
0.0
 73
     1
 44
1.0
  0
ENDBLK
  5
1DA
330
1D8
100
AcDbEntity
  8
0
100
AcDbBlockEnd
  0
BLOCK
  5
1E6
330
1E5
100
AcDbEntity
  8
0
100
AcDbBlockBegin
  2
_D_6
 70
     0
 10
0.0
 20
0.0
 30
0.0
  3
_D_6
  1

  0
SOLID
  5
1E8
330
1E5
100
AcDbEntity
  8
0
  6
Continuous
 62
     7
370
    18
100
AcDbTrace
 10
152.4531436215
 20
138.4795890943
 30
0.0
 11
155.4531436215
 21
137.7295890943
 31
0.0
 12
155.4531436215
 22
139.2295890943
 32
0.0
 13
155.4531436215
 23
139.2295890943
 33
0.0
  0
SOLID
  5
1E9
330
1E5
100
AcDbEntity
  8
0
  6
Continuous
 62
     7
370
    18
100
AcDbTrace
 10
173.4531436215
 20
138.4795890943
 30
0.0
 11
170.4531436215
 21
139.2295890943
 31
0.0
 12
170.4531436215
 22
137.7295890943
 32
0.0
 13
170.4531436215
 23
137.7295890943
 33
0.0
  0
LINE
  5
1EA
330
1E5
100
AcDbEntity
  8
0
  6
Continuous
 62
     7
370
    18
100
AcDbLine
 10
152.4531436215
 20
154.8939475327
 30
0.0
 11
152.4531436215
 21
137.4795890943
 31
0.0
  0
LINE
  5
1EB
330
1E5
100
AcDbEntity
  8
0
  6
Continuous
 62
     7
370
    18
100
AcDbLine
 10
173.4531436215
 20
157.4836222242
 30
0.0
 11
173.4531436215
 21
137.4795890943
 31
0.0
  0
LINE
  5
1EC
330
1E5
100
AcDbEntity
  8
0
  6
Continuous
 62
     7
370
    18
100
AcDbLine
 10
152.4531436215
 20
138.4795890943
 30
0.0
 11
173.4531436215
 21
138.4795890943
 31
0.0
  0
MTEXT
  5
1ED
330
1E5
100
AcDbEntity
  8
0
  6
Continuous
 62
     7
370
    18
100
AcDbMText
 10
160.916338124
 20
142.9913259507
 30
0.0
 40
3.5
 41
0.0
 71
     1
 72
     1
  1
21
  7
SLDTEXTSTYLE0
 73
     1
 44
1.0
  0
ENDBLK
  5
1E7
330
1E5
100
AcDbEntity
  8
0
100
AcDbBlockEnd
  0
BLOCK
  5
1F0
330
1EF
100
AcDbEntity
  8
0
100
AcDbBlockBegin
  2
_D_7
 70
     0
 10
0.0
 20
0.0
 30
0.0
  3
_D_7
  1

  0
SOLID
  5
1F2
330
1EF
100
AcDbEntity
  8
0
  6
Continuous
 62
     7
370
    18
100
AcDbTrace
 10
182.8523273484
 20
166.3637658612
 30
0.0
 11
183.6023273484
 21
169.3637658612
 31
0.0
 12
182.1023273484
 22
169.3637658612
 32
0.0
 13
182.1023273484
 23
169.3637658612
 33
0.0
  0
SOLID
  5
1F3
330
1EF
100
AcDbEntity
  8
0
  6
Continuous
 62
     7
370
    18
100
AcDbTrace
 10
182.8523273484
 20
160.5637658616
 30
0.0
 11
182.1023273484
 21
157.5637658616
 31
0.0
 12
183.6023273484
 22
157.5637658616
 32
0.0
 13
183.6023273484
 23
157.5637658616
 33
0.0
  0
LINE
  5
1F4
330
1EF
100
AcDbEntity
  8
0
  6
Continuous
 62
     7
370
    18
100
AcDbLine
 10
175.9531436215
 20
166.3637658612
 30
0.0
 11
183.8523273484
 21
166.3637658612
 31
0.0
  0
LINE
  5
1F5
330
1EF
100
AcDbEntity
  8
0
  6
Continuous
 62
     7
370
    18
100
AcDbLine
 10
175.9531436215
 20
160.5637658616
 30
0.0
 11
183.8523273484
 21
160.5637658616
 31
0.0
  0
LINE
  5
1F6
330
1EF
100
AcDbEntity
  8
0
  6
Continuous
 62
     7
370
    18
100
AcDbLine
 10
182.8523273484
 20
166.3637658612
 30
0.0
 11
182.8523273484
 21
180.375082964
 31
0.0
  0
LINE
  5
1F7
330
1EF
100
AcDbEntity
  8
0
  6
Continuous
 62
     7
370
    18
100
AcDbLine
 10
182.8523273484
 20
166.3637658612
 30
0.0
 11
182.8523273484
 21
160.5637658616
 31
0.0
  0
LINE
  5
1F8
330
1EF
100
AcDbEntity
  8
0
  6
Continuous
 62
     7
370
    18
100
AcDbLine
 10
182.8523273484
 20
160.5637658616
 30
0.0
 11
182.8523273484
 21
155.5637658616
 31
0.0
  0
MTEXT
  5
1F9
330
1EF
100
AcDbEntity
  8
0
  6
Continuous
 62
     7
370
    18
100
AcDbMText
 10
178.3405900264
 20
170.3947359565
 30
0.0
 40
3.5
 41
0.0
 71
     1
 72
     1
  1
%%c
  7
SLDTEXTSTYLE0
 11
-7.044195017643634E-15
 21
1.0
 31
0.0
 73
     1
 44
1.0
  0
MTEXT
  5
1FA
330
1EF
100
AcDbEntity
  8
0
  6
Continuous
 62
     7
370
    18
100
AcDbMText
 10
178.3405900264
 20
174.2646664716
 30
0.0
 40
3.5
 41
0.0
 71
     1
 72
     1
  1
5.8
  7
SLDTEXTSTYLE0
 11
-7.044195017643634E-15
 21
1.0
 31
0.0
 73
     1
 44
1.0
  0
ENDBLK
  5
1F1
330
1EF
100
AcDbEntity
  8
0
100
AcDbBlockEnd
  0
BLOCK
  5
1FD
330
1FC
100
AcDbEntity
  8
0
100
AcDbBlockBegin
  2
_D_8
 70
     0
 10
0.0
 20
0.0
 30
0.0
  3
_D_8
  1

  0
SOLID
  5
1FF
330
1FC
100
AcDbEntity
  8
0
  6
Continuous
 62
     7
370
    18
100
AcDbTrace
 10
193.1499236476
 20
157.463765861
 30
0.0
 11
193.8999236476
 21
160.463765861
 31
0.0
 12
192.3999236476
 22
160.463765861
 32
0.0
 13
192.3999236476
 23
160.463765861
 33
0.0
  0
SOLID
  5
200
330
1FC
100
AcDbEntity
  8
0
  6
Continuous
 62
     7
370
    18
100
AcDbTrace
 10
193.1499236476
 20
169.4637658616
 30
0.0
 11
192.3999236476
 21
166.4637658616
 31
0.0
 12
193.8999236476
 22
166.4637658616
 32
0.0
 13
193.8999236476
 23
166.4637658616
 33
0.0
  0
LINE
  5
201
330
1FC
100
AcDbEntity
  8
0
  6
Continuous
 62
     7
370
    18
100
AcDbLine
 10
173.4531436215
 20
157.463765861
 30
0.0
 11
194.1499236476
 21
157.463765861
 31
0.0
  0
LINE
  5
202
330
1FC
100
AcDbEntity
  8
0
  6
Continuous
 62
     7
370
    18
100
AcDbLine
 10
173.4531436215
 20
169.4637658616
 30
0.0
 11
194.1499236476
 21
169.4637658616
 31
0.0
  0
LINE
  5
203
330
1FC
100
AcDbEntity
  8
0
  6
Continuous
 62
     7
370
    18
100
AcDbLine
 10
193.1499236476
 20
157.463765861
 30
0.0
 11
193.1499236476
 21
169.4637658616
 31
0.0
  0
MTEXT
  5
204
330
1FC
100
AcDbEntity
  8
0
  6
Continuous
 62
     7
370
    18
100
AcDbMText
 10
188.6381863256
 20
159.4919949899
 30
0.0
 40
3.5
 41
0.0
 71
     1
 72
     1
  1
%%c
  7
SLDTEXTSTYLE0
 11
6.123233995736766E-17
 21
1.0
 31
0.0
 73
     1
 44
1.0
  0
MTEXT
  5
205
330
1FC
100
AcDbEntity
  8
0
  6
Continuous
 62
     7
370
    18
100
AcDbMText
 10
188.6381863256
 20
163.361925505
 30
0.0
 40
3.5
 41
0.0
 71
     1
 72
     1
  1
12
  7
SLDTEXTSTYLE0
 11
6.123233995736766E-17
 21
1.0
 31
0.0
 73
     1
 44
1.0
  0
ENDBLK
  5
1FE
330
1FC
100
AcDbEntity
  8
0
100
AcDbBlockEnd
  0
ENDSEC
  0
SECTION
  2
ENTITIES
  0
LINE
  5
73
330
1F
100
AcDbEntity
  8
0
  6
Continuous
 62
     7
370
    18
100
AcDbLine
 10
20.2604743903
 20
285.0
 30
0.0
 11
196.7604743903
 21
285.0
 31
0.0
  0
LINE
  5
74
330
1F
100
AcDbEntity
  8
0
  6
Continuous
 62
     7
370
    18
100
AcDbLine
 10
20.2604743903
 20
285.0
 30
0.0
 11
20.2604743903
 21
10.0
 31
0.0
  0
LINE
  5
75
330
1F
100
AcDbEntity
  8
0
  6
Continuous
 62
     7
370
    18
100
AcDbLine
 10
20.2604743903
 20
10.0
 30
0.0
 11
196.7604743903
 21
10.0
 31
0.0
  0
LINE
  5
76
330
1F
100
AcDbEntity
  8
0
  6
Continuous
 62
     7
370
    18
100
AcDbLine
 10
196.7604743903
 20
285.0
 30
0.0
 11
196.7604743903
 21
10.0
 31
0.0
  0
LINE
  5
77
330
1F
100
AcDbEntity
  8
0
  6
Continuous
 62
     7
370
    18
100
AcDbLine
 10
127.0104743903
 20
50.75
 30
0.0
 11
196.7604743903
 21
50.75
 31
0.0
  0
LINE
  5
78
330
1F
100
AcDbEntity
  8
0
  6
Continuous
 62
     7
370
    18
100
AcDbLine
 10
127.0104743903
 20
50.75
 30
0.0
 11
127.0104743903
 21
10.0
 31
0.0
  0
LINE
  5
79
330
1F
100
AcDbEntity
  8
0
  6
Continuous
 62
     7
370
    18
100
AcDbLine
 10
127.0104743903
 20
22.75
 30
0.0
 11
196.7604743903
 21
22.75
 31
0.0
  0
LINE
  5
7A
330
1F
100
AcDbEntity
  8
0
  6
Continuous
 62
     7
370
    18
100
AcDbLine
 10
127.0104743903
 20
36.75
 30
0.0
 11
196.7604743903
 21
36.75
 31
0.0
  0
MTEXT
  5
7C
330
1F
100
AcDbEntity
  8
0
  6
Continuous
 62
     7
370
     0
100
AcDbMText
 10
162.0726381867
 20
30.4171582345
 30
0.0
 40
4.2333333333
 41
0.0
 71
     2
 72
     1
  1
VFILP-S-20-P12
  7
SLDTEXTSTYLE0
 73
     1
 44
1.0
  0
MTEXT
  5
7D
330
1F
100
AcDbEntity
  8
0
  6
Continuous
 62
     7
370
     0
100
AcDbMText
 10
159.9394120901
 20
43.9409718514
 30
0.0
 40
4.2333333333
 41
0.0
 71
     2
 72
     1
  1
吸着樹脂金具・スモール用
  7
SLDTEXTSTYLE0
 73
     1
 44
1.0
  0
MTEXT
  5
7E
330
1F
100
AcDbEntity
  8
0
  6
Continuous
 62
     7
370
     0
100
AcDbMText
 10
163.0371463158
 20
16.8228189052
 30
0.0
 40
4.2333333333
 41
0.0
 71
     2
 72
     1
  1
211094
  7
SLDTEXTSTYLE0
 73
     1
 44
1.0
  0
LWPOLYLINE
  5
7F
330
1F
100
AcDbEntity
  8
0
  6
Continuous
 62
     7
370
    18
100
AcDbPolyline
 90
        3
 70
   128
 43
0.0
 10
67.8195356439
 20
154.163765827
 10
68.0155355065
 20
152.7637654113
 10
68.169535515
 20
151.6637654173
  0
LWPOLYLINE
  5
80
330
1F
100
AcDbEntity
  8
0
  6
Continuous
 62
     7
370
    18
100
AcDbPolyline
 90
        3
 70
   128
 43
0.0
 10
72.169535705
 20
151.6637654173
 10
72.3655355676
 20
153.063765833
 10
72.5195355761
 20
154.163765827
  0
LWPOLYLINE
  5
81
330
1F
100
AcDbEntity
  8
0
  6
Continuous
 62
     7
370
    18
100
AcDbPolyline
 90
        3
 70
   128
 43
0.0
 10
67.8195356439
 20
151.6637654173
 10
68.0155355065
 20
150.2637659328
 10
68.169535515
 20
149.1637659388
  0
LWPOLYLINE
  5
82
330
1F
100
AcDbEntity
  8
0
  6
Continuous
 62
     7
370
    18
100
AcDbPolyline
 90
        3
 70
   128
 43
0.0
 10
72.169535705
 20
149.1637659388
 10
72.3655355676
 20
150.5637654232
 10
72.5195355761
 20
151.6637654173
  0
LINE
  5
83
330
1F
100
AcDbEntity
  8
0
  6
Continuous
 62
     7
370
    18
100
AcDbLine
 10
68.019535537
 20
156.8362043368
 30
0.0
 11
68.019535537
 21
154.163765827
 31
0.0
  0
LINE
  5
84
330
1F
100
AcDbEntity
  8
0
  6
Continuous
 62
     7
370
    18
100
AcDbLine
 10
72.319535683
 20
154.163765827
 30
0.0
 11
72.319535683
 21
156.8362043368
 31
0.0
  0
SPLINE
  5
85
330
1F
100
AcDbEntity
  8
0
  6
Continuous
 62
     7
370
    18
100
AcDbSpline
210
0.0
220
0.0
230
1.0
 70
     8
 71
     3
 72
    22
 73
    18
 74
     0
 42
0.000000001
 43
0.00000001
 40
0.0
 40
0.0
 40
0.0
 40
0.0
 40
0.0662360406544377
 40
0.1329334713813246
 40
0.1996308968745866
 40
0.2663283148275409
 40
0.3330257503006399
 40
0.3997231702731007
 40
0.4664205953739566
 40
0.5331180250324685
 40
0.5998154452804811
 40
0.6665128760073681
 40
0.73321030150063
 40
0.7999077194535844
 40
0.8666051549266834
 40
0.9333025748991441
 40
1.0
 40
1.0
 40
1.0
 40
1.0
 10
72.3195356830167
 20
156.17526472904
 30
0.0
 10
72.78557477463877
 20
156.341398108137
 30
0.0
 10
73.72089931452088
 20
156.6748221258995
 30
0.0
 10
74.9674322237181
 20
157.5108977315275
 30
0.0
 10
76.0385278179834
 20
158.5572180308799
 30
0.0
 10
76.8824574332976
 20
159.7975742341424
 30
0.0
 10
77.46884827758042
 20
161.1773516681602
 30
0.0
 10
77.7746139517792
 20
162.6453887899497
 30
0.0
 10
77.78815189532948
 20
164.1447681400343
 30
0.0
 10
77.50890187008491
 20
165.6180129003889
 30
0.0
 10
76.94760920321093
 20
167.0084348998174
 30
0.0
 10
76.12582855532827
 20
168.2627469192701
 30
0.0
 10
75.07518662765166
 20
169.3322340173494
 30
0.0
 10
73.83588967343542
 20
170.1776994483794
 30
0.0
 10
72.45619687122453
 20
170.7595555251732
 30
0.0
 10
70.98676197318488
 20
171.0819244509941
 30
0.0
 10
69.99084675755472
 20
171.0496975861662
 30
0.0
 10
69.49288913059554
 20
171.0335841531328
 30
0.0
  0
SPLINE
  5
86
330
1F
100
AcDbEntity
  8
0
  6
Continuous
 62
     7
370
    18
100
AcDbSpline
210
0.0
220
0.0
230
1.0
 70
     8
 71
     3
 72
    22
 73
    18
 74
     0
 42
0.000000001
 43
0.00000001
 40
0.0
 40
0.0
 40
0.0
 40
0.0
 40
0.0710053745044059
 40
0.1420107389904942
 40
0.2130161146322807
 40
0.2840214847024057
 40
0.3550268467451994
 40
0.4260322274397528
 40
0.4970375916324915
 40
0.5680429612848652
 40
0.639048335789271
 40
0.7100537002753593
 40
0.7810590759171457
 40
0.8520644459872707
 40
0.9230698080300644
 40
0.9940751887246178
 40
1.0
 40
1.0
 40
1.0
 40
1.0
 10
69.49288913059554
 20
171.0335841531328
 30
0.0
 10
68.99996804366664
 20
170.9611254012959
 30
0.0
 10
68.01412593935622
 20
170.8162079078456
 30
0.0
 10
66.62516133279787
 20
170.2383343003134
 30
0.0
 10
65.37053813859674
 20
169.4210036355091
 30
0.0
 10
64.30083834653102
 20
168.3691427177206
 30
0.0
 10
63.45653486613784
 20
167.1302717410643
 30
0.0
 10
62.87024368009771
 20
165.7500940185552
 30
0.0
 10
62.56445323807262
 20
164.2821728238621
 30
0.0
 10
62.55091470759673
 20
162.7827300538325
 30
0.0
 10
62.83019184837127
 20
161.3096230461651
 30
0.0
 10
63.39137664005841
 20
159.9187134559702
 30
0.0
 10
64.21356167319907
 20
158.6662140470787
 30
0.0
 10
65.26269393516097
 20
157.5899640981058
 30
0.0
 10
66.50762516678755
 20
156.7697374592362
 30
0.0
 10
67.45119189939618
 20
156.3002349534998
 30
0.0
 10
67.97889431243173
 20
156.1940499132906
 30
0.0
 10
68.01953553698532
 20
156.1858720275036
 30
0.0
  0
SPLINE
  5
87
330
1F
100
AcDbEntity
  8
0
  6
Continuous
 62
     7
370
    18
100
AcDbSpline
210
0.0
220
0.0
230
1.0
 70
     8
 71
     3
 72
    30
 73
    26
 74
     0
 42
0.000000001
 43
0.00000001
 40
0.0
 40
0.0
 40
0.0
 40
0.0
 40
0.044251950633151
 40
0.0885039041089406
 40
0.1327558527223677
 40
0.1770077992134969
 40
0.2212597454362436
 40
0.2655117106330088
 40
0.3097636641351861
 40
0.3540156120136627
 40
0.3982675662116308
 40
0.4425195078218087
 40
0.4867714594130275
 40
0.5310234142870464
 40
0.5752753649201973
 40
0.619527318395987
 40
0.663779267009414
 40
0.7080312135005432
 40
0.7522831597232899
 40
0.796535124920055
 40
0.8407870784222323
 40
0.8850390263007089
 40
0.9292909804986769
 40
0.9735429221088547
 40
1.0
 40
1.0
 40
1.0
 40
1.0
 10
69.4572761702495
 20
171.4319960343114
 30
0.0
 10
69.80613126592773
 20
171.4499175703118
 30
0.0
 10
70.50384147969383
 20
171.485760643464
 30
0.0
 10
71.54795201970198
 20
171.3657331422319
 30
0.0
 10
72.56760265055856
 20
171.1202913993245
 30
0.0
 10
73.54645629416119
 20
170.7412215077528
 30
0.0
 10
74.4674666667022
 20
170.2383340836258
 30
0.0
 10
75.31495552412062
 20
169.6193442788815
 30
0.0
 10
76.07440010744071
 20
168.8950809326575
 30
0.0
 10
76.73281191249193
 20
168.0778728634685
 30
0.0
 10
77.27892439373355
 20
167.1817201281429
 30
0.0
 10
77.70339239603457
 20
166.2219506681407
 30
0.0
 10
77.99895455525959
 20
165.2149884882379
 30
0.0
 10
78.16055395841403
 20
164.1780623068526
 30
0.0
 10
78.18542429272082
 20
163.1289142759099
 30
0.0
 10
78.07313911052731
 20
162.0854953420526
 30
0.0
 10
77.82562236844697
 20
161.0656609746958
 30
0.0
 10
77.44711015521568
 20
160.086850671005
 30
0.0
 10
76.94406701670611
 20
159.1658506753026
 30
0.0
 10
76.32514239113505
 20
158.3182769705877
 30
0.0
 10
75.60077404267747
 20
157.5591613995435
 30
0.0
 10
74.78392080321257
 20
156.8995183928326
 30
0.0
 10
73.88645375118489
 20
156.3580017060847
 30
0.0
 10
73.05957911662576
 20
155.9755774030824
 30
0.0
 10
72.52103998638232
 20
155.8297515347971
 30
0.0
 10
72.3195356830167
 20
155.7751881087592
 30
0.0
  0
SPLINE
  5
88
330
1F
100
AcDbEntity
  8
0
  6
Continuous
 62
     7
370
    18
100
AcDbSpline
210
0.0
220
0.0
230
1.0
 70
     8
 71
     3
 72
    29
 73
    25
 74
     0
 42
0.000000001
 43
0.00000001
 40
0.0
 40
0.0
 40
0.0
 40
0.0
 40
0.0111714740978322
 40
0.0582585417162601
 40
0.1053456090491107
 40
0.1524326965716018
 40
0.1995197716502595
 40
0.2466068407449189
 40
0.2936939165639451
 40
0.3407809789887101
 40
0.3878680520339786
 40
0.4349551285723687
 40
0.4820422005981881
 40
0.5291292756487675
 40
0.576216345525464
 40
0.6233034131438918
 40
0.6703904804767423
 40
0.7174775679992333
 40
0.7645646430778911
 40
0.8116517121725504
 40
0.8587387879915765
 40
0.9058258504163416
 40
0.9529129234616099
 40
1.0
 40
1.0
 40
1.0
 40
1.0
 10
68.01953553698532
 20
155.7709552476576
 30
0.0
 10
67.93886259906506
 20
155.789589566452
 30
0.0
 10
67.51815825172095
 20
155.8867663785121
 30
0.0
 10
66.79436951551115
 20
156.192974019015
 30
0.0
 10
65.87113441218642
 20
156.6874120772173
 30
0.0
 10
65.02424166980192
 20
157.3086658835369
 30
0.0
 10
64.26463735794988
 20
158.0323225924993
 30
0.0
 10
63.6062683520686
 20
158.849693209448
 30
0.0
 10
63.06014440265024
 20
159.7458023908862
 30
0.0
 10
62.63567947388418
 20
160.7055835186708
 30
0.0
 10
62.34011648869384
 20
161.712542581323
 30
0.0
 10
62.17851731586538
 20
162.749469563927
 30
0.0
 10
62.15364688622013
 20
163.7986175072459
 30
0.0
 10
62.26593221944149
 20
164.8420359903802
 30
0.0
 10
62.51344845274895
 20
165.8618722482526
 30
0.0
 10
62.89196255004373
 20
166.8406754406042
 30
0.0
 10
63.39499866107123
 20
167.7617019911509
 30
0.0
 10
64.01394951251547
 20
168.6091765877964
 30
0.0
 10
64.73821998498518
 20
169.3686620361884
 30
0.0
 10
65.55543850248469
 20
170.0269246417423
 30
0.0
 10
66.45154231832294
 20
170.5735930559175
 30
0.0
 10
67.4114970079327
 20
170.9959865263347
 30
0.0
 10
68.41776718875816
 20
171.2992908816666
 30
0.0
 10
69.1107731678507
 20
171.3877609823359
 30
0.0
 10
69.4572761702495
 20
171.4319960343114
 30
0.0
  0
SPLINE
  5
89
330
1F
100
AcDbEntity
  8
0
  6
Continuous
 62
     7
370
    18
100
AcDbSpline
210
0.0
220
0.0
230
1.0
 70
     8
 71
     3
 72
    33
 73
    29
 74
     0
 42
0.000000001
 43
0.00000001
 40
0.0
 40
0.0
 40
0.0
 40
0.0
 40
0.0125326068134496
 40
0.0250361823974898
 40
0.0375300658794424
 40
0.0500336413586776
 40
0.0625662479630028
 40
0.0938388078910985
 40
0.1251113679925473
 40
0.1563839283128946
 40
0.1876564884698982
 40
0.2501259056882397
 40
0.312595322906581
 40
0.375064740736413
 40
0.4375341581404723
 40
0.5000035755502352
 40
0.5624729929599983
 40
0.6249424103640574
 40
0.6874118281938896
 40
0.7498812454122309
 40
0.8123506626305723
 40
0.843623222787576
 40
0.8748957831079233
 40
0.9061683432093721
 40
0.9374409031374676
 40
0.9583088818550776
 40
0.9791320209916652
 40
1.0
 40
1.0
 40
1.0
 40
1.0
 10
64.9695356125802
 20
163.4637658613196
 30
0.0
 10
64.97030245007545
 20
163.3955922794967
 30
0.0
 10
64.97183434872083
 20
163.2594030369381
 30
0.0
 10
64.98427750369682
 20
163.0555634989415
 30
0.0
 10
65.00415546964805
 20
162.8525130975138
 30
0.0
 10
65.03219388547441
 20
162.6502470365982
 30
0.0
 10
65.08607433033389
 20
162.3486867525401
 30
0.0
 10
65.18533628059909
 20
161.9518025873458
 30
0.0
 10
65.35768442875678
 20
161.4706454271123
 30
0.0
 10
65.5760982291731
 20
161.0084877794451
 30
0.0
 10
65.92625164592972
 20
160.4245231500815
 30
0.0
 10
66.4689171688349
 20
159.762984797103
 30
0.0
 10
67.2619370746821
 20
159.112285933926
 30
0.0
 10
68.16675692994296
 20
158.6286147458278
 30
0.0
 10
69.14852576864317
 20
158.3308088169712
 30
0.0
 10
70.16953560782204
 20
158.2302443878888
 30
0.0
 10
71.19054546007467
 20
158.3308088148603
 30
0.0
 10
72.1723142595536
 20
158.6286147542715
 30
0.0
 10
73.0771342586258
 20
159.112285902262
 30
0.0
 10
73.87015362844895
 20
159.7629849153152
 30
0.0
 10
74.41282081866214
 20
160.4245228020167
 30
0.0
 10
74.76297083226943
 20
161.0084883831141
 30
0.0
 10
74.98139503013502
 20
161.4706431230001
 30
0.0
 10
75.15370414240353
 20
161.9518112001257
 30
0.0
 10
75.26411605808576
 20
162.3927224899577
 30
0.0
 10
75.328528395473
 20
162.7845316049776
 30
0.0
 10
75.3631541762708
 20
163.1234245440545
 30
0.0
 10
75.36740693905281
 20
163.350237441193
 30
0.0
 10
75.3695356074218
 20
163.4637658613196
 30
0.0
  0
SPLINE
  5
8A
330
1F
100
AcDbEntity
  8
0
  6
Continuous
 62
     7
370
    18
100
AcDbSpline
210
0.0
220
0.0
230
1.0
 70
     8
 71
     3
 72
    33
 73
    29
 74
     0
 42
0.000000001
 43
0.00000001
 40
0.0
 40
0.0
 40
0.0
 40
0.0
 40
0.0125326068134497
 40
0.0250361823974899
 40
0.0375300658794425
 40
0.0500336413586776
 40
0.0625662479630028
 40
0.0938388078910984
 40
0.1251113679925473
 40
0.1563839283128946
 40
0.1876564884698983
 40
0.2501259056882397
 40
0.3125953229065811
 40
0.3750647407364132
 40
0.4375341581404723
 40
0.5000035755502354
 40
0.5624729929599984
 40
0.6249424103640576
 40
0.6874118281938897
 40
0.749881245412231
 40
0.8123506626305724
 40
0.8436232227875762
 40
0.8748957831079234
 40
0.9061683432093723
 40
0.9374409031374679
 40
0.958308881855078
 40
0.9791320209916654
 40
1.0
 40
1.0
 40
1.0
 40
1.0
 10
75.3695356074218
 20
163.4637658613196
 30
0.0
 10
75.36876876992655
 20
163.5319394431425
 30
0.0
 10
75.36723687128118
 20
163.6681286857011
 30
0.0
 10
75.35479371630518
 20
163.8719682236977
 30
0.0
 10
75.33491575035394
 20
164.0750186251254
 30
0.0
 10
75.30687733452757
 20
164.277284686041
 30
0.0
 10
75.25299688966811
 20
164.5788449700991
 30
0.0
 10
75.15373493940291
 20
164.9757291352933
 30
0.0
 10
74.98138679124523
 20
165.4568862955269
 30
0.0
 10
74.7629729908289
 20
165.9190439431941
 30
0.0
 10
74.41281957407229
 20
166.5030085725577
 30
0.0
 10
73.87015405116709
 20
167.1645469255362
 30
0.0
 10
73.07713414531992
 20
167.8152457887132
 30
0.0
 10
72.17231429005903
 20
168.2989169768114
 30
0.0
 10
71.19054545135883
 20
168.596722905668
 30
0.0
 10
70.16953561217997
 20
168.6972873347504
 30
0.0
 10
69.14852575992732
 20
168.5967229077789
 30
0.0
 10
68.1667569604484
 20
168.2989169683676
 30
0.0
 10
67.2619369613762
 20
167.8152458203772
 30
0.0
 10
66.46891759155305
 20
167.164546807324
 30
0.0
 10
65.92625040133986
 20
166.5030089206226
 30
0.0
 10
65.57610038773257
 20
165.9190433395251
 30
0.0
 10
65.35767618986698
 20
165.4568885996391
 30
0.0
 10
65.18536707759847
 20
164.9757205225135
 30
0.0
 10
65.07495516191624
 20
164.5348092326814
 30
0.0
 10
65.010542824529
 20
164.1430001176616
 30
0.0
 10
64.9759170437312
 20
163.8041071785847
 30
0.0
 10
64.97166428094918
 20
163.5772942814462
 30
0.0
 10
64.9695356125802
 20
163.4637658613196
 30
0.0
  0
SPLINE
  5
8B
330
1F
100
AcDbEntity
  8
0
  6
Continuous
 62
     7
370
    18
100
AcDbSpline
210
0.0
220
0.0
230
1.0
 70
     8
 71
     3
 72
    14
 73
    10
 74
     0
 42
0.000000001
 43
0.00000001
 40
0.0
 40
0.0
 40
0.0
 40
0.0
 40
0.25
 40
0.25
 40
0.4999999999999999
 40
0.4999999999999999
 40
0.75
 40
0.75
 40
1.0
 40
1.0
 40
1.0
 40
1.0
 10
68.069535610001
 20
163.4637658609425
 30
0.0
 10
68.06953561010101
 20
162.9068269946503
 30
0.0
 10
68.29079612048274
 20
162.3726568698291
 30
0.0
 10
69.0784266186312
 20
161.5850263717312
 30
0.0
 10
69.61259674346663
 20
161.3637658613838
 30
0.0
 10
70.72647447605107
 20
161.3637658612554
 30
0.0
 10
71.26064460093752
 20
161.5850263714796
 30
0.0
 10
72.04827509926763
 20
162.3726568693958
 30
0.0
 10
72.26953560977253
 20
162.906826994166
 30
0.0
 10
72.269535610001
 20
163.4637658604582
 30
0.0
  0
SPLINE
  5
8C
330
1F
100
AcDbEntity
  8
0
  6
Continuous
 62
     7
370
    18
100
AcDbSpline
210
0.0
220
0.0
230
1.0
 70
     8
 71
     3
 72
    12
 73
     8
 74
     0
 42
0.000000001
 43
0.00000001
 40
0.0
 40
0.0
 40
0.0
 40
0.0
 40
0.3333333333333334
 40
0.3333333333333334
 40
0.6666666666666666
 40
0.6666666666666666
 40
0.9999999999999999
 40
0.9999999999999999
 40
0.9999999999999999
 40
0.9999999999999999
 10
72.269535610001
 20
163.4637658604582
 30
0.0
 10
72.26953561030872
 20
164.2139140646506
 30
0.0
 10
71.86918301182972
 20
164.9073451067059
 30
0.0
 10
70.56988820916698
 20
165.6574933112537
 30
0.0
 10
69.76918301173491
 20
165.6574933114179
 30
0.0
 10
68.46988820876444
 20
164.9073451074031
 30
0.0
 10
68.069535610001
 20
164.2139140655121
 30
0.0
 10
68.069535610001
 20
163.4637658613196
 30
0.0
  0
SPLINE
  5
8D
330
1F
100
AcDbEntity
  8
0
  6
Continuous
 62
     7
370
    18
100
AcDbSpline
210
0.0
220
0.0
230
1.0
 70
    24
 71
     3
 72
    10
 73
     6
 74
     0
 42
0.000000001
 43
0.00000001
 40
0.0
 40
0.0
 40
0.0
 40
0.0
 40
0.5
 40
0.5
 40
1.0
 40
1.0
 40
1.0
 40
1.0
 10
64.66953560961514
 20
163.4637658613196
 30
0.0
 10
64.6695356097124
 20
163.4637658613196
 30
0.0
 10
64.69882493161309
 20
163.4637658613196
 30
0.0
 10
64.81598221912392
 20
163.4637658613196
 30
0.0
 10
64.8988249315934
 20
163.4637658613196
 30
0.0
 10
64.96953560980843
 20
163.4637658613196
 30
0.0
  0
SPLINE
  5
8E
330
1F
100
AcDbEntity
  8
0
  6
Continuous
 62
     7
370
    18
100
AcDbSpline
210
0.0
220
0.0
230
1.0
 70
     8
 71
     3
 72
    14
 73
    10
 74
     0
 42
0.000000001
 43
0.00000001
 40
0.0
 40
0.0
 40
0.0
 40
0.0
 40
0.25
 40
0.25
 40
0.5
 40
0.5
 40
0.75
 40
0.75
 40
1.0
 40
1.0
 40
1.0
 40
1.0
 10
64.66953561000099
 20
163.4637658603319
 30
0.0
 10
64.66953561026295
 20
162.0051164486142
 30
0.0
 10
65.24902742316746
 20
160.6060994550348
 30
0.0
 10
67.31186920403249
 20
158.5432576743024
 30
0.0
 10
68.71088619764906
 20
157.9637658614878
 30
0.0
 10
71.62818502108452
 20
157.9637658611514
 30
0.0
 10
73.02720201483473
 20
158.5432576736434
 30
0.0
 10
75.09004379617551
 20
160.6060994539001
 30
0.0
 10
75.66953560940264
 20
162.0051164473458
 30
0.0
 10
75.669535610001
 20
163.4637658590635
 30
0.0
  0
SPLINE
  5
8F
330
1F
100
AcDbEntity
  8
0
  6
Continuous
 62
     7
370
    18
100
AcDbSpline
210
0.0
220
0.0
230
1.0
 70
    24
 71
     3
 72
    10
 73
     6
 74
     0
 42
0.000000001
 43
0.00000001
 40
0.0
 40
0.0
 40
0.0
 40
0.0
 40
0.5
 40
0.5
 40
1.0
 40
1.0
 40
1.0
 40
1.0
 10
75.36953561019357
 20
163.4637658613196
 30
0.0
 10
75.4402462884086
 20
163.4637658613196
 30
0.0
 10
75.52308900087807
 20
163.4637658613196
 30
0.0
 10
75.64024628838891
 20
163.4637658613196
 30
0.0
 10
75.6695356102896
 20
163.4637658613196
 30
0.0
 10
75.66953561038686
 20
163.4637658613196
 30
0.0
  0
SPLINE
  5
90
330
1F
100
AcDbEntity
  8
0
  6
Continuous
 62
     7
370
    18
100
AcDbSpline
210
0.0
220
0.0
230
1.0
 70
     8
 71
     3
 72
    12
 73
     8
 74
     0
 42
0.000000001
 43
0.00000001
 40
0.0
 40
0.0
 40
0.0
 40
0.0
 40
0.3333333333333332
 40
0.3333333333333332
 40
0.6666666666666665
 40
0.6666666666666665
 40
0.9999999999999999
 40
0.9999999999999999
 40
0.9999999999999999
 40
0.9999999999999999
 10
75.669535610001
 20
163.4637658590635
 30
0.0
 10
75.66953561080692
 20
165.4284397271866
 30
0.0
 10
74.620993090981
 20
167.2445686468551
 30
0.0
 10
71.21807813162616
 20
169.2092425159088
 30
0.0
 10
69.12099309073268
 20
169.2092425163389
 30
0.0
 10
65.71807813057191
 20
167.2445686486811
 30
0.0
 10
64.66953561000099
 20
165.4284397294427
 30
0.0
 10
64.66953561000099
 20
163.4637658613196
 30
0.0
  0
SPLINE
  5
91
330
1F
100
AcDbEntity
  8
0
  6
Continuous
 62
     7
370
    18
100
AcDbSpline
210
0.0
220
0.0
230
1.0
 70
     8
 71
     3
 72
    33
 73
    29
 74
     0
 42
0.000000001
 43
0.00000001
 40
0.0
 40
0.0
 40
0.0
 40
0.0
 40
0.0125326068134496
 40
0.0250361823974898
 40
0.0375300658794424
 40
0.0500336413586776
 40
0.0625662479630028
 40
0.0938388078910986
 40
0.1251113679925474
 40
0.1563839283128947
 40
0.1876564884698984
 40
0.2501259056882397
 40
0.3125953229065812
 40
0.3750647407364132
 40
0.4375341581404724
 40
0.5000035755502354
 40
0.5624729929599984
 40
0.6249424103640576
 40
0.6874118281938897
 40
0.7498812454122311
 40
0.8123506626305724
 40
0.843623222787576
 40
0.8748957831079234
 40
0.9061683432093722
 40
0.9374409031374679
 40
0.9583088818550777
 40
0.9791320209916653
 40
1.0
 40
1.0
 40
1.0
 40
1.0
 10
63.4695356133242
 20
163.4637658613196
 30
0.0
 10
63.4705236539431
 20
163.3759268232016
 30
0.0
 10
63.47249744642846
 20
163.2004522222126
 30
0.0
 10
63.48852997303216
 20
162.9378128174862
 30
0.0
 10
63.51414196762317
 20
162.6761901848775
 30
0.0
 10
63.55026838801484
 20
162.4155781448517
 30
0.0
 10
63.61969126889146
 20
162.0270293173153
 30
0.0
 10
63.74758647404083
 20
161.515659335238
 30
0.0
 10
63.96965043416709
 20
160.8957068403217
 30
0.0
 10
64.25106821547273
 20
160.3002344865967
 30
0.0
 10
64.70222742552454
 20
159.5478185218398
 30
0.0
 10
65.401431080037
 20
158.6954517978097
 30
0.0
 10
66.42320672795547
 20
157.8570513394855
 30
0.0
 10
67.58903231069544
 20
157.233859616359
 30
0.0
 10
68.85400369902071
 20
156.8501481311015
 30
0.0
 10
70.1695356071935
 20
156.7205747320915
 30
0.0
 10
71.48506753221132
 20
156.8501481283816
 30
0.0
 10
72.75003887000146
 20
157.2338596272385
 30
0.0
 10
73.91586463803682
 20
157.8570512986877
 30
0.0
 10
74.93763959530894
 20
158.6954519501216
 30
0.0
 10
75.63684539808364
 20
159.5478180733716
 30
0.0
 10
76.0880002233084
 20
160.300235264401
 30
0.0
 10
76.36943140132753
 20
160.8957038715618
 30
0.0
 10
76.59144506521193
 20
161.5156704324737
 30
0.0
 10
76.73370657195639
 20
162.0837676712957
 30
0.0
 10
76.81669939128223
 20
162.5885986464174
 30
0.0
 10
76.86131337807937
 20
163.0252491640742
 30
0.0
 10
76.86679289935621
 20
163.3174888584641
 30
0.0
 10
76.8695356066778
 20
163.4637658613196
 30
0.0
  0
SPLINE
  5
92
330
1F
100
AcDbEntity
  8
0
  6
Continuous
 62
     7
370
    18
100
AcDbSpline
210
0.0
220
0.0
230
1.0
 70
     8
 71
     3
 72
    33
 73
    29
 74
     0
 42
0.000000001
 43
0.00000001
 40
0.0
 40
0.0
 40
0.0
 40
0.0
 40
0.0125326068134496
 40
0.0250361823974898
 40
0.0375300658794425
 40
0.0500336413586776
 40
0.0625662479630028
 40
0.0938388078910984
 40
0.1251113679925473
 40
0.1563839283128946
 40
0.1876564884698983
 40
0.2501259056882397
 40
0.312595322906581
 40
0.3750647407364131
 40
0.4375341581404723
 40
0.5000035755502352
 40
0.5624729929599982
 40
0.6249424103640574
 40
0.6874118281938895
 40
0.7498812454122309
 40
0.8123506626305722
 40
0.843623222787576
 40
0.8748957831079233
 40
0.9061683432093721
 40
0.9374409031374678
 40
0.9583088818550778
 40
0.9791320209916653
 40
1.0
 40
1.0
 40
1.0
 40
1.0
 10
76.86953560667781
 20
163.4637658613196
 30
0.0
 10
76.86854756605892
 20
163.5516048994376
 30
0.0
 10
76.86657377357353
 20
163.7270795004265
 30
0.0
 10
76.85054124696985
 20
163.989718905153
 30
0.0
 10
76.82492925237884
 20
164.2513415377617
 30
0.0
 10
76.78880283198717
 20
164.5119535777876
 30
0.0
 10
76.71937995111055
 20
164.900502405324
 30
0.0
 10
76.59148474596115
 20
165.4118723874012
 30
0.0
 10
76.3694207858349
 20
166.0318248823175
 30
0.0
 10
76.08800300452927
 20
166.6272972360424
 30
0.0
 10
75.63684379447746
 20
167.3797132007994
 30
0.0
 10
74.937640139965
 20
168.2320799248295
 30
0.0
 10
73.91586449204652
 20
169.0704803831537
 30
0.0
 10
72.75003890930655
 20
169.6936721062802
 30
0.0
 10
71.48506752098129
 20
170.0773835915378
 30
0.0
 10
70.1695356128085
 20
170.2069569905478
 30
0.0
 10
68.85400368779068
 20
170.0773835942576
 30
0.0
 10
67.58903235000052
 20
169.6936720954008
 30
0.0
 10
66.42320658196519
 20
169.0704804239515
 30
0.0
 10
65.40143162469306
 20
168.2320797725176
 30
0.0
 10
64.70222582191838
 20
167.3797136492676
 30
0.0
 10
64.2510709966936
 20
166.6272964582382
 30
0.0
 10
63.96963981867447
 20
166.0318278510775
 30
0.0
 10
63.74762615479007
 20
165.4118612901655
 30
0.0
 10
63.60536464804562
 20
164.8437640513435
 30
0.0
 10
63.52237182871977
 20
164.3389330762218
 30
0.0
 10
63.47775784192261
 20
163.902282558565
 30
0.0
 10
63.47227832064578
 20
163.6100428641751
 30
0.0
 10
63.4695356133242
 20
163.4637658613196
 30
0.0
  0
SPLINE
  5
93
330
1F
100
AcDbEntity
  8
0
  6
Continuous
 62
     7
370
    18
100
AcDbSpline
210
0.0
220
0.0
230
1.0
 70
    24
 71
     3
 72
    10
 73
     6
 74
     0
 42
0.000000001
 43
0.00000001
 40
0.0
 40
0.0
 40
0.0
 40
0.0
 40
0.5
 40
0.5
 40
1.0
 40
1.0
 40
1.0
 40
1.0
 10
63.16953560961514
 20
163.4637658613196
 30
0.0
 10
63.16953560971238
 20
163.4637658613196
 30
0.0
 10
63.1988249316131
 20
163.4637658613196
 30
0.0
 10
63.31598221912392
 20
163.4637658613196
 30
0.0
 10
63.3988249315934
 20
163.4637658613196
 30
0.0
 10
63.46953560980842
 20
163.4637658613196
 30
0.0
  0
SPLINE
  5
94
330
1F
100
AcDbEntity
  8
0
  6
Continuous
 62
     7
370
    18
100
AcDbSpline
210
0.0
220
0.0
230
1.0
 70
     8
 71
     3
 72
    14
 73
    10
 74
     0
 42
0.000000001
 43
0.00000001
 40
0.0
 40
0.0
 40
0.0
 40
0.0
 40
0.25
 40
0.25
 40
0.5
 40
0.5
 40
0.75
 40
0.75
 40
1.0
 40
1.0
 40
1.0
 40
1.0
 10
63.16953561000099
 20
163.4637658600625
 30
0.0
 10
63.16953561033439
 20
161.6073029724218
 30
0.0
 10
63.90707064494013
 20
159.8267358896844
 30
0.0
 10
66.53250563876837
 20
157.201300896025
 30
0.0
 10
68.31307272155308
 20
156.4637658615337
 30
0.0
 10
72.02599849683456
 20
156.4637658611055
 30
0.0
 10
73.80656557978939
 20
157.2013008951862
 30
0.0
 10
76.4320005742231
 20
159.8267358882402
 30
0.0
 10
77.16953560923946
 20
161.6073029708074
 30
0.0
 10
77.169535610001
 20
163.4637658584482
 30
0.0
  0
SPLINE
  5
95
330
1F
100
AcDbEntity
  8
0
  6
Continuous
 62
     7
370
    18
100
AcDbSpline
210
0.0
220
0.0
230
1.0
 70
    24
 71
     3
 72
    10
 73
     6
 74
     0
 42
0.000000001
 43
0.00000001
 40
0.0
 40
0.0
 40
0.0
 40
0.0
 40
0.5
 40
0.5
 40
1.0
 40
1.0
 40
1.0
 40
1.0
 10
76.86953561019358
 20
163.4637658613196
 30
0.0
 10
76.9402462884086
 20
163.4637658613196
 30
0.0
 10
77.02308900087807
 20
163.4637658613196
 30
0.0
 10
77.14024628838891
 20
163.4637658613196
 30
0.0
 10
77.16953561028963
 20
163.4637658613196
 30
0.0
 10
77.16953561038686
 20
163.4637658613196
 30
0.0
  0
SPLINE
  5
96
330
1F
100
AcDbEntity
  8
0
  6
Continuous
 62
     7
370
    18
100
AcDbSpline
210
0.0
220
0.0
230
1.0
 70
     8
 71
     3
 72
    12
 73
     8
 74
     0
 42
0.000000001
 43
0.00000001
 40
0.0
 40
0.0
 40
0.0
 40
0.0
 40
0.3333333333333332
 40
0.3333333333333332
 40
0.6666666666666665
 40
0.6666666666666665
 40
0.9999999999999999
 40
0.9999999999999999
 40
0.9999999999999999
 40
0.9999999999999999
 10
77.169535610001
 20
163.4637658584482
 30
0.0
 10
77.16953561102672
 20
165.964259872423
 30
0.0
 10
75.83502694943009
 20
168.2756966792739
 30
0.0
 10
71.50404427388757
 20
170.7761906944332
 30
0.0
 10
68.83502694911402
 20
170.7761906949806
 30
0.0
 10
64.5040442725458
 20
168.2756966815979
 30
0.0
 10
63.16953561000101
 20
165.9642598752945
 30
0.0
 10
63.16953561000099
 20
163.4637658613196
 30
0.0
  0
SPLINE
  5
97
330
1F
100
AcDbEntity
  8
0
  6
Continuous
 62
     7
370
    18
100
AcDbSpline
210
0.0
220
0.0
230
1.0
 70
     8
 71
     3
 72
    10
 73
     6
 74
     0
 42
0.000000001
 43
0.00000001
 40
0.0
 40
0.0
 40
0.0
 40
0.0
 40
0.5
 40
0.5
 40
1.0
 40
1.0
 40
1.0
 40
1.0
 10
70.91027376034307
 20
156.2127314303445
 30
0.0
 10
70.90320741249869
 20
156.2816092322676
 30
0.0
 10
70.90460626790349
 20
156.361650647677
 30
0.0
 10
70.93120620524016
 20
156.4770790242365
 30
0.0
 10
70.95537240554593
 20
156.507975196385
 30
0.0
 10
70.9789436559642
 20
156.510719146245
 30
0.0
  0
SPLINE
  5
98
330
1F
100
AcDbEntity
  8
0
  6
Continuous
 62
     7
370
    18
100
AcDbSpline
210
0.0
220
0.0
230
1.0
 70
     8
 71
     3
 72
    10
 73
     6
 74
     0
 42
0.000000001
 43
0.00000001
 40
0.0
 40
0.0
 40
0.0
 40
0.0
 40
0.5
 40
0.5
 40
1.0
 40
1.0
 40
1.0
 40
1.0
 10
69.428797294001
 20
156.2127314523196
 30
0.0
 10
69.43586364593122
 20
156.28160925702
 30
0.0
 10
69.43446479217694
 20
156.3616506771264
 30
0.0
 10
69.4078648483972
 20
156.4770790554455
 30
0.0
 10
69.38369864048181
 20
156.507975223576
 30
0.0
 10
69.360127383001
 20
156.5107191673196
 30
0.0
  0
SPLINE
  5
99
330
1F
100
AcDbEntity
  8
0
  6
Continuous
 62
     7
370
    18
100
AcDbSpline
210
0.0
220
0.0
230
1.0
 70
     8
 71
     3
 72
    16
 73
    12
 74
     0
 42
0.000000001
 43
0.00000001
 40
0.0
 40
0.0
 40
0.0
 40
0.0
 40
0.0864429162688
 40
0.1715998848054081
 40
0.2555040849425243
 40
0.3381902047989415
 40
0.4196944884322911
 40
0.5000547796939445
 40
0.66188635478642
 40
0.8284401449971457
 40
1.0
 40
1.0
 40
1.0
 40
1.0
 10
69.42879729477524
 20
156.2127314531071
 30
0.0
 10
69.46978587516803
 20
156.207566436128
 30
0.0
 10
69.55115327896858
 20
156.1973132383311
 30
0.0
 10
69.67556847073425
 20
156.1851865919097
 30
0.0
 10
69.79988586161743
 20
156.1756097508286
 30
0.0
 10
69.92387791307206
 20
156.1687964701636
 30
0.0
 10
70.0470125864475
 20
156.1646958545518
 30
0.0
 10
70.21061406658502
 20
156.1628263335203
 30
0.0
 10
70.41718628562401
 20
156.1676549989137
 30
0.0
 10
70.66680182857603
 20
156.1836186948713
 30
0.0
 10
70.82831942435325
 20
156.2029318842075
 30
0.0
 10
70.91027392605471
 20
156.2127314531071
 30
0.0
  0
SPLINE
  5
9A
330
1F
100
AcDbEntity
  8
0
  6
Continuous
 62
     7
370
    18
100
AcDbSpline
210
0.0
220
0.0
230
1.0
 70
    24
 71
     3
 72
    12
 73
     8
 74
     0
 42
0.000000001
 43
0.00000001
 40
0.0
 40
0.0
 40
0.0
 40
0.0
 40
0.3333333333333333
 40
0.3333333333333333
 40
0.6666666666666665
 40
0.6666666666666665
 40
0.9999999999999999
 40
0.9999999999999999
 40
0.9999999999999999
 40
0.9999999999999999
 10
67.819535610001
 20
154.1637658613196
 30
0.0
 10
67.819535610001
 20
154.1637658613196
 30
0.0
 10
68.26754923242676
 20
154.1637658613196
 30
0.0
 10
69.72152198813181
 20
154.1637658613195
 30
0.0
 10
70.61754923287721
 20
154.1637658613195
 30
0.0
 10
72.0715219882379
 20
154.1637658613194
 30
0.0
 10
72.51953561034536
 20
154.1637658613194
 30
0.0
 10
72.519535610001
 20
154.1637658613194
 30
0.0
  0
SPLINE
  5
9B
330
1F
100
AcDbEntity
  8
0
  6
Continuous
 62
     7
370
    18
100
AcDbSpline
210
0.0
220
0.0
230
1.0
 70
    24
 71
     3
 72
    12
 73
     8
 74
     0
 42
0.000000001
 43
0.00000001
 40
0.0
 40
0.0
 40
0.0
 40
0.0
 40
0.3333333333333333
 40
0.3333333333333333
 40
0.6666666666666665
 40
0.6666666666666665
 40
0.9999999999999999
 40
0.9999999999999999
 40
0.9999999999999999
 40
0.9999999999999999
 10
67.819535610001
 20
151.6637658613196
 30
0.0
 10
67.819535610001
 20
151.6637658613196
 30
0.0
 10
68.26754923242676
 20
151.6637658613196
 30
0.0
 10
69.72152198813181
 20
151.6637658613196
 30
0.0
 10
70.61754923287721
 20
151.6637658613196
 30
0.0
 10
72.0715219882379
 20
151.6637658613195
 30
0.0
 10
72.51953561034536
 20
151.6637658613195
 30
0.0
 10
72.519535610001
 20
151.6637658613195
 30
0.0
  0
SPLINE
  5
9C
330
1F
100
AcDbEntity
  8
0
  6
Continuous
 62
     7
370
    18
100
AcDbSpline
210
0.0
220
0.0
230
1.0
 70
    24
 71
     3
 72
    12
 73
     8
 74
     0
 42
0.000000001
 43
0.00000001
 40
0.0
 40
0.0
 40
0.0
 40
0.0
 40
0.3333333333333332
 40
0.3333333333333332
 40
0.6666666666666665
 40
0.6666666666666665
 40
0.9999999999999999
 40
0.9999999999999999
 40
0.9999999999999999
 40
0.9999999999999999
 10
72.169535610001
 20
149.1637658613196
 30
0.0
 10
72.16953561029406
 20
149.1637658613196
 30
0.0
 10
71.78824742126645
 20
149.1637658613196
 30
0.0
 10
70.55082379968287
 20
149.1637658613196
 30
0.0
 10
69.78824742117615
 20
149.1637658613196
 30
0.0
 10
68.55082379929951
 20
149.1637658613196
 30
0.0
 10
68.16953561000099
 20
149.1637658613196
 30
0.0
 10
68.16953561000099
 20
149.1637658613196
 30
0.0
  0
LINE
  5
9D
330
1F
100
AcDbEntity
  8
0
  6
Continuous
 62
     7
370
    18
100
AcDbLine
 10
70.9789436358
 20
156.5107192042
 30
0.0
 11
71.160698454
 21
156.5556168685
 31
0.0
  0
SPLINE
  5
9E
330
1F
100
AcDbEntity
  8
0
  6
Continuous
 62
     8
370
    18
100
AcDbSpline
210
0.0
220
0.0
230
1.0
 70
     8
 71
     3
 72
    11
 73
     7
 74
     0
 42
0.000000001
 43
0.00000001
 40
0.0
 40
0.0
 40
0.0
 40
0.0
 40
0.3386678765476321
 40
0.6830977802228775
 40
0.8609607551054502
 40
1.0
 40
1.0
 40
1.0
 40
1.0
 10
70.9102737881387
 20
156.2127313705555
 30
0.0
 10
71.00935922077643
 20
156.2298512024924
 30
0.0
 10
71.20921590567151
 20
156.264382139743
 30
0.0
 10
71.42185751593249
 20
156.3793248184645
 30
0.0
 10
71.5550567983617
 20
156.5081314096561
 30
0.0
 10
71.60069230040673
 20
156.5888181303717
 30
0.0
 10
71.62071464594028
 20
156.6242190206817
 30
0.0
  0
LINE
  5
9F
330
1F
100
AcDbEntity
  8
0
  6
Continuous
 62
     8
370
    18
100
AcDbLine
 10
69.1393132136
 20
156.5652337054
 30
0.0
 11
69.3601272931
 21
156.5107192042
 31
0.0
  0
SPLINE
  5
A0
330
1F
100
AcDbEntity
  8
0
  6
Continuous
 62
     8
370
    18
100
AcDbSpline
210
0.0
220
0.0
230
1.0
 70
     8
 71
     3
 72
    11
 73
     7
 74
     0
 42
0.000000001
 43
0.00000001
 40
0.0
 40
0.0
 40
0.0
 40
0.0
 40
0.1394356876023531
 40
0.3174492299708979
 40
0.6619685200791104
 40
0.9999999999999999
 40
0.9999999999999999
 40
0.9999999999999999
 40
0.9999999999999999
 10
68.71834702800534
 20
156.6242222803107
 30
0.0
 10
68.73843565221479
 20
156.5887275108353
 30
0.0
 10
68.78417084666988
 20
156.5079175874097
 30
0.0
 10
68.91756376967548
 20
156.3790639879776
 30
0.0
 10
69.130193062931
 20
156.264303652456
 30
0.0
 10
69.32989526505115
 20
156.2298128500488
 30
0.0
 10
69.42879725724033
 20
156.2127313705555
 30
0.0
  0
DIMENSION
  5
A1
330
1F
100
AcDbEntity
  8
0
  6
Continuous
 62
     7
370
    18
100
AcDbDimension
  2
_D
 10
74.2120212479
 20
156.5602660338
 30
0.0
 11
52.8145608646
 21
186.1445241851
 31
0.0
 70
   163
  1
<>
 71
     1
 42
-1.0
  3
SLDDIMSTYLE0
100
AcDbDiametricDimension
 15
66.1270499721
 25
170.3672656889
 35
0.0
 40
0.0
  0
INSERT
  5
B1
330
1F
100
AcDbEntity
  8
0
  6
Continuous
 62
     7
370
     0
100
AcDbBlockReference
  2
SW_NOTE_0
 10
83.4811542992
 20
181.0123676849
 30
0.0
  0
LEADER
  5
B3
330
1F
100
AcDbEntity
  8
0
  6
Continuous
 62
     7
370
     0
100
AcDbLeader
  3
SLDDIMSTYLE1
 76
     2
 10
71.6305057075
 20
164.9722639138
 30
0.0
 10
83.4811542992
 20
181.0123676849
 30
0.0
  0
INSERT
  5
B9
330
1F
100
AcDbEntity
  8
0
  6
Continuous
 62
     7
370
     0
100
AcDbBlockReference
  2
SW_NOTE_1
 10
58.5650345562
 20
137.9028270488
 30
0.0
  0
LEADER
  5
BA
330
1F
100
AcDbEntity
  8
0
  6
Continuous
 62
     7
370
     0
100
AcDbLeader
  3
SLDDIMSTYLE1
 76
     2
 10
69.4745564495
 20
152.954591196
 30
0.0
 10
58.5650345562
 20
137.9028270488
 30
0.0
  0
INSERT
  5
C6
330
1F
100
AcDbEntity
  8
0
  6
Continuous
 62
     7
370
    18
100
AcDbBlockReference
  2
SW_CENTERMARKSYMBOL_0
 10
70.16953561
 20
163.4637658613
 30
0.0
  0
LINE
  5
C7
330
1F
100
AcDbEntity
  8
0
  6
Continuous
 62
     7
370
    18
100
AcDbLine
 10
173.5531415592
 20
158.963766055
 30
0.0
 11
174.1531442652
 21
158.963766055
 31
0.0
  0
LINE
  5
C8
330
1F
100
AcDbEntity
  8
0
  6
Continuous
 62
     7
370
    18
100
AcDbLine
 10
174.1531442652
 20
167.2988949472
 30
0.0
 11
173.5531415592
 21
167.2988949472
 31
0.0
  0
SPLINE
  5
C9
330
1F
100
AcDbEntity
  8
0
  6
Continuous
 62
     7
370
    18
100
AcDbSpline
210
0.0
220
0.0
230
1.0
 70
     8
 71
     3
 72
    33
 73
    29
 74
     0
 42
0.000000001
 43
0.00000001
 40
0.0
 40
0.0
 40
0.0
 40
0.0
 40
0.001412970420758
 40
0.0305863525614508
 40
0.0611555437118076
 40
0.0941769216469765
 40
0.131193161849721
 40
0.1722335703990023
 40
0.2172815071976261
 40
0.2662237610444532
 40
0.3131772394089049
 40
0.3545599356926828
 40
0.3902977422655064
 40
0.4203438939088863
 40
0.4474268668250099
 40
0.4817319504365591
 40
0.5242603250844678
 40
0.5750514670374172
 40
0.6332705221049492
 40
0.6885008993505969
 40
0.7376495383386648
 40
0.79360449697543
 40
0.8385919671814697
 40
0.8741024134506226
 40
0.9155928297611136
 40
0.9429107477365385
 40
0.9667438837462219
 40
1.0
 40
1.0
 40
1.0
 40
1.0
 10
123.4872367034656
 20
168.5301876755825
 30
0.0
 10
123.4865056369568
 20
168.5306104487182
 30
0.0
 10
123.4706803531036
 20
168.5397621535182
 30
0.0
 10
123.5044199706357
 20
168.4984227483813
 30
0.0
 10
123.5494393567354
 20
168.3848135374447
 30
0.0
 10
123.623018370938
 20
168.1751818258182
 30
0.0
 10
123.7032498324557
 20
167.8844703678382
 30
0.0
 10
123.7971622813025
 20
167.4861644958942
 30
0.0
 10
123.9018991717904
 20
166.9712965926776
 30
0.0
 10
124.0129671140624
 20
166.3545240441997
 30
0.0
 10
124.1213948965755
 20
165.6926986854639
 30
0.0
 10
124.2195291519541
 20
165.0570412122082
 30
0.0
 10
124.3044301772149
 20
164.4873512007896
 30
0.0
 10
124.378107425951
 20
163.9835180907828
 30
0.0
 10
124.450683619204
 20
163.4827262113429
 30
0.0
 10
124.53316806286
 20
162.9122529629632
 30
0.0
 10
124.6345361346163
 20
162.2175241615788
 30
0.0
 10
124.7551125267253
 20
161.4148255960589
 30
0.0
 10
124.8861239114651
 20
160.5950574182007
 30
0.0
 10
125.0164864994301
 20
159.8580200539835
 30
0.0
 10
125.1465102599036
 20
159.2117261859583
 30
0.0
 10
125.2711178838872
 20
158.6923006769216
 30
0.0
 10
125.3901854402124
 20
158.3032623213417
 30
0.0
 10
125.5063059256216
 20
158.0108014879245
 30
0.0
 10
125.6186764351585
 20
157.8077008136832
 30
0.0
 10
125.7349317674394
 20
157.6627686593047
 30
0.0
 10
125.9270980494485
 20
157.505289663145
 30
0.0
 10
126.1094273214686
 20
157.4791354778424
 30
0.0
 10
126.2156393180591
 20
157.4638999196163
 30
0.0
  0
SPLINE
  5
CA
330
1F
100
AcDbEntity
  8
0
  6
Continuous
 62
     7
370
    18
100
AcDbSpline
210
0.0
220
0.0
230
1.0
 70
     8
 71
     3
 72
    36
 73
    32
 74
     0
 42
0.000000001
 43
0.00000001
 40
0.0
 40
0.0
 40
0.0
 40
0.0
 40
0.0004399846316146
 40
0.0301211552750943
 40
0.0568361858620583
 40
0.0804113997699161
 40
0.1051962397273393
 40
0.1340435693194093
 40
0.1669701690908999
 40
0.2040041753509336
 40
0.2451813582446464
 40
0.2896857546322578
 40
0.3308914516351359
 40
0.3783958769068619
 40
0.4173887127787396
 40
0.4478032678494023
 40
0.4781595003541363
 40
0.5158467941007009
 40
0.5609049501754827
 40
0.5996043672968737
 40
0.6421793552284947
 40
0.6829715095230144
 40
0.7199903795030177
 40
0.7532349680149917
 40
0.7826982408597072
 40
0.8083575493353953
 40
0.8358900860366064
 40
0.875013365325812
 40
0.9238033017491635
 40
0.9663457256757368
 40
1.0
 40
1.0
 40
1.0
 40
1.0
 10
128.4948501537544
 20
168.5235962400606
 30
0.0
 10
128.4945907198714
 20
168.5237229187395
 30
0.0
 10
128.4768299898055
 20
168.5323952856412
 30
0.0
 10
128.5066939919109
 20
168.4947256823877
 30
0.0
 10
128.5329579368563
 20
168.4216470006907
 30
0.0
 10
128.5837599440235
 20
168.289064863972
 30
0.0
 10
128.6398759688844
 20
168.1113577744961
 30
0.0
 10
128.7046902497872
 20
167.8757114373547
 30
0.0
 10
128.7804367386209
 20
167.5592543703559
 30
0.0
 10
128.8668555185536
 20
167.1485697110826
 30
0.0
 10
128.963134098203
 20
166.6366601410522
 30
0.0
 10
129.0632879577398
 20
166.051732770404
 30
0.0
 10
129.1686123337255
 20
165.3919007958056
 30
0.0
 10
129.2698935640701
 20
164.7227389274676
 30
0.0
 10
129.3626461163985
 20
164.0902523598663
 30
0.0
 10
129.4418267302684
 20
163.5436935838868
 30
0.0
 10
129.5199828474185
 20
163.0029334877168
 30
0.0
 10
129.6098617570321
 20
162.3852463417654
 30
0.0
 10
129.7065471923882
 20
161.7358957317546
 30
0.0
 10
129.8071459131373
 20
161.0870628370665
 30
0.0
 10
129.904439253232
 20
160.4926850992315
 30
0.0
 10
130.000648005851
 20
159.9477687665921
 30
0.0
 10
130.0898645361991
 20
159.4871957180174
 30
0.0
 10
130.1703642514959
 20
159.1133253147727
 30
0.0
 10
130.2426333735869
 20
158.8135291604722
 30
0.0
 10
130.3099067473512
 20
158.56456268212
 30
0.0
 10
130.3914943484444
 20
158.2994178884586
 30
0.0
 10
130.514919819605
 20
157.9842023325058
 30
0.0
 10
130.6807261342925
 20
157.7164224151032
 30
0.0
 10
130.8932707912127
 20
157.5132948291697
 30
0.0
 10
131.1159775714552
 20
157.4800285013334
 30
0.0
 10
131.214341873954
 20
157.4653355533651
 30
0.0
  0
LWPOLYLINE
  5
CB
330
1F
100
AcDbEntity
  8
0
  6
Continuous
 62
     7
370
    18
100
AcDbPolyline
 90
       30
 70
   128
 43
0.0
 10
133.5165098111
 20
168.5000714975
 10
133.5051905165
 20
168.5015122535
 10
133.5385151009
 20
168.4102007317
 10
133.5891809116
 20
168.2691151405
 10
133.6423370789
 20
168.0987254845
 10
133.705205078
 20
167.8668135906
 10
133.7779618601
 20
167.5611614379
 10
133.860493804
 20
167.1708243562
 10
133.9526947389
 20
166.6859247385
 10
134.0525567333
 20
166.1098735536
 10
134.1456014465
 20
165.5332728884
 10
134.2287219862
 20
164.9929619057
 10
134.323905016
 20
164.3534069195
 10
134.4009980361
 20
163.8251851733
 10
134.4647824566
 20
163.3849618707
 10
134.5426708261
 20
162.8477763048
 10
134.6390254597
 20
162.1909560532
 10
134.7540586988
 20
161.4303671418
 10
134.8527509521
 20
160.809615733
 10
134.9584430258
 20
160.1890890057
 10
135.0566137384
 20
159.6622735856
 10
135.1458828698
 20
159.2303273397
 10
135.2511744748
 20
158.784840362
 10
135.3409241687
 20
158.4642865824
 10
135.4284498642
 20
158.2072611096
 10
135.5300757836
 20
157.97823585
 10
135.6859065394
 20
157.7395513783
 10
135.9151664923
 20
157.5434032025
 10
136.2206309835
 20
157.4644526596
 10
136.2206309835
 20
157.4644526596
  0
SPLINE
  5
CC
330
1F
100
AcDbEntity
  8
0
  6
Continuous
 62
     7
370
    18
100
AcDbSpline
210
0.0
220
0.0
230
1.0
 70
     8
 71
     3
 72
    18
 73
    14
 74
     0
 42
0.000000001
 43
0.00000001
 40
0.0
 40
0.0
 40
0.0
 40
0.0
 40
0.0909289089201479
 40
0.2016840390606748
 40
0.3262982174027413
 40
0.4279192776082498
 40
0.502232765290827
 40
0.5731169922124544
 40
0.6544852098653101
 40
0.7463166570173503
 40
0.8485872440920276
 40
0.961231625579156
 40
0.9999999999999999
 40
0.9999999999999999
 40
0.9999999999999999
 40
0.9999999999999999
 10
133.7139669607383
 20
169.4632974582186
 30
0.0
 10
133.6165813138169
 20
169.4490496796662
 30
0.0
 10
133.4005759657829
 20
169.4174475240895
 30
0.0
 10
133.1912477161441
 20
169.2226059755759
 30
0.0
 10
133.032347139406
 20
168.9761194342533
 30
0.0
 10
132.9134300804296
 20
168.6891956709044
 30
0.0
 10
132.8335256647876
 20
168.4433605660099
 30
0.0
 10
132.7661177939161
 20
168.2054390188925
 30
0.0
 10
132.6933607852213
 20
167.9145835160162
 30
0.0
 10
132.6125141243069
 20
167.5499872224131
 30
0.0
 10
132.5230821807265
 20
167.0976400358171
 30
0.0
 10
132.449505678419
 20
166.6962386635761
 30
0.0
 10
132.4057179807158
 20
166.4315403270417
 30
0.0
 10
132.3945063899261
 20
166.3637658244392
 30
0.0
  0
SPLINE
  5
CD
330
1F
100
AcDbEntity
  8
0
  6
Continuous
 62
     7
370
    18
100
AcDbSpline
210
0.0
220
0.0
230
1.0
 70
     8
 71
     3
 72
    12
 73
     8
 74
     0
 42
0.000000001
 43
0.00000001
 40
0.0
 40
0.0
 40
0.0
 40
0.0
 40
0.1247853474293781
 40
0.4476187057351639
 40
0.7339345739324172
 40
0.983926016190069
 40
1.0
 40
1.0
 40
1.0
 40
1.0
 10
131.508496383856
 20
160.5637658982
 30
0.0
 10
131.4956561807975
 20
160.4874677589665
 30
0.0
 10
131.449596966372
 20
160.2137779785778
 30
0.0
 10
131.3744140773467
 20
159.8176789928702
 30
0.0
 10
131.2872864585918
 20
159.4025399217248
 30
0.0
 10
131.2314893573432
 20
159.1589632579562
 30
0.0
 10
131.2053487496393
 20
159.0623719285465
 30
0.0
 10
131.2037695000869
 20
159.056536493676
 30
0.0
  0
SPLINE
  5
CE
330
1F
100
AcDbEntity
  8
0
  6
Continuous
 62
     7
370
    18
100
AcDbSpline
210
0.0
220
0.0
230
1.0
 70
     8
 71
     3
 72
    15
 73
    11
 74
     0
 42
0.000000001
 43
0.00000001
 40
0.0
 40
0.0
 40
0.0
 40
0.0
 40
0.0738941818777598
 40
0.1679048049132956
 40
0.282100728147559
 40
0.4091923554848504
 40
0.5687183993388615
 40
0.7165527753064102
 40
0.8539774275189068
 40
1.0
 40
1.0
 40
1.0
 40
1.0
 10
128.7154543946487
 20
169.4625989662877
 30
0.0
 10
128.6389282879604
 20
169.4540014999869
 30
0.0
 10
128.4650431364131
 20
169.434466052604
 30
0.0
 10
128.2800991352935
 20
169.3041521628997
 30
0.0
 10
128.1095228745027
 20
169.1016450800242
 30
0.0
 10
127.9490869430769
 20
168.779467314007
 30
0.0
 10
127.7939450285971
 20
168.3211029634616
 30
0.0
 10
127.6551058862219
 20
167.7542863220314
 30
0.0
 10
127.5299371385729
 20
167.1480114804141
 30
0.0
 10
127.448696304529
 20
166.67471894627
 30
0.0
 10
127.4068437318307
 20
166.4308943914643
 30
0.0
  0
SPLINE
  5
CF
330
1F
100
AcDbEntity
  8
0
  6
Continuous
 62
     7
370
    18
100
AcDbSpline
210
0.0
220
0.0
230
1.0
 70
     8
 71
     3
 72
    18
 73
    14
 74
     0
 42
0.000000001
 43
0.00000001
 40
0.0
 40
0.0
 40
0.0
 40
0.0
 40
0.0849790977686892
 40
0.1598331374697416
 40
0.2042504162441065
 40
0.2445521087088914
 40
0.2942911658942217
 40
0.3814367414237849
 40
0.5065020032991806
 40
0.6688459883095252
 40
0.8145729129635524
 40
0.9803027166992219
 40
1.0
 40
1.0
 40
1.0
 40
1.0
 10
123.7147457699281
 20
169.4627298171094
 30
0.0
 10
123.6499931368496
 20
169.4576595832883
 30
0.0
 10
123.5282029934364
 20
169.4481232219877
 30
0.0
 10
123.3972851765436
 20
169.384815568792
 30
0.0
 10
123.3120815527197
 20
169.3267379984886
 30
0.0
 10
123.2511660960187
 20
169.2737545164138
 30
0.0
 10
123.1938180219334
 20
169.212451836825
 30
0.0
 10
123.1235883687958
 20
169.1178303062211
 30
0.0
 10
123.0305998611812
 20
168.9524588955122
 30
0.0
 10
122.9301140457756
 20
168.7155440873242
 30
0.0
 10
122.8251523710943
 20
168.395417336936
 30
0.0
 10
122.7534632130863
 20
168.1496826891128
 30
0.0
 10
122.7151262476438
 20
167.9816185450421
 30
0.0
 10
122.7110538433296
 20
167.9637656676045
 30
0.0
  0
SPLINE
  5
D0
330
1F
100
AcDbEntity
  8
0
  6
Continuous
 62
     7
370
    18
100
AcDbSpline
210
0.0
220
0.0
230
1.0
 70
     8
 71
     3
 72
    14
 73
    10
 74
     0
 42
0.000000001
 43
0.00000001
 40
0.0
 40
0.0
 40
0.0
 40
0.0
 40
0.1291738874004162
 40
0.3207294586684863
 40
0.5013039883339107
 40
0.6450213884913538
 40
0.7891772184802567
 40
0.9610063991681652
 40
1.0
 40
1.0
 40
1.0
 40
1.0
 10
126.1925853590471
 20
157.4638771022132
 30
0.0
 10
126.2853376081537
 20
157.4768684824629
 30
0.0
 10
126.5156347622064
 20
157.5091251439189
 30
0.0
 10
126.7326893102395
 20
157.7209044212924
 30
0.0
 10
126.8830386046586
 20
157.970126404531
 30
0.0
 10
126.9925797133306
 20
158.2357633773507
 30
0.0
 10
127.0832050988127
 20
158.5151590919251
 30
0.0
 10
127.1532764941488
 20
158.7643506206122
 30
0.0
 10
127.1936035612875
 20
158.9403528359948
 30
0.0
 10
127.201062421034
 20
158.972906054782
 30
0.0
  0
SPLINE
  5
D1
330
1F
100
AcDbEntity
  8
0
  6
Continuous
 62
     7
370
    18
100
AcDbSpline
210
0.0
220
0.0
230
1.0
 70
     8
 71
     3
 72
     9
 73
     5
 74
     0
 42
0.000000001
 43
0.00000001
 40
0.0
 40
0.0
 40
0.0
 40
0.0
 40
0.0671059607504243
 40
1.0
 40
1.0
 40
1.0
 40
1.0
 10
127.4531435023052
 20
160.2176938800535
 30
0.0
 10
127.4544667866848
 20
160.2248288853089
 30
0.0
 10
127.4741861136246
 20
160.3311533485254
 30
0.0
 10
127.4937819007045
 20
160.4514975292985
 30
0.0
 10
127.5120626936657
 20
160.5637658982
 30
0.0
  0
SPLINE
  5
D2
330
1F
100
AcDbEntity
  8
0
  6
Continuous
 62
     7
370
    18
100
AcDbSpline
210
0.0
220
0.0
230
1.0
 70
     8
 71
     3
 72
    12
 73
     8
 74
     0
 42
0.000000001
 43
0.00000001
 40
0.0
 40
0.0
 40
0.0
 40
0.0
 40
0.0059249665414012
 40
0.3094752369032593
 40
0.5836306280035194
 40
0.8285082906835453
 40
1.0
 40
1.0
 40
1.0
 40
1.0
 10
128.397251273225
 20
166.3637658244392
 30
0.0
 10
128.3978640945221
 20
166.3674641198673
 30
0.0
 10
128.4298732231427
 20
166.5606349750513
 30
0.0
 10
128.4900678854971
 20
166.8863884772149
 30
0.0
 10
128.5744447835226
 20
167.3156863291804
 30
0.0
 10
128.644819526632
 20
167.6381896972859
 30
0.0
 10
128.6865940038599
 20
167.8040172058439
 30
0.0
 10
128.70379982395
 20
167.8723172413579
 30
0.0
  0
SPLINE
  5
D3
330
1F
100
AcDbEntity
  8
0
  6
Continuous
 62
     7
370
    18
100
AcDbSpline
210
0.0
220
0.0
230
1.0
 70
     8
 71
     3
 72
    17
 73
    13
 74
     0
 42
0.000000001
 43
0.00000001
 40
0.0
 40
0.0
 40
0.0
 40
0.0
 40
0.0908725957715793
 40
0.1939796019214468
 40
0.30495640780101
 40
0.3968166602688924
 40
0.4883625892615271
 40
0.5873694443944825
 40
0.7058284358873635
 40
0.8073543701914251
 40
0.9196797763294405
 40
1.0
 40
1.0
 40
1.0
 40
1.0
 10
131.1912040959102
 20
157.4653420726231
 30
0.0
 10
131.2878564706448
 20
157.4789798233435
 30
0.0
 10
131.4941737769414
 20
157.5080914101028
 30
0.0
 10
131.701392982359
 20
157.689645908962
 30
0.0
 10
131.8515992432183
 20
157.9083548450348
 30
0.0
 10
131.972552564392
 20
158.1797599212392
 30
0.0
 10
132.0622842182731
 20
158.4451372627068
 30
0.0
 10
132.1552076189854
 20
158.7735646680534
 30
0.0
 10
132.2498530510676
 20
159.1702497134422
 30
0.0
 10
132.3472361462219
 20
159.6391800692284
 30
0.0
 10
132.4330117858808
 20
160.0935837592423
 30
0.0
 10
132.4888630061299
 20
160.4254147671496
 30
0.0
 10
132.5121491949064
 20
160.5637658982
 30
0.0
  0
SPLINE
  5
D4
330
1F
100
AcDbEntity
  8
0
  6
Continuous
 62
     7
370
    18
100
AcDbSpline
210
0.0
220
0.0
230
1.0
 70
     8
 71
     3
 72
    12
 73
     8
 74
     0
 42
0.000000001
 43
0.00000001
 40
0.0
 40
0.0
 40
0.0
 40
0.0
 40
0.1617448806457407
 40
0.4620659633661951
 40
0.7330981448025722
 40
0.974959925142231
 40
1.0
 40
1.0
 40
1.0
 40
1.0
 10
133.3983044872982
 20
166.3637658244392
 30
0.0
 10
133.4149666543308
 20
166.4615429396896
 30
0.0
 10
133.4625664314055
 20
166.7408684847884
 30
0.0
 10
133.5376694213938
 20
167.1351970195148
 30
0.0
 10
133.6202519865188
 20
167.5284169630181
 30
0.0
 10
133.6746800771108
 20
167.7667884056371
 30
0.0
 10
133.7010049462137
 20
167.8640714196777
 30
0.0
 10
133.7034746806127
 20
167.8731982725135
 30
0.0
  0
SPLINE
  5
D5
330
1F
100
AcDbEntity
  8
0
  6
Continuous
 62
     7
370
    18
100
AcDbSpline
210
0.0
220
0.0
230
1.0
 70
     8
 71
     3
 72
    19
 73
    15
 74
     0
 42
0.000000001
 43
0.00000001
 40
0.0
 40
0.0
 40
0.0
 40
0.0
 40
0.0260947212005633
 40
0.036830192813367
 40
0.0465256910622229
 40
0.0557485999988073
 40
0.065151344482165
 40
0.0867139473512005
 40
0.1146834312451832
 40
0.150591456996747
 40
0.2484725078956104
 40
0.435192756418385
 40
0.6861655154345955
 40
1.0
 40
1.0
 40
1.0
 40
1.0
 10
136.1986461828453
 20
157.4642980600169
 30
0.0
 10
136.2082619864872
 20
157.4642203671331
 30
0.0
 10
136.221833769817
 20
157.4641107110893
 30
0.0
 10
136.2460170390424
 20
157.4662121641345
 30
0.0
 10
136.2636705164651
 20
157.4683951596168
 30
0.0
 10
136.2820836259922
 20
157.4713077006099
 30
0.0
 10
136.3084028928238
 20
157.4762955545866
 30
0.0
 10
136.3431998243209
 20
157.4845379353118
 30
0.0
 10
136.3825962481553
 20
157.4960355314444
 30
0.0
 10
136.44332596217
 20
157.517178438306
 30
0.0
 10
136.5328576930486
 20
157.5587532518028
 30
0.0
 10
136.6442036375982
 20
157.6372643148265
 30
0.0
 10
136.7681238947495
 20
157.7723685652915
 30
0.0
 10
136.8429434383484
 20
157.9107154441204
 30
0.0
 10
136.8845168302757
 20
157.9875877255967
 30
0.0
  0
SPLINE
  5
D6
330
1F
100
AcDbEntity
  8
0
  6
Continuous
 62
     7
370
    18
100
AcDbSpline
210
0.0
220
0.0
230
1.0
 70
     8
 71
     3
 72
    36
 73
    32
 74
     0
 42
0.000000001
 43
0.00000001
 40
0.0
 40
0.0
 40
0.0
 40
0.0
 40
0.0042524948378923
 40
0.035566229611839
 40
0.0615512501400052
 40
0.0851538241970966
 40
0.1125883148598711
 40
0.1440541106103872
 40
0.1795709231733056
 40
0.2191423805315706
 40
0.2627093995784148
 40
0.3052736786196922
 40
0.3435903722909056
 40
0.3879762711614376
 40
0.4246434746521741
 40
0.4535520297620036
 40
0.4829600904707007
 40
0.5202151179942334
 40
0.5653607352659875
 40
0.6044317973416933
 40
0.6476322794287371
 40
0.6891289386343484
 40
0.7268251975068459
 40
0.7606896222940491
 40
0.7906954859248103
 40
0.8168250652147023
 40
0.843973222529436
 40
0.8806233752543359
 40
0.9253933883705654
 40
0.9658730839773289
 40
1.0
 40
1.0
 40
1.0
 40
1.0
 10
136.3758619676334
 20
158.4561021196118
 30
0.0
 10
136.377852919761
 20
158.4561742304664
 30
0.0
 10
136.3945044768388
 20
158.4567773378911
 30
0.0
 10
136.3760482890025
 20
158.4935846229761
 30
0.0
 10
136.337478958627
 20
158.5986910847275
 30
0.0
 10
136.279070960188
 20
158.7737615619892
 30
0.0
 10
136.2191565165396
 20
158.9871417743091
 30
0.0
 10
136.1476565510102
 20
159.2761936331151
 30
0.0
 10
136.0663460977692
 20
159.6496583825582
 30
0.0
 10
135.9747877090998
 20
160.1195614976515
 30
0.0
 10
135.8771308078092
 20
160.6729467349396
 30
0.0
 10
135.7802223931364
 20
161.2678454788147
 30
0.0
 10
135.6826276350844
 20
161.9000020410567
 30
0.0
 10
135.5894489294685
 20
162.526925979626
 30
0.0
 10
135.5035129894652
 20
163.11722273935
 30
0.0
 10
135.4292140113194
 20
163.6307809233168
 30
0.0
 10
135.3544674147463
 20
164.1467272563156
 30
0.0
 10
135.2669766548742
 20
164.7445284632047
 30
0.0
 10
135.1718090854466
 20
165.378060984664
 30
0.0
 10
135.0718463442339
 20
166.0145953350232
 30
0.0
 10
134.9745447789645
 20
166.5974842133193
 30
0.0
 10
134.8780712011127
 20
167.1288906861196
 30
0.0
 10
134.7884774365067
 20
167.5762440290665
 30
0.0
 10
134.7074736797467
 20
167.9388522786698
 30
0.0
 10
134.6345305268133
 20
168.228340166607
 30
0.0
 10
134.5670391075452
 20
168.4646346416245
 30
0.0
 10
134.4877222856721
 20
168.7053670649763
 30
0.0
 10
134.3701859112737
 20
168.9840706473913
 30
0.0
 10
134.2127101115838
 20
169.2249465777759
 30
0.0
 10
134.002098817631
 20
169.4178928468192
 30
0.0
 10
133.7885339536739
 20
169.449047484812
 30
0.0
 10
133.6908440838558
 20
169.4632983895412
 30
0.0
  0
SPLINE
  5
D7
330
1F
100
AcDbEntity
  8
0
  6
Continuous
 62
     7
370
    18
100
AcDbSpline
210
0.0
220
0.0
230
1.0
 70
     8
 71
     3
 72
    35
 73
    31
 74
     0
 42
0.000000001
 43
0.00000001
 40
0.0
 40
0.0
 40
0.0
 40
0.0
 40
0.0164719918870962
 40
0.061443717330359
 40
0.0934749688946116
 40
0.1181229440486187
 40
0.1463683923025316
 40
0.1784408517228963
 40
0.2143602851077509
 40
0.2541624520007633
 40
0.2968132420072549
 40
0.3363070880441545
 40
0.3716601593961139
 40
0.4123214488499801
 40
0.4455602593675071
 40
0.4742738336663281
 40
0.5104855468097491
 40
0.5555127241371949
 40
0.6094374947234593
 40
0.6550862661417085
 40
0.6981446718332189
 40
0.7368619397174608
 40
0.7712304969973013
 40
0.8102653018180803
 40
0.8417118067848769
 40
0.8747643087135663
 40
0.9040881385861745
 40
0.936888083912341
 40
0.9690238738722695
 40
1.0
 40
1.0
 40
1.0
 40
1.0
 10
131.3808828393919
 20
158.4362286271921
 30
0.0
 10
131.3865495420979
 20
158.435399105651
 30
0.0
 10
131.4076874397881
 20
158.4323048297771
 30
0.0
 10
131.3560250478733
 20
158.5377327421742
 30
0.0
 10
131.3004865168835
 20
158.7082775240982
 30
0.0
 10
131.2340767691549
 20
158.9322140541291
 30
0.0
 10
131.1701095029008
 20
159.1827308586974
 30
0.0
 10
131.0954099796107
 20
159.5108563848187
 30
0.0
 10
131.011328234542
 20
159.9262709567163
 30
0.0
 10
130.9183370311334
 20
160.4345710190104
 30
0.0
 10
130.8222064127547
 20
161.0064711969137
 30
0.0
 10
130.7294564063232
 20
161.5940001029622
 30
0.0
 10
130.6381192891776
 20
162.1970522855115
 30
0.0
 10
130.5516004086895
 20
162.7854997151374
 30
0.0
 10
130.4703421131925
 20
163.3461861918717
 30
0.0
 10
130.3926144547978
 20
163.8839857830121
 30
0.0
 10
130.3054893525244
 20
164.4835093685356
 30
0.0
 10
130.1981733542436
 20
165.2068766356063
 30
0.0
 10
130.0830837340473
 20
165.9469613308853
 30
0.0
 10
129.969542395473
 20
166.6262975918862
 30
0.0
 10
129.8676894503925
 20
167.1844522486829
 30
0.0
 10
129.774160600914
 20
167.6451064782275
 30
0.0
 10
129.6832051795141
 20
168.0419147170328
 30
0.0
 10
129.5961392651136
 20
168.3685156845364
 30
0.0
 10
129.5100756712488
 20
168.6409956135736
 30
0.0
 10
129.4179984919653
 20
168.8783561682705
 30
0.0
 10
129.3032666279317
 20
169.0967518245386
 30
0.0
 10
129.1705248191583
 20
169.2688546013583
 30
0.0
 10
128.9772393615139
 20
169.4246503236789
 30
0.0
 10
128.786150264299
 20
169.450093458833
 30
0.0
 10
128.6923613200885
 20
169.4625812711588
 30
0.0
  0
LWPOLYLINE
  5
D8
330
1F
100
AcDbEntity
  8
0
  6
Continuous
 62
     7
370
    18
100
AcDbPolyline
 90
       23
 70
   128
 43
0.0
 10
126.3614360045
 20
158.4459469783
 10
126.3694286148
 20
158.4462026263
 10
126.3378158013
 20
158.5576851981
 10
126.2705407838
 20
158.7859137113
 10
126.188517342
 20
159.1054993811
 10
126.1005371611
 20
159.4942753332
 10
126.0129630367
 20
159.9267438183
 10
125.9287379484
 20
160.3837011977
 10
125.7714915822
 20
161.3287244587
 10
125.629861633
 20
162.255908585
 10
125.4925250809
 20
163.1936275413
 10
125.3425746958
 20
164.2275249365
 10
125.179731081
 20
165.3215765151
 10
125.0181466143
 20
166.3347537293
 10
124.870895202
 20
167.1592303215
 10
124.7368126909
 20
167.8056438582
 10
124.5993234019
 20
168.3487897868
 10
124.4463648449
 20
168.7999312895
 10
124.3473838816
 20
169.0076260025
 10
124.2015983711
 20
169.2169170024
 10
123.985855634
 20
169.3897937553
 10
123.691622893
 20
169.462764276
 10
123.691622893
 20
169.462764276
  0
SPLINE
  5
D9
330
1F
100
AcDbEntity
  8
0
  6
Continuous
 62
     7
370
    18
100
AcDbSpline
210
0.0
220
0.0
230
1.0
 70
     8
 71
     3
 72
    11
 73
     7
 74
     0
 42
0.000000001
 43
0.00000001
 40
0.0
 40
0.0
 40
0.0
 40
0.0
 40
0.3065023724758653
 40
0.6051820647547048
 40
0.8969451441945254
 40
1.0
 40
1.0
 40
1.0
 40
1.0
 10
136.883984113763
 20
157.9867011065057
 30
0.0
 10
136.9517827361415
 20
158.1512074817907
 30
0.0
 10
137.0856495964437
 20
158.4760216326766
 30
0.0
 10
137.2720510177604
 20
159.2549069153596
 30
0.0
 10
137.412944672125
 20
159.9754796481346
 30
0.0
 10
137.4919551994141
 20
160.4419963302248
 30
0.0
 10
137.5125784228546
 20
160.5637658982
 30
0.0
  0
SPLINE
  5
DA
330
1F
100
AcDbEntity
  8
0
  6
Continuous
 62
     7
370
    18
100
AcDbSpline
210
0.0
220
0.0
230
1.0
 70
     8
 71
     3
 72
    11
 73
     7
 74
     0
 42
0.000000001
 43
0.00000001
 40
0.0
 40
0.0
 40
0.0
 40
0.0
 40
0.2863349886654928
 40
0.551740740803479
 40
0.7922683655574247
 40
1.0
 40
1.0
 40
1.0
 40
1.0
 10
138.3971784065467
 20
166.3637658244392
 30
0.0
 10
138.4267516270429
 20
166.5320242007082
 30
0.0
 10
138.4837364568064
 20
166.8562423537244
 30
0.0
 10
138.5648980099332
 20
167.2685397107038
 30
0.0
 10
138.6374723527339
 20
167.6069941367305
 30
0.0
 10
138.6822460008058
 20
167.7882433666462
 30
0.0
 10
138.7029949377281
 20
167.8722376132777
 30
0.0
  0
SPLINE
  5
DB
330
1F
100
AcDbEntity
  8
0
  6
Continuous
 62
     7
370
    18
100
AcDbSpline
210
0.0
220
0.0
230
1.0
 70
     8
 71
     3
 72
    15
 73
    11
 74
     0
 42
0.000000001
 43
0.00000001
 40
0.0
 40
0.0
 40
0.0
 40
0.0
 40
0.0719085202742137
 40
0.1660898605405316
 40
0.2826741644930018
 40
0.4135004969764128
 40
0.5762615000173557
 40
0.725099827050966
 40
0.8614872088615163
 40
1.0
 40
1.0
 40
1.0
 40
1.0
 10
141.1922078381282
 20
157.4653984176389
 30
0.0
 10
141.2686200370999
 20
157.4739903089034
 30
0.0
 10
141.4451122166412
 20
157.4938353288882
 30
0.0
 10
141.6294991777734
 20
157.6250122135271
 30
0.0
 10
141.8032808463376
 20
157.8339759565679
 30
0.0
 10
141.9672625870045
 20
158.1739993352326
 30
0.0
 10
142.1259879465976
 20
158.6542200051666
 30
0.0
 10
142.2670095907891
 20
159.2420651813212
 30
0.0
 10
142.3913738659006
 20
159.8568459353494
 30
0.0
 10
142.4710073694477
 20
160.3269144550381
 30
0.0
 10
142.5111319671375
 20
160.5637658982
 30
0.0
  0
SPLINE
  5
DC
330
1F
100
AcDbEntity
  8
0
  6
Continuous
 62
     7
370
    18
100
AcDbSpline
210
0.0
220
0.0
230
1.0
 70
     8
 71
     3
 72
    10
 73
     6
 74
     0
 42
0.000000001
 43
0.00000001
 40
0.0
 40
0.0
 40
0.0
 40
0.0
 40
0.1904032421376766
 40
0.6375440296064634
 40
1.0
 40
1.0
 40
1.0
 40
1.0
 10
143.3996137033207
 20
166.3637658244392
 30
0.0
 10
143.4193077658161
 20
166.4810989030523
 30
0.0
 10
143.4852511385326
 20
166.873975636165
 30
0.0
 10
143.5887006993966
 20
167.3986317106612
 30
0.0
 10
143.6687244721598
 20
167.7257185945513
 30
0.0
 10
143.7045510659916
 20
167.8721551912299
 30
0.0
  0
SPLINE
  5
DD
330
1F
100
AcDbEntity
  8
0
  6
Continuous
 62
     7
370
    18
100
AcDbSpline
210
0.0
220
0.0
230
1.0
 70
     8
 71
     3
 72
    14
 73
    10
 74
     0
 42
0.000000001
 43
0.00000001
 40
0.0
 40
0.0
 40
0.0
 40
0.0
 40
0.1046773012776892
 40
0.2644634861404687
 40
0.4274320800580289
 40
0.6309485266094224
 40
0.8191019140044841
 40
0.9941314020613657
 40
1.0
 40
1.0
 40
1.0
 40
1.0
 10
146.1918752442104
 20
157.4639096985033
 30
0.0
 10
146.2964831991623
 20
157.4807083040972
 30
0.0
 10
146.560771484272
 20
157.523149384861
 30
0.0
 10
146.8066598214368
 20
157.8215489960171
 30
0.0
 10
146.9943236420548
 20
158.226774867737
 30
0.0
 10
147.1823153274065
 20
158.8511580020027
 30
0.0
 10
147.3517757008075
 20
159.6536152700599
 30
0.0
 10
147.4587783990334
 20
160.2279580470199
 30
0.0
 10
147.5112178510387
 20
160.5532141165776
 30
0.0
 10
147.5129190633995
 20
160.5637658982
 30
0.0
  0
SPLINE
  5
DE
330
1F
100
AcDbEntity
  8
0
  6
Continuous
 62
     7
370
    18
100
AcDbSpline
210
0.0
220
0.0
230
1.0
 70
     8
 71
     3
 72
    19
 73
    15
 74
     0
 42
0.000000001
 43
0.00000001
 40
0.0
 40
0.0
 40
0.0
 40
0.0
 40
0.0976951668484527
 40
0.1899295666268332
 40
0.2767620208020377
 40
0.3581561664969941
 40
0.4580684285040221
 40
0.5481248108892971
 40
0.6283106085968921
 40
0.7298159402790598
 40
0.8119220253478984
 40
0.8995407715747057
 40
0.9481374511550689
 40
1.0
 40
1.0
 40
1.0
 40
1.0
 10
150.3824356744987
 20
163.953915402612
 30
0.0
 10
150.3421098798256
 20
164.2308556669953
 30
0.0
 10
150.2637123402826
 20
164.7692563483458
 30
0.0
 10
150.1489726068384
 20
165.5266086166478
 30
0.0
 10
150.0405402927028
 20
166.2040595239409
 30
0.0
 10
149.9281223308442
 20
166.8565506562632
 30
0.0
 10
149.8129345431762
 20
167.4587629368471
 30
0.0
 10
149.695718687315
 20
167.9836403294377
 30
0.0
 10
149.5749601537214
 20
168.4373019356643
 30
0.0
 10
149.4496514481102
 20
168.8000418481901
 30
0.0
 10
149.3155900878666
 20
169.088044588744
 30
0.0
 10
149.1303975565154
 20
169.3130657177124
 30
0.0
 10
148.9081267891789
 20
169.4419385197396
 30
0.0
 10
148.7655841183747
 20
169.4555012281165
 30
0.0
 10
148.6919957946045
 20
169.4625030400625
 30
0.0
  0
SPLINE
  5
DF
330
1F
100
AcDbEntity
  8
0
  6
Continuous
 62
     7
370
    18
100
AcDbSpline
210
0.0
220
0.0
230
1.0
 70
     8
 71
     3
 72
    33
 73
    29
 74
     0
 42
0.000000001
 43
0.00000001
 40
0.0
 40
0.0
 40
0.0
 40
0.0
 40
0.0257024740559418
 40
0.0563648112567883
 40
0.090323385578548
 40
0.1275579824814174
 40
0.1680959505595007
 40
0.2119384174197698
 40
0.2590324559104445
 40
0.3044338929422298
 40
0.3440973163147099
 40
0.3779746757701304
 40
0.4140428719991558
 40
0.4476596421723762
 40
0.491708517684261
 40
0.5317811338396541
 40
0.5779274056871535
 40
0.630115938187126
 40
0.6823086506420459
 40
0.7303952366092042
 40
0.774381353822373
 40
0.8142448752027576
 40
0.8499718276194088
 40
0.8900756558650618
 40
0.9202717261824752
 40
0.9404230966923205
 40
0.9662954422553265
 40
1.0
 40
1.0
 40
1.0
 40
1.0
 10
146.423916126321
 20
158.3930483216813
 30
0.0
 10
146.4215989511495
 20
158.3987245166354
 30
0.0
 10
146.4165174503995
 20
158.4111722544114
 30
0.0
 10
146.3632161820545
 20
158.5235137297373
 30
0.0
 10
146.2940303174138
 20
158.7198999720799
 30
0.0
 10
146.2132699559009
 20
159.0029023387544
 30
0.0
 10
146.1214504544212
 20
159.3875087684738
 30
0.0
 10
146.019717205388
 20
159.8802469437434
 30
0.0
 10
145.9124649483116
 20
160.4660261278188
 30
0.0
 10
145.807967471011
 20
161.0932352964836
 30
0.0
 10
145.7138171615129
 20
161.6957527934499
 30
0.0
 10
145.6269627700481
 20
162.2731207779351
 30
0.0
 10
145.544771080725
 20
162.833031104313
 30
0.0
 10
145.4544604962993
 20
163.4561412896359
 30
0.0
 10
145.3608388593661
 20
164.103695269757
 30
0.0
 10
145.2572408738795
 20
164.8104058601892
 30
0.0
 10
145.1470425488858
 20
165.540209286907
 30
0.0
 10
145.02705861806
 20
166.2920958042028
 30
0.0
 10
144.9048573755947
 20
166.9910625078381
 30
0.0
 10
144.7878187532228
 20
167.5832554630591
 30
0.0
 10
144.6785420423733
 20
168.0605684455238
 30
0.0
 10
144.5761600432639
 20
168.4358230699801
 30
0.0
 10
144.4718122034297
 20
168.7463722604369
 30
0.0
 10
144.3689146703591
 20
168.980303616015
 30
0.0
 10
144.2690460934496
 20
169.1436445499227
 30
0.0
 10
144.1674343243297
 20
169.2664416884387
 30
0.0
 10
143.9874043781196
 20
169.4195530187112
 30
0.0
 10
143.7985101567767
 20
169.4471856374454
 30
0.0
 10
143.6916466603977
 20
169.462818292754
 30
0.0
  0
LWPOLYLINE
  5
E0
330
1F
100
AcDbEntity
  8
0
  6
Continuous
 62
     7
370
    18
100
AcDbPolyline
 90
       30
 70
   128
 43
0.0
 10
141.4124246488
 20
158.405980667
 10
141.3761514972
 20
158.4993275943
 10
141.3306657027
 20
158.6200428324
 10
141.2751067231
 20
158.792598279
 10
141.2092845689
 20
159.030337924
 10
141.1334562848
 20
159.3448576646
 10
141.0478640149
 20
159.7475003114
 10
140.9527350019
 20
160.2484913206
 10
140.8500958036
 20
160.842836242
 10
140.7547320972
 20
161.4356067626
 10
140.6441356788
 20
162.1599749092
 10
140.5527505825
 20
162.7791238612
 10
140.4807928751
 20
163.2741537365
 10
140.408518518
 20
163.7735688897
 10
140.3187054942
 20
164.3909976015
 10
140.2111787151
 20
165.1150495641
 10
140.1187840651
 20
165.7143725211
 10
140.0170352112
 20
166.3402031305
 10
139.9193022202
 20
166.8994276448
 10
139.830241705
 20
167.3665429594
 10
139.7498238633
 20
167.7486082668
 10
139.6780263434
 20
168.0545840541
 10
139.6148305188
 20
168.2949914726
 10
139.5401757012
 20
168.5423889326
 10
139.4620116602
 20
168.7578126917
 10
139.3532257329
 20
168.992315525
 10
139.2135906766
 20
169.2037108483
 10
138.971059377
 20
169.4004462229
 10
138.6924300144
 20
169.4630725438
 10
138.6924300144
 20
169.4630725438
  0
SPLINE
  5
E1
330
1F
100
AcDbEntity
  8
0
  6
Continuous
 62
     7
370
    18
100
AcDbSpline
210
0.0
220
0.0
230
1.0
 70
     8
 71
     3
 72
    34
 73
    30
 74
     0
 42
0.000000001
 43
0.00000001
 40
0.0
 40
0.0
 40
0.0
 40
0.0
 40
0.0211722752929596
 40
0.0685198091469949
 40
0.1015073373754672
 40
0.1261387739428272
 40
0.154333385481328
 40
0.1863564629844548
 40
0.2222371444861446
 40
0.2619869309210759
 40
0.3045544399927048
 40
0.3439617590440562
 40
0.3792576285941308
 40
0.4198681244336211
 40
0.4530534974738276
 40
0.4816358079745215
 40
0.5173336786854991
 40
0.561459853785739
 40
0.6140987101920882
 40
0.6585409094958284
 40
0.7007153988164055
 40
0.7390419298061008
 40
0.7735189133393148
 40
0.8134466921134896
 40
0.8465909259710609
 40
0.8799637388996105
 40
0.9380164762061182
 40
0.9687951441269897
 40
1.0
 40
1.0
 40
1.0
 40
1.0
 10
138.5174941073162
 20
168.5001297051481
 30
0.0
 10
138.5166158375
 20
168.4946840377986
 30
0.0
 10
138.5137734939468
 20
168.4770602310846
 30
0.0
 10
138.5581897372954
 20
168.3661458403371
 30
0.0
 10
138.6200400465144
 20
168.1768094805172
 30
0.0
 10
138.6871311295242
 20
167.9418476230369
 30
0.0
 10
138.7516850262016
 20
167.6822333872568
 30
0.0
 10
138.8266071550029
 20
167.3439023791026
 30
0.0
 10
138.9108682206129
 20
166.9191772773155
 30
0.0
 10
139.0039609314956
 20
166.4030756379979
 30
0.0
 10
139.1002039757328
 20
165.8246766598351
 30
0.0
 10
139.1930694862942
 20
165.2314397972571
 30
0.0
 10
139.2844604460009
 20
164.6237851359193
 30
0.0
 10
139.3709873276256
 20
164.0328957796116
 30
0.0
 10
139.452227945457
 20
163.4715646915056
 30
0.0
 10
139.5295862058816
 20
162.9366657099181
 30
0.0
 10
139.6157430196724
 20
162.3455729758528
 30
0.0
 10
139.7211474617877
 20
161.638733392673
 30
0.0
 10
139.8336952388508
 20
160.9185132386315
 30
0.0
 10
139.9448191050205
 20
160.2572312538709
 30
0.0
 10
140.045024137613
 20
159.7117472539884
 30
0.0
 10
140.1379807734233
 20
159.2584203161948
 30
0.0
 10
140.2298179226451
 20
158.8608553470755
 30
0.0
 10
140.3198551229362
 20
158.5268458138404
 30
0.0
 10
140.4089670742195
 20
158.2499189322617
 30
0.0
 10
140.5339322815263
 20
157.9419633463154
 30
0.0
 10
140.6877846294749
 20
157.695678596853
 30
0.0
 10
140.9361445034076
 20
157.5021426143462
 30
0.0
 10
141.1218653348168
 20
157.477708693159
 30
0.0
 10
141.2153642426235
 20
157.4654077308646
 30
0.0
  0
SPLINE
  5
E2
330
1F
100
AcDbEntity
  8
0
  6
Continuous
 62
     7
370
    18
100
AcDbSpline
210
0.0
220
0.0
230
1.0
 70
     8
 71
     3
 72
    32
 73
    28
 74
     0
 42
0.000000001
 43
0.00000001
 40
0.0
 40
0.0
 40
0.0
 40
0.0
 40
0.0151876560931656
 40
0.0373163421467418
 40
0.0652314028413845
 40
0.0983356921925681
 40
0.1359049486980955
 40
0.1779666698905705
 40
0.2245051550289959
 40
0.2754946627341406
 40
0.3269522015630399
 40
0.3727008350171495
 40
0.4125924697158699
 40
0.4465825777268624
 40
0.4826775716288642
 40
0.5155048380019633
 40
0.5583973755836801
 40
0.5973996221367668
 40
0.6422902891502552
 40
0.6901464275912088
 40
0.7347416084040781
 40
0.788778004259143
 40
0.8366470937838221
 40
0.8788776020383544
 40
0.9363395406060493
 40
0.966154252956587
 40
1.0
 40
1.0
 40
1.0
 40
1.0
 10
143.4739853988391
 20
168.5455666052571
 30
0.0
 10
143.4756160749066
 20
168.5429375924422
 30
0.0
 10
143.4796226751146
 20
168.5364780610237
 30
0.0
 10
143.5110714395107
 20
168.4799731063208
 30
0.0
 10
143.5583640612024
 20
168.3675009918854
 30
0.0
 10
143.6241901636843
 20
168.1727997380524
 30
0.0
 10
143.7053381991233
 20
167.8793827986077
 30
0.0
 10
143.8006842020605
 20
167.4715021006452
 30
0.0
 10
143.9091301467445
 20
166.9348074023122
 30
0.0
 10
144.0268989955281
 20
166.2745125538058
 30
0.0
 10
144.1446460312989
 20
165.5470348659105
 30
0.0
 10
144.2535810191462
 20
164.8316746454105
 30
0.0
 10
144.3488307310672
 20
164.185097629935
 30
0.0
 10
144.4364925706488
 20
163.5809236844884
 30
0.0
 10
144.5185775716221
 20
163.0130086113226
 30
0.0
 10
144.6076922002217
 20
162.4008965928675
 30
0.0
 10
144.6992815193053
 20
161.783968072024
 30
0.0
 10
144.8006564487867
 20
161.1265379995823
 30
0.0
 10
144.906279352165
 20
160.4796206258958
 30
0.0
 10
145.0166145356947
 20
159.859559011106
 30
0.0
 10
145.1354517436103
 20
159.2634980854314
 30
0.0
 10
145.2566679452773
 20
158.7455594798145
 30
0.0
 10
145.3802001903357
 20
158.3273208182983
 30
0.0
 10
145.5149927415137
 20
157.9825869763787
 30
0.0
 10
145.6638251205801
 20
157.7245088286485
 30
0.0
 10
145.9148161686552
 20
157.5086470019373
 30
0.0
 10
146.1107254335878
 20
157.4794304239732
 30
0.0
 10
146.2148826370937
 20
157.4638971256486
 30
0.0
  0
SPLINE
  5
E3
330
1F
100
AcDbEntity
  8
0
  6
Continuous
 62
     7
370
    18
100
AcDbSpline
210
0.0
220
0.0
230
1.0
 70
     8
 71
     3
 72
    17
 73
    13
 74
     0
 42
0.000000001
 43
0.00000001
 40
0.0
 40
0.0
 40
0.0
 40
0.0
 40
0.0460943757949308
 40
0.1426252627343821
 40
0.2629215511638498
 40
0.4083952478591228
 40
0.4908076659291628
 40
0.5796977530630392
 40
0.6750755000392482
 40
0.7769076291033684
 40
0.8851855530095092
 40
1.0
 40
1.0
 40
1.0
 40
1.0
 10
148.5251884709102
 20
168.4905585030487
 30
0.0
 10
148.5194122538582
 20
168.4911183078115
 30
0.0
 10
148.5015394773979
 20
168.4928504562567
 30
0.0
 10
148.5875724045223
 20
168.3195863839302
 30
0.0
 10
148.6771499153794
 20
168.0034496198612
 30
0.0
 10
148.7862524133733
 20
167.5541267074024
 30
0.0
 10
148.8852704912166
 20
167.0614486973703
 30
0.0
 10
148.9707780638103
 20
166.5974733074206
 30
0.0
 10
149.0635152218363
 20
166.0522562465536
 30
0.0
 10
149.1635635532065
 20
165.4249072280737
 30
0.0
 10
149.270692797097
 20
164.7187211997646
 30
0.0
 10
149.344527674395
 20
164.2130196912588
 30
0.0
 10
149.3825267801982
 20
163.9527605044118
 30
0.0
  0
SPLINE
  5
E4
330
1F
100
AcDbEntity
  8
0
  6
Continuous
 62
     7
370
    18
100
AcDbSpline
210
0.0
220
0.0
230
1.0
 70
     8
 71
     3
 72
    14
 73
    10
 74
     0
 42
0.000000001
 43
0.00000001
 40
0.0
 40
0.0
 40
0.0
 40
0.0
 40
0.120432968264537
 40
0.2275516667065569
 40
0.401817331017649
 40
0.531319785260173
 40
0.6503667520802682
 40
0.8832681427759991
 40
1.0
 40
1.0
 40
1.0
 40
1.0
 10
148.7151000450355
 20
169.4625333080462
 30
0.0
 10
148.6370455242143
 20
169.4542969792341
 30
0.0
 10
148.4895656724528
 20
169.4387348754701
 30
0.0
 10
148.2631186536895
 20
169.2997840152757
 30
0.0
 10
148.0844462975507
 20
169.0744987759052
 30
0.0
 10
147.9757235880452
 20
168.8455645012682
 30
0.0
 10
147.8633677141999
 20
168.5490263654666
 30
0.0
 10
147.7616141891511
 20
168.2081279043726
 30
0.0
 10
147.6909172630535
 20
167.8856147605293
 30
0.0
 10
147.6673137198192
 20
167.7779374773076
 30
0.0
  0
SPLINE
  5
E5
330
1F
100
AcDbEntity
  8
0
  6
Continuous
 62
     7
370
    18
100
AcDbSpline
210
0.0
220
0.0
230
1.0
 70
     8
 71
     3
 72
     9
 73
     5
 74
     0
 42
0.000000001
 43
0.00000001
 40
0.0
 40
0.0
 40
0.0
 40
0.0
 40
0.184819166405286
 40
1.0
 40
1.0
 40
1.0
 40
1.0
 10
147.4531430552703
 20
166.705522093775
 30
0.0
 10
147.4495719029734
 20
166.6868649881823
 30
0.0
 10
147.4302494897926
 20
166.5859170943269
 30
0.0
 10
147.4111312029616
 20
166.4635318940338
 30
0.0
 10
147.3955463419658
 20
166.3637658244392
 30
0.0
  0
SPLINE
  5
E6
330
1F
100
AcDbEntity
  8
0
  6
Continuous
 62
     7
370
    18
100
AcDbSpline
210
0.0
220
0.0
230
1.0
 70
     8
 71
     3
 72
    10
 73
     6
 74
     0
 42
0.000000001
 43
0.00000001
 40
0.0
 40
0.0
 40
0.0
 40
0.0
 40
0.297122450134505
 40
0.7887089135299811
 40
1.0
 40
1.0
 40
1.0
 40
1.0
 10
146.5074669371349
 20
160.5637658982
 30
0.0
 10
146.4760619015942
 20
160.3815990610623
 30
0.0
 10
146.3926975127724
 20
159.8980388045586
 30
0.0
 10
146.2884538135997
 20
159.3963933048933
 30
0.0
 10
146.2237382467643
 20
159.1307658717277
 30
0.0
 10
146.2042841861946
 20
159.0509159619382
 30
0.0
  0
SPLINE
  5
E7
330
1F
100
AcDbEntity
  8
0
  6
Continuous
 62
     7
370
    18
100
AcDbSpline
210
0.0
220
0.0
230
1.0
 70
     8
 71
     3
 72
    16
 73
    12
 74
     0
 42
0.000000001
 43
0.00000001
 40
0.0
 40
0.0
 40
0.0
 40
0.0
 40
0.0829048446512144
 40
0.1991067954534923
 40
0.3088212717810221
 40
0.4499408597880049
 40
0.6139192885004772
 40
0.7092300973406479
 40
0.8133859206710795
 40
0.9263959665881687
 40
1.0
 40
1.0
 40
1.0
 40
1.0
 10
143.7147211085064
 20
169.4627833681575
 30
0.0
 10
143.6227358315865
 20
169.4505960287358
 30
0.0
 10
143.401821193926
 20
169.4213265438515
 30
0.0
 10
143.1840950454312
 20
169.2199480860747
 30
0.0
 10
143.0158627944984
 20
168.9491118997503
 30
0.0
 10
142.8762979636688
 20
168.5949717325339
 30
0.0
 10
142.7550160143544
 20
168.1720153179961
 30
0.0
 10
142.6465633922375
 20
167.70964203186
 30
0.0
 10
142.5547487343459
 20
167.2638516319264
 30
0.0
 10
142.470013503979
 20
166.8120851515186
 30
0.0
 10
142.4159586465649
 20
166.4905752551201
 30
0.0
 10
142.3946384142143
 20
166.3637658244392
 30
0.0
  0
SPLINE
  5
E8
330
1F
100
AcDbEntity
  8
0
  6
Continuous
 62
     7
370
    18
100
AcDbSpline
210
0.0
220
0.0
230
1.0
 70
     8
 71
     3
 72
    11
 73
     7
 74
     0
 42
0.000000001
 43
0.00000001
 40
0.0
 40
0.0
 40
0.0
 40
0.0
 40
0.2254725039089144
 40
0.5546078015278635
 40
0.8532288448663007
 40
1.0
 40
1.0
 40
1.0
 40
1.0
 10
141.5083545993072
 20
160.5637658982
 30
0.0
 10
141.4848463573675
 20
160.4264931564816
 30
0.0
 10
141.4270217705377
 20
160.0888354280479
 30
0.0
 10
141.339357001746
 20
159.6429604353797
 30
0.0
 10
141.2606401420162
 20
159.2771012487012
 30
0.0
 10
141.21745456718
 20
159.1104093548679
 30
0.0
 10
141.2032235215408
 20
159.0554789768925
 30
0.0
  0
SPLINE
  5
E9
330
1F
100
AcDbEntity
  8
0
  6
Continuous
 62
     7
370
    18
100
AcDbSpline
210
0.0
220
0.0
230
1.0
 70
     8
 71
     3
 72
    17
 73
    13
 74
     0
 42
0.000000001
 43
0.00000001
 40
0.0
 40
0.0
 40
0.0
 40
0.0
 40
0.0774754533909342
 40
0.1576329538025231
 40
0.2801922774424989
 40
0.3843680071351693
 40
0.4683066971421979
 40
0.5602809198598152
 40
0.6609250420626899
 40
0.7792115488115889
 40
0.9149619747087572
 40
1.0
 40
1.0
 40
1.0
 40
1.0
 10
138.7155677924854
 20
169.4630916359297
 30
0.0
 10
138.6308785580487
 20
169.453018840544
 30
0.0
 10
138.4585683153173
 20
169.4325245495111
 30
0.0
 10
138.2415060414145
 20
169.278159077796
 30
0.0
 10
138.0853261026116
 20
169.0745319677741
 30
0.0
 10
137.9550265869436
 20
168.8008136465088
 30
0.0
 10
137.8628680363854
 20
168.5407542717673
 30
0.0
 10
137.7793340814929
 20
168.257579890969
 30
0.0
 10
137.6863579276691
 20
167.887205312736
 30
0.0
 10
137.5821229187336
 20
167.4045037009398
 30
0.0
 10
137.4830954239486
 20
166.887339099576
 30
0.0
 10
137.4189880706537
 20
166.5093504642174
 30
0.0
 10
137.3942967305881
 20
166.3637658244392
 30
0.0
  0
SPLINE
  5
EA
330
1F
100
AcDbEntity
  8
0
  6
Continuous
 62
     7
370
    18
100
AcDbSpline
210
0.0
220
0.0
230
1.0
 70
     8
 71
     3
 72
    10
 73
     6
 74
     0
 42
0.000000001
 43
0.00000001
 40
0.0
 40
0.0
 40
0.0
 40
0.0
 40
0.0875131875996715
 40
0.638896322901289
 40
1.0
 40
1.0
 40
1.0
 40
1.0
 10
136.508910710643
 20
160.5637658982
 30
0.0
 10
136.4996797287607
 20
160.5092839813874
 30
0.0
 10
136.4322882813332
 20
160.1115348275637
 30
0.0
 10
136.3273568432108
 20
159.5570987385382
 30
0.0
 10
136.2370121151044
 20
159.2048576293533
 30
0.0
 10
136.2012594739896
 20
159.0654632205537
 30
0.0
  0
LWPOLYLINE
  5
EB
330
1F
100
AcDbEntity
  8
0
  6
Continuous
 62
     7
370
    18
100
AcDbPolyline
 90
        3
 70
   128
 43
0.0
 10
152.0531426917
 20
155.4637654813
 10
152.2771443973
 20
155.68776579
 10
152.4531420122
 20
155.8637657332
  0
LWPOLYLINE
  5
EC
330
1F
100
AcDbEntity
  8
0
  6
Continuous
 62
     7
370
    18
100
AcDbPolyline
 90
        3
 70
   128
 43
0.0
 10
152.4531420122
 20
171.0637659895
 10
152.2291440318
 20
171.2877658325
 10
152.0531426917
 20
171.4637662413
  0
LWPOLYLINE
  5
ED
330
1F
100
AcDbEntity
  8
0
  6
Continuous
 62
     7
370
    18
100
AcDbPolyline
 90
        3
 70
   128
 43
0.0
 10
150.8531447302
 20
171.4637662413
 10
150.6291430245
 20
171.2397659326
 10
150.4531454097
 20
171.0637659895
  0
LWPOLYLINE
  5
EE
330
1F
100
AcDbEntity
  8
0
  6
Continuous
 62
     7
370
    18
100
AcDbPolyline
 90
        3
 70
   128
 43
0.0
 10
150.4531454097
 20
155.8637657332
 10
150.67714339
 20
155.6397658902
 10
150.8531447302
 20
155.4637654813
  0
LINE
  5
EF
330
1F
100
AcDbEntity
  8
0
  6
Continuous
 62
     7
370
    18
100
AcDbLine
 10
152.0531426917
 20
171.4637662413
 30
0.0
 11
150.8531447302
 21
171.4637662413
 31
0.0
  0
LINE
  5
F0
330
1F
100
AcDbEntity
  8
0
  6
Continuous
 62
     7
370
    18
100
AcDbLine
 10
150.8531447302
 20
155.4637654813
 30
0.0
 11
152.0531426917
 21
155.4637654813
 31
0.0
  0
LWPOLYLINE
  5
F1
330
1F
100
AcDbEntity
  8
0
  6
Continuous
 62
     7
370
    18
100
AcDbPolyline
 90
        3
 70
   128
 43
0.0
 10
173.453147317
 20
168.4637657496
 10
172.8931467782
 20
169.0237658227
 10
172.4531452904
 20
169.4637659135
  0
LINE
  5
F2
330
1F
100
AcDbEntity
  8
0
  6
Continuous
 62
     7
370
    18
100
AcDbLine
 10
172.4531452904
 20
169.4637659135
 30
0.0
 11
152.4531420122
 21
169.4637659135
 31
0.0
  0
LINE
  5
F3
330
1F
100
AcDbEntity
  8
0
  6
Continuous
 62
     7
370
    18
100
AcDbLine
 10
152.4531420122
 20
157.4637658092
 30
0.0
 11
172.4531452904
 21
157.4637658092
 31
0.0
  0
LWPOLYLINE
  5
F4
330
1F
100
AcDbEntity
  8
0
  6
Continuous
 62
     7
370
    18
100
AcDbPolyline
 90
        3
 70
   128
 43
0.0
 10
147.8531423758
 20
167.9637656676
 10
147.6291443954
 20
167.7397658246
 10
147.4531430553
 20
167.5637658814
  0
LWPOLYLINE
  5
F5
330
1F
100
AcDbEntity
  8
0
  6
Continuous
 62
     7
370
    18
100
AcDbPolyline
 90
        3
 70
   128
 43
0.0
 10
147.4531430553
 20
159.3637658412
 10
147.6771447609
 20
159.1397659982
 10
147.8531423758
 20
158.963766055
  0
LINE
  5
F6
330
1F
100
AcDbEntity
  8
0
  6
Continuous
 62
     7
370
    18
100
AcDbLine
 10
150.4531454097
 20
167.9637656676
 30
0.0
 11
149.6967661927
 21
167.9637656676
 31
0.0
  0
LINE
  5
F7
330
1F
100
AcDbEntity
  8
0
  6
Continuous
 62
     7
370
    18
100
AcDbLine
 10
148.6837405513
 20
167.9637656676
 30
0.0
 11
147.8531423758
 21
167.9637656676
 31
0.0
  0
LINE
  5
F8
330
1F
100
AcDbEntity
  8
0
  6
Continuous
 62
     7
370
    18
100
AcDbLine
 10
147.8531423758
 20
158.963766055
 30
0.0
 11
150.4531454097
 21
158.963766055
 31
0.0
  0
LWPOLYLINE
  5
F9
330
1F
100
AcDbEntity
  8
0
  6
Continuous
 62
     7
370
    18
100
AcDbPolyline
 90
        3
 70
   128
 43
0.0
 10
172.4531452904
 20
157.4637658092
 10
173.0132203351
 20
158.0238450447
 10
173.4532814275
 20
158.4639070684
  0
LINE
  5
FA
330
1F
100
AcDbEntity
  8
0
  6
Continuous
 62
     7
370
    18
100
AcDbLine
 10
122.1531431924
 20
170.4637660774
 30
0.0
 11
120.7531437079
 21
170.4637660774
 31
0.0
  0
LINE
  5
FB
330
1F
100
AcDbEntity
  8
0
  6
Continuous
 62
     7
370
    18
100
AcDbLine
 10
120.9031332086
 20
156.4637656453
 30
0.0
 11
122.1531431924
 21
156.4637656453
 31
0.0
  0
LINE
  5
FC
330
1F
100
AcDbEntity
  8
0
  6
Continuous
 62
     7
370
    18
100
AcDbLine
 10
116.1531440715
 20
170.4637660774
 30
0.0
 11
114.7531436558
 21
170.4637660774
 31
0.0
  0
LINE
  5
FD
330
1F
100
AcDbEntity
  8
0
  6
Continuous
 62
     7
370
    18
100
AcDbLine
 10
114.7531436558
 20
156.4637656453
 30
0.0
 11
116.0031536396
 21
156.4637656453
 31
0.0
  0
SPLINE
  5
FE
330
1F
100
AcDbEntity
  8
0
  6
Continuous
 62
     7
370
    18
100
AcDbSpline
210
0.0
220
0.0
230
1.0
 70
     8
 71
     3
 72
    13
 73
     9
 74
     0
 42
0.000000001
 43
0.00000001
 40
0.0
 40
0.0
 40
0.0
 40
0.0
 40
0.2394574322037146
 40
0.368360978420422
 40
0.4999993869342706
 40
0.6316385653189425
 40
0.7605425677962853
 40
0.9999999999999999
 40
0.9999999999999999
 40
0.9999999999999999
 40
0.9999999999999999
 10
120.7531437079412
 20
170.4637660773865
 30
0.0
 10
120.7154047097286
 20
170.4597585692411
 30
0.0
 10
120.6573502397617
 20
170.4535937590373
 30
0.0
 10
120.5875052473518
 20
170.4161848183807
 30
0.0
 10
120.5394435163384
 20
170.3774661106933
 30
0.0
 10
120.5007252166413
 20
170.3294040608059
 30
0.0
 10
120.4633153406265
 20
170.2595593414659
 30
0.0
 10
120.4571506873849
 20
170.2015047112945
 30
0.0
 10
120.4531432862383
 20
170.1637656556836
 30
0.0
  0
SPLINE
  5
FF
330
1F
100
AcDbEntity
  8
0
  6
Continuous
 62
     7
370
    18
100
AcDbSpline
210
0.0
220
0.0
230
1.0
 70
     8
 71
     3
 72
    13
 73
     9
 74
     0
 42
0.000000001
 43
0.00000001
 40
0.0
 40
0.0
 40
0.0
 40
0.0
 40
0.2394577486192465
 40
0.3683610089119844
 40
0.500000361242732
 40
0.6316404834482913
 40
0.7605441999962502
 40
1.0
 40
1.0
 40
1.0
 40
1.0
 10
116.4531435619098
 20
170.1637656556836
 30
0.0
 10
116.4491359788461
 20
170.2015046204192
 30
0.0
 10
116.44297106103
 20
170.2595589669812
 30
0.0
 10
116.4055626983781
 20
170.3294042669838
 30
0.0
 10
116.3668441655541
 20
170.3774664173554
 30
0.0
 10
116.3187816956538
 20
170.4161845431365
 30
0.0
 10
116.2489369430354
 20
170.4535936914027
 30
0.0
 10
116.1908827695457
 20
170.4597585495119
 30
0.0
 10
116.1531440715295
 20
170.4637660773865
 30
0.0
  0
SPLINE
  5
100
330
1F
100
AcDbEntity
  8
0
  6
Continuous
 62
     7
370
    18
100
AcDbSpline
210
0.0
220
0.0
230
1.0
 70
     8
 71
     3
 72
    13
 73
     9
 74
     0
 42
0.000000001
 43
0.00000001
 40
0.0
 40
0.0
 40
0.0
 40
0.0
 40
0.2394575116194994
 40
0.3683604442436021
 40
0.4999994619506418
 40
0.6316377097877979
 40
0.7605428600759371
 40
1.0
 40
1.0
 40
1.0
 40
1.0
 10
122.4531445453865
 20
170.1637656556836
 30
0.0
 10
122.4491365488541
 20
170.2015045934681
 30
0.0
 10
122.4429709983428
 20
170.2595588670367
 30
0.0
 10
122.4055628111781
 20
170.3294043188409
 30
0.0
 10
122.3668442237255
 20
170.3774660433247
 30
0.0
 10
122.3187824445696
 20
170.4161851127488
 30
0.0
 10
122.2489367806787
 20
170.4535934283512
 30
0.0
 10
122.190882128539
 20
170.4597584505771
 30
0.0
 10
122.153143192361
 20
170.4637660773865
 30
0.0
  0
SPLINE
  5
101
330
1F
100
AcDbEntity
  8
0
  6
Continuous
 62
     7
370
    18
100
AcDbSpline
210
0.0
220
0.0
230
1.0
 70
     8
 71
     3
 72
    13
 73
     9
 74
     0
 42
0.000000001
 43
0.00000001
 40
0.0
 40
0.0
 40
0.0
 40
0.0
 40
0.239457139924063
 40
0.3683622902122021
 40
0.5000005380493583
 40
0.631639555756398
 40
0.7605424883805008
 40
1.0
 40
1.0
 40
1.0
 40
1.0
 10
122.153143192361
 20
156.4637656452528
 30
0.0
 10
122.190882128539
 20
156.4677732720621
 30
0.0
 10
122.2489367806787
 20
156.473938294288
 30
0.0
 10
122.3187824445696
 20
156.5113466098904
 30
0.0
 10
122.3668442237255
 20
156.5500656793145
 30
0.0
 10
122.4055628111781
 20
156.5981274037983
 30
0.0
 10
122.4429709983428
 20
156.6679728556025
 30
0.0
 10
122.4491365488541
 20
156.7260271291711
 30
0.0
 10
122.4531445453865
 20
156.7637660669556
 30
0.0
  0
SPLINE
  5
102
330
1F
100
AcDbEntity
  8
0
  6
Continuous
 62
     7
370
    18
100
AcDbSpline
210
0.0
220
0.0
230
1.0
 70
     8
 71
     3
 72
    13
 73
     9
 74
     0
 42
0.000000001
 43
0.00000001
 40
0.0
 40
0.0
 40
0.0
 40
0.0
 40
0.2394574322037146
 40
0.368360978420422
 40
0.4999993869342706
 40
0.6316385653189425
 40
0.7605425677962853
 40
0.9999999999999999
 40
0.9999999999999999
 40
0.9999999999999999
 40
0.9999999999999999
 10
114.7531436557871
 20
170.4637660773865
 30
0.0
 10
114.7154046575745
 20
170.4597585692411
 30
0.0
 10
114.6573501876076
 20
170.4535937590373
 30
0.0
 10
114.5875051951978
 20
170.4161848183807
 30
0.0
 10
114.5394434641844
 20
170.3774661106933
 30
0.0
 10
114.5007251644872
 20
170.3294040608059
 30
0.0
 10
114.4633152884725
 20
170.2595593414659
 30
0.0
 10
114.4571506352308
 20
170.2015047112945
 30
0.0
 10
114.4531432340843
 20
170.1637656556836
 30
0.0
  0
SPLINE
  5
103
330
1F
100
AcDbEntity
  8
0
  6
Continuous
 62
     7
370
    18
100
AcDbSpline
210
0.0
220
0.0
230
1.0
 70
     8
 71
     3
 72
    13
 73
     9
 74
     0
 42
0.000000001
 43
0.00000001
 40
0.0
 40
0.0
 40
0.0
 40
0.0
 40
0.2394574322037146
 40
0.3683614346810574
 40
0.5000006130657293
 40
0.6316390215795779
 40
0.7605425677962853
 40
0.9999999999999999
 40
0.9999999999999999
 40
0.9999999999999999
 40
0.9999999999999999
 10
114.4531432340843
 20
156.7637660669556
 30
0.0
 10
114.4571506352308
 20
156.7260270113447
 30
0.0
 10
114.4633152884725
 20
156.6679723811733
 30
0.0
 10
114.5007251644872
 20
156.5981276618332
 30
0.0
 10
114.5394434641844
 20
156.5500656119459
 30
0.0
 10
114.5875051951978
 20
156.5113469042585
 30
0.0
 10
114.6573501876076
 20
156.4739379636019
 30
0.0
 10
114.7154046575745
 20
156.467773153398
 30
0.0
 10
114.7531436557871
 20
156.4637656452528
 30
0.0
  0
SPLINE
  5
104
330
1F
100
AcDbEntity
  8
0
  6
Continuous
 62
     7
370
    18
100
AcDbSpline
210
0.0
220
0.0
230
1.0
 70
     8
 71
     3
 72
    13
 73
     9
 74
     0
 42
0.000000001
 43
0.00000001
 40
0.0
 40
0.0
 40
0.0
 40
0.0
 40
0.2394567603373131
 40
0.3683608945445975
 40
0.5000000149861686
 40
0.6316394842427863
 40
0.7605433903187677
 40
0.9999999999999999
 40
0.9999999999999999
 40
0.9999999999999999
 40
0.9999999999999999
 10
107.1531436440525
 20
157.9637658911219
 30
0.0
 10
107.1908825870039
 20
157.9677731102286
 30
0.0
 10
107.2489371216311
 20
157.9739374916923
 30
0.0
 10
107.3187816699672
 20
158.0113473451542
 30
0.0
 10
107.3668438205007
 20
158.0500657370955
 30
0.0
 10
107.4055622825663
 20
158.0981278314007
 30
0.0
 10
107.4429717256352
 20
158.1679725668584
 30
0.0
 10
107.4491363426686
 20
158.2260269728013
 30
0.0
 10
107.4531437165094
 20
158.2637658471635
 30
0.0
  0
SPLINE
  5
105
330
1F
100
AcDbEntity
  8
0
  6
Continuous
 62
     7
370
    18
100
AcDbSpline
210
0.0
220
0.0
230
1.0
 70
     8
 71
     3
 72
    13
 73
     9
 74
     0
 42
0.000000001
 43
0.00000001
 40
0.0
 40
0.0
 40
0.0
 40
0.0
 40
0.2394566096812322
 40
0.3683605157572137
 40
0.4999999850138314
 40
0.6316391054554025
 40
0.7605432396626868
 40
0.9999999999999999
 40
0.9999999999999999
 40
0.9999999999999999
 40
0.9999999999999999
 10
107.4531437165094
 20
168.6637658754757
 30
0.0
 10
107.4491363426686
 20
168.7015047498379
 30
0.0
 10
107.4429717256352
 20
168.7595591557808
 30
0.0
 10
107.4055622825663
 20
168.8294038912386
 30
0.0
 10
107.3668438205007
 20
168.8774659855437
 30
0.0
 10
107.3187816699672
 20
168.916184377485
 30
0.0
 10
107.2489371216311
 20
168.9535942309469
 30
0.0
 10
107.1908825870039
 20
168.9597586124106
 30
0.0
 10
107.1531436440525
 20
168.9637658315173
 30
0.0
  0
SPLINE
  5
106
330
1F
100
AcDbEntity
  8
0
  6
Continuous
 62
     7
370
    18
100
AcDbSpline
210
0.0
220
0.0
230
1.0
 70
     8
 71
     3
 72
    13
 73
     9
 74
     0
 42
0.000000001
 43
0.00000001
 40
0.0
 40
0.0
 40
0.0
 40
0.0
 40
0.2394566300026089
 40
0.3683604517406994
 40
0.4999998788358165
 40
0.631639114237632
 40
0.7605432274807433
 40
1.0
 40
1.0
 40
1.0
 40
1.0
 10
105.4531436211286
 20
158.2637658471635
 30
0.0
 10
105.4571510207094
 20
158.2260269812611
 30
0.0
 10
105.4633156757447
 20
158.1679726033479
 30
0.0
 10
105.5007249714011
 20
158.0981278224764
 30
0.0
 10
105.5394434148325
 20
158.0500657044851
 30
0.0
 10
105.5875056167947
 20
158.0113473704704
 30
0.0
 10
105.6573501551477
 20
157.9739374801331
 30
0.0
 10
105.7154046899069
 20
157.9677731058562
 30
0.0
 10
105.7531436357637
 20
157.9637658911219
 30
0.0
  0
SPLINE
  5
107
330
1F
100
AcDbEntity
  8
0
  6
Continuous
 62
     7
370
    18
100
AcDbSpline
210
0.0
220
0.0
230
1.0
 70
     8
 71
     3
 72
    13
 73
     9
 74
     0
 42
0.000000001
 43
0.00000001
 40
0.0
 40
0.0
 40
0.0
 40
0.0
 40
0.2394567725192567
 40
0.368360885762368
 40
0.5000001211641835
 40
0.6316395482593006
 40
0.760543369997391
 40
1.0
 40
1.0
 40
1.0
 40
1.0
 10
105.7531436357637
 20
168.9637658315173
 30
0.0
 10
105.7154046899069
 20
168.959758616783
 30
0.0
 10
105.6573501551477
 20
168.9535942425061
 30
0.0
 10
105.5875056167947
 20
168.9161843521688
 30
0.0
 10
105.5394434148325
 20
168.8774660181541
 30
0.0
 10
105.5007249714011
 20
168.8294039001628
 30
0.0
 10
105.4633156757447
 20
168.7595591192913
 30
0.0
 10
105.4571510207094
 20
168.7015047413781
 30
0.0
 10
105.4531436211286
 20
168.6637658754757
 30
0.0
  0
LINE
  5
108
330
1F
100
AcDbEntity
  8
0
  6
Continuous
 62
     7
370
    18
100
AcDbLine
 10
107.1531436441
 20
168.9637658315
 30
0.0
 11
105.7531436358
 21
168.9637658315
 31
0.0
  0
LINE
  5
109
330
1F
100
AcDbEntity
  8
0
  6
Continuous
 62
     7
370
    18
100
AcDbLine
 10
105.7531436358
 20
157.9637658911
 30
0.0
 11
107.1531436441
 21
157.9637658911
 31
0.0
  0
SPLINE
  5
10A
330
1F
100
AcDbEntity
  8
0
  6
Continuous
 62
     7
370
    18
100
AcDbSpline
210
0.0
220
0.0
230
1.0
 70
     8
 71
     3
 72
    13
 73
     9
 74
     0
 42
0.000000001
 43
0.00000001
 40
0.0
 40
0.0
 40
0.0
 40
0.0
 40
0.2394574318903177
 40
0.3683625468216753
 40
0.5000011594895081
 40
0.6316403975504796
 40
0.7605423822713598
 40
1.0
 40
1.0
 40
1.0
 40
1.0
 10
127.4531435023052
 20
167.6637657115629
 30
0.0
 10
127.449136675159
 20
167.7015048659906
 30
0.0
 10
127.4429728862942
 20
167.7595598235258
 30
0.0
 10
127.4055615404304
 20
167.8294038463397
 30
0.0
 10
127.3668430437811
 20
167.8774657555217
 30
0.0
 10
127.3187818613362
 20
167.9161846295004
 30
0.0
 10
127.2489373496444
 20
167.9535941388218
 30
0.0
 10
127.1908830618943
 20
167.9597584595655
 30
0.0
 10
127.1531440119249
 20
167.9637656676045
 30
0.0
  0
SPLINE
  5
10B
330
1F
100
AcDbEntity
  8
0
  6
Continuous
 62
     7
370
    18
100
AcDbSpline
210
0.0
220
0.0
230
1.0
 70
     8
 71
     3
 72
    13
 73
     9
 74
     0
 42
0.000000001
 43
0.00000001
 40
0.0
 40
0.0
 40
0.0
 40
0.0
 40
0.2394576177286403
 40
0.3683596024495205
 40
0.4999988405104919
 40
0.6316374531783246
 40
0.7605425681096822
 40
1.0
 40
1.0
 40
1.0
 40
1.0
 10
127.1531440119249
 20
158.9637660550347
 30
0.0
 10
127.1908830618943
 20
158.9677732630737
 30
0.0
 10
127.2489373496444
 20
158.9739375838174
 30
0.0
 10
127.3187818613362
 20
159.0113470931388
 30
0.0
 10
127.3668430437811
 20
159.0500659671175
 30
0.0
 10
127.4055615404304
 20
159.0981278762995
 30
0.0
 10
127.4429728862942
 20
159.1679718991134
 30
0.0
 10
127.449136675159
 20
159.2260268566486
 30
0.0
 10
127.4531435023052
 20
159.2637660110763
 30
0.0
  0
LINE
  5
10C
330
1F
100
AcDbEntity
  8
0
  6
Continuous
 62
     7
370
    18
100
AcDbLine
 10
127.1531440119
 20
167.9637656676
 30
0.0
 11
124.6967863093
 21
167.9637656676
 31
0.0
  0
LINE
  5
10D
330
1F
100
AcDbEntity
  8
0
  6
Continuous
 62
     7
370
    18
100
AcDbLine
 10
123.6788712244
 20
167.9637656676
 30
0.0
 11
122.4531445454
 21
167.9637656676
 31
0.0
  0
LINE
  5
10E
330
1F
100
AcDbEntity
  8
0
  6
Continuous
 62
     7
370
    18
100
AcDbLine
 10
122.4531445454
 20
158.963766055
 30
0.0
 11
125.2112414489
 21
158.963766055
 31
0.0
  0
LINE
  5
10F
330
1F
100
AcDbEntity
  8
0
  6
Continuous
 62
     7
370
    18
100
AcDbLine
 10
126.2248948018
 20
158.963766055
 30
0.0
 11
127.1531440119
 21
158.963766055
 31
0.0
  0
LINE
  5
110
330
1F
100
AcDbEntity
  8
0
  6
Continuous
 62
     7
370
    18
100
AcDbLine
 10
120.4531432862
 20
167.9637656676
 30
0.0
 11
116.4531435619
 21
167.9637656676
 31
0.0
  0
LINE
  5
111
330
1F
100
AcDbEntity
  8
0
  6
Continuous
 62
     7
370
    18
100
AcDbLine
 10
114.4531432341
 20
167.3637657555
 30
0.0
 11
107.4531437165
 21
167.3637657555
 31
0.0
  0
LINE
  5
112
330
1F
100
AcDbEntity
  8
0
  6
Continuous
 62
     7
370
    18
100
AcDbLine
 10
107.4531437165
 20
159.5637659671
 30
0.0
 11
114.4531432341
 21
159.5637659671
 31
0.0
  0
SPLINE
  5
113
330
1F
100
AcDbEntity
  8
0
  6
Continuous
 62
     7
370
    18
100
AcDbSpline
210
0.0
220
0.0
230
1.0
 70
     8
 71
     3
 72
    10
 73
     6
 74
     0
 42
0.000000001
 43
0.00000001
 40
0.0
 40
0.0
 40
0.0
 40
0.0
 40
0.2072377733963843
 40
0.4846510746912705
 40
1.0
 40
1.0
 40
1.0
 40
1.0
 10
173.3757357846004
 20
160.5645151472113
 30
0.0
 10
173.3856546004606
 20
160.5758879126551
 30
0.0
 10
173.408850973822
 20
160.6024845263141
 30
0.0
 10
173.4426011249807
 20
160.6683030996554
 30
0.0
 10
173.4489924952072
 20
160.726156911132
 30
0.0
 10
173.4531473170024
 20
160.7637657912842
 30
0.0
  0
SPLINE
  5
114
330
1F
100
AcDbEntity
  8
0
  6
Continuous
 62
     7
370
    18
100
AcDbSpline
210
0.0
220
0.0
230
1.0
 70
     8
 71
     3
 72
    10
 73
     6
 74
     0
 42
0.000000001
 43
0.00000001
 40
0.0
 40
0.0
 40
0.0
 40
0.0
 40
0.5154010117874173
 40
0.7928423513323046
 40
1.0
 40
1.0
 40
1.0
 40
1.0
 10
173.4531473170024
 20
166.1637659313551
 30
0.0
 10
173.4489924774269
 20
166.2013748007372
 30
0.0
 10
173.4426010798487
 20
166.2592285956462
 30
0.0
 10
173.4088544641913
 20
166.3250405928944
 30
0.0
 10
173.3856641445358
 20
166.3516326393842
 30
0.0
 10
173.3757506857616
 20
166.3630002772829
 30
0.0
  0
SPLINE
  5
115
330
1F
100
AcDbEntity
  8
0
  6
Continuous
 62
     7
370
    18
100
AcDbSpline
210
0.0
220
0.0
230
1.0
 70
     8
 71
     3
 72
    10
 73
     6
 74
     0
 42
0.000000001
 43
0.00000001
 40
0.0
 40
0.0
 40
0.0
 40
0.0
 40
0.5153458234080358
 40
0.7927609002246461
 40
1.0
 40
1.0
 40
1.0
 40
1.0
 10
174.1531442652446
 20
160.7637657912842
 30
0.0
 10
174.1572958304503
 20
160.7261567677749
 30
0.0
 10
174.1636822188138
 20
160.6683024843412
 30
0.0
 10
174.1974332883069
 20
160.6024845515337
 30
0.0
 10
174.2206295702826
 20
160.575887920209
 30
0.0
 10
174.2305483470661
 20
160.5645151472113
 30
0.0
  0
SPLINE
  5
116
330
1F
100
AcDbEntity
  8
0
  6
Continuous
 62
     7
370
    18
100
AcDbSpline
210
0.0
220
0.0
230
1.0
 70
     8
 71
     3
 72
    10
 73
     6
 74
     0
 42
0.000000001
 43
0.00000001
 40
0.0
 40
0.0
 40
0.0
 40
0.0
 40
0.2072390997753539
 40
0.4846541765919642
 40
1.0
 40
1.0
 40
1.0
 40
1.0
 10
174.2305483470661
 20
166.363016575428
 30
0.0
 10
174.2206295702827
 20
166.3516438024302
 30
0.0
 10
174.1974332883069
 20
166.3250471711055
 30
0.0
 10
174.1636822188138
 20
166.259229238298
 30
0.0
 10
174.1572958304503
 20
166.2013749548644
 30
0.0
 10
174.1531442652446
 20
166.1637659313551
 30
0.0
  0
LWPOLYLINE
  5
117
330
1F
100
AcDbEntity
  8
0
  6
Continuous
 62
     7
370
    18
100
AcDbPolyline
 90
        3
 70
   128
 43
0.0
 10
175.0531296979
 20
160.5637521612
 10
175.2331431757
 20
160.7437658718
 10
175.4531439195
 20
160.9637659172
  0
LWPOLYLINE
  5
118
330
1F
100
AcDbEntity
  8
0
  6
Continuous
 62
     7
370
    18
100
AcDbPolyline
 90
        3
 70
   128
 43
0.0
 10
175.4531439195
 20
165.9637658054
 10
175.1731436501
 20
166.243765842
 10
175.0531296979
 20
166.3637795614
  0
LWPOLYLINE
  5
119
330
1F
100
AcDbEntity
  8
0
  6
Continuous
 62
     7
370
    18
100
AcDbPolyline
 90
        3
 70
   128
 43
0.0
 10
116.1031432251
 20
151.6637654173
 10
116.2991437863
 20
150.2637659328
 10
116.4531435619
 20
149.1637659388
  0
LWPOLYLINE
  5
11A
330
1F
100
AcDbEntity
  8
0
  6
Continuous
 62
     7
370
    18
100
AcDbPolyline
 90
        3
 70
   128
 43
0.0
 10
120.4531432862
 20
149.1637659388
 10
120.6491438474
 20
150.5637654232
 10
120.803143623
 20
151.6637654173
  0
LWPOLYLINE
  5
11B
330
1F
100
AcDbEntity
  8
0
  6
Continuous
 62
     7
370
    18
100
AcDbPolyline
 90
        3
 70
   128
 43
0.0
 10
116.1031432251
 20
154.163765827
 10
116.2991437863
 20
152.7637654113
 10
116.4531435619
 20
151.6637654173
  0
LWPOLYLINE
  5
11C
330
1F
100
AcDbEntity
  8
0
  6
Continuous
 62
     7
370
    18
100
AcDbPolyline
 90
        3
 70
   128
 43
0.0
 10
120.4531432862
 20
151.6637654173
 10
120.6491438474
 20
153.063765833
 10
120.803143623
 20
154.163765827
  0
LINE
  5
11D
330
1F
100
AcDbEntity
  8
0
  6
Continuous
 62
     7
370
    18
100
AcDbLine
 10
116.3031438167
 20
156.1637694145
 30
0.0
 11
116.3031438167
 21
154.163765827
 31
0.0
  0
LINE
  5
11E
330
1F
100
AcDbEntity
  8
0
  6
Continuous
 62
     7
370
    18
100
AcDbLine
 10
120.6031439628
 20
154.163765827
 30
0.0
 11
120.6031439628
 21
156.1637694145
 31
0.0
  0
LINE
  5
11F
330
1F
100
AcDbEntity
  8
0
  6
Continuous
 62
     7
370
    18
100
AcDbLine
 10
173.5531415592
 20
165.4637659563
 30
0.0
 11
173.453147317
 21
165.4637659563
 31
0.0
  0
LINE
  5
120
330
1F
100
AcDbEntity
  8
0
  6
Continuous
 62
     7
370
    18
100
AcDbLine
 10
173.453147317
 20
161.4637657663
 30
0.0
 11
173.5531415592
 21
161.4637657663
 31
0.0
  0
SPLINE
  5
121
330
1F
100
AcDbEntity
  8
0
  6
Continuous
 62
     7
370
    18
100
AcDbSpline
210
0.0
220
0.0
230
1.0
 70
     8
 71
     3
 72
    13
 73
     9
 74
     0
 42
0.000000001
 43
0.00000001
 40
0.0
 40
0.0
 40
0.0
 40
0.0
 40
0.239457326531456
 40
0.3683614722055293
 40
0.5000000269537117
 40
0.6316407468337841
 40
0.7605444362467548
 40
1.0
 40
1.0
 40
1.0
 40
1.0
 10
120.6031439627511
 20
156.1637656892112
 30
0.0
 10
120.6071509725893
 20
156.2015047512365
 30
0.0
 10
120.6133150272228
 20
156.2595594228084
 30
0.0
 10
120.6507248538565
 20
156.3294040378158
 30
0.0
 10
120.6894436028375
 20
156.3774660098759
 30
0.0
 10
120.7375056680313
 20
156.4161846167251
 30
0.0
 10
120.8073505820889
 20
156.4535937229848
 30
0.0
 10
120.8654047615094
 20
156.4597583007239
 30
0.0
 10
120.9031434531313
 20
156.4637656452528
 30
0.0
  0
SPLINE
  5
122
330
1F
100
AcDbEntity
  8
0
  6
Continuous
 62
     7
370
    18
100
AcDbSpline
210
0.0
220
0.0
230
1.0
 70
     8
 71
     3
 72
    13
 73
     9
 74
     0
 42
0.000000001
 43
0.00000001
 40
0.0
 40
0.0
 40
0.0
 40
0.0
 40
0.2394573254595054
 40
0.3683609142557446
 40
0.4999999916448647
 40
0.631638443641596
 40
0.7605424886985818
 40
1.0
 40
1.0
 40
1.0
 40
1.0
 10
116.0031433950168
 20
156.4637656452528
 30
0.0
 10
116.0408823829491
 20
156.4597583185465
 30
0.0
 10
116.0989368528683
 20
156.453593785779
 30
0.0
 10
116.1687820360516
 20
156.4161849015211
 30
0.0
 10
116.2168432666353
 20
156.3774656658001
 30
0.0
 10
116.25556205103
 20
156.3294040820263
 30
0.0
 10
116.2929717080622
 20
156.2595593267414
 30
0.0
 10
116.2991363941931
 20
156.2015047258127
 30
0.0
 10
116.3031438167197
 20
156.1637656892112
 30
0.0
  0
SPLINE
  5
123
330
1F
100
AcDbEntity
  8
0
  6
Continuous
 62
     7
370
    18
100
AcDbSpline
210
0.0
220
0.0
230
1.0
 70
    24
 71
     3
 72
    29
 73
    25
 74
     0
 42
0.000000001
 43
0.00000001
 40
0.0
 40
0.0
 40
0.0
 40
0.0
 40
0.0156493635546033
 40
0.0312741728672082
 40
0.0468989821699349
 40
0.0625483456949494
 40
0.0938163891065016
 40
0.1250844327857404
 40
0.1875713826003643
 40
0.2500583318251147
 40
0.3125452810231312
 40
0.3750322306513225
 40
0.4375191800071259
 40
0.5000061293883894
 40
0.5624930786824683
 40
0.6249800282379182
 40
0.6874669779043083
 40
0.7499539273702842
 40
0.8124408768392963
 40
0.8749278262208466
 40
0.9061958696370641
 40
0.9374639128727033
 40
0.9687319565152088
 40
1.0
 40
1.0
 40
1.0
 40
1.0
 10
174.1531436215145
 20
158.968279021292
 30
0.0
 10
174.1531436215145
 20
158.9716144843589
 30
0.0
 10
174.1531436215145
 20
158.9782801770677
 30
0.0
 10
174.1531436215145
 20
158.997185573755
 30
0.0
 10
174.1531436215145
 20
159.0226056630496
 30
0.0
 10
174.1531436215145
 20
159.0659577370494
 30
0.0
 10
174.1531436215145
 20
159.1373186636568
 30
0.0
 10
174.1531436215145
 20
159.2876539291016
 30
0.0
 10
174.1531436215145
 20
159.5417435147126
 30
0.0
 10
174.1531436215145
 20
159.9446739248469
 30
0.0
 10
174.1531436215145
 20
160.4356495954271
 30
0.0
 10
174.1531436215145
 20
161.0023737361477
 30
0.0
 10
174.1531436215145
 20
161.6306730367298
 30
0.0
 10
174.1531436215145
 20
162.3048289098531
 30
0.0
 10
174.1531436215145
 20
163.0079767189736
 30
0.0
 10
174.1531436215145
 20
163.7225271992434
 30
0.0
 10
174.1531436215145
 20
164.4306021009805
 30
0.0
 10
174.1531436215145
 20
165.1144995063094
 30
0.0
 10
174.1531436215145
 20
165.7570687025446
 30
0.0
 10
174.1531436215145
 20
166.244915618148
 30
0.0
 10
174.1531436215145
 20
166.5990232875475
 30
0.0
 10
174.1531436215145
 20
166.8446232177047
 30
0.0
 10
174.1531436215145
 20
167.0708208491285
 30
0.0
 10
174.1531436215145
 20
167.20225402402
 30
0.0
 10
174.1531436215145
 20
167.2679706113001
 30
0.0
  0
SPLINE
  5
124
330
1F
100
AcDbEntity
  8
0
  6
Continuous
 62
     7
370
    18
100
AcDbSpline
210
0.0
220
0.0
230
1.0
 70
    24
 71
     3
 72
    14
 73
    10
 74
     0
 42
0.000000001
 43
0.00000001
 40
0.0
 40
0.0
 40
0.0
 40
0.0
 40
0.25
 40
0.25
 40
0.5
 40
0.5
 40
0.75
 40
0.75
 40
1.0
 40
1.0
 40
1.0
 40
1.0
 10
173.5531436215145
 20
158.9682790193558
 30
0.0
 10
173.5531436215145
 20
159.0111727931363
 30
0.0
 10
173.5531436215145
 20
159.3583887816114
 30
0.0
 10
173.5531436215145
 20
160.5603074878952
 30
0.0
 10
173.5531436215145
 20
161.3837275283967
 30
0.0
 10
173.5531436215145
 20
163.2355942781096
 30
0.0
 10
173.5531436215145
 20
164.2158419288952
 30
0.0
 10
173.5531436215145
 20
165.999381013392
 30
0.0
 10
173.5531436215145
 20
166.7562517720995
 30
0.0
 10
173.5531436215145
 20
167.2679706083964
 30
0.0
  0
LINE
  5
125
330
1F
100
AcDbEntity
  8
0
  6
Continuous
 62
     7
370
    18
100
AcDbLine
 10
174.1531442652
 20
167.267970614
 30
0.0
 11
173.5531415592
 21
167.267970614
 31
0.0
  0
SPLINE
  5
126
330
1F
100
AcDbEntity
  8
0
  6
Continuous
 62
     7
370
    18
100
AcDbSpline
210
0.0
220
0.0
230
1.0
 70
     8
 71
     3
 72
    13
 73
     9
 74
     0
 42
0.000000001
 43
0.00000001
 40
0.0
 40
0.0
 40
0.0
 40
0.0
 40
0.25
 40
0.25
 40
0.5
 40
0.75
 40
0.75
 40
1.0
 40
1.0
 40
1.0
 40
1.0
 10
149.8824314136064
 20
163.9978452108238
 30
0.0
 10
150.0130416160098
 20
163.9978464266399
 30
0.0
 10
150.1436566488775
 20
163.9930314982354
 30
0.0
 10
150.3283770045297
 20
163.9765906590524
 30
0.0
 10
150.4365848180146
 20
163.9533385863784
 30
0.0
 10
150.3283768761724
 20
163.9300865174127
 30
0.0
 10
150.1436564229994
 20
163.9136456866587
 30
0.0
 10
150.0130413660586
 20
163.9088307635613
 30
0.0
 10
149.8824311634997
 20
163.9088319862671
 30
0.0
  0
SPLINE
  5
127
330
1F
100
AcDbEntity
  8
0
  6
Continuous
 62
     7
370
    18
100
AcDbSpline
210
0.0
220
0.0
230
1.0
 70
     8
 71
     3
 72
    13
 73
     9
 74
     0
 42
0.000000001
 43
0.00000001
 40
0.0
 40
0.0
 40
0.0
 40
0.0
 40
0.25
 40
0.25
 40
0.5
 40
0.75
 40
0.75
 40
1.0
 40
1.0
 40
1.0
 40
1.0
 10
149.8824311628117
 20
163.9088319863168
 30
0.0
 10
149.7518374914601
 20
163.9088332078733
 30
0.0
 10
149.6212486739095
 20
163.9136489981829
 30
0.0
 10
149.43657106437
 20
163.9300894805181
 30
0.0
 10
149.3283906406306
 20
163.9533386108905
 30
0.0
 10
149.4365711927105
 20
163.9765877362385
 30
0.0
 10
149.6212489006107
 20
163.9930282095525
 30
0.0
 10
149.751837743086
 20
163.9978439946291
 30
0.0
 10
149.8824314143468
 20
163.9978452107823
 30
0.0
  0
SPLINE
  5
128
330
1F
100
AcDbEntity
  8
0
  6
Continuous
 62
     7
370
    18
100
AcDbSpline
210
0.0
220
0.0
230
1.0
 70
    24
 71
     3
 72
    31
 73
    27
 74
     0
 42
0.000000001
 43
0.00000001
 40
0.0
 40
0.0
 40
0.0
 40
0.0
 40
0.0136796916350184
 40
0.0565631854941085
 40
0.099446674641201
 40
0.1423301617316262
 40
0.1852136485619684
 40
0.2280971537795713
 40
0.2709806476642329
 40
0.3138641360991028
 40
0.3567476306580385
 40
0.3996311130184522
 40
0.4425146050512504
 40
0.4853981002653305
 40
0.5282815913696884
 40
0.5711650852287784
 40
0.6140485743758709
 40
0.6569320614662961
 40
0.6998155482966383
 40
0.7426990535142411
 40
0.7855825473989028
 40
0.8284660358337727
 40
0.8713495303927082
 40
0.9142330127531219
 40
0.9571165047859199
 40
1.0
 40
1.0
 40
1.0
 40
1.0
 10
152.053142691682
 20
171.4488837065569
 30
0.0
 10
152.053142691682
 20
171.4530680424839
 30
0.0
 10
152.053142691682
 20
171.4703695559626
 30
0.0
 10
152.053142691682
 20
171.3612726960255
 30
0.0
 10
152.053142691682
 20
171.121486572163
 30
0.0
 10
152.053142691682
 20
170.7409012621696
 30
0.0
 10
152.053142691682
 20
170.23841989321
 30
0.0
 10
152.053142691682
 20
169.6193212862852
 30
0.0
 10
152.053142691682
 20
168.8950870934665
 30
0.0
 10
152.053142691682
 20
168.077871212823
 30
0.0
 10
152.053142691682
 20
167.1817205699153
 30
0.0
 10
152.053142691682
 20
166.221950551696
 30
0.0
 10
152.053142691682
 20
165.2149885122444
 30
0.0
 10
152.053142691682
 20
164.1780623272715
 30
0.0
 10
152.053142691682
 20
163.128914170228
 30
0.0
 10
152.053142691682
 20
162.0854957443611
 30
0.0
 10
152.053142691682
 20
161.0656594711439
 30
0.0
 10
152.053142691682
 20
160.0868562829039
 30
0.0
 10
152.053142691682
 20
159.1658297312555
 30
0.0
 10
152.053142691682
 20
158.3183551349052
 30
0.0
 10
152.053142691682
 20
157.5588696864341
 30
0.0
 10
152.053142691682
 20
156.9006070809014
 30
0.0
 10
152.053142691682
 20
156.3539386667205
 30
0.0
 10
152.053142691682
 20
155.9315451963049
 30
0.0
 10
152.053142691682
 20
155.6282408409726
 30
0.0
 10
152.053142691682
 20
155.5397707403033
 30
0.0
 10
152.053142691682
 20
155.4955356883279
 30
0.0
  0
LINE
  5
129
330
1F
100
AcDbEntity
  8
0
  6
Continuous
 62
     7
370
    18
100
AcDbLine
 10
152.0531426917
 20
155.4955356883
 30
0.0
 11
152.0531426917
 21
155.4786480161
 31
0.0
  0
SPLINE
  5
12A
330
1F
100
AcDbEntity
  8
0
  6
Continuous
 62
     7
370
    18
100
AcDbSpline
210
0.0
220
0.0
230
1.0
 70
    24
 71
     3
 72
    23
 73
    19
 74
     0
 42
0.000000001
 43
0.00000001
 40
0.0
 40
0.0
 40
0.0
 40
0.0
 40
0.035124068636242
 40
0.0994491252900626
 40
0.1637741968931787
 40
0.2280992515993248
 40
0.2924243135775771
 40
0.3567493806032994
 40
0.4210744375228708
 40
0.4853995035182191
 40
0.5497245651180227
 40
0.6140496217718434
 40
0.6783746933749596
 40
0.7426997480811057
 40
0.8070248100593579
 40
0.8713498770850802
 40
0.9356749340046516
 40
1.0
 40
1.0
 40
1.0
 40
1.0
 10
152.4531420121891
 20
171.02748073064
 30
0.0
 10
152.4531420121891
 20
171.0331483947442
 30
0.0
 10
152.4531420121891
 20
171.0491956312825
 30
0.0
 10
152.4531420121891
 20
170.7542332316882
 30
0.0
 10
152.4531420121891
 20
170.1791255446004
 30
0.0
 10
152.4531420121891
 20
169.3318519248912
 30
0.0
 10
152.4531420121891
 20
168.2628491928783
 30
0.0
 10
152.4531420121891
 20
167.0084078979005
 30
0.0
 10
152.4531420121891
 20
165.6180186344644
 30
0.0
 10
152.4531420121891
 20
164.1447722056525
 30
0.0
 10
152.4531420121891
 20
162.6453667934045
 30
0.0
 10
152.4531420121891
 20
161.1774355887247
 30
0.0
 10
152.4531420121891
 20
159.7972605483826
 30
0.0
 10
152.4531420121891
 20
158.5583888530467
 30
0.0
 10
152.4531420121891
 20
157.5065281278101
 30
0.0
 10
152.4531420121891
 20
156.6891974114778
 30
0.0
 10
152.4531420121891
 20
156.1113238175056
 30
0.0
 10
152.4531420121891
 20
155.9664063222473
 30
0.0
 10
152.4531420121891
 20
155.8939475695065
 30
0.0
  0
SPLINE
  5
12B
330
1F
100
AcDbEntity
  8
0
  6
Continuous
 62
     7
370
    18
100
AcDbSpline
210
0.0
220
0.0
230
1.0
 70
    24
 71
     3
 72
    31
 73
    27
 74
     0
 42
0.000000001
 43
0.00000001
 40
0.0
 40
0.0
 40
0.0
 40
0.0
 40
0.0136796916350184
 40
0.0565631854941085
 40
0.099446674641201
 40
0.1423301617316262
 40
0.1852136485619684
 40
0.2280971537795713
 40
0.2709806476642329
 40
0.3138641360991028
 40
0.3567476306580385
 40
0.3996311130184522
 40
0.4425146050512504
 40
0.4853981002653305
 40
0.5282815913696884
 40
0.5711650852287784
 40
0.6140485743758709
 40
0.6569320614662961
 40
0.6998155482966383
 40
0.7426990535142411
 40
0.7855825473989028
 40
0.8284660358337727
 40
0.8713495303927082
 40
0.9142330127531219
 40
0.9571165047859199
 40
1.0
 40
1.0
 40
1.0
 40
1.0
 10
150.8531447301609
 20
171.4488837065569
 30
0.0
 10
150.8531447301609
 20
171.4530680424839
 30
0.0
 10
150.8531447301609
 20
171.4703695559626
 30
0.0
 10
150.8531447301609
 20
171.3612726960255
 30
0.0
 10
150.8531447301609
 20
171.121486572163
 30
0.0
 10
150.8531447301609
 20
170.7409012621696
 30
0.0
 10
150.8531447301609
 20
170.23841989321
 30
0.0
 10
150.8531447301609
 20
169.6193212862852
 30
0.0
 10
150.8531447301609
 20
168.8950870934665
 30
0.0
 10
150.8531447301609
 20
168.077871212823
 30
0.0
 10
150.8531447301609
 20
167.1817205699153
 30
0.0
 10
150.8531447301609
 20
166.221950551696
 30
0.0
 10
150.8531447301609
 20
165.2149885122444
 30
0.0
 10
150.8531447301609
 20
164.1780623272715
 30
0.0
 10
150.8531447301609
 20
163.128914170228
 30
0.0
 10
150.8531447301609
 20
162.0854957443611
 30
0.0
 10
150.8531447301609
 20
161.0656594711439
 30
0.0
 10
150.8531447301609
 20
160.0868562829039
 30
0.0
 10
150.8531447301609
 20
159.1658297312555
 30
0.0
 10
150.8531447301609
 20
158.3183551349052
 30
0.0
 10
150.8531447301609
 20
157.5588696864341
 30
0.0
 10
150.8531447301609
 20
156.9006070809014
 30
0.0
 10
150.8531447301609
 20
156.3539386667205
 30
0.0
 10
150.8531447301609
 20
155.9315451963049
 30
0.0
 10
150.8531447301609
 20
155.6282408409726
 30
0.0
 10
150.8531447301609
 20
155.5397707403033
 30
0.0
 10
150.8531447301609
 20
155.4955356883279
 30
0.0
  0
LINE
  5
12C
330
1F
100
AcDbEntity
  8
0
  6
Continuous
 62
     7
370
    18
100
AcDbLine
 10
150.8531447302
 20
155.4955356883
 30
0.0
 11
150.8531447302
 21
155.4786480161
 31
0.0
  0
SPLINE
  5
12D
330
1F
100
AcDbEntity
  8
0
  6
Continuous
 62
     7
370
    18
100
AcDbSpline
210
0.0
220
0.0
230
1.0
 70
    24
 71
     3
 72
    23
 73
    19
 74
     0
 42
0.000000001
 43
0.00000001
 40
0.0
 40
0.0
 40
0.0
 40
0.0
 40
0.0643250659953483
 40
0.1286501229149198
 40
0.1929751899406421
 40
0.2573002519188944
 40
0.3216253066250405
 40
0.3859503782281566
 40
0.4502754348819773
 40
0.514600496481781
 40
0.5789255624771292
 40
0.6432506193967007
 40
0.707575686422423
 40
0.7719007484006751
 40
0.8362258031068214
 40
0.9005508747099374
 40
0.964875931363758
 40
1.0
 40
1.0
 40
1.0
 40
1.0
 10
150.4531454096538
 20
155.8939475695065
 30
0.0
 10
150.4531454096538
 20
155.9664063222473
 30
0.0
 10
150.4531454096538
 20
156.1113238175056
 30
0.0
 10
150.4531454096538
 20
156.6891974114778
 30
0.0
 10
150.4531454096538
 20
157.5065281278101
 30
0.0
 10
150.4531454096538
 20
158.5583888530467
 30
0.0
 10
150.4531454096538
 20
159.7972605483826
 30
0.0
 10
150.4531454096538
 20
161.1774355887247
 30
0.0
 10
150.4531454096538
 20
162.6453667934045
 30
0.0
 10
150.4531454096538
 20
164.1447722056525
 30
0.0
 10
150.4531454096538
 20
165.6180186344644
 30
0.0
 10
150.4531454096538
 20
167.0084078979005
 30
0.0
 10
150.4531454096538
 20
168.2628491928783
 30
0.0
 10
150.4531454096538
 20
169.3318519248912
 30
0.0
 10
150.4531454096538
 20
170.1791255446004
 30
0.0
 10
150.4531454096538
 20
170.7542332316882
 30
0.0
 10
150.4531454096538
 20
171.0491956312825
 30
0.0
 10
150.4531454096538
 20
171.0331483947442
 30
0.0
 10
150.4531454096538
 20
171.02748073064
 30
0.0
  0
LINE
  5
12E
330
1F
100
AcDbEntity
  8
0
  6
Continuous
 62
     7
370
    18
100
AcDbLine
 10
172.4531452904
 20
157.4875936972
 30
0.0
 11
173.453147317
 21
158.483622236
 31
0.0
  0
SPLINE
  5
12F
330
1F
100
AcDbEntity
  8
0
  6
Continuous
 62
     7
370
    18
100
AcDbSpline
210
0.0
220
0.0
230
1.0
 70
    24
 71
     3
 72
    23
 73
    19
 74
     0
 42
0.000000001
 43
0.00000001
 40
0.0
 40
0.0
 40
0.0
 40
0.0
 40
0.0643255444773645
 40
0.1286510887442035
 40
0.1929766236115436
 40
0.2573021811134045
 40
0.3216277118684172
 40
0.3859532642614699
 40
0.4502788060419027
 40
0.5146043509749519
 40
0.5789298954523164
 40
0.6432554397191556
 40
0.7075809745864955
 40
0.7719065320883565
 40
0.836232062843369
 40
0.9005576152364217
 40
0.9648831570168546
 40
1.0
 40
1.0
 40
1.0
 40
1.0
 10
172.4531452904445
 20
157.4875936972371
 30
0.0
 10
172.4531452904446
 20
157.544797926237
 30
0.0
 10
172.4531452904446
 20
157.6592063840497
 30
0.0
 10
172.4531452904445
 20
158.1154225486977
 30
0.0
 10
172.4531452904445
 20
158.7606835077328
 30
0.0
 10
172.4531452904445
 20
159.5910996290869
 30
0.0
 10
172.4531452904445
 20
160.5691564592645
 30
0.0
 10
172.4531452904446
 20
161.6587682587044
 30
0.0
 10
172.4531452904445
 20
162.8176613267227
 30
0.0
 10
172.4531452904446
 20
164.0014023988265
 30
0.0
 10
172.4531452904445
 20
165.1644917234445
 30
0.0
 10
172.4531452904445
 20
166.2621672735518
 30
0.0
 10
172.4531452904445
 20
167.2525157398834
 30
0.0
 10
172.4531452904446
 20
168.096465326086
 30
0.0
 10
172.4531452904445
 20
168.7653657179286
 30
0.0
 10
172.4531452904445
 20
169.2193963441224
 30
0.0
 10
172.4531452904445
 20
169.4522562235718
 30
0.0
 10
172.4531452904445
 20
169.4395909981268
 30
0.0
 10
172.4531452904445
 20
169.4351184310785
 30
0.0
  0
SPLINE
  5
130
330
1F
100
AcDbEntity
  8
0
  6
Continuous
 62
     7
370
    18
100
AcDbSpline
210
0.0
220
0.0
230
1.0
 70
    24
 71
     3
 72
    23
 73
    19
 74
     0
 42
0.000000001
 43
0.00000001
 40
0.0
 40
0.0
 40
0.0
 40
0.0
 40
0.0351272441180664
 40
0.0994520918033997
 40
0.1637769441483984
 40
0.2281017989636288
 40
0.2924266422737816
 40
0.3567514864372733
 40
0.4210763506568816
 40
0.4854011973806426
 40
0.5497260467374238
 40
0.6140508944227571
 40
0.6783757467677558
 40
0.7427006015829862
 40
0.8070254448931391
 40
0.8713502890566308
 40
0.9356751532762392
 40
1.0
 40
1.0
 40
1.0
 40
1.0
 10
173.4531473170024
 20
168.4398945549896
 30
0.0
 10
173.4531473170025
 20
168.4436238706856
 30
0.0
 10
173.4531473170024
 20
168.4541822921123
 30
0.0
 10
173.4531473170024
 20
168.2601266603762
 30
0.0
 10
173.4531473170025
 20
167.881765135506
 30
0.0
 10
173.4531473170024
 20
167.3243488235172
 30
0.0
 10
173.4531473170024
 20
166.6210575216282
 30
0.0
 10
173.4531473170024
 20
165.7957669579148
 30
0.0
 10
173.4531473170025
 20
164.8810375193093
 30
0.0
 10
173.4531473170025
 20
163.9117962753727
 30
0.0
 10
173.4531473170024
 20
162.9253454492101
 30
0.0
 10
173.4531473170025
 20
161.9596011754244
 30
0.0
 10
173.4531473170024
 20
161.0515914758716
 30
0.0
 10
173.4531473170025
 20
160.2365441534328
 30
0.0
 10
173.4531473170024
 20
159.54453046785
 30
0.0
 10
173.4531473170024
 20
159.0068133930264
 30
0.0
 10
173.4531473170025
 20
158.6266326168535
 30
0.0
 10
173.4531473170024
 20
158.5312923586495
 30
0.0
 10
173.4531473170024
 20
158.4836222360304
 30
0.0
  0
LINE
  5
131
330
1F
100
AcDbEntity
  8
0
  6
Continuous
 62
     7
370
    18
100
AcDbLine
 10
172.4531452904
 20
157.4924118946
 30
0.0
 11
172.4531452904
 21
157.4875936972
 31
0.0
  0
SPLINE
  5
132
330
1F
100
AcDbEntity
  8
0
  6
Continuous
 62
     7
370
    18
100
AcDbSpline
210
0.0
220
0.0
230
1.0
 70
    24
 71
     3
 72
    23
 73
    19
 74
     0
 42
0.000000001
 43
0.00000001
 40
0.0
 40
0.0
 40
0.0
 40
0.0
 40
0.0351168424655439
 40
0.0994423885131636
 40
0.1637679261158496
 40
0.2280934725192613
 40
0.2924190201726584
 40
0.3567445716207584
 40
0.4210701117836674
 40
0.4853956485411287
 40
0.5497211934557409
 40
0.6140467395033605
 40
0.6783722771060465
 40
0.7426978235094582
 40
0.8070233711628553
 40
0.8713489226109553
 40
0.9356744549021893
 40
0.9999999999999999
 40
0.9999999999999999
 40
0.9999999999999999
 40
0.9999999999999999
 10
147.8531423757774
 20
167.9422805214694
 30
0.0
 10
147.8531423757774
 20
167.9456349647801
 30
0.0
 10
147.8531423757774
 20
167.9551339354029
 30
0.0
 10
147.8531423757774
 20
167.7804883950035
 30
0.0
 10
147.8531423757774
 20
167.4399660819725
 30
0.0
 10
147.8531423757774
 20
166.9382905074755
 30
0.0
 10
147.8531423757774
 20
166.3053281105988
 30
0.0
 10
147.8531423757774
 20
165.562567015286
 30
0.0
 10
147.8531423757774
 20
164.7393101903444
 30
0.0
 10
147.8531423757774
 20
163.8669932553171
 30
0.0
 10
147.8531423757774
 20
162.9791874025565
 30
0.0
 10
147.8531423757774
 20
162.1100178135906
 30
0.0
 10
147.8531423757774
 20
161.2928086853497
 30
0.0
 10
147.8531423757774
 20
160.55926620138
 30
0.0
 10
147.8531423757774
 20
159.936454240596
 30
0.0
 10
147.8531423757774
 20
159.4525081066281
 30
0.0
 10
147.8531423757774
 20
159.1103461320655
 30
0.0
 10
147.8531423757774
 20
159.0245398723742
 30
0.0
 10
147.8531423757774
 20
158.9816367382577
 30
0.0
  0
LINE
  5
133
330
1F
100
AcDbEntity
  8
0
  6
Continuous
 62
     7
370
    18
100
AcDbLine
 10
147.8531423758
 20
158.9816367383
 30
0.0
 11
147.8531423758
 21
158.9852512012
 31
0.0
  0
SPLINE
  5
134
330
1F
100
AcDbEntity
  8
0
  6
Continuous
 62
     7
370
    18
100
AcDbSpline
210
0.0
220
0.0
230
1.0
 70
    24
 71
     3
 72
    23
 73
    19
 74
     0
 42
0.000000001
 43
0.00000001
 40
0.0
 40
0.0
 40
0.0
 40
0.0
 40
0.06432472128027
 40
0.1286494481933866
 40
0.1929741875725052
 40
0.2572988985110609
 40
0.3216236248682565
 40
0.3859483598670419
 40
0.4502730851653616
 40
0.5145978097199637
 40
0.5789225310002337
 40
0.6432472579133502
 40
0.7075719972924689
 40
0.7718967082310245
 40
0.8362214345882202
 40
0.9005461695870056
 40
0.9648708948853253
 40
1.0
 40
1.0
 40
1.0
 40
1.0
 10
147.4531430552703
 20
159.380048153775
 30
0.0
 10
147.4531430552703
 20
159.4191376490969
 30
0.0
 10
147.4531430552703
 20
159.4973166431637
 30
0.0
 10
147.4531430552703
 20
159.8090644513744
 30
0.0
 10
147.4531430552703
 20
160.249992913781
 30
0.0
 10
147.4531430552703
 20
160.8174439511605
 30
0.0
 10
147.4531430552703
 20
161.4857827431397
 30
0.0
 10
147.4531430552703
 20
162.2303507179959
 30
0.0
 10
147.4531430552704
 20
163.0222611224544
 30
0.0
 10
147.4531430552703
 20
163.831150798009
 30
0.0
 10
147.4531430552703
 20
164.6259285380455
 30
0.0
 10
147.4531430552703
 20
165.3760069139826
 30
0.0
 10
147.4531430552703
 20
166.052744883205
 30
0.0
 10
147.4531430552703
 20
166.629443961361
 30
0.0
 10
147.4531430552703
 20
167.0865252505761
 30
0.0
 10
147.4531430552703
 20
167.3967821430207
 30
0.0
 10
147.4531430552703
 20
167.5559081468445
 30
0.0
 10
147.4531430552703
 20
167.5472500309386
 30
0.0
 10
147.4531430552703
 20
167.5441918092242
 30
0.0
  0
SPLINE
  5
135
330
1F
100
AcDbEntity
  8
0
  6
Continuous
 62
     7
370
    18
100
AcDbSpline
210
0.0
220
0.0
230
1.0
 70
    24
 71
     3
 72
    14
 73
    10
 74
     0
 42
0.000000001
 43
0.00000001
 40
0.0
 40
0.0
 40
0.0
 40
0.0
 40
0.25
 40
0.25
 40
0.5
 40
0.5
 40
0.75
 40
0.75
 40
1.0
 40
1.0
 40
1.0
 40
1.0
 10
116.4531436219004
 20
157.0002142051368
 30
0.0
 10
116.4531436219004
 20
157.1835438943776
 30
0.0
 10
116.4531436219004
 20
157.4830591021246
 30
0.0
 10
116.4531436219004
 20
158.3123584140609
 30
0.0
 10
116.4531436219004
 20
158.8419029159712
 30
0.0
 10
116.4531436219004
 20
160.0504041519462
 30
0.0
 10
116.4531436219004
 20
160.7272746088714
 30
0.0
 10
116.4531436219004
 20
162.1050114972293
 30
0.0
 10
116.4531436219004
 20
162.8040689032977
 30
0.0
 10
116.4531436219004
 20
163.4637658613196
 30
0.0
  0
SPLINE
  5
136
330
1F
100
AcDbEntity
  8
0
  6
Continuous
 62
     7
370
    18
100
AcDbSpline
210
0.0
220
0.0
230
1.0
 70
    24
 71
     3
 72
    10
 73
     6
 74
     0
 42
0.000000001
 43
0.00000001
 40
0.0
 40
0.0
 40
0.0
 40
0.0
 40
0.5
 40
0.5
 40
1.0
 40
1.0
 40
1.0
 40
1.0
 10
116.1531436217071
 20
163.4637658613196
 30
0.0
 10
116.2238542999221
 20
163.4637658613196
 30
0.0
 10
116.3066970123916
 20
163.4637658613196
 30
0.0
 10
116.4238542999024
 20
163.4637658613196
 30
0.0
 10
116.4531436218031
 20
163.4637658613196
 30
0.0
 10
116.4531436219004
 20
163.4637658613196
 30
0.0
  0
SPLINE
  5
137
330
1F
100
AcDbEntity
  8
0
  6
Continuous
 62
     7
370
    18
100
AcDbSpline
210
0.0
220
0.0
230
1.0
 70
    24
 71
     3
 72
    10
 73
     6
 74
     0
 42
0.000000001
 43
0.00000001
 40
0.0
 40
0.0
 40
0.0
 40
0.0
 40
0.4999999999999999
 40
0.4999999999999999
 40
1.0
 40
1.0
 40
1.0
 40
1.0
 10
116.1531436215145
 20
163.4637658584482
 30
0.0
 10
116.1531436215145
 20
161.747476003828
 30
0.0
 10
116.1531436215145
 20
160.09082121523
 30
0.0
 10
116.1531436215145
 20
157.5271302328683
 30
0.0
 10
116.1531436215145
 20
156.7091733283159
 30
0.0
 10
116.1531436215145
 20
156.5107191675965
 30
0.0
  0
SPLINE
  5
138
330
1F
100
AcDbEntity
  8
0
  6
Continuous
 62
     7
370
    18
100
AcDbSpline
210
0.0
220
0.0
230
1.0
 70
     8
 71
     3
 72
    14
 73
    10
 74
     0
 42
0.000000001
 43
0.00000001
 40
0.0
 40
0.0
 40
0.0
 40
0.0
 40
0.25
 40
0.25
 40
0.5
 40
0.5
 40
0.75
 40
0.75
 40
1.0
 40
1.0
 40
1.0
 40
1.0
 10
116.1531436215145
 20
156.5107191673196
 30
0.0
 10
116.1743324855145
 20
156.5236088043196
 30
0.0
 10
116.1994887495145
 20
156.5407559613196
 30
0.0
 10
116.2564563815145
 20
156.5887143293196
 30
0.0
 10
116.2883674095145
 20
156.6196664633196
 30
0.0
 10
116.3520558775145
 20
156.6992498793196
 30
0.0
 10
116.3841584791812
 20
156.748209143653
 30
0.0
 10
116.4351957085145
 20
156.8658363943196
 30
0.0
 10
116.4531436215145
 20
156.9331829783196
 30
0.0
 10
116.4531436215145
 20
157.0002142063196
 30
0.0
  0
SPLINE
  5
139
330
1F
100
AcDbEntity
  8
0
  6
Continuous
 62
     7
370
    18
100
AcDbSpline
210
0.0
220
0.0
230
1.0
 70
    27
 71
     3
 72
    12
 73
     8
 74
     0
 42
0.000000001
 43
0.00000001
 40
0.0
 40
0.0
 40
0.0
 40
0.0
 40
0.3333333333333333
 40
0.3333333333333333
 40
0.6666666666666665
 40
0.6666666666666665
 40
0.9999999999999999
 40
0.9999999999999999
 40
0.9999999999999999
 40
0.9999999999999999
 10
122.1531436215145
 20
163.4637658613196
 30
0.0
 10
122.1531436215145
 20
165.9642598752945
 30
0.0
 10
122.1531436215145
 20
168.2756966815979
 30
0.0
 10
122.1531436215145
 20
170.7761906949806
 30
0.0
 10
122.1531436215145
 20
170.7761906944332
 30
0.0
 10
122.1531436215145
 20
168.2756966792739
 30
0.0
 10
122.1531436215145
 20
165.964259872423
 30
0.0
 10
122.1531436215145
 20
163.4637658584482
 30
0.0
  0
SPLINE
  5
13A
330
1F
100
AcDbEntity
  8
0
  6
Continuous
 62
     7
370
    18
100
AcDbSpline
210
0.0
220
0.0
230
1.0
 70
    27
 71
     3
 72
    14
 73
    10
 74
     0
 42
0.000000001
 43
0.00000001
 40
0.0
 40
0.0
 40
0.0
 40
0.0
 40
0.25
 40
0.25
 40
0.5000000000000001
 40
0.5000000000000001
 40
0.75
 40
0.75
 40
1.0
 40
1.0
 40
1.0
 40
1.0
 10
122.1531436215145
 20
163.4637658584482
 30
0.0
 10
122.1531436215145
 20
161.6073029708074
 30
0.0
 10
122.1531436215145
 20
159.8267358882402
 30
0.0
 10
122.1531436215145
 20
157.2013008951862
 30
0.0
 10
122.1531436215145
 20
156.4637658611055
 30
0.0
 10
122.1531436215145
 20
156.4637658615337
 30
0.0
 10
122.1531436215145
 20
157.201300896025
 30
0.0
 10
122.1531436215145
 20
159.8267358896844
 30
0.0
 10
122.1531436215145
 20
161.6073029724218
 30
0.0
 10
122.1531436215145
 20
163.4637658600625
 30
0.0
  0
SPLINE
  5
13B
330
1F
100
AcDbEntity
  8
0
  6
Continuous
 62
     7
370
    18
100
AcDbSpline
210
0.0
220
0.0
230
1.0
 70
    24
 71
     3
 72
    10
 73
     6
 74
     0
 42
0.000000001
 43
0.00000001
 40
0.0
 40
0.0
 40
0.0
 40
0.0
 40
0.5000000000000002
 40
0.5000000000000002
 40
1.0
 40
1.0
 40
1.0
 40
1.0
 10
120.7531436215145
 20
156.5107191675965
 30
0.0
 10
120.7531436215145
 20
156.7091733283159
 30
0.0
 10
120.7531436215145
 20
157.5271302328683
 30
0.0
 10
120.7531436215145
 20
160.09082121523
 30
0.0
 10
120.7531436215145
 20
161.747476003828
 30
0.0
 10
120.7531436215145
 20
163.4637658584482
 30
0.0
  0
SPLINE
  5
13C
330
1F
100
AcDbEntity
  8
0
  6
Continuous
 62
     7
370
    18
100
AcDbSpline
210
0.0
220
0.0
230
1.0
 70
    27
 71
     3
 72
    12
 73
     8
 74
     0
 42
0.000000001
 43
0.00000001
 40
0.0
 40
0.0
 40
0.0
 40
0.0
 40
0.3333333333333332
 40
0.3333333333333332
 40
0.6666666666666665
 40
0.6666666666666665
 40
0.9999999999999999
 40
0.9999999999999999
 40
0.9999999999999999
 40
0.9999999999999999
 10
120.7531436215145
 20
163.4637658584482
 30
0.0
 10
120.7531436215145
 20
165.964259872423
 30
0.0
 10
120.7531436215145
 20
168.2756966792739
 30
0.0
 10
120.7531436215145
 20
170.7761906944332
 30
0.0
 10
120.7531436215145
 20
170.7761906949806
 30
0.0
 10
120.7531436215145
 20
168.2756966815979
 30
0.0
 10
120.7531436215145
 20
165.9642598752945
 30
0.0
 10
120.7531436215145
 20
163.4637658613196
 30
0.0
  0
SPLINE
  5
13D
330
1F
100
AcDbEntity
  8
0
  6
Continuous
 62
     7
370
    18
100
AcDbSpline
210
0.0
220
0.0
230
1.0
 70
     8
 71
     3
 72
    14
 73
    10
 74
     0
 42
0.000000001
 43
0.00000001
 40
0.0
 40
0.0
 40
0.0
 40
0.0
 40
0.25
 40
0.25
 40
0.5
 40
0.5
 40
0.75
 40
0.75
 40
1.0
 40
1.0
 40
1.0
 40
1.0
 10
120.4531436215145
 20
157.0002142063196
 30
0.0
 10
120.4531436215145
 20
156.9330860303196
 30
0.0
 10
120.4711159885145
 20
156.8657515493196
 30
0.0
 10
120.5221890471811
 20
156.7480987413196
 30
0.0
 10
120.5543202240145
 20
156.6991106243196
 30
0.0
 10
120.6181271500145
 20
156.6194357563196
 30
0.0
 10
120.6499326145145
 20
156.5886130466529
 30
0.0
 10
120.7070154065145
 20
156.5405890613196
 30
0.0
 10
120.7320772475145
 20
156.5235342903196
 30
0.0
 10
120.7531436215145
 20
156.5107191673196
 30
0.0
  0
SPLINE
  5
13E
330
1F
100
AcDbEntity
  8
0
  6
Continuous
 62
     7
370
    18
100
AcDbSpline
210
0.0
220
0.0
230
1.0
 70
    24
 71
     3
 72
    10
 73
     6
 74
     0
 42
0.000000001
 43
0.00000001
 40
0.0
 40
0.0
 40
0.0
 40
0.0
 40
0.5
 40
0.5
 40
1.0
 40
1.0
 40
1.0
 40
1.0
 10
120.7531436213219
 20
163.4637658613196
 30
0.0
 10
120.6824329431069
 20
163.4637658613196
 30
0.0
 10
120.5995902306374
 20
163.4637658613196
 30
0.0
 10
120.4824329431266
 20
163.4637658613196
 30
0.0
 10
120.4531436212259
 20
163.4637658613196
 30
0.0
 10
120.4531436211286
 20
163.4637658613196
 30
0.0
  0
SPLINE
  5
13F
330
1F
100
AcDbEntity
  8
0
  6
Continuous
 62
     7
370
    18
100
AcDbSpline
210
0.0
220
0.0
230
1.0
 70
    24
 71
     3
 72
    14
 73
    10
 74
     0
 42
0.000000001
 43
0.00000001
 40
0.0
 40
0.0
 40
0.0
 40
0.0
 40
0.2500000000000001
 40
0.2500000000000001
 40
0.5000000000000001
 40
0.5000000000000001
 40
0.75
 40
0.75
 40
1.0
 40
1.0
 40
1.0
 40
1.0
 10
120.4531436211286
 20
163.4637658613196
 30
0.0
 10
120.4531436211286
 20
162.8040689032977
 30
0.0
 10
120.4531436211286
 20
162.1050114972293
 30
0.0
 10
120.4531436211286
 20
160.7272746088715
 30
0.0
 10
120.4531436211286
 20
160.0504041519462
 30
0.0
 10
120.4531436211286
 20
158.8419029159712
 30
0.0
 10
120.4531436211286
 20
158.3123584140609
 30
0.0
 10
120.4531436211286
 20
157.4830591021246
 30
0.0
 10
120.4531436211286
 20
157.1835438943776
 30
0.0
 10
120.4531436211286
 20
157.0002142051368
 30
0.0
  0
SPLINE
  5
140
330
1F
100
AcDbEntity
  8
0
  6
Continuous
 62
     7
370
    18
100
AcDbSpline
210
0.0
220
0.0
230
1.0
 70
    24
 71
     3
 72
    20
 73
    16
 74
     0
 42
0.000000001
 43
0.00000001
 40
0.0
 40
0.0
 40
0.0
 40
0.0
 40
0.1249999999999999
 40
0.1249999999999999
 40
0.2499999999999998
 40
0.2499999999999998
 40
0.3749999999999997
 40
0.3749999999999997
 40
0.4999999999999997
 40
0.4999999999999997
 40
0.6249999999999998
 40
0.6249999999999998
 40
0.7499999999999998
 40
0.7499999999999998
 40
1.0
 40
1.0
 40
1.0
 40
1.0
 10
120.4531436211286
 20
170.1637658614464
 30
0.0
 10
120.4531436211286
 20
170.1637658614453
 30
0.0
 10
120.4531436211286
 20
170.0929335143029
 30
0.0
 10
120.4531436211286
 20
169.8222905162687
 30
0.0
 10
120.4531436211286
 20
169.6228200713513
 30
0.0
 10
120.4531436211286
 20
169.1282410632675
 30
0.0
 10
120.4531436211286
 20
168.8335725793747
 30
0.0
 10
120.4531436211286
 20
168.1898495544048
 30
0.0
 10
120.4531436211286
 20
167.8410991947312
 30
0.0
 10
120.4531436211286
 20
167.1264325280516
 30
0.0
 10
120.4531436211286
 20
166.7606181106735
 30
0.0
 10
120.4531436211286
 20
166.0388237244299
 30
0.0
 10
120.4531436211286
 20
165.6828058613591
 30
0.0
 10
120.4531436211286
 20
164.6536858613408
 30
0.0
 10
120.4531436211286
 20
164.022099194663
 30
0.0
 10
120.4531436211286
 20
163.4637658613196
 30
0.0
  0
SPLINE
  5
141
330
1F
100
AcDbEntity
  8
0
  6
Continuous
 62
     7
370
    18
100
AcDbSpline
210
0.0
220
0.0
230
1.0
 70
    24
 71
     3
 72
    20
 73
    16
 74
     0
 42
0.000000001
 43
0.00000001
 40
0.0
 40
0.0
 40
0.0
 40
0.0
 40
0.2500000000000001
 40
0.2500000000000001
 40
0.3750000000000001
 40
0.3750000000000001
 40
0.5
 40
0.5
 40
0.625
 40
0.625
 40
0.75
 40
0.75
 40
0.875
 40
0.875
 40
1.0
 40
1.0
 40
1.0
 40
1.0
 10
116.4531436219004
 20
163.4637658613196
 30
0.0
 10
116.4531436219004
 20
164.0220991946641
 30
0.0
 10
116.4531436219004
 20
164.6536858613434
 30
0.0
 10
116.4531436219004
 20
165.682805861364
 30
0.0
 10
116.4531436219004
 20
166.0388237244356
 30
0.0
 10
116.4531436219004
 20
166.7606181106808
 30
0.0
 10
116.4531436219004
 20
167.1264325280596
 30
0.0
 10
116.4531436219004
 20
167.8410991947404
 30
0.0
 10
116.4531436219004
 20
168.1898495544144
 30
0.0
 10
116.4531436219004
 20
168.8335725793845
 30
0.0
 10
116.4531436219004
 20
169.128241063277
 30
0.0
 10
116.4531436219004
 20
169.6228200713596
 30
0.0
 10
116.4531436219004
 20
169.8222905162759
 30
0.0
 10
116.4531436219004
 20
170.0929335143071
 30
0.0
 10
116.4531436219004
 20
170.1637658614475
 30
0.0
 10
116.4531436219004
 20
170.1637658614464
 30
0.0
  0
SPLINE
  5
142
330
1F
100
AcDbEntity
  8
0
  6
Continuous
 62
     7
370
    18
100
AcDbSpline
210
0.0
220
0.0
230
1.0
 70
    24
 71
     3
 72
    10
 73
     6
 74
     0
 42
0.000000001
 43
0.00000001
 40
0.0
 40
0.0
 40
0.0
 40
0.0
 40
0.5
 40
0.5
 40
1.0
 40
1.0
 40
1.0
 40
1.0
 10
122.4531436219004
 20
163.4637658613196
 30
0.0
 10
122.4531436218031
 20
163.4637658613196
 30
0.0
 10
122.4238542999024
 20
163.4637658613196
 30
0.0
 10
122.3066970123916
 20
163.4637658613196
 30
0.0
 10
122.2238542999221
 20
163.4637658613196
 30
0.0
 10
122.1531436217071
 20
163.4637658613196
 30
0.0
  0
SPLINE
  5
143
330
1F
100
AcDbEntity
  8
0
  6
Continuous
 62
     7
370
    18
100
AcDbSpline
210
0.0
220
0.0
230
1.0
 70
    24
 71
     3
 72
    10
 73
     6
 74
     0
 42
0.000000001
 43
0.00000001
 40
0.0
 40
0.0
 40
0.0
 40
0.0
 40
0.5
 40
0.5
 40
1.0
 40
1.0
 40
1.0
 40
1.0
 10
122.1531436217071
 20
163.4637658613196
 30
0.0
 10
122.2238542999221
 20
163.4637658613196
 30
0.0
 10
122.3066970123916
 20
163.4637658613196
 30
0.0
 10
122.4238542999024
 20
163.4637658613196
 30
0.0
 10
122.4531436218031
 20
163.4637658613196
 30
0.0
 10
122.4531436219004
 20
163.4637658613196
 30
0.0
  0
SPLINE
  5
144
330
1F
100
AcDbEntity
  8
0
  6
Continuous
 62
     7
370
    18
100
AcDbSpline
210
0.0
220
0.0
230
1.0
 70
    24
 71
     3
 72
    25
 73
    21
 74
     0
 42
0.000000001
 43
0.00000001
 40
0.0
 40
0.0
 40
0.0
 40
0.0
 40
0.0250529546961805
 40
0.0500478753371753
 40
0.0750234212544377
 40
0.1000183416859154
 40
0.1250712959704197
 40
0.1875858261821788
 40
0.2501003567404746
 40
0.3126148877363533
 40
0.3751294184057042
 40
0.5000071476030015
 40
0.6248848768002986
 40
0.6873994074696498
 40
0.7499139384655285
 40
0.8124284690238244
 40
0.8749429992355832
 40
0.9166585443972171
 40
0.9582844542572012
 40
1.0
 40
1.0
 40
1.0
 40
1.0
 10
122.4531436215145
 20
170.1637658579964
 30
0.0
 10
122.4531436215145
 20
170.1627778173513
 30
0.0
 10
122.4531436215145
 20
170.1608040248132
 30
0.0
 10
122.4531436215145
 20
170.14477149861
 30
0.0
 10
122.4531436215145
 20
170.1191595025082
 30
0.0
 10
122.4531436215145
 20
170.0830330877687
 30
0.0
 10
122.4531436215145
 20
170.0136101751894
 30
0.0
 10
122.4531436215145
 20
169.885715277248
 30
0.0
 10
122.4531436215145
 20
169.663650021203
 30
0.0
 10
122.4531436215145
 20
169.3822370396817
 30
0.0
 10
122.4531436215145
 20
168.9310539731185
 30
0.0
 10
122.4531436215145
 20
168.2320319237608
 30
0.0
 10
122.4531436215145
 20
167.3797195950962
 30
0.0
 10
122.4531436215145
 20
166.6272953374923
 30
0.0
 10
122.4531436215145
 20
166.0318281516667
 30
0.0
 10
122.4531436215145
 20
165.4118612085545
 30
0.0
 10
122.4531436215145
 20
164.8437640652804
 30
0.0
 10
122.4531436215145
 20
164.3389330731593
 30
0.0
 10
122.4531436215145
 20
163.9022825593319
 30
0.0
 10
122.4531436215145
 20
163.6100428644309
 30
0.0
 10
122.4531436215145
 20
163.4637658613196
 30
0.0
  0
SPLINE
  5
145
330
1F
100
AcDbEntity
  8
0
  6
Continuous
 62
     7
370
    18
100
AcDbSpline
210
0.0
220
0.0
230
1.0
 70
    24
 71
     3
 72
    25
 73
    21
 74
     0
 42
0.000000001
 43
0.00000001
 40
0.0
 40
0.0
 40
0.0
 40
0.0
 40
0.0250529547012751
 40
0.0500478753409906
 40
0.0750234212569811
 40
0.1000183416871891
 40
0.1250712959704198
 40
0.1875858261821789
 40
0.2501003567404747
 40
0.3126148877363534
 40
0.3751294184057044
 40
0.5000071476030016
 40
0.6248848768002989
 40
0.6873994074696499
 40
0.7499139384655285
 40
0.8124284690238243
 40
0.8749429992355833
 40
0.916658544395097
 40
0.9582844542529622
 40
1.0
 40
1.0
 40
1.0
 40
1.0
 10
122.4531436215145
 20
163.4637658613196
 30
0.0
 10
122.4531436215145
 20
163.3759268231937
 30
0.0
 10
122.4531436215145
 20
163.2004522221888
 30
0.0
 10
122.4531436215145
 20
162.9378128175816
 30
0.0
 10
122.4531436215145
 20
162.6761901845202
 30
0.0
 10
122.4531436215145
 20
162.4155781461883
 30
0.0
 10
122.4531436215145
 20
162.0270293091526
 30
0.0
 10
122.4531436215145
 20
161.5156594191303
 30
0.0
 10
122.4531436215145
 20
160.895706535893
 30
0.0
 10
122.4531436215145
 20
160.3002356204196
 30
0.0
 10
122.4531436215145
 20
159.5478125070778
 30
0.0
 10
122.4531436215145
 20
158.6955002008888
 30
0.0
 10
122.4531436215145
 20
157.9964761634676
 30
0.0
 10
122.4531436215145
 20
157.5452974611483
 30
0.0
 10
122.4531436215145
 20
157.2638710856475
 30
0.0
 10
122.4531436215145
 20
157.0418561303547
 30
0.0
 10
122.4531436215145
 20
156.8995949464571
 30
0.0
 10
122.4531436215145
 20
156.816602069694
 30
0.0
 10
122.4531436215145
 20
156.7719880958335
 30
0.0
 10
122.4531436215145
 20
156.7665085728292
 30
0.0
 10
122.4531436215145
 20
156.7637658646428
 30
0.0
  0
SPLINE
  5
146
330
1F
100
AcDbEntity
  8
0
  6
Continuous
 62
     7
370
    18
100
AcDbSpline
210
0.0
220
0.0
230
1.0
 70
    24
 71
     3
 72
    10
 73
     6
 74
     0
 42
0.000000001
 43
0.00000001
 40
0.0
 40
0.0
 40
0.0
 40
0.0
 40
0.5
 40
0.5
 40
1.0
 40
1.0
 40
1.0
 40
1.0
 10
114.4531436211286
 20
163.4637658613196
 30
0.0
 10
114.4531436212259
 20
163.4637658613196
 30
0.0
 10
114.4824329431266
 20
163.4637658613196
 30
0.0
 10
114.5995902306374
 20
163.4637658613196
 30
0.0
 10
114.6824329431069
 20
163.4637658613196
 30
0.0
 10
114.7531436213219
 20
163.4637658613196
 30
0.0
  0
SPLINE
  5
147
330
1F
100
AcDbEntity
  8
0
  6
Continuous
 62
     7
370
    18
100
AcDbSpline
210
0.0
220
0.0
230
1.0
 70
    24
 71
     3
 72
    25
 73
    21
 74
     0
 42
0.000000001
 43
0.00000001
 40
0.0
 40
0.0
 40
0.0
 40
0.0
 40
0.0250529547012752
 40
0.0500478753409905
 40
0.0750234212569812
 40
0.1000183416871889
 40
0.1250712959704198
 40
0.1875858261821786
 40
0.2501003567404746
 40
0.3126148877363532
 40
0.3751294184057043
 40
0.5000071476030015
 40
0.6248848768002988
 40
0.6873994074696499
 40
0.7499139384655283
 40
0.8124284690238244
 40
0.8749429992355832
 40
0.9166585443950973
 40
0.958284454252962
 40
1.0
 40
1.0
 40
1.0
 40
1.0
 10
114.4531436215145
 20
163.4637658613196
 30
0.0
 10
114.4531436215145
 20
163.5516048994456
 30
0.0
 10
114.4531436215145
 20
163.7270795004505
 30
0.0
 10
114.4531436215145
 20
163.9897189050576
 30
0.0
 10
114.4531436215145
 20
164.251341538119
 30
0.0
 10
114.4531436215145
 20
164.5119535764509
 30
0.0
 10
114.4531436215145
 20
164.9005024134867
 30
0.0
 10
114.4531436215145
 20
165.4118723035089
 30
0.0
 10
114.4531436215145
 20
166.0318251867463
 30
0.0
 10
114.4531436215145
 20
166.6272961022196
 30
0.0
 10
114.4531436215145
 20
167.3797192155614
 30
0.0
 10
114.4531436215145
 20
168.2320315217504
 30
0.0
 10
114.4531436215145
 20
168.9310555591716
 30
0.0
 10
114.4531436215145
 20
169.3822342614909
 30
0.0
 10
114.4531436215145
 20
169.6636606369917
 30
0.0
 10
114.4531436215145
 20
169.8856755922845
 30
0.0
 10
114.4531436215145
 20
170.0279367761821
 30
0.0
 10
114.4531436215145
 20
170.1109296529452
 30
0.0
 10
114.4531436215145
 20
170.1555436268057
 30
0.0
 10
114.4531436215145
 20
170.16102314981
 30
0.0
 10
114.4531436215145
 20
170.1637658579964
 30
0.0
  0
SPLINE
  5
148
330
1F
100
AcDbEntity
  8
0
  6
Continuous
 62
     7
370
    18
100
AcDbSpline
210
0.0
220
0.0
230
1.0
 70
    24
 71
     3
 72
    25
 73
    21
 74
     0
 42
0.000000001
 43
0.00000001
 40
0.0
 40
0.0
 40
0.0
 40
0.0
 40
0.0250529546961802
 40
0.0500478753371751
 40
0.0750234212544376
 40
0.1000183416859151
 40
0.1250712959704197
 40
0.1875858261821788
 40
0.2501003567404745
 40
0.3126148877363533
 40
0.3751294184057042
 40
0.5000071476030015
 40
0.6248848768002986
 40
0.6873994074696497
 40
0.7499139384655282
 40
0.8124284690238243
 40
0.8749429992355832
 40
0.9166585443972167
 40
0.958284454257201
 40
1.0
 40
1.0
 40
1.0
 40
1.0
 10
114.4531436215145
 20
156.7637658646428
 30
0.0
 10
114.4531436215145
 20
156.7647539052879
 30
0.0
 10
114.4531436215145
 20
156.766727697826
 30
0.0
 10
114.4531436215145
 20
156.7827602240293
 30
0.0
 10
114.4531436215145
 20
156.808372220131
 30
0.0
 10
114.4531436215145
 20
156.8444986348705
 30
0.0
 10
114.4531436215145
 20
156.9139215474498
 30
0.0
 10
114.4531436215145
 20
157.0418164453912
 30
0.0
 10
114.4531436215145
 20
157.2638817014362
 30
0.0
 10
114.4531436215145
 20
157.5452946829575
 30
0.0
 10
114.4531436215145
 20
157.9964777495207
 30
0.0
 10
114.4531436215145
 20
158.6954997988784
 30
0.0
 10
114.4531436215145
 20
159.547812127543
 30
0.0
 10
114.4531436215145
 20
160.3002363851469
 30
0.0
 10
114.4531436215145
 20
160.8957035709725
 30
0.0
 10
114.4531436215145
 20
161.5156705140847
 30
0.0
 10
114.4531436215145
 20
162.0837676573588
 30
0.0
 10
114.4531436215145
 20
162.5885986494799
 30
0.0
 10
114.4531436215145
 20
163.0252491633073
 30
0.0
 10
114.4531436215145
 20
163.3174888582083
 30
0.0
 10
114.4531436215145
 20
163.4637658613196
 30
0.0
  0
SPLINE
  5
149
330
1F
100
AcDbEntity
  8
0
  6
Continuous
 62
     7
370
    18
100
AcDbSpline
210
0.0
220
0.0
230
1.0
 70
    24
 71
     3
 72
    20
 73
    16
 74
     0
 42
0.000000001
 43
0.00000001
 40
0.0
 40
0.0
 40
0.0
 40
0.0
 40
0.125
 40
0.125
 40
0.25
 40
0.25
 40
0.375
 40
0.375
 40
0.5
 40
0.5
 40
0.625
 40
0.625
 40
0.75
 40
0.75
 40
1.0
 40
1.0
 40
1.0
 40
1.0
 10
107.4531436219004
 20
158.2637658611928
 30
0.0
 10
107.4531436219004
 20
158.2637658611937
 30
0.0
 10
107.4531436219004
 20
158.3187402201701
 30
0.0
 10
107.4531436219004
 20
158.5287915022277
 30
0.0
 10
107.4531436219004
 20
158.683604384851
 30
0.0
 10
107.4531436219004
 20
159.0674567493361
 30
0.0
 10
107.4531436219004
 20
159.2961546771347
 30
0.0
 10
107.4531436219004
 20
159.7957606069648
 30
0.0
 10
107.4531436219004
 20
160.066432527907
 30
0.0
 10
107.4531436219004
 20
160.6210991945867
 30
0.0
 10
107.4531436219004
 20
160.9050148618071
 30
0.0
 10
107.4531436219004
 20
161.4652134899395
 30
0.0
 10
107.4531436219004
 20
161.7415258612795
 30
0.0
 10
107.4531436219004
 20
162.540245861298
 30
0.0
 10
107.4531436219004
 20
163.0304325279761
 30
0.0
 10
107.4531436219004
 20
163.4637658613196
 30
0.0
  0
SPLINE
  5
14A
330
1F
100
AcDbEntity
  8
0
  6
Continuous
 62
     7
370
    18
100
AcDbSpline
210
0.0
220
0.0
230
1.0
 70
    24
 71
     3
 72
    10
 73
     6
 74
     0
 42
0.000000001
 43
0.00000001
 40
0.0
 40
0.0
 40
0.0
 40
0.0
 40
0.5
 40
0.5
 40
1.0
 40
1.0
 40
1.0
 40
1.0
 10
107.1531436217071
 20
163.4637658613196
 30
0.0
 10
107.2238542999221
 20
163.4637658613196
 30
0.0
 10
107.3066970123916
 20
163.4637658613196
 30
0.0
 10
107.4238542999024
 20
163.4637658613196
 30
0.0
 10
107.4531436218031
 20
163.4637658613196
 30
0.0
 10
107.4531436219004
 20
163.4637658613196
 30
0.0
  0
SPLINE
  5
14B
330
1F
100
AcDbEntity
  8
0
  6
Continuous
 62
     7
370
    18
100
AcDbSpline
210
0.0
220
0.0
230
1.0
 70
    24
 71
     3
 72
    20
 73
    16
 74
     0
 42
0.000000001
 43
0.00000001
 40
0.0
 40
0.0
 40
0.0
 40
0.0
 40
0.25
 40
0.25
 40
0.375
 40
0.375
 40
0.5
 40
0.5
 40
0.625
 40
0.625
 40
0.75
 40
0.75
 40
0.875
 40
0.875
 40
1.0
 40
1.0
 40
1.0
 40
1.0
 10
107.4531436219004
 20
163.4637658613196
 30
0.0
 10
107.4531436219004
 20
163.897099194664
 30
0.0
 10
107.4531436219004
 20
164.3872858613431
 30
0.0
 10
107.4531436219004
 20
165.1860058613635
 30
0.0
 10
107.4531436219004
 20
165.4623182327041
 30
0.0
 10
107.4531436219004
 20
166.0225168608378
 30
0.0
 10
107.4531436219004
 20
166.3064325280587
 30
0.0
 10
107.4531436219004
 20
166.8610991947393
 30
0.0
 10
107.4531436219004
 20
167.1317711156818
 30
0.0
 10
107.4531436219004
 20
167.6313770455121
 30
0.0
 10
107.4531436219004
 20
167.8600749733105
 30
0.0
 10
107.4531436219004
 20
168.2439273377946
 30
0.0
 10
107.4531436219004
 20
168.3987402204171
 30
0.0
 10
107.4531436219004
 20
168.6087915024723
 30
0.0
 10
107.4531436219004
 20
168.6637658614473
 30
0.0
 10
107.4531436219004
 20
168.6637658614464
 30
0.0
  0
SPLINE
  5
14C
330
1F
100
AcDbEntity
  8
0
  6
Continuous
 62
     7
370
    18
100
AcDbSpline
210
0.0
220
0.0
230
1.0
 70
    24
 71
     3
 72
    25
 73
    21
 74
     0
 42
0.000000001
 43
0.00000001
 40
0.0
 40
0.0
 40
0.0
 40
0.0
 40
0.0250529546961802
 40
0.0500478753371752
 40
0.0750234212544376
 40
0.1000183416859151
 40
0.1250712959704199
 40
0.1875858261821789
 40
0.2501003567404746
 40
0.3126148877363534
 40
0.3751294184057043
 40
0.5000071476030015
 40
0.6248848768002988
 40
0.6873994074696499
 40
0.7499139384655285
 40
0.8124284690238245
 40
0.8749429992355833
 40
0.9166585443972168
 40
0.9582844542572012
 40
1.0
 40
1.0
 40
1.0
 40
1.0
 10
105.4531436215145
 20
158.2637658638988
 30
0.0
 10
105.4531436215145
 20
158.2645327014144
 30
0.0
 10
105.4531436215145
 20
158.2660646001006
 30
0.0
 10
105.4531436215145
 20
158.2785077547659
 30
0.0
 10
105.4531436215145
 20
158.2983857218896
 30
0.0
 10
105.4531436215145
 20
158.3264241333293
 30
0.0
 10
105.4531436215145
 20
158.3803046027938
 30
0.0
 10
105.4531436215145
 20
158.4795663146289
 30
0.0
 10
105.4531436215145
 20
158.6519154685743
 30
0.0
 10
105.4531436215145
 20
158.8703255437849
 30
0.0
 10
105.4531436215145
 20
159.2204974760429
 30
0.0
 10
105.4531436215145
 20
159.7630220516638
 30
0.0
 10
105.4531436215145
 20
160.4245181873438
 30
0.0
 10
105.4531436215145
 20
161.0084892529468
 30
0.0
 10
105.4531436215145
 20
161.4706428897069
 30
0.0
 10
105.4531436215145
 20
161.9518112634657
 30
0.0
 10
105.4531436215145
 20
162.3927224791411
 30
0.0
 10
105.4531436215145
 20
162.7845316073545
 30
0.0
 10
105.4531436215145
 20
163.1234245434593
 30
0.0
 10
105.4531436215145
 20
163.3502374409944
 30
0.0
 10
105.4531436215145
 20
163.4637658613196
 30
0.0
  0
SPLINE
  5
14D
330
1F
100
AcDbEntity
  8
0
  6
Continuous
 62
     7
370
    18
100
AcDbSpline
210
0.0
220
0.0
230
1.0
 70
    24
 71
     3
 72
    10
 73
     6
 74
     0
 42
0.000000001
 43
0.00000001
 40
0.0
 40
0.0
 40
0.0
 40
0.0
 40
0.5
 40
0.5
 40
1.0
 40
1.0
 40
1.0
 40
1.0
 10
105.4531436211286
 20
163.4637658613196
 30
0.0
 10
105.4531436212259
 20
163.4637658613196
 30
0.0
 10
105.4824329431266
 20
163.4637658613196
 30
0.0
 10
105.5995902306374
 20
163.4637658613196
 30
0.0
 10
105.6824329431069
 20
163.4637658613196
 30
0.0
 10
105.7531436213219
 20
163.4637658613196
 30
0.0
  0
SPLINE
  5
14E
330
1F
100
AcDbEntity
  8
0
  6
Continuous
 62
     7
370
    18
100
AcDbSpline
210
0.0
220
0.0
230
1.0
 70
    24
 71
     3
 72
    25
 73
    21
 74
     0
 42
0.000000001
 43
0.00000001
 40
0.0
 40
0.0
 40
0.0
 40
0.0
 40
0.0250529547012752
 40
0.0500478753409905
 40
0.0750234212569812
 40
0.1000183416871889
 40
0.1250712959704198
 40
0.1875858261821786
 40
0.2501003567404745
 40
0.312614887736353
 40
0.3751294184057041
 40
0.5000071476030014
 40
0.6248848768002986
 40
0.6873994074696498
 40
0.7499139384655282
 40
0.8124284690238243
 40
0.874942999235583
 40
0.9166585443950973
 40
0.958284454252962
 40
1.0
 40
1.0
 40
1.0
 40
1.0
 10
105.4531436215145
 20
163.4637658613196
 30
0.0
 10
105.4531436215145
 20
163.5319394431487
 30
0.0
 10
105.4531436215145
 20
163.6681286857197
 30
0.0
 10
105.4531436215145
 20
163.8719682236237
 30
0.0
 10
105.4531436215145
 20
164.0750186254027
 30
0.0
 10
105.4531436215145
 20
164.2772846850036
 30
0.0
 10
105.4531436215145
 20
164.5788449764343
 30
0.0
 10
105.4531436215145
 20
164.9757290701829
 30
0.0
 10
105.4531436215145
 20
165.4568865318
 30
0.0
 10
105.4531436215145
 20
165.9190430632122
 30
0.0
 10
105.4531436215145
 20
166.5030132407311
 30
0.0
 10
105.4531436215145
 20
167.1645093589674
 30
0.0
 10
105.4531436215145
 20
167.707035477563
 30
0.0
 10
105.4531436215145
 20
168.0572040226466
 30
0.0
 10
105.4531436215145
 20
168.2756244931845
 30
0.0
 10
105.4531436215145
 20
168.4479346077401
 30
0.0
 10
105.4531436215145
 20
168.5583462728547
 30
0.0
 10
105.4531436215145
 20
168.6227586548201
 30
0.0
 10
105.4531436215145
 20
168.6573844255774
 30
0.0
 10
105.4531436215145
 20
168.6616371897002
 30
0.0
 10
105.4531436215145
 20
168.6637658587404
 30
0.0
  0
SPLINE
  5
14F
330
1F
100
AcDbEntity
  8
0
  6
Continuous
 62
     7
370
    18
100
AcDbSpline
210
0.0
220
0.0
230
1.0
 70
    24
 71
     3
 72
    10
 73
     6
 74
     0
 42
0.000000001
 43
0.00000001
 40
0.0
 40
0.0
 40
0.0
 40
0.0
 40
0.5
 40
0.5
 40
1.0
 40
1.0
 40
1.0
 40
1.0
 10
127.4531436219004
 20
163.4637658613196
 30
0.0
 10
127.4531436218031
 20
163.4637658613196
 30
0.0
 10
127.4238542999024
 20
163.4637658613196
 30
0.0
 10
127.3066970123916
 20
163.4637658613196
 30
0.0
 10
127.2238542999221
 20
163.4637658613196
 30
0.0
 10
127.1531436217071
 20
163.4637658613196
 30
0.0
  0
SPLINE
  5
150
330
1F
100
AcDbEntity
  8
0
  6
Continuous
 62
     7
370
    18
100
AcDbSpline
210
0.0
220
0.0
230
1.0
 70
    27
 71
     3
 72
    12
 73
     8
 74
     0
 42
0.000000001
 43
0.00000001
 40
0.0
 40
0.0
 40
0.0
 40
0.0
 40
0.3333333333333333
 40
0.3333333333333333
 40
0.6666666666666665
 40
0.6666666666666665
 40
0.9999999999999999
 40
0.9999999999999999
 40
0.9999999999999999
 40
0.9999999999999999
 10
127.1531436215145
 20
163.4637658613196
 30
0.0
 10
127.1531436215145
 20
165.0712262988749
 30
0.0
 10
127.1531436215145
 20
166.5571499600699
 30
0.0
 10
127.1531436215145
 20
168.1646103972445
 30
0.0
 10
127.1531436215145
 20
168.1646103968926
 30
0.0
 10
127.1531436215145
 20
166.5571499585759
 30
0.0
 10
127.1531436215145
 20
165.0712262970289
 30
0.0
 10
127.1531436215145
 20
163.4637658594737
 30
0.0
  0
SPLINE
  5
151
330
1F
100
AcDbEntity
  8
0
  6
Continuous
 62
     7
370
    18
100
AcDbSpline
210
0.0
220
0.0
230
1.0
 70
    24
 71
     3
 72
    10
 73
     6
 74
     0
 42
0.000000001
 43
0.00000001
 40
0.0
 40
0.0
 40
0.0
 40
0.0
 40
0.5
 40
0.5
 40
1.0
 40
1.0
 40
1.0
 40
1.0
 10
127.1531436217071
 20
163.4637658613196
 30
0.0
 10
127.2238542999221
 20
163.4637658613196
 30
0.0
 10
127.3066970123916
 20
163.4637658613196
 30
0.0
 10
127.4238542999024
 20
163.4637658613196
 30
0.0
 10
127.4531436218031
 20
163.4637658613196
 30
0.0
 10
127.4531436219004
 20
163.4637658613196
 30
0.0
  0
SPLINE
  5
152
330
1F
100
AcDbEntity
  8
0
  6
Continuous
 62
     7
370
    18
100
AcDbSpline
210
0.0
220
0.0
230
1.0
 70
    24
 71
     3
 72
    23
 73
    19
 74
     0
 42
0.000000001
 43
0.00000001
 40
0.0
 40
0.0
 40
0.0
 40
0.0
 40
0.0313055084021314
 40
0.0625354171742862
 40
0.0937653257826732
 40
0.1250708337010743
 40
0.1875873933451743
 40
0.2501039533358223
 40
0.3126205137640674
 40
0.3751370738657741
 40
0.5000188570150315
 40
0.624900640164289
 40
0.6874172002659958
 40
0.7499337606942408
 40
0.8124503206848888
 40
0.8749668803289885
 40
0.9374834398372706
 40
1.0
 40
1.0
 40
1.0
 40
1.0
 10
127.4531436215145
 20
167.6637658592364
 30
0.0
 10
127.4531436215145
 20
167.6627984154757
 30
0.0
 10
127.4531436215145
 20
167.6608658642329
 30
0.0
 10
127.4531436215145
 20
167.6451551876879
 30
0.0
 10
127.4531436215145
 20
167.6200482382766
 30
0.0
 10
127.4531436215145
 20
167.5729538664868
 30
0.0
 10
127.4531436215145
 20
167.4894736730981
 30
0.0
 10
127.4531436215145
 20
167.3502582222686
 30
0.0
 10
127.4531436215145
 20
167.1738528418736
 30
0.0
 10
127.4531436215145
 20
166.8910207808221
 30
0.0
 10
127.4531436215145
 20
166.452828154698
 30
0.0
 10
127.4531436215145
 20
165.9185431868003
 30
0.0
 10
127.4531436215145
 20
165.4468732486965
 30
0.0
 10
127.4531436215145
 20
165.0735984152591
 30
0.0
 10
127.4531436215145
 20
164.6849507561168
 30
0.0
 10
127.4531436215145
 20
164.28445280592
 30
0.0
 10
127.4531436215145
 20
163.8761093032815
 30
0.0
 10
127.4531436215145
 20
163.6012136757865
 30
0.0
 10
127.4531436215145
 20
163.4637658613196
 30
0.0
  0
SPLINE
  5
153
330
1F
100
AcDbEntity
  8
0
  6
Continuous
 62
     7
370
    18
100
AcDbSpline
210
0.0
220
0.0
230
1.0
 70
    24
 71
     3
 72
    23
 73
    19
 74
     0
 42
0.000000001
 43
0.00000001
 40
0.0
 40
0.0
 40
0.0
 40
0.0
 40
0.0313055084069047
 40
0.0625354171774648
 40
0.0937653257842644
 40
0.1250708337010743
 40
0.1875873933451743
 40
0.2501039533358223
 40
0.3126205137640674
 40
0.3751370738657741
 40
0.5000188570150315
 40
0.6249006401642888
 40
0.6874172002659957
 40
0.7499337606942406
 40
0.8124503206848885
 40
0.8749668803289885
 40
0.9374834398340949
 40
1.0
 40
1.0
 40
1.0
 40
1.0
 10
127.4531436215145
 20
163.4637658613196
 30
0.0
 10
127.4531436215145
 20
163.3949598498892
 30
0.0
 10
127.4531436215145
 20
163.2575139865865
 30
0.0
 10
127.4531436215145
 20
163.0519240503359
 30
0.0
 10
127.4531436215145
 20
162.8473250599953
 30
0.0
 10
127.4531436215145
 20
162.5764700900471
 30
0.0
 10
127.4531436215145
 20
162.2425673879592
 30
0.0
 10
127.4531436215145
 20
161.8539369501081
 30
0.0
 10
127.4531436215145
 20
161.4806574815942
 30
0.0
 10
127.4531436215145
 20
161.0089893011124
 30
0.0
 10
127.4531436215145
 20
160.4747016381453
 30
0.0
 10
127.4531436215145
 20
160.0365159682701
 30
0.0
 10
127.4531436215145
 20
159.7536702077585
 30
0.0
 10
127.4531436215145
 20
159.5773065845894
 30
0.0
 10
127.4531436215145
 20
159.4379343856744
 30
0.0
 10
127.4531436215145
 20
159.3383736509157
 30
0.0
 10
127.4531436215145
 20
159.2753770979657
 30
0.0
 10
127.4531436215145
 20
159.2676362749374
 30
0.0
 10
127.4531436215145
 20
159.2637658634028
 30
0.0
  0
SPLINE
  5
154
330
1F
100
AcDbEntity
  8
0
  6
Continuous
 62
     7
370
    18
100
AcDbSpline
210
0.0
220
0.0
230
1.0
 70
    27
 71
     3
 72
    14
 73
    10
 74
     0
 42
0.000000001
 43
0.00000001
 40
0.0
 40
0.0
 40
0.0
 40
0.0
 40
0.25
 40
0.25
 40
0.5000000000000001
 40
0.5000000000000001
 40
0.75
 40
0.75
 40
1.0
 40
1.0
 40
1.0
 40
1.0
 10
127.1531436215145
 20
163.4637658594737
 30
0.0
 10
127.1531436215145
 20
162.2703254317046
 30
0.0
 10
127.1531436215145
 20
161.12567516434
 30
0.0
 10
127.1531436215145
 20
159.4378955259481
 30
0.0
 10
127.1531436215145
 20
158.963765861182
 30
0.0
 10
127.1531436215145
 20
158.9637658614572
 30
0.0
 10
127.1531436215145
 20
159.4378955264873
 30
0.0
 10
127.1531436215145
 20
161.1256751652684
 30
0.0
 10
127.1531436215145
 20
162.2703254327424
 30
0.0
 10
127.1531436215145
 20
163.4637658605115
 30
0.0
  0
LINE
  5
155
330
1F
100
AcDbEntity
  8
0
  6
Continuous
 62
     7
370
    18
100
AcDbLine
 10
120.4531432862
 20
164.7904157767
 30
0.0
 11
116.4531435619
 21
164.7904157767
 31
0.0
  0
LINE
  5
156
330
1F
100
AcDbEntity
  8
0
  6
Continuous
 62
     7
370
    18
100
AcDbLine
 10
116.4531435619
 20
162.1371159459
 30
0.0
 11
120.4531432862
 21
162.1371159459
 31
0.0
  0
SPLINE
  5
157
330
1F
100
AcDbEntity
  8
0
  6
Continuous
 62
     7
370
    18
100
AcDbSpline
210
0.0
220
0.0
230
1.0
 70
     8
 71
     3
 72
    14
 73
    10
 74
     0
 42
0.000000001
 43
0.00000001
 40
0.0
 40
0.0
 40
0.0
 40
0.0
 40
0.0836762611521496
 40
0.1667049001914267
 40
0.2508158839822984
 40
0.499969839815844
 40
0.7492796192960637
 40
0.8740091570941632
 40
1.0
 40
1.0
 40
1.0
 40
1.0
 10
116.7531436215145
 20
159.2086469756565
 30
0.0
 10
116.7395498049034
 20
159.2088234122011
 30
0.0
 10
116.712467382599
 20
159.2091749197392
 30
0.0
 10
116.6725448738943
 20
159.2121243118612
 30
0.0
 10
116.6091205038445
 20
159.2198894599388
 30
0.0
 10
116.530575858789
 20
159.239266640287
 30
0.0
 10
116.4781520249355
 20
159.2709165093291
 30
0.0
 10
116.4561529525676
 20
159.3002341468728
 30
0.0
 10
116.4541500904811
 20
159.316064498231
 30
0.0
 10
116.4531436215145
 20
159.3240194929766
 30
0.0
  0
SPLINE
  5
158
330
1F
100
AcDbEntity
  8
0
  6
Continuous
 62
     7
370
    18
100
AcDbSpline
210
0.0
220
0.0
230
1.0
 70
     8
 71
     3
 72
    11
 73
     7
 74
     0
 42
0.000000001
 43
0.00000001
 40
0.0
 40
0.0
 40
0.0
 40
0.0
 40
0.2516029273659005
 40
0.500765075458893
 40
0.7508242773942502
 40
1.0
 40
1.0
 40
1.0
 40
1.0
 10
116.9613068855145
 20
159.2384757126784
 30
0.0
 10
116.9469377062841
 20
159.2339510042293
 30
0.0
 10
116.9183387420473
 20
159.2249454811548
 30
0.0
 10
116.8666755304668
 20
159.2157837904637
 30
0.0
 10
116.8112166739369
 20
159.2097240650196
 30
0.0
 10
116.772478454412
 20
159.2090055816189
 30
0.0
 10
116.7531436215145
 20
159.2086469756565
 30
0.0
  0
SPLINE
  5
159
330
1F
100
AcDbEntity
  8
0
  6
Continuous
 62
     7
370
    18
100
AcDbSpline
210
0.0
220
0.0
230
1.0
 70
     8
 71
     3
 72
    17
 73
    13
 74
     0
 42
0.000000001
 43
0.00000001
 40
0.0
 40
0.0
 40
0.0
 40
0.0
 40
0.0809202995338427
 40
0.149566105448084
 40
0.2059365193618301
 40
0.2500312875690208
 40
0.382580221188446
 40
0.500575903723421
 40
0.6288999479137488
 40
0.750130864301123
 40
0.8762035009060177
 40
0.9999999999999999
 40
0.9999999999999999
 40
0.9999999999999999
 40
0.9999999999999999
 10
116.9613068862485
 20
159.2384757147802
 30
0.0
 10
116.9933819354046
 20
159.2495945304632
 30
0.0
 10
117.0526666910466
 20
159.270145590809
 30
0.0
 10
117.1397006886962
 20
159.2981558887896
 30
0.0
 10
117.2136004554603
 20
159.3209061429863
 30
0.0
 10
117.3183781587082
 20
159.3516108910211
 30
0.0
 10
117.45723896988
 20
159.388262242773
 30
0.0
 10
117.645762866924
 20
159.4304320460681
 30
0.0
 10
117.8371108201365
 20
159.4644761263579
 30
0.0
 10
118.0395291183406
 20
159.4906224413634
 30
0.0
 10
118.244372232238
 20
159.5073817126186
 30
0.0
 10
118.3839770606201
 20
159.5095354903623
 30
0.0
 10
118.4531436223964
 20
159.5106025695106
 30
0.0
  0
SPLINE
  5
15A
330
1F
100
AcDbEntity
  8
0
  6
Continuous
 62
     7
370
    18
100
AcDbSpline
210
0.0
220
0.0
230
1.0
 70
     8
 71
     3
 72
    16
 73
    12
 74
     0
 42
0.000000001
 43
0.00000001
 40
0.0
 40
0.0
 40
0.0
 40
0.0
 40
0.0825131279004402
 40
0.1659968509629867
 40
0.2505485903695803
 40
0.371610393790541
 40
0.4997548425967561
 40
0.6178132014559203
 40
0.7504583669370589
 40
0.8507320746232616
 40
0.9999999999999999
 40
0.9999999999999999
 40
0.9999999999999999
 40
0.9999999999999999
 10
118.4531436223964
 20
159.5106025695106
 30
0.0
 10
118.4992323676711
 20
159.510129105721
 30
0.0
 10
118.5919519963544
 20
159.5091766088261
 30
0.0
 10
118.7311490825117
 20
159.5015687309452
 30
0.0
 10
118.8900188169987
 20
159.4877685592412
 30
0.0
 10
119.0698757780494
 20
159.4643199128238
 30
0.0
 10
119.2610290626539
 20
159.4303370730074
 30
0.0
 10
119.4495806028634
 20
159.3881433860533
 30
0.0
 10
119.6147426340844
 20
159.3444645224716
 30
0.0
 10
119.7846747684489
 20
159.2932362293096
 30
0.0
 10
119.8849805845595
 20
159.2589716839048
 30
0.0
 10
119.9449803565025
 20
159.2384757147802
 30
0.0
  0
SPLINE
  5
15B
330
1F
100
AcDbEntity
  8
0
  6
Continuous
 62
     7
370
    18
100
AcDbSpline
210
0.0
220
0.0
230
1.0
 70
     8
 71
     3
 72
    12
 73
     8
 74
     0
 42
0.000000001
 43
0.00000001
 40
0.0
 40
0.0
 40
0.0
 40
0.0
 40
0.1667610443292105
 40
0.3323554049059704
 40
0.4999001905056918
 40
0.7487321180604068
 40
0.9999999999999999
 40
0.9999999999999999
 40
0.9999999999999999
 40
0.9999999999999999
 10
120.1531436215145
 20
159.2086469756565
 30
0.0
 10
120.1402189917913
 20
159.2088077436851
 30
0.0
 10
120.1144601548746
 20
159.2091281549865
 30
0.0
 10
120.0764083387835
 20
159.2117870232599
 30
0.0
 10
120.0339014296085
 20
159.2167599990773
 30
0.0
 10
119.9878992788175
 20
159.2249684478143
 30
0.0
 10
119.9593330460502
 20
159.2339586940843
 30
0.0
 10
119.9449803575145
 20
159.2384757126784
 30
0.0
  0
SPLINE
  5
15C
330
1F
100
AcDbEntity
  8
0
  6
Continuous
 62
     7
370
    18
100
AcDbSpline
210
0.0
220
0.0
230
1.0
 70
     8
 71
     3
 72
    13
 73
     9
 74
     0
 42
0.000000001
 43
0.00000001
 40
0.0
 40
0.0
 40
0.0
 40
0.0
 40
0.126023850968171
 40
0.2507860845933103
 40
0.5004940164429482
 40
0.7497201447862497
 40
0.8751047801654428
 40
1.0
 40
1.0
 40
1.0
 40
1.0
 10
120.4531436215145
 20
159.3240194929766
 30
0.0
 10
120.4521369774788
 20
159.316064220669
 30
0.0
 10
120.4501337668614
 20
159.3002333158158
 30
0.0
 10
120.4281243382347
 20
159.2709034683107
 30
0.0
 10
120.3756209681004
 20
159.2391864031019
 30
0.0
 10
120.2915264690445
 20
159.218629652491
 30
0.0
 10
120.2141642129334
 20
159.209853837698
 30
0.0
 10
120.1734572848854
 20
159.2090487382202
 30
0.0
 10
120.1531436215145
 20
159.2086469756565
 30
0.0
  0
SPLINE
  5
15D
330
1F
100
AcDbEntity
  8
0
  6
Continuous
 62
     7
370
    18
100
AcDbSpline
210
0.0
220
0.0
230
1.0
 70
    24
 71
     3
 72
    10
 73
     6
 74
     0
 42
0.000000001
 43
0.00000001
 40
0.0
 40
0.0
 40
0.0
 40
0.0
 40
0.5
 40
0.5
 40
1.0
 40
1.0
 40
1.0
 40
1.0
 10
174.4531436213219
 20
163.4637658613196
 30
0.0
 10
174.3824329431069
 20
163.4637658613196
 30
0.0
 10
174.2995902306374
 20
163.4637658613196
 30
0.0
 10
174.1824329431265
 20
163.4637658613196
 30
0.0
 10
174.1531436212259
 20
163.4637658613196
 30
0.0
 10
174.1531436211286
 20
163.4637658613196
 30
0.0
  0
SPLINE
  5
15E
330
1F
100
AcDbEntity
  8
0
  6
Continuous
 62
     7
370
    18
100
AcDbSpline
210
0.0
220
0.0
230
1.0
 70
    24
 71
     3
 72
    13
 73
     9
 74
     0
 42
0.000000001
 43
0.00000001
 40
0.0
 40
0.0
 40
0.0
 40
0.0
 40
0.3773387146205259
 40
0.7462474927680143
 40
0.8727447716849756
 40
0.9430074670085861
 40
0.9722817061429805
 40
1.0
 40
1.0
 40
1.0
 40
1.0
 10
174.2296244750721
 20
160.5637658982
 30
0.0
 10
174.2325543866863
 20
160.5637658982
 30
0.0
 10
174.2383487542172
 20
160.5637658982
 30
0.0
 10
174.2812248012815
 20
160.5637658982
 30
0.0
 10
174.3513873650414
 20
160.5637658982
 30
0.0
 10
174.3965508024769
 20
160.5637658982
 30
0.0
 10
174.429285678044
 20
160.5637658982
 30
0.0
 10
174.4453358828096
 20
160.5637658982
 30
0.0
 10
174.4531418929798
 20
160.5637658982
 30
0.0
  0
SPLINE
  5
15F
330
1F
100
AcDbEntity
  8
0
  6
Continuous
 62
     7
370
    18
100
AcDbSpline
210
0.0
220
0.0
230
1.0
 70
    24
 71
     3
 72
    10
 73
     6
 74
     0
 42
0.000000001
 43
0.00000001
 40
0.0
 40
0.0
 40
0.0
 40
0.0
 40
0.5000000000000002
 40
0.5000000000000002
 40
1.0
 40
1.0
 40
1.0
 40
1.0
 10
174.4531436215145
 20
160.5637658616103
 30
0.0
 10
174.4531436215145
 20
160.733225942841
 30
0.0
 10
174.4531436215145
 20
161.1095544067985
 30
0.0
 10
174.4531436215145
 20
162.1585630796779
 30
0.0
 10
174.4531436215145
 20
162.8019111581303
 30
0.0
 10
174.4531436215145
 20
163.463765860089
 30
0.0
  0
SPLINE
  5
160
330
1F
100
AcDbEntity
  8
0
  6
Continuous
 62
     7
370
    18
100
AcDbSpline
210
0.0
220
0.0
230
1.0
 70
    24
 71
     3
 72
    10
 73
     6
 74
     0
 42
0.000000001
 43
0.00000001
 40
0.0
 40
0.0
 40
0.0
 40
0.0
 40
0.5
 40
0.5
 40
1.0
 40
1.0
 40
1.0
 40
1.0
 10
174.1531436211286
 20
163.4637658613196
 30
0.0
 10
174.1531436212259
 20
163.4637658613196
 30
0.0
 10
174.1824329431265
 20
163.4637658613196
 30
0.0
 10
174.2995902306374
 20
163.4637658613196
 30
0.0
 10
174.3824329431069
 20
163.4637658613196
 30
0.0
 10
174.4531436213219
 20
163.4637658613196
 30
0.0
  0
SPLINE
  5
161
330
1F
100
AcDbEntity
  8
0
  6
Continuous
 62
     7
370
    18
100
AcDbSpline
210
0.0
220
0.0
230
1.0
 70
    24
 71
     3
 72
    16
 73
    12
 74
     0
 42
0.000000001
 43
0.00000001
 40
0.0
 40
0.0
 40
0.0
 40
0.0
 40
0.0274700328969562
 40
0.0564709495325146
 40
0.1259291317615032
 40
0.2509745053293483
 40
0.3654358015432474
 40
0.5001868620022942
 40
0.7489850814560797
 40
0.9980061049219094
 40
0.9999999999999999
 40
0.9999999999999999
 40
0.9999999999999999
 40
0.9999999999999999
 10
174.4531418929798
 20
166.3637658244392
 30
0.0
 10
174.4453981537959
 20
166.3637658244392
 30
0.0
 10
174.4294791228182
 20
166.3637658244392
 30
0.0
 10
174.3970020827338
 20
166.3637658244392
 30
0.0
 10
174.3521376358332
 20
166.3637658244392
 30
0.0
 10
174.3131295713347
 20
166.3637658244392
 30
0.0
 10
174.2814031003294
 20
166.3637658244392
 30
0.0
 10
174.2527750781937
 20
166.3637658244392
 30
0.0
 10
174.2358099493608
 20
166.3637658244392
 30
0.0
 10
174.2258193407674
 20
166.3637658244392
 30
0.0
 10
174.229594487822
 20
166.3637658244392
 30
0.0
 10
174.2296244750721
 20
166.3637658244392
 30
0.0
  0
SPLINE
  5
162
330
1F
100
AcDbEntity
  8
0
  6
Continuous
 62
     7
370
    18
100
AcDbSpline
210
0.0
220
0.0
230
1.0
 70
    24
 71
     3
 72
    10
 73
     6
 74
     0
 42
0.000000001
 43
0.00000001
 40
0.0
 40
0.0
 40
0.0
 40
0.0
 40
0.4999999999999999
 40
0.4999999999999999
 40
1.0
 40
1.0
 40
1.0
 40
1.0
 10
174.4531436215145
 20
163.463765860089
 30
0.0
 10
174.4531436215145
 20
164.1256205625612
 30
0.0
 10
174.4531436215145
 20
164.7689686416633
 30
0.0
 10
174.4531436215145
 20
165.8179773156152
 30
0.0
 10
174.4531436215145
 20
166.1943057799195
 30
0.0
 10
174.4531436215145
 20
166.3637658611668
 30
0.0
  0
LINE
  5
163
330
1F
100
AcDbEntity
  8
0
  6
Continuous
 62
     7
370
    18
100
AcDbLine
 10
127.4531435023
 20
166.3637658244
 30
0.0
 11
129.0083702455
 21
166.3637658244
 31
0.0
  0
LINE
  5
164
330
1F
100
AcDbEntity
  8
0
  6
Continuous
 62
     7
370
    18
100
AcDbLine
 10
130.0119783531
 20
166.3637658244
 30
0.0
 11
134.0085424284
 21
166.3637658244
 31
0.0
  0
LINE
  5
165
330
1F
100
AcDbEntity
  8
0
  6
Continuous
 62
     7
370
    18
100
AcDbLine
 10
135.0122678827
 20
166.3637658244
 30
0.0
 11
139.0091765474
 21
166.3637658244
 31
0.0
  0
LINE
  5
166
330
1F
100
AcDbEntity
  8
0
  6
Continuous
 62
     7
370
    18
100
AcDbLine
 10
140.0129187654
 20
166.3637658244
 30
0.0
 11
144.0088700305
 21
166.3637658244
 31
0.0
  0
LINE
  5
167
330
1F
100
AcDbEntity
  8
0
  6
Continuous
 62
     7
370
    18
100
AcDbLine
 10
145.0124744127
 20
166.3637658244
 30
0.0
 11
147.4531430553
 21
166.3637658244
 31
0.0
  0
LINE
  5
168
330
1F
100
AcDbEntity
  8
0
  6
Continuous
 62
     7
370
    18
100
AcDbLine
 10
147.4531430553
 20
160.5637658982
 30
0.0
 11
145.897722597
 21
160.5637658982
 31
0.0
  0
LINE
  5
169
330
1F
100
AcDbEntity
  8
0
  6
Continuous
 62
     7
370
    18
100
AcDbLine
 10
144.8939505766
 20
160.5637658982
 30
0.0
 11
140.8982898842
 21
160.5637658982
 31
0.0
  0
LINE
  5
16A
330
1F
100
AcDbEntity
  8
0
  6
Continuous
 62
     7
370
    18
100
AcDbLine
 10
139.8947041283
 20
160.5637658982
 30
0.0
 11
135.89787742
 21
160.5637658982
 31
0.0
  0
LINE
  5
16B
330
1F
100
AcDbEntity
  8
0
  6
Continuous
 62
     7
370
    18
100
AcDbLine
 10
134.8946250777
 20
160.5637658982
 30
0.0
 11
130.8979660074
 21
160.5637658982
 31
0.0
  0
LINE
  5
16C
330
1F
100
AcDbEntity
  8
0
  6
Continuous
 62
     7
370
    18
100
AcDbLine
 10
129.8940375249
 20
160.5637658982
 30
0.0
 11
127.4531435023
 21
160.5637658982
 31
0.0
  0
LINE
  5
16D
330
1F
100
AcDbEntity
  8
0
  6
Continuous
 62
     7
370
    18
100
AcDbLine
 10
174.453141893
 20
166.3637658244
 30
0.0
 11
174.9531429063
 21
166.3637658244
 31
0.0
  0
LINE
  5
16E
330
1F
100
AcDbEntity
  8
0
  6
Continuous
 62
     7
370
    18
100
AcDbLine
 10
174.9531429063
 20
160.5637658982
 30
0.0
 11
174.453141893
 21
160.5637658982
 31
0.0
  0
SPLINE
  5
16F
330
1F
100
AcDbEntity
  8
0
  6
Continuous
 62
     7
370
    18
100
AcDbSpline
210
0.0
220
0.0
230
1.0
 70
    24
 71
     3
 72
    10
 73
     6
 74
     0
 42
0.000000001
 43
0.00000001
 40
0.0
 40
0.0
 40
0.0
 40
0.0
 40
0.4999999999999998
 40
0.4999999999999998
 40
1.0
 40
1.0
 40
1.0
 40
1.0
 10
174.9531436215145
 20
163.463765860089
 30
0.0
 10
174.9531436215145
 20
162.8019111581303
 30
0.0
 10
174.9531436215145
 20
162.1585630796779
 30
0.0
 10
174.9531436215145
 20
161.1095544067985
 30
0.0
 10
174.9531436215145
 20
160.733225942841
 30
0.0
 10
174.9531436215145
 20
160.5637658616103
 30
0.0
  0
SPLINE
  5
170
330
1F
100
AcDbEntity
  8
0
  6
Continuous
 62
     7
370
    18
100
AcDbSpline
210
0.0
220
0.0
230
1.0
 70
    24
 71
     3
 72
    10
 73
     6
 74
     0
 42
0.000000001
 43
0.00000001
 40
0.0
 40
0.0
 40
0.0
 40
0.0
 40
0.5000000000000001
 40
0.5000000000000001
 40
1.0
 40
1.0
 40
1.0
 40
1.0
 10
174.9531436215145
 20
166.3637658611668
 30
0.0
 10
174.9531436215145
 20
166.1943057799195
 30
0.0
 10
174.9531436215145
 20
165.8179773156152
 30
0.0
 10
174.9531436215145
 20
164.7689686416633
 30
0.0
 10
174.9531436215145
 20
164.1256205625612
 30
0.0
 10
174.9531436215145
 20
163.463765860089
 30
0.0
  0
SPLINE
  5
171
330
1F
100
AcDbEntity
  8
0
  6
Continuous
 62
     7
370
    18
100
AcDbSpline
210
0.0
220
0.0
230
1.0
 70
    24
 71
     3
 72
     9
 73
     5
 74
     0
 42
0.000000001
 43
0.00000001
 40
0.0
 40
0.0
 40
0.0
 40
0.0
 40
0.0002751562675091
 40
1.0
 40
1.0
 40
1.0
 40
1.0
 10
175.0531147967083
 20
160.5637658982
 30
0.0
 10
175.0531247334447
 20
160.5637658982
 30
0.0
 10
175.0892377992438
 20
160.5637658982007
 30
0.0
 10
175.0211809896224
 20
160.5637658982004
 30
0.0
 10
174.9531429062587
 20
160.5637658982
 30
0.0
  0
SPLINE
  5
172
330
1F
100
AcDbEntity
  8
0
  6
Continuous
 62
     7
370
    18
100
AcDbSpline
210
0.0
220
0.0
230
1.0
 70
    24
 71
     3
 72
     9
 73
     5
 74
     0
 42
0.000000001
 43
0.00000001
 40
0.0
 40
0.0
 40
0.0
 40
0.0
 40
0.9997248430840537
 40
1.0
 40
1.0
 40
1.0
 40
1.0
 10
174.9531429062588
 20
166.3637658244392
 30
0.0
 10
175.0211809470737
 20
166.3637658244396
 30
0.0
 10
175.0892377141788
 20
166.3637658244401
 30
0.0
 10
175.0531247334447
 20
166.3637658244392
 30
0.0
 10
175.0531147967083
 20
166.3637658244392
 30
0.0
  0
SPLINE
  5
173
330
1F
100
AcDbEntity
  8
0
  6
Continuous
 62
     7
370
    18
100
AcDbSpline
210
0.0
220
0.0
230
1.0
 70
    24
 71
     3
 72
    10
 73
     6
 74
     0
 42
0.000000001
 43
0.00000001
 40
0.0
 40
0.0
 40
0.0
 40
0.0
 40
0.4999999999999999
 40
0.4999999999999999
 40
0.9999999999999999
 40
0.9999999999999999
 40
0.9999999999999999
 40
0.9999999999999999
 10
175.4531436215145
 20
163.4637658608706
 30
0.0
 10
175.4531436215145
 20
162.8007434009989
 30
0.0
 10
175.4531436215145
 20
162.1648265857356
 30
0.0
 10
175.4531436215145
 20
161.2271712308572
 30
0.0
 10
175.4531436215145
 20
160.963765861396
 30
0.0
 10
175.4531436215145
 20
160.9637658613196
 30
0.0
  0
SPLINE
  5
174
330
1F
100
AcDbEntity
  8
0
  6
Continuous
 62
     7
370
    18
100
AcDbSpline
210
0.0
220
0.0
230
1.0
 70
    24
 71
     3
 72
    10
 73
     6
 74
     0
 42
0.000000001
 43
0.00000001
 40
0.0
 40
0.0
 40
0.0
 40
0.0
 40
0.5000000000000002
 40
0.5000000000000002
 40
1.0
 40
1.0
 40
1.0
 40
1.0
 10
175.4531436215145
 20
165.9637658613196
 30
0.0
 10
175.4531436215145
 20
165.9637658614556
 30
0.0
 10
175.4531436215145
 20
165.7003604920272
 30
0.0
 10
175.4531436215145
 20
164.7627051369072
 30
0.0
 10
175.4531436215145
 20
164.1267883214088
 30
0.0
 10
175.4531436215145
 20
163.4637658613196
 30
0.0
  0
SPLINE
  5
175
330
1F
100
AcDbEntity
  8
0
  6
Continuous
 62
     7
370
    18
100
AcDbSpline
210
0.0
220
0.0
230
1.0
 70
    24
 71
     3
 72
    10
 73
     6
 74
     0
 42
0.000000001
 43
0.00000001
 40
0.0
 40
0.0
 40
0.0
 40
0.0
 40
0.4999999999999999
 40
0.4999999999999999
 40
1.0
 40
1.0
 40
1.0
 40
1.0
 10
118.4531436224785
 20
154.1637658613196
 30
0.0
 10
119.0763847347579
 20
154.1637658613196
 30
0.0
 10
119.6741465410483
 20
154.1637658613196
 30
0.0
 10
120.5555425744307
 20
154.1637658613195
 30
0.0
 10
120.8031436215864
 20
154.1637658613195
 30
0.0
 10
120.8031436215145
 20
154.1637658613195
 30
0.0
  0
SPLINE
  5
176
330
1F
100
AcDbEntity
  8
0
  6
Continuous
 62
     7
370
    18
100
AcDbSpline
210
0.0
220
0.0
230
1.0
 70
    24
 71
     3
 72
    10
 73
     6
 74
     0
 42
0.000000001
 43
0.00000001
 40
0.0
 40
0.0
 40
0.0
 40
0.0
 40
0.5
 40
0.5
 40
1.0
 40
1.0
 40
1.0
 40
1.0
 10
116.1031436215145
 20
154.1637658613196
 30
0.0
 10
116.1031436216423
 20
154.1637658613196
 30
0.0
 10
116.3507446691502
 20
154.1637658613196
 30
0.0
 10
117.2321407033245
 20
154.1637658613195
 30
0.0
 10
117.8299025099946
 20
154.1637658613195
 30
0.0
 10
118.4531436224785
 20
154.1637658613195
 30
0.0
  0
SPLINE
  5
177
330
1F
100
AcDbEntity
  8
0
  6
Continuous
 62
     7
370
    18
100
AcDbSpline
210
0.0
220
0.0
230
1.0
 70
    24
 71
     3
 72
    10
 73
     6
 74
     0
 42
0.000000001
 43
0.00000001
 40
0.0
 40
0.0
 40
0.0
 40
0.0
 40
0.4999999999999999
 40
0.4999999999999999
 40
1.0
 40
1.0
 40
1.0
 40
1.0
 10
118.4531436224785
 20
151.6637658613196
 30
0.0
 10
119.0763847347579
 20
151.6637658613196
 30
0.0
 10
119.6741465410483
 20
151.6637658613196
 30
0.0
 10
120.5555425744307
 20
151.6637658613196
 30
0.0
 10
120.8031436215864
 20
151.6637658613196
 30
0.0
 10
120.8031436215145
 20
151.6637658613196
 30
0.0
  0
SPLINE
  5
178
330
1F
100
AcDbEntity
  8
0
  6
Continuous
 62
     7
370
    18
100
AcDbSpline
210
0.0
220
0.0
230
1.0
 70
    24
 71
     3
 72
    10
 73
     6
 74
     0
 42
0.000000001
 43
0.00000001
 40
0.0
 40
0.0
 40
0.0
 40
0.0
 40
0.5
 40
0.5
 40
1.0
 40
1.0
 40
1.0
 40
1.0
 10
116.1031436215145
 20
151.6637658613196
 30
0.0
 10
116.1031436216423
 20
151.6637658613196
 30
0.0
 10
116.3507446691502
 20
151.6637658613196
 30
0.0
 10
117.2321407033245
 20
151.6637658613196
 30
0.0
 10
117.8299025099946
 20
151.6637658613196
 30
0.0
 10
118.4531436224785
 20
151.6637658613196
 30
0.0
  0
SPLINE
  5
179
330
1F
100
AcDbEntity
  8
0
  6
Continuous
 62
     7
370
    18
100
AcDbSpline
210
0.0
220
0.0
230
1.0
 70
    24
 71
     3
 72
    10
 73
     6
 74
     0
 42
0.000000001
 43
0.00000001
 40
0.0
 40
0.0
 40
0.0
 40
0.0
 40
0.4999999999999999
 40
0.4999999999999999
 40
1.0
 40
1.0
 40
1.0
 40
1.0
 10
120.4531436215145
 20
149.1637658613196
 30
0.0
 10
120.4531436215756
 20
149.1637658613196
 30
0.0
 10
120.242419326124
 20
149.1637658613196
 30
0.0
 10
119.4922950423943
 20
149.1637658613196
 30
0.0
 10
118.9835615902322
 20
149.1637658613196
 30
0.0
 10
118.4531436223349
 20
149.1637658613196
 30
0.0
  0
SPLINE
  5
17A
330
1F
100
AcDbEntity
  8
0
  6
Continuous
 62
     7
370
    18
100
AcDbSpline
210
0.0
220
0.0
230
1.0
 70
    24
 71
     3
 72
    10
 73
     6
 74
     0
 42
0.000000001
 43
0.00000001
 40
0.0
 40
0.0
 40
0.0
 40
0.0
 40
0.5000000000000002
 40
0.5000000000000002
 40
1.0
 40
1.0
 40
1.0
 40
1.0
 10
118.4531436223349
 20
149.1637658613196
 30
0.0
 10
117.9227256542635
 20
149.1637658613196
 30
0.0
 10
117.4139922017783
 20
149.1637658613196
 30
0.0
 10
116.6638679173746
 20
149.1637658613196
 30
0.0
 10
116.4531436216233
 20
149.1637658613196
 30
0.0
 10
116.4531436215145
 20
149.1637658613196
 30
0.0
  0
SPLINE
  5
17B
330
1F
100
AcDbEntity
  8
0
  6
Continuous
 62
     7
370
    18
100
AcDbSpline
210
0.0
220
0.0
230
1.0
 70
     8
 71
     3
 72
    14
 73
    10
 74
     0
 42
0.000000001
 43
0.00000001
 40
0.0
 40
0.0
 40
0.0
 40
0.0
 40
0.2500000000000002
 40
0.2500000000000002
 40
0.5000000000000001
 40
0.5000000000000001
 40
0.75
 40
0.75
 40
1.0
 40
1.0
 40
1.0
 40
1.0
 10
120.4715109685145
 20
156.2127314523196
 30
0.0
 10
120.4345418395145
 20
156.2260941453196
 30
0.0
 10
120.3905512425145
 20
156.2458929143196
 30
0.0
 10
120.2903651211811
 20
156.3097889703196
 30
0.0
 10
120.2345432745145
 20
156.3537578613196
 30
0.0
 10
120.1225556265145
 20
156.4766264893196
 30
0.0
 10
120.0661621165145
 20
156.5557263353196
 30
0.0
 10
119.9765237005145
 20
156.7559405273196
 30
0.0
 10
119.9449804925145
 20
156.8746893263196
 30
0.0
 10
119.9449803565145
 20
157.0002142063196
 30
0.0
  0
LINE
  5
17C
330
1F
100
AcDbEntity
  8
0
  6
Continuous
 62
     7
370
    18
100
AcDbLine
 10
119.9449801619
 20
159.2384759466
 30
0.0
 11
119.9449801619
 21
157.0002144332
 31
0.0
  0
LINE
  5
17D
330
1F
100
AcDbEntity
  8
0
  6
Continuous
 62
     7
370
    18
100
AcDbLine
 10
116.9613066862
 20
157.0002144332
 30
0.0
 11
116.9613066862
 21
159.2384759466
 31
0.0
  0
SPLINE
  5
17E
330
1F
100
AcDbEntity
  8
0
  6
Continuous
 62
     7
370
    18
100
AcDbSpline
210
0.0
220
0.0
230
1.0
 70
     8
 71
     3
 72
    18
 73
    14
 74
     0
 42
0.000000001
 43
0.00000001
 40
0.0
 40
0.0
 40
0.0
 40
0.0
 40
0.0884096293516565
 40
0.1712958459353656
 40
0.248965413543748
 40
0.3779336499071835
 40
0.498511365860921
 40
0.626538449220377
 40
0.7488730468569605
 40
0.8122711756634334
 40
0.8742355429967265
 40
0.9380760258737805
 40
0.9999999999999999
 40
0.9999999999999999
 40
0.9999999999999999
 40
0.9999999999999999
 10
116.4347762745903
 20
156.2127314531071
 30
0.0
 10
116.4491331944275
 20
156.2182673891181
 30
0.0
 10
116.4769500820967
 20
156.228993402212
 30
0.0
 10
116.5239734195227
 20
156.2523781161619
 30
0.0
 10
116.5830168078844
 20
156.2874592271797
 30
0.0
 10
116.6556816139283
 20
156.3415127737906
 30
0.0
 10
116.7427156071301
 20
156.4273584547751
 30
0.0
 10
116.8254368164599
 20
156.5364988999779
 30
0.0
 10
116.8852896135921
 20
156.6503170328246
 30
0.0
 10
116.9224170220358
 20
156.7501433215456
 30
0.0
 10
116.9439746054909
 20
156.8309971850749
 30
0.0
 10
116.9584923552133
 20
156.9146036060334
 30
0.0
 10
116.9603782890731
 20
156.9719687331504
 30
0.0
 10
116.9613068862485
 20
157.0002142067284
 30
0.0
  0
SPLINE
  5
17F
330
1F
100
AcDbEntity
  8
0
  6
Continuous
 62
     7
370
    18
100
AcDbSpline
210
0.0
220
0.0
230
1.0
 70
     8
 71
     3
 72
    12
 73
     8
 74
     0
 42
0.000000001
 43
0.00000001
 40
0.0
 40
0.0
 40
0.0
 40
0.0
 40
0.5
 40
0.5
 40
0.75
 40
0.75
 40
1.0
 40
1.0
 40
1.0
 40
1.0
 10
116.4531436215145
 20
157.0002141162937
 30
0.0
 10
116.4531436258139
 20
157.0002141314557
 30
0.0
 10
116.4732294269723
 20
157.0002141452257
 30
0.0
 10
116.5544378355982
 20
157.0002141473938
 30
0.0
 10
116.5895013795421
 20
157.0002141449473
 30
0.0
 10
116.6682392278517
 20
157.0002141334076
 30
0.0
 10
116.7116062392035
 20
157.000214124355
 30
0.0
 10
116.7531436273107
 20
157.0002141135049
 30
0.0
  0
LINE
  5
180
330
1F
100
AcDbEntity
  8
0
  6
Continuous
 62
     7
370
    18
100
AcDbLine
 10
116.7531439836
 20
157.0002144332
 30
0.0
 11
116.7531439836
 21
159.2086470815
 31
0.0
  0
SPLINE
  5
181
330
1F
100
AcDbEntity
  8
0
  6
Continuous
 62
     7
370
    18
100
AcDbSpline
210
0.0
220
0.0
230
1.0
 70
     8
 71
     3
 72
    10
 73
     6
 74
     0
 42
0.000000001
 43
0.00000001
 40
0.0
 40
0.0
 40
0.0
 40
0.0
 40
0.5
 40
0.5
 40
1.0
 40
1.0
 40
1.0
 40
1.0
 10
120.7531436081083
 20
156.5107191754749
 30
0.0
 10
120.6880461628519
 20
156.5079752340978
 30
0.0
 10
120.6123978155614
 20
156.4770790675219
 30
0.0
 10
120.5033047215208
 20
156.3616506885218
 30
0.0
 10
120.4741042882975
 20
156.2816092665981
 30
0.0
 10
120.4715109449882
 20
156.2127314608233
 30
0.0
  0
SPLINE
  5
182
330
1F
100
AcDbEntity
  8
0
  6
Continuous
 62
     7
370
    18
100
AcDbSpline
210
0.0
220
0.0
230
1.0
 70
    24
 71
     3
 72
    12
 73
     8
 74
     0
 42
0.000000001
 43
0.00000001
 40
0.0
 40
0.0
 40
0.0
 40
0.0
 40
0.25
 40
0.25
 40
0.5
 40
0.5
 40
1.0
 40
1.0
 40
1.0
 40
1.0
 10
120.1531436218847
 20
157.0002142063196
 30
0.0
 10
120.1946810114753
 20
157.0002142063196
 30
0.0
 10
120.2380480243316
 20
157.0002142063196
 30
0.0
 10
120.3167858743792
 20
157.0002142063196
 30
0.0
 10
120.3518494185051
 20
157.0002142063196
 30
0.0
 10
120.433057825085
 20
157.0002142063196
 30
0.0
 10
120.4531436215145
 20
157.0002142063196
 30
0.0
 10
120.4531436215145
 20
157.0002142063196
 30
0.0
  0
SPLINE
  5
183
330
1F
100
AcDbEntity
  8
0
  6
Continuous
 62
     7
370
    18
100
AcDbSpline
210
0.0
220
0.0
230
1.0
 70
    24
 71
     3
 72
    10
 73
     6
 74
     0
 42
0.000000001
 43
0.00000001
 40
0.0
 40
0.0
 40
0.0
 40
0.0
 40
0.5
 40
0.5
 40
1.0
 40
1.0
 40
1.0
 40
1.0
 10
119.9449803565145
 20
157.0002142063196
 30
0.0
 10
119.967909945791
 20
157.0002142063196
 30
0.0
 10
119.996994043023
 20
157.0002142063196
 30
0.0
 10
120.0675780664994
 20
157.0002142063196
 30
0.0
 10
120.1091918824438
 20
157.0002142063196
 30
0.0
 10
120.1531436218847
 20
157.0002142063196
 30
0.0
  0
LINE
  5
184
330
1F
100
AcDbEntity
  8
0
  6
Continuous
 62
     7
370
    18
100
AcDbLine
 10
120.1531437959
 20
159.2086470815
 30
0.0
 11
120.1531437959
 21
157.0002144332
 31
0.0
  0
SPLINE
  5
185
330
1F
100
AcDbEntity
  8
0
  6
Continuous
 62
     7
370
    18
100
AcDbSpline
210
0.0
220
0.0
230
1.0
 70
     8
 71
     3
 72
    10
 73
     6
 74
     0
 42
0.000000001
 43
0.00000001
 40
0.0
 40
0.0
 40
0.0
 40
0.0
 40
0.5
 40
0.5
 40
1.0
 40
1.0
 40
1.0
 40
1.0
 10
116.4347762137182
 20
156.2127314303445
 30
0.0
 10
116.4321828734009
 20
156.2816092322676
 30
0.0
 10
116.4029824467192
 20
156.361650647677
 30
0.0
 10
116.293889369493
 20
156.4770790242365
 30
0.0
 10
116.2182410304944
 20
156.507975196385
 30
0.0
 10
116.1531435868706
 20
156.510719146245
 30
0.0
  0
SPLINE
  5
186
330
1F
100
AcDbEntity
  8
0
  6
Continuous
 62
     7
370
    18
100
AcDbSpline
210
0.0
220
0.0
230
1.0
 70
     8
 71
     3
 72
    10
 73
     6
 74
     0
 42
0.000000001
 43
0.00000001
 40
0.0
 40
0.0
 40
0.0
 40
0.0
 40
0.5
 40
0.5
 40
1.0
 40
1.0
 40
1.0
 40
1.0
 10
116.7531436273107
 20
157.0002141135049
 30
0.0
 10
116.7970953651821
 20
157.0002141020242
 30
0.0
 10
116.8387091796294
 20
157.0002140886633
 30
0.0
 10
116.9092932009969
 20
157.0002140623993
 30
0.0
 10
116.938377297588
 20
157.0002140495316
 30
0.0
 10
116.9613068865143
 20
157.0002140379761
 30
0.0
  0
LINE
  5
187
330
1F
100
AcDbEntity
  8
0
  6
Continuous
 62
     8
370
    18
100
AcDbLine
 10
136.4324305008
 20
158.6705070118
 30
0.0
 11
136.3527241896
 21
158.5598374846
 31
0.0
  0
SPLINE
  5
188
330
1F
100
AcDbEntity
  8
0
  6
Continuous
 62
     8
370
    18
100
AcDbSpline
210
0.0
220
0.0
230
1.0
 70
     8
 71
     3
 72
    14
 73
    10
 74
     0
 42
0.000000001
 43
0.00000001
 40
0.0
 40
0.0
 40
0.0
 40
0.0
 40
0.1055964459611708
 40
0.278499290156674
 40
0.4513654336354913
 40
0.624155180163171
 40
0.796983401925957
 40
0.9698823061399046
 40
1.0
 40
1.0
 40
1.0
 40
1.0
 10
133.5544407169324
 20
168.3658558072916
 30
0.0
 10
133.5330404843175
 20
168.3415580220382
 30
0.0
 10
133.4765996681687
 20
168.2774752218656
 30
0.0
 10
133.3851779332819
 20
168.0792195625968
 30
0.0
 10
133.2801158869297
 20
167.785670638215
 30
0.0
 10
133.1749944663062
 20
167.4138669510031
 30
0.0
 10
133.0699051614378
 20
166.9684741112771
 30
0.0
 10
132.9937831031328
 20
166.6136829548753
 30
0.0
 10
132.9526499814169
 20
166.3960516265939
 30
0.0
 10
132.9465478460294
 20
166.3637658244392
 30
0.0
  0
SPLINE
  5
189
330
1F
100
AcDbEntity
  8
0
  6
Continuous
 62
     8
370
    18
100
AcDbSpline
210
0.0
220
0.0
230
1.0
 70
     8
 71
     3
 72
    14
 73
    10
 74
     0
 42
0.000000001
 43
0.00000001
 40
0.0
 40
0.0
 40
0.0
 40
0.0
 40
0.0750823706089303
 40
0.2477260487082975
 40
0.4204488471987524
 40
0.5932003849684129
 40
0.7658863304120375
 40
0.9385239886154519
 40
0.9999999999999999
 40
0.9999999999999999
 40
0.9999999999999999
 40
0.9999999999999999
 10
131.9597631494505
 20
160.5637658982
 30
0.0
 10
131.9445336502997
 20
160.4844127905454
 30
0.0
 10
131.8942855878341
 20
160.2225959132602
 30
0.0
 10
131.8089624868398
 20
159.8348647162306
 30
0.0
 10
131.7039070495313
 20
159.4099120260827
 30
0.0
 10
131.5988605804027
 20
159.0559750456264
 30
0.0
 10
131.4937780962689
 20
158.7828179150541
 30
0.0
 10
131.4112227251739
 20
158.6168298175564
 30
0.0
 10
131.3637451220576
 20
158.5721287604304
 30
0.0
 10
131.35127795739
 20
158.5603906901947
 30
0.0
  0
SPLINE
  5
18A
330
1F
100
AcDbEntity
  8
0
  6
Continuous
 62
     8
370
    18
100
AcDbSpline
210
0.0
220
0.0
230
1.0
 70
     8
 71
     3
 72
    14
 73
    10
 74
     0
 42
0.000000001
 43
0.00000001
 40
0.0
 40
0.0
 40
0.0
 40
0.0
 40
0.0001058925838699
 40
0.1738153387094384
 40
0.3474640567176068
 40
0.5211770432109548
 40
0.6949444704029836
 40
0.8686677493874967
 40
1.0
 40
1.0
 40
1.0
 40
1.0
 10
128.551636616419
 20
168.3720239567033
 30
0.0
 10
128.5516148854246
 20
168.3720073529185
 30
0.0
 10
128.5159449639999
 20
168.3447533908241
 30
0.0
 10
128.4468091974156
 20
168.2126939797829
 30
0.0
 10
128.3413123765005
 20
167.9701126521736
 30
0.0
 10
128.2363403314367
 20
167.6379311683217
 30
0.0
 10
128.1312696114253
 20
167.2351814298881
 30
0.0
 10
128.0347383749555
 20
166.8107794244419
 30
0.0
 10
127.973203067966
 20
166.4982959483455
 30
0.0
 10
127.9467109392387
 20
166.3637658244392
 30
0.0
  0
LINE
  5
18B
330
1F
100
AcDbEntity
  8
0
  6
Continuous
 62
     8
370
    18
100
AcDbLine
 10
127.4770729045
 20
163.6126114505
 30
0.0
 11
127.4531435023
 21
163.4624105861
 31
0.0
  0
SPLINE
  5
18C
330
1F
100
AcDbEntity
  8
0
  6
Continuous
 62
     8
370
    18
100
AcDbSpline
210
0.0
220
0.0
230
1.0
 70
     8
 71
     3
 72
    11
 73
     7
 74
     0
 42
0.000000001
 43
0.00000001
 40
0.0
 40
0.0
 40
0.0
 40
0.0
 40
0.0284619754133174
 40
0.508315816293775
 40
0.988227124490581
 40
1.0
 40
1.0
 40
1.0
 40
1.0
 10
126.5613239060146
 20
158.9637660550347
 30
0.0
 10
126.5592451598887
 20
158.9573873609635
 30
0.0
 10
126.5221198543359
 20
158.8434672610195
 30
0.0
 10
126.4500073014246
 20
158.7021005120154
 30
0.0
 10
126.3791004782031
 20
158.567367454672
 30
0.0
 10
126.3432125057558
 20
158.5422865443821
 30
0.0
 10
126.3423532049162
 20
158.5416860076061
 30
0.0
  0
SPLINE
  5
18D
330
1F
100
AcDbEntity
  8
0
  6
Continuous
 62
     8
370
    18
100
AcDbSpline
210
0.0
220
0.0
230
1.0
 70
     8
 71
     3
 72
    10
 73
     6
 74
     0
 42
0.000000001
 43
0.00000001
 40
0.0
 40
0.0
 40
0.0
 40
0.0
 40
0.2281953720051272
 40
0.7372344215210223
 40
1.0
 40
1.0
 40
1.0
 40
1.0
 10
123.5549494425756
 20
168.3661370667091
 30
0.0
 10
123.5392394644416
 20
168.3499727654477
 30
0.0
 10
123.4884849879595
 20
168.2977505000048
 30
0.0
 10
123.4196851568489
 20
168.1621995221439
 30
0.0
 10
123.3665892910437
 20
168.0141649408985
 30
0.0
 10
123.3485124806863
 20
167.9637656676045
 30
0.0
  0
SPLINE
  5
18E
330
1F
100
AcDbEntity
  8
0
  6
Continuous
 62
     8
370
    18
100
AcDbSpline
210
0.0
220
0.0
230
1.0
 70
     8
 71
     3
 72
    32
 73
    28
 74
     0
 42
0.000000001
 43
0.00000001
 40
0.0
 40
0.0
 40
0.0
 40
0.0
 40
0.0060075797574239
 40
0.0480461252844333
 40
0.0900805368540985
 40
0.1320952286952445
 40
0.1741127657535992
 40
0.2161495561964085
 40
0.2581863148680494
 40
0.3002037620432703
 40
0.3422183712418158
 40
0.3842528352472821
 40
0.4262914186466899
 40
0.4683122285502478
 40
0.5103247732576649
 40
0.5523564176751163
 40
0.5943961027246017
 40
0.6364202976297928
 40
0.6784316284411026
 40
0.7204600937270577
 40
0.7625001832210707
 40
0.8045278402128956
 40
0.8465390367214741
 40
0.8885640882002143
 40
0.9306039515499094
 40
0.972634836749071
 40
1.0
 40
1.0
 40
1.0
 40
1.0
 10
123.7029552261335
 20
169.4564550312629
 30
0.0
 10
123.7079627685796
 20
169.4584864634622
 30
0.0
 10
123.7480110112073
 20
169.4747330136358
 30
0.0
 10
123.8230492347391
 20
169.4053254578227
 30
0.0
 10
123.9281060962732
 20
169.2438431324725
 30
0.0
 10
124.0332149969243
 20
168.9717454745308
 30
0.0
 10
124.138319277121
 20
168.6041385481564
 30
0.0
 10
124.2433672882946
 20
168.1469234881605
 30
0.0
 10
124.3484204666177
 20
167.6095504963432
 30
0.0
 10
124.453520503791
 20
167.0002922272393
 30
0.0
 10
124.5586305274411
 20
166.3279646179267
 30
0.0
 10
124.663687815422
 20
165.6059516307905
 30
0.0
 10
124.7687330741369
 20
164.8471967771501
 30
0.0
 10
124.8738262583398
 20
164.0644785710736
 30
0.0
 10
124.9789438547432
 20
163.2710205509754
 30
0.0
 10
125.0840030664446
 20
162.4810630903169
 30
0.0
 10
125.1890516816298
 20
161.7080089440942
 30
0.0
 10
125.2941293099972
 20
160.965075354795
 30
0.0
 10
125.3992552679805
 20
160.2663282659058
 30
0.0
 10
125.5043220270058
 20
159.6239213525408
 30
0.0
 10
125.6093662108418
 20
159.0475278741677
 30
0.0
 10
125.7144388557606
 20
158.5468740391849
 30
0.0
 10
125.8195613583173
 20
158.1330839419186
 30
0.0
 10
125.9246374407054
 20
157.8125062248212
 30
0.0
 10
126.029686005214
 20
157.5933864463245
 30
0.0
 10
126.1225404812475
 20
157.4747622444166
 30
0.0
 10
126.1804023474972
 20
157.4755518543617
 30
0.0
 10
126.203219200204
 20
157.4758632237485
 30
0.0
  0
SPLINE
  5
18F
330
1F
100
AcDbEntity
  8
0
  6
Continuous
 62
     8
370
    18
100
AcDbSpline
210
0.0
220
0.0
230
1.0
 70
     8
 71
     3
 72
    32
 73
    28
 74
     0
 42
0.000000001
 43
0.00000001
 40
0.0
 40
0.0
 40
0.0
 40
0.0
 40
0.0237545049245369
 40
0.0657879973008615
 40
0.1078321797413536
 40
0.1498930974558424
 40
0.1919479186021939
 40
0.2339831317312783
 40
0.2760239067731672
 40
0.3180834008569172
 40
0.3601408103085893
 40
0.4021785326286821
 40
0.444216252057039
 40
0.4862736608673882
 40
0.5283331411324657
 40
0.5703739322065934
 40
0.6124091231324894
 40
0.6544639671031836
 40
0.6965248666117411
 40
0.738569051529136
 40
0.7806025541834326
 40
0.8226543552006992
 40
0.8647160624606566
 40
0.9067636930662611
 40
0.9487965196058635
 40
0.9908450144699541
 40
1.0
 40
1.0
 40
1.0
 40
1.0
 10
128.7023711751205
 20
169.449908764886
 30
0.0
 10
128.7221549886097
 20
169.4520713483779
 30
0.0
 10
128.7769461733792
 20
169.4580606138829
 30
0.0
 10
128.8668224326953
 20
169.3519667385889
 30
0.0
 10
128.9719085472776
 20
169.1415085252823
 30
0.0
 10
129.0769532896469
 20
168.828429277346
 30
0.0
 10
129.1820132803373
 20
168.424585307175
 30
0.0
 10
129.2871272993991
 20
167.9338232514795
 30
0.0
 10
129.3922221246621
 20
167.3635399955794
 30
0.0
 10
129.4972735529217
 20
166.7259655930624
 30
0.0
 10
129.6023235960812
 20
166.0324164279068
 30
0.0
 10
129.7074328214348
 20
165.2941985405376
 30
0.0
 10
129.8125379779743
 20
164.5233274598733
 30
0.0
 10
129.9175890786711
 20
163.7342107593141
 30
0.0
 10
130.0226403000544
 20
162.9404623970637
 30
0.0
 10
130.1277350764581
 20
162.1556331813545
 30
0.0
 10
130.2328492058715
 20
161.3940747735095
 30
0.0
 10
130.3379091612209
 20
160.6687267509301
 30
0.0
 10
130.4429535535504
 20
159.9913682377633
 30
0.0
 10
130.5480413802238
 20
159.3737200140793
 30
0.0
 10
130.6531615837722
 20
158.8286839893152
 30
0.0
 10
130.7582243950913
 20
158.364853727029
 30
0.0
 10
130.8632725524911
 20
157.9892116278942
 30
0.0
 10
130.9683452816524
 20
157.705301795324
 30
0.0
 10
131.073471745447
 20
157.5318355226205
 30
0.0
 10
131.1511338332014
 20
157.4568929290976
 30
0.0
 10
131.1937728057313
 20
157.4714266798612
 30
0.0
 10
131.2013964901668
 20
157.4740252586475
 30
0.0
  0
SPLINE
  5
190
330
1F
100
AcDbEntity
  8
0
  6
Continuous
 62
     8
370
    18
100
AcDbSpline
210
0.0
220
0.0
230
1.0
 70
     8
 71
     3
 72
    31
 73
    27
 74
     0
 42
0.000000001
 43
0.00000001
 40
0.0
 40
0.0
 40
0.0
 40
0.0
 40
0.0413271918025245
 40
0.083293173645255
 40
0.1252475418620818
 40
0.1671847703482651
 40
0.2091348580516063
 40
0.2511004005045945
 40
0.2930579488453887
 40
0.3349964000909182
 40
0.3769431114514402
 40
0.4189075711930532
 40
0.4608679153816671
 40
0.5028084411992474
 40
0.5447517863343699
 40
0.5867144257459888
 40
0.6286770906940716
 40
0.6706205466615884
 40
0.7125611411139675
 40
0.7545214377868775
 40
0.7964858501834744
 40
0.8384327635284885
 40
0.8803720914348059
 40
0.9223308026594401
 40
0.9642968049705231
 40
1.0
 40
1.0
 40
1.0
 40
1.0
 10
133.7019696633321
 20
169.4626446010938
 30
0.0
 10
133.7364758688479
 20
169.4532429170083
 30
0.0
 10
133.806021638655
 20
169.434294227999
 30
0.0
 10
133.9105388643313
 20
169.2754859413516
 30
0.0
 10
134.0156105077525
 20
169.0239320443621
 30
0.0
 10
134.1207322446374
 20
168.6724110583885
 30
0.0
 10
134.2258109664053
 20
168.2292326943631
 30
0.0
 10
134.330859356914
 20
167.7039722270328
 30
0.0
 10
134.4359185350766
 20
167.1059510571759
 30
0.0
 10
134.5410361873424
 20
166.4441265007907
 30
0.0
 10
134.6461293630429
 20
165.7293323373541
 30
0.0
 10
134.7511746065944
 20
164.9755697224279
 30
0.0
 10
134.856231908673
 20
164.1958508455508
 30
0.0
 10
134.9613418987882
 20
163.4032696417703
 30
0.0
 10
135.0664419973595
 20
162.6117862692234
 30
0.0
 10
135.1714951100078
 20
161.8351722502218
 30
0.0
 10
135.2765432273187
 20
161.0865001346512
 30
0.0
 10
135.3816472002435
 20
160.3788488198204
 30
0.0
 10
135.4867570842706
 20
159.726187644174
 30
0.0
 10
135.5918104933751
 20
159.1386282127775
 30
0.0
 10
135.6968610663178
 20
158.6252455672186
 30
0.0
 10
135.8019499033549
 20
158.1954493425322
 30
0.0
 10
135.9070707774226
 20
157.8586036244292
 30
0.0
 10
136.0121298385668
 20
157.6226791330906
 30
0.0
 10
136.1119566788719
 20
157.4835846104923
 30
0.0
 10
136.1768164298794
 20
157.4748268238731
 30
0.0
 10
136.2066313426
 20
157.4708010198942
 30
0.0
  0
LINE
  5
191
330
1F
100
AcDbEntity
  8
0
  6
Continuous
 62
     8
370
    18
100
AcDbLine
 10
136.4324305008
 20
158.6705070118
 30
0.0
 11
136.3214019488
 21
158.6490046362
 31
0.0
  0
SPLINE
  5
192
330
1F
100
AcDbEntity
  8
0
  6
Continuous
 62
     8
370
    18
100
AcDbSpline
210
0.0
220
0.0
230
1.0
 70
     8
 71
     3
 72
    13
 73
     9
 74
     0
 42
0.000000001
 43
0.00000001
 40
0.0
 40
0.0
 40
0.0
 40
0.0
 40
0.1954257438133271
 40
0.3908387460070155
 40
0.5862346727283256
 40
0.781620772435444
 40
0.9770064009746346
 40
1.0
 40
1.0
 40
1.0
 40
1.0
 10
136.4324305008155
 20
158.6705074774495
 30
0.0
 10
136.497750542056
 20
158.6630031391863
 30
0.0
 10
136.6283863657165
 20
158.6479949519375
 30
0.0
 10
136.795218938664
 20
158.5385090491151
 30
0.0
 10
136.9064226414164
 20
158.3785979178263
 30
0.0
 10
136.9418354439667
 20
158.1934599759105
 30
0.0
 10
136.9267984888776
 20
158.053124273619
 30
0.0
 10
136.8854573573222
 20
157.9956959542424
 30
0.0
 10
136.8811044643623
 20
157.9896492081157
 30
0.0
  0
SPLINE
  5
193
330
1F
100
AcDbEntity
  8
0
  6
Continuous
 62
     8
370
    18
100
AcDbSpline
210
0.0
220
0.0
230
1.0
 70
     8
 71
     3
 72
    19
 73
    15
 74
     0
 42
0.000000001
 43
0.00000001
 40
0.0
 40
0.0
 40
0.0
 40
0.0
 40
0.0892411180187159
 40
0.1784493796811978
 40
0.2676926214577854
 40
0.3569732647515255
 40
0.4462383722221775
 40
0.5354622179870844
 40
0.6247022479792748
 40
0.7139794573698187
 40
0.8032479626609861
 40
0.8924745648564054
 40
0.9817071607410208
 40
1.0
 40
1.0
 40
1.0
 40
1.0
 10
149.8824309359294
 20
163.9978454227953
 30
0.0
 10
149.8474082536049
 20
164.2599718181296
 30
0.0
 10
149.7773757834347
 20
164.7841281003903
 30
0.0
 10
149.6722525187345
 20
165.5449797662371
 30
0.0
 10
149.5671730408981
 20
166.2695884190964
 30
0.0
 10
149.4621261796857
 20
166.945724211449
 30
0.0
 10
149.3570720646498
 20
167.5622164286454
 30
0.0
 10
149.2519510800991
 20
168.1070802986851
 30
0.0
 10
149.1468575820597
 20
168.5694616928903
 30
0.0
 10
149.0418147853427
 20
168.9430780694277
 30
0.0
 10
148.9367570603837
 20
169.225076630936
 30
0.0
 10
148.8316456002813
 20
169.3979826451925
 30
0.0
 10
148.7544063219863
 20
169.4718590485553
 30
0.0
 10
148.7122189219346
 20
169.4567649360445
 30
0.0
 10
148.7050417612297
 20
169.4541970396808
 30
0.0
  0
SPLINE
  5
194
330
1F
100
AcDbEntity
  8
0
  6
Continuous
 62
     8
370
    18
100
AcDbSpline
210
0.0
220
0.0
230
1.0
 70
     8
 71
     3
 72
    31
 73
    27
 74
     0
 42
0.000000001
 43
0.00000001
 40
0.0
 40
0.0
 40
0.0
 40
0.0
 40
0.0417284168242358
 40
0.0837677152378103
 40
0.1258059640596676
 40
0.1678247262636245
 40
0.2098420407071372
 40
0.2518791287236405
 40
0.2939193015416735
 40
0.3359412323577058
 40
0.3779561867220532
 40
0.4199905903323701
 40
0.4620320612577517
 40
0.5040573996170701
 40
0.546070903152141
 40
0.5881022043668389
 40
0.6301442784871318
 40
0.6721730430554796
 40
0.7141861709637146
 40
0.7562140866849615
 40
0.7982560613219777
 40
0.8402881742433261
 40
0.8823019773122346
 40
0.9243264220528785
 40
0.9663676235047649
 40
1.0
 40
1.0
 40
1.0
 40
1.0
 10
146.2039675365192
 20
157.4641527736953
 30
0.0
 10
146.1691806562057
 20
157.474046738009
 30
0.0
 10
146.0993477292487
 20
157.4939083778286
 30
0.0
 10
145.9945394392083
 20
157.6553190733481
 30
0.0
 10
145.889492873617
 20
157.9089527662077
 30
0.0
 10
145.7843865955559
 20
158.2609559958869
 30
0.0
 10
145.6792751425251
 20
158.7052079951356
 30
0.0
 10
145.574226723375
 20
159.232158064768
 30
0.0
 10
145.4691760783047
 20
159.8316663692628
 30
0.0
 10
145.36408041951
 20
160.4939585189634
 30
0.0
 10
145.2589681647604
 20
161.2091625807001
 30
0.0
 10
145.1539063639581
 20
161.9636097159398
 30
0.0
 10
145.0488598057565
 20
162.7437717331436
 30
0.0
 10
144.9437743159478
 20
163.5364190931621
 30
0.0
 10
144.8386568462901
 20
164.327856327565
 30
0.0
 10
144.7335883611445
 20
165.1039957494371
 30
0.0
 10
144.6285405738016
 20
165.8519208650651
 30
0.0
 10
144.5234728811952
 20
166.5588732731821
 30
0.0
 10
144.418346531894
 20
167.2113109677707
 30
0.0
 10
144.3132690673609
 20
167.7974466348067
 30
0.0
 10
144.2082285596708
 20
168.3090951733726
 30
0.0
 10
144.1031619908678
 20
168.7373650258349
 30
0.0
 10
143.9980383151403
 20
169.0740403802858
 30
0.0
 10
143.892957026626
 20
169.3079456892876
 30
0.0
 10
143.7949115847834
 20
169.4432222261803
 30
0.0
 10
143.7318537800171
 20
169.4510993792479
 30
0.0
 10
143.7038283596737
 20
169.4546003023556
 30
0.0
  0
SPLINE
  5
195
330
1F
100
AcDbEntity
  8
0
  6
Continuous
 62
     8
370
    18
100
AcDbSpline
210
0.0
220
0.0
230
1.0
 70
     8
 71
     3
 72
    32
 73
    28
 74
     0
 42
0.000000001
 43
0.00000001
 40
0.0
 40
0.0
 40
0.0
 40
0.0
 40
0.0176714488169824
 40
0.0597194821610328
 40
0.1017481310191519
 40
0.143783713377245
 40
0.1858375367769945
 40
0.2278882988210227
 40
0.2699192935963592
 40
0.3119516909698224
 40
0.3540036217771305
 40
0.3960565947347005
 40
0.4380905073946555
 40
0.4801202338893901
 40
0.5221697119713598
 40
0.5642242837706546
 40
0.6062615278200127
 40
0.6482893238070428
 40
0.6903358819940808
 40
0.7323913745762383
 40
0.7744321069241248
 40
0.8164589642147858
 40
0.8585022377827011
 40
0.9005580268783815
 40
0.9426021633458059
 40
0.9846291397494497
 40
1.0
 40
1.0
 40
1.0
 40
1.0
 10
141.2051010678512
 20
157.4778800027838
 30
0.0
 10
141.1903823385398
 20
157.4746510419599
 30
0.0
 10
141.1406413749294
 20
157.4637389843057
 30
0.0
 10
141.0559005885495
 20
157.5538178049848
 30
0.0
 10
140.9507795284413
 20
157.7455586683355
 30
0.0
 10
140.845684207123
 20
158.0452898985353
 30
0.0
 10
140.7406408686438
 20
158.4368204455073
 30
0.0
 10
140.6355850310155
 20
158.9150592003258
 30
0.0
 10
140.5304736863314
 20
159.4722497446905
 30
0.0
 10
140.4253746690355
 20
160.1006660350396
 30
0.0
 10
140.3203208889968
 20
160.7872234762739
 30
0.0
 10
140.2152689261937
 20
161.5197043319989
 30
0.0
 10
140.1101752168485
 20
162.2859110200679
 30
0.0
 10
140.0050588595201
 20
163.0731398017742
 30
0.0
 10
139.9000026233261
 20
163.8670357055779
 30
0.0
 10
139.7949525810088
 20
164.6539896550788
 30
0.0
 10
139.6898697902303
 20
165.4205360081727
 30
0.0
 10
139.5847470137013
 20
166.1523617619506
 30
0.0
 10
139.4796824093501
 20
166.8369875302999
 30
0.0
 10
139.3746416034433
 20
167.4636878746949
 30
0.0
 10
139.2695618074928
 20
168.0216290736266
 30
0.0
 10
139.164435591226
 20
168.4991276303731
 30
0.0
 10
139.0593704982946
 20
168.8873591723737
 30
0.0
 10
138.9543215356088
 20
169.1842488721522
 30
0.0
 10
138.8492556486138
 20
169.375987416835
 30
0.0
 10
138.766353167195
 20
169.4655521028285
 30
0.0
 10
138.7185348204569
 20
169.454116282743
 30
0.0
 10
138.7057293008071
 20
169.4510538259915
 30
0.0
  0
SPLINE
  5
196
330
1F
100
AcDbEntity
  8
0
  6
Continuous
 62
     8
370
    18
100
AcDbSpline
210
0.0
220
0.0
230
1.0
 70
     8
 71
     3
 72
    13
 73
     9
 74
     0
 42
0.000000001
 43
0.00000001
 40
0.0
 40
0.0
 40
0.0
 40
0.0
 40
0.1988428564396892
 40
0.3976130282221012
 40
0.5964605027130598
 40
0.7953907779107834
 40
0.994286690053405
 40
1.0
 40
1.0
 40
1.0
 40
1.0
 10
136.4324305008155
 20
158.6705074774495
 30
0.0
 10
136.4674530094562
 20
158.7407120249508
 30
0.0
 10
136.5374852246731
 20
158.8810954575105
 30
0.0
 10
136.6426111661707
 20
159.194801161915
 30
0.0
 10
136.7476902191182
 20
159.576649191334
 30
0.0
 10
136.8527249823884
 20
160.0325819274529
 30
0.0
 10
136.9238135123501
 20
160.3661892689155
 30
0.0
 10
136.9598347555676
 20
160.5583988245423
 30
0.0
 10
136.9608405779106
 20
160.5637658982
 30
0.0
  0
SPLINE
  5
197
330
1F
100
AcDbEntity
  8
0
  6
Continuous
 62
     8
370
    18
100
AcDbSpline
210
0.0
220
0.0
230
1.0
 70
     8
 71
     3
 72
    14
 73
    10
 74
     0
 42
0.000000001
 43
0.00000001
 40
0.0
 40
0.0
 40
0.0
 40
0.0
 40
0.1011699742473017
 40
0.2739255120635534
 40
0.4466980626642434
 40
0.6193980073417572
 40
0.7920641857077835
 40
0.964808405082151
 40
1.0
 40
1.0
 40
1.0
 40
1.0
 10
137.9470366786224
 20
166.3637658244392
 30
0.0
 10
137.9675613469992
 20
166.4693304574856
 30
0.0
 10
138.023133470417
 20
166.7551548473619
 30
0.0
 10
138.1136831889216
 20
167.1607447127172
 30
0.0
 10
138.2187347718952
 20
167.5759670155627
 30
0.0
 10
138.3238273852532
 20
167.9199706877526
 30
0.0
 10
138.428940545
 20
168.1779914342435
 30
0.0
 10
138.5061097397878
 20
168.3269730787511
 30
0.0
 10
138.5482613613744
 20
168.3632449174299
 30
0.0
 10
138.5553952108127
 20
168.3693836572042
 30
0.0
  0
SPLINE
  5
198
330
1F
100
AcDbEntity
  8
0
  6
Continuous
 62
     8
370
    18
100
AcDbSpline
210
0.0
220
0.0
230
1.0
 70
     8
 71
     3
 72
    14
 73
    10
 74
     0
 42
0.000000001
 43
0.00000001
 40
0.0
 40
0.0
 40
0.0
 40
0.0
 40
0.0287241697179797
 40
0.2020505246551419
 40
0.3754494864894791
 40
0.5488926709020546
 40
0.7222815716675921
 40
0.8956061223369115
 40
1.0
 40
1.0
 40
1.0
 40
1.0
 10
141.3536954472763
 20
158.5589247884622
 30
0.0
 10
141.3594980056221
 20
158.5638294441561
 30
0.0
 10
141.4003141534738
 20
158.5983295973693
 30
0.0
 10
141.4762143237691
 20
158.746139022608
 30
0.0
 10
141.5812706433057
 20
159.0039680011188
 30
0.0
 10
141.686320502863
 20
159.3457779212287
 30
0.0
 10
141.7913932955383
 20
159.7584631457712
 30
0.0
 10
141.8825739689886
 20
160.1664399601507
 30
0.0
 10
141.9386720346335
 20
160.4552156245807
 30
0.0
 10
141.9597592006427
 20
160.5637658982
 30
0.0
  0
SPLINE
  5
199
330
1F
100
AcDbEntity
  8
0
  6
Continuous
 62
     8
370
    18
100
AcDbSpline
210
0.0
220
0.0
230
1.0
 70
     8
 71
     3
 72
    14
 73
    10
 74
     0
 42
0.000000001
 43
0.00000001
 40
0.0
 40
0.0
 40
0.0
 40
0.0
 40
0.0021856574216168
 40
0.1746824954019989
 40
0.3470991144980743
 40
0.5195155746889658
 40
0.6920123240642317
 40
0.8645174742570146
 40
0.9999999999999999
 40
0.9999999999999999
 40
0.9999999999999999
 40
0.9999999999999999
 10
142.9459441254837
 20
166.3637658244392
 30
0.0
 10
142.9463874318068
 20
166.3661350992634
 30
0.0
 10
142.9818174374368
 20
166.5554926968857
 30
0.0
 10
143.0523405697771
 20
166.8877978454999
 30
0.0
 10
143.1574296739294
 20
167.3448925488187
 30
0.0
 10
143.2625360115936
 20
167.7277863986968
 30
0.0
 10
143.3675908173371
 20
168.0355130943746
 30
0.0
 10
143.4651370541928
 20
168.2573397914956
 30
0.0
 10
143.5277062987922
 20
168.3356031801165
 30
0.0
 10
143.5552302549583
 20
168.3700309263936
 30
0.0
  0
SPLINE
  5
19A
330
1F
100
AcDbEntity
  8
0
  6
Continuous
 62
     8
370
    18
100
AcDbSpline
210
0.0
220
0.0
230
1.0
 70
     8
 71
     3
 72
    14
 73
    10
 74
     0
 42
0.000000001
 43
0.00000001
 40
0.0
 40
0.0
 40
0.0
 40
0.0
 40
0.1029174301053284
 40
0.2758360236974333
 40
0.4486839844798097
 40
0.6214931016133456
 40
0.7943790397907341
 40
0.9673014542222055
 40
0.9999999999999999
 40
0.9999999999999999
 40
0.9999999999999999
 40
0.9999999999999999
 10
146.3523048709137
 20
158.5621997842959
 30
0.0
 10
146.3731549148993
 20
158.5856404017914
 30
0.0
 10
146.4290365398195
 20
158.6484651994603
 30
0.0
 10
146.5199061330107
 20
158.844140853269
 30
0.0
 10
146.6249984057395
 20
159.1362429848903
 30
0.0
 10
146.7301125232139
 20
159.5078860137289
 30
0.0
 10
146.8351793522969
 20
159.9520685337308
 30
0.0
 10
146.9118342656581
 20
160.308576751893
 30
0.0
 10
146.9534945502938
 20
160.5287527592294
 30
0.0
 10
146.9601195107204
 20
160.5637658982
 30
0.0
  0
SPLINE
  5
19B
330
1F
100
AcDbEntity
  8
0
  6
Continuous
 62
     8
370
    18
100
AcDbSpline
210
0.0
220
0.0
230
1.0
 70
     8
 71
     3
 72
    10
 73
     6
 74
     0
 42
0.000000001
 43
0.00000001
 40
0.0
 40
0.0
 40
0.0
 40
0.0
 40
0.3003690822932859
 40
0.7985951566499503
 40
1.0
 40
1.0
 40
1.0
 40
1.0
 10
148.347983861993
 20
167.9637656676045
 30
0.0
 10
148.3691006923984
 20
168.0217053586928
 30
0.0
 10
148.4252442820009
 20
168.1757503633505
 30
0.0
 10
148.4955631185053
 20
168.3095032982116
 30
0.0
 10
148.5447212480983
 20
168.3567002985507
 30
0.0
 10
148.5588725457889
 20
168.3702870401016
 30
0.0
  0
SPLINE
  5
19C
330
1F
100
AcDbEntity
  8
0
  6
Continuous
 62
     8
370
    18
100
AcDbSpline
210
0.0
220
0.0
230
1.0
 70
     8
 71
     3
 72
    10
 73
     6
 74
     0
 42
0.000000001
 43
0.00000001
 40
0.0
 40
0.0
 40
0.0
 40
0.0
 40
0.0001366674884552
 40
0.4999060501423579
 40
1.0
 40
1.0
 40
1.0
 40
1.0
 10
120.903133208583
 20
156.4637693705431
 30
0.0
 10
120.9031366242438
 20
156.4637681284933
 30
0.0
 10
120.9156305208633
 20
156.459224925244
 30
0.0
 10
120.8754806591643
 20
156.4731250070832
 30
0.0
 10
120.793931515614
 20
156.4981850935461
 30
0.0
 10
120.7531437079412
 20
156.5107192041746
 30
0.0
  0
SPLINE
  5
19D
330
1F
100
AcDbEntity
  8
0
  6
Continuous
 62
     8
370
    18
100
AcDbSpline
210
0.0
220
0.0
230
1.0
 70
     8
 71
     3
 72
     9
 73
     5
 74
     0
 42
0.000000001
 43
0.00000001
 40
0.0
 40
0.0
 40
0.0
 40
0.0
 40
0.4976555145517746
 40
0.9999999999999999
 40
0.9999999999999999
 40
0.9999999999999999
 40
0.9999999999999999
 10
116.0031536395651
 20
156.4637693705431
 30
0.0
 10
116.0095927110309
 20
156.4659087389464
 30
0.0
 10
116.0225315236783
 20
156.470207633143
 30
0.0
 10
116.1094700506232
 20
156.4971732002442
 30
0.0
 10
116.153143140207
 20
156.5107192041746
 30
0.0
  0
SPLINE
  5
19E
330
1F
100
AcDbEntity
  8
0
  6
Continuous
 62
     8
370
    18
100
AcDbSpline
210
0.0
220
0.0
230
1.0
 70
    24
 71
     3
 72
    10
 73
     6
 74
     0
 42
0.000000001
 43
0.00000001
 40
0.0
 40
0.0
 40
0.0
 40
0.0
 40
0.4999999999999999
 40
0.4999999999999999
 40
1.0
 40
1.0
 40
1.0
 40
1.0
 10
116.1531436215145
 20
170.4637658613196
 30
0.0
 10
116.1531436215145
 20
170.4637658609388
 30
0.0
 10
116.1531436215145
 20
169.7262308258091
 30
0.0
 10
116.1531436215145
 20
167.1007958303961
 30
0.0
 10
116.1531436215145
 20
165.320228746698
 30
0.0
 10
116.1531436215145
 20
163.4637658584482
 30
0.0
  0
SPLINE
  5
19F
330
1F
100
AcDbEntity
  8
0
  6
Continuous
 62
     8
370
    18
100
AcDbSpline
210
0.0
220
0.0
230
1.0
 70
    24
 71
     3
 72
    10
 73
     6
 74
     0
 42
0.000000001
 43
0.00000001
 40
0.0
 40
0.0
 40
0.0
 40
0.0
 40
0.5000000000000001
 40
0.5000000000000001
 40
1.0
 40
1.0
 40
1.0
 40
1.0
 10
114.7531436215145
 20
156.4637658613196
 30
0.0
 10
114.7531436215145
 20
156.4637658611056
 30
0.0
 10
114.7531436215145
 20
157.2013008951863
 30
0.0
 10
114.7531436215145
 20
159.8267358882402
 30
0.0
 10
114.7531436215145
 20
161.6073029708074
 30
0.0
 10
114.7531436215145
 20
163.4637658584482
 30
0.0
  0
SPLINE
  5
1A0
330
1F
100
AcDbEntity
  8
0
  6
Continuous
 62
     8
370
    18
100
AcDbSpline
210
0.0
220
0.0
230
1.0
 70
    24
 71
     3
 72
    10
 73
     6
 74
     0
 42
0.000000001
 43
0.00000001
 40
0.0
 40
0.0
 40
0.0
 40
0.0
 40
0.5000000000000002
 40
0.5000000000000002
 40
1.0
 40
1.0
 40
1.0
 40
1.0
 10
114.7531436215145
 20
163.4637658584482
 30
0.0
 10
114.7531436215145
 20
165.320228746698
 30
0.0
 10
114.7531436215145
 20
167.1007958303962
 30
0.0
 10
114.7531436215145
 20
169.7262308258092
 30
0.0
 10
114.7531436215145
 20
170.4637658609389
 30
0.0
 10
114.7531436215145
 20
170.4637658613196
 30
0.0
  0
SPLINE
  5
1A1
330
1F
100
AcDbEntity
  8
0
  6
Continuous
 62
     8
370
    18
100
AcDbSpline
210
0.0
220
0.0
230
1.0
 70
    24
 71
     3
 72
    10
 73
     6
 74
     0
 42
0.000000001
 43
0.00000001
 40
0.0
 40
0.0
 40
0.0
 40
0.0
 40
0.4999999999999999
 40
0.4999999999999999
 40
1.0
 40
1.0
 40
1.0
 40
1.0
 10
107.1531436215145
 20
163.4637658590635
 30
0.0
 10
107.1531436215145
 20
162.0051164473457
 30
0.0
 10
107.1531436215145
 20
160.6060994539
 30
0.0
 10
107.1531436215145
 20
158.5432576736433
 30
0.0
 10
107.1531436215145
 20
157.9637658611514
 30
0.0
 10
107.1531436215145
 20
157.9637658613196
 30
0.0
  0
SPLINE
  5
1A2
330
1F
100
AcDbEntity
  8
0
  6
Continuous
 62
     8
370
    18
100
AcDbSpline
210
0.0
220
0.0
230
1.0
 70
    24
 71
     3
 72
    10
 73
     6
 74
     0
 42
0.000000001
 43
0.00000001
 40
0.0
 40
0.0
 40
0.0
 40
0.0
 40
0.4999999999999999
 40
0.4999999999999999
 40
1.0
 40
1.0
 40
1.0
 40
1.0
 10
107.1531436215145
 20
168.9637658613196
 30
0.0
 10
107.1531436215145
 20
168.9637658610204
 30
0.0
 10
107.1531436215145
 20
168.3842740477042
 30
0.0
 10
107.1531436215145
 20
166.321432265594
 30
0.0
 10
107.1531436215145
 20
164.9224152712598
 30
0.0
 10
107.1531436215145
 20
163.4637658590635
 30
0.0
  0
SPLINE
  5
1A3
330
1F
100
AcDbEntity
  8
0
  6
Continuous
 62
     8
370
    18
100
AcDbSpline
210
0.0
220
0.0
230
1.0
 70
    24
 71
     3
 72
    10
 73
     6
 74
     0
 42
0.000000001
 43
0.00000001
 40
0.0
 40
0.0
 40
0.0
 40
0.0
 40
0.5000000000000001
 40
0.5000000000000001
 40
1.0
 40
1.0
 40
1.0
 40
1.0
 10
105.7531436215145
 20
157.9637658613196
 30
0.0
 10
105.7531436215145
 20
157.9637658611514
 30
0.0
 10
105.7531436215145
 20
158.5432576736434
 30
0.0
 10
105.7531436215145
 20
160.6060994539001
 30
0.0
 10
105.7531436215145
 20
162.0051164473458
 30
0.0
 10
105.7531436215145
 20
163.4637658590635
 30
0.0
  0
SPLINE
  5
1A4
330
1F
100
AcDbEntity
  8
0
  6
Continuous
 62
     8
370
    18
100
AcDbSpline
210
0.0
220
0.0
230
1.0
 70
    24
 71
     3
 72
    10
 73
     6
 74
     0
 42
0.000000001
 43
0.00000001
 40
0.0
 40
0.0
 40
0.0
 40
0.0
 40
0.4999999999999999
 40
0.4999999999999999
 40
1.0
 40
1.0
 40
1.0
 40
1.0
 10
105.7531436215145
 20
163.4637658590635
 30
0.0
 10
105.7531436215145
 20
164.9224152712598
 30
0.0
 10
105.7531436215145
 20
166.3214322655941
 30
0.0
 10
105.7531436215145
 20
168.3842740477043
 30
0.0
 10
105.7531436215145
 20
168.9637658610205
 30
0.0
 10
105.7531436215145
 20
168.9637658613196
 30
0.0
  0
SPLINE
  5
1A5
330
1F
100
AcDbEntity
  8
0
  6
Continuous
 62
     8
370
    18
100
AcDbSpline
210
0.0
220
0.0
230
1.0
 70
     8
 71
     3
 72
    14
 73
    10
 74
     0
 42
0.000000001
 43
0.00000001
 40
0.0
 40
0.0
 40
0.0
 40
0.0
 40
0.1728443973603837
 40
0.343117515356787
 40
0.5108856967489225
 40
0.6762183011457993
 40
0.8391877992886173
 40
0.9998698607396271
 40
1.0
 40
1.0
 40
1.0
 40
1.0
 10
120.4715109683057
 20
156.2127314531071
 30
0.0
 10
120.4857478392369
 20
156.2075664316273
 30
0.0
 10
120.5140097896095
 20
156.1973132249051
 30
0.0
 10
120.5468368576732
 20
156.1851866444226
 30
0.0
 10
120.572402312962
 20
156.1756095582704
 30
0.0
 10
120.5902643655459
 20
156.1687971735738
 30
0.0
 10
120.600820322157
 20
156.1646932850504
 30
0.0
 10
120.6031429844516
 20
156.1637660849164
 30
0.0
 10
120.6031436209992
 20
156.1637658626516
 30
0.0
 10
120.6031436215143
 20
156.1637658624718
 30
0.0
  0
SPLINE
  5
1A6
330
1F
100
AcDbEntity
  8
0
  6
Continuous
 62
     8
370
    18
100
AcDbSpline
210
0.0
220
0.0
230
1.0
 70
     8
 71
     3
 72
    12
 73
     8
 74
     0
 42
0.000000001
 43
0.00000001
 40
0.0
 40
0.0
 40
0.0
 40
0.0
 40
0.1931171764649491
 40
0.3895498845216486
 40
0.5894272634170077
 40
0.792871888955807
 40
1.0
 40
1.0
 40
1.0
 40
1.0
 10
116.3031436215146
 20
156.1637658624718
 30
0.0
 10
116.3041077462827
 20
156.1641505049748
 30
0.0
 10
116.3060525483917
 20
156.1649263937142
 30
0.0
 10
116.3218727942214
 20
156.1710551599708
 30
0.0
 10
116.3478578481109
 20
156.1808710472555
 30
0.0
 10
116.3844020777559
 20
156.1944420645798
 30
0.0
 10
116.4178847448542
 20
156.2065986357209
 30
0.0
 10
116.4347762745903
 20
156.2127314531071
 30
0.0
  0
DIMENSION
  5
1A7
330
1F
100
AcDbEntity
  8
0
  6
Continuous
 62
     7
370
    18
100
AcDbDimension
  2
_D_1
 10
114.4531436203
 20
138.4795890941
 30
0.0
 11
109.9531436203
 21
138.4795890943
 31
0.0
 70
   160
  1
<>
 71
     2
 42
-1.0
  3
SLDDIMSTYLE2
100
AcDbAlignedDimension
 13
105.4531436213
 23
163.4637658613
 33
0.0
 14
114.4531436213
 24
163.4637658613
 34
0.0
 50
-0.0000000022
100
AcDbRotatedDimension
  0
DIMENSION
  5
1B4
330
1F
100
AcDbEntity
  8
0
  6
Continuous
 62
     7
370
    18
100
AcDbDimension
  2
_D_2
 10
147.4531436215
 20
178.2909229832
 30
0.0
 11
137.4531436217
 21
178.2909229832
 31
0.0
 70
   160
  1
<>st
 71
     2
 42
-1.0
  3
SLDDIMSTYLE3
100
AcDbAlignedDimension
 13
127.4531436219
 23
167.6637658614
 33
0.0
 14
147.4531436215
 24
167.5638128208
 34
0.0
100
AcDbRotatedDimension
  0
DIMENSION
  5
1C0
330
1F
100
AcDbEntity
  8
0
  6
Continuous
 62
     7
370
    18
100
AcDbDimension
  2
_D_3
 10
105.4531436225
 20
188.674393587
 30
0.0
 11
140.4531436225
 21
188.6743935853
 31
0.0
 70
   160
  1
<>
 71
     2
 42
-1.0
  3
SLDDIMSTYLE3
100
AcDbAlignedDimension
 13
175.4531436215
 23
165.9637658613
 33
0.0
 14
105.4531436215
 24
168.6637658587
 34
0.0
 50
-0.0000000028
100
AcDbRotatedDimension
  0
DIMENSION
  5
1CA
330
1F
100
AcDbEntity
  8
0
  6
Continuous
 62
     7
370
    18
100
AcDbDimension
  2
_D_4
 10
95.4481426212
 20
157.9637658613
 30
0.0
 11
95.4481426212
 21
163.4637658613
 31
0.0
 70
   160
  1
%%c<>
 71
     2
 42
-1.0
  3
SLDDIMSTYLE2
100
AcDbAlignedDimension
 13
105.7531436215
 23
168.9637658613
 33
0.0
 14
105.7531436215
 24
157.9637658613
 34
0.0
 50
90.0
100
AcDbRotatedDimension
  0
DIMENSION
  5
1D7
330
1F
100
AcDbEntity
  8
0
  6
Continuous
 62
     7
370
    18
100
AcDbDimension
  2
_D_5
 10
87.134847879
 20
156.4637658613
 30
0.0
 11
87.134847879
 21
163.4637658613
 31
0.0
 70
   160
  1
%%c<>
 71
     2
 42
-1.0
  3
SLDDIMSTYLE2
100
AcDbAlignedDimension
 13
114.7531436215
 23
170.4637658613
 33
0.0
 14
114.7531436215
 24
156.4637658613
 34
0.0
 50
90.0
100
AcDbRotatedDimension
  0
DIMENSION
  5
1E4
330
1F
100
AcDbEntity
  8
0
  6
Continuous
 62
     7
370
    18
100
AcDbDimension
  2
_D_6
 10
173.4531436215
 20
138.4795890943
 30
0.0
 11
162.9531436215
 21
138.4795890943
 31
0.0
 70
   160
  1
<>
 71
     2
 42
-1.0
  3
SLDDIMSTYLE3
100
AcDbAlignedDimension
 13
152.4531436215
 23
155.8939475327
 33
0.0
 14
173.4531436215
 24
158.4836222242
 34
0.0
100
AcDbRotatedDimension
  0
DIMENSION
  5
1EE
330
1F
100
AcDbEntity
  8
0
  6
Continuous
 62
     7
370
    18
100
AcDbDimension
  2
_D_7
 10
182.8523273484
 20
160.5637658616
 30
0.0
 11
182.8523273484
 21
175.3849094603
 31
0.0
 70
   160
  1
%%c<>
 71
     2
 42
-1.0
  3
SLDDIMSTYLE2
100
AcDbAlignedDimension
 13
174.9531436215
 23
166.3637658612
 33
0.0
 14
174.9531436215
 24
160.5637658616
 34
0.0
 50
90.0
100
AcDbRotatedDimension
  0
DIMENSION
  5
1FB
330
1F
100
AcDbEntity
  8
0
  6
Continuous
 62
     7
370
    18
100
AcDbDimension
  2
_D_8
 10
193.1499236476
 20
169.4637658616
 30
0.0
 11
193.1499236476
 21
163.4637658613
 31
0.0
 70
   160
  1
%%c<>
 71
     2
 42
-1.0
  3
SLDDIMSTYLE3
100
AcDbAlignedDimension
 13
172.4531436215
 23
157.463765861
 33
0.0
 14
172.4531436215
 24
169.4637658616
 34
0.0
 50
90.0
100
AcDbRotatedDimension
  0
LINE
  5
206
330
1F
100
AcDbEntity
  8
0
  6
CENTERX2
 62
     7
370
    18
100
AcDbLine
 10
104.6332233944
 20
163.4637658613
 30
0.0
 11
177.2014390717
 21
163.4637658613
 31
0.0
  0
ENDSEC
  0
SECTION
  2
OBJECTS
  0
DICTIONARY
  5
C
330
0
100
AcDbDictionary
281
     1
  3
ACAD_GROUP
350
D
  3
ACAD_LAYOUT
350
1A
  3
ACAD_MLINESTYLE
350
17
  3
ACAD_PLOTSETTINGS
350
19
  3
ACAD_PLOTSTYLENAME
350
E
  3
ACAD_SCALELIST
350
47
  0
DICTIONARY
  5
D
102
{ACAD_REACTORS
330
C
102
}
330
C
100
AcDbDictionary
281
     1
  0
DICTIONARY
  5
1A
102
{ACAD_REACTORS
330
C
102
}
330
C
100
AcDbDictionary
281
     1
  3
Layout1
350
1E
  3
Layout2
350
26
  3
Model
350
22
  0
DICTIONARY
  5
17
102
{ACAD_REACTORS
330
C
102
}
330
C
100
AcDbDictionary
281
     1
  3
Standard
350
18
  0
DICTIONARY
  5
19
102
{ACAD_REACTORS
330
C
102
}
330
C
100
AcDbDictionary
281
     1
  0
ACDBDICTIONARYWDFLT
  5
E
102
{ACAD_REACTORS
330
C
102
}
330
C
100
AcDbDictionary
281
     1
  3
Normal
350
F
100
AcDbDictionaryWithDefault
340
F
  0
DICTIONARY
  5
47
102
{ACAD_REACTORS
330
C
102
}
330
C
100
AcDbDictionary
281
     1
  3
A0
350
48
  3
A1
350
49
  3
A2
350
4A
  3
A3
350
4B
  3
A4
350
4C
  3
A5
350
4D
  3
A6
350
4E
  3
A7
350
4F
  3
A8
350
50
  3
A9
350
51
  3
B0
350
52
  3
B1
350
53
  3
B2
350
54
  3
B3
350
55
  3
B4
350
56
  3
B5
350
57
  3
B6
350
58
  3
B7
350
59
  3
B8
350
5A
  3
B9
350
5B
  3
C0
350
5C
  3
C1
350
5D
  3
C2
350
5E
  3
C3
350
5F
  3
C4
350
60
  3
C5
350
61
  3
C6
350
62
  3
C7
350
63
  3
C8
350
64
  3
C9
350
65
  3
D0
350
66
  3
D1
350
67
  3
D2
350
68
  0
LAYOUT
  5
1E
102
{ACAD_REACTORS
330
1A
102
}
330
1A
100
AcDbPlotSettings
  1

  2
none_device
  4

  6

 40
0.0
 41
0.0
 42
0.0
 43
0.0
 44
0.0
 45
0.0
 46
0.0
 47
0.0
 48
0.0
 49
0.0
140
0.0
141
0.0
142
1.0
143
1.0
 70
   688
 72
     1
 73
     0
 74
     5
  7

 75
    16
147
1.0
148
0.0
149
0.0
100
AcDbLayout
  1
Layout1
 70
     1
 71
     1
 10
0.0
 20
0.0
 11
420.0
 21
297.0
 12
0.0
 22
0.0
 32
0.0
 14
1.0000000000E+20
 24
1.0000000000E+20
 34
1.0000000000E+20
 15
-1.0000000000E+20
 25
-1.0000000000E+20
 35
-1.0000000000E+20
146
0.0
 13
0.0
 23
0.0
 33
0.0
 16
1.0
 26
0.0
 36
0.0
 17
0.0
 27
1.0
 37
0.0
 76
     0
330
1B
  0
LAYOUT
  5
26
102
{ACAD_REACTORS
330
1A
102
}
330
1A
100
AcDbPlotSettings
  1

  2
none_device
  4

  6

 40
0.0
 41
0.0
 42
0.0
 43
0.0
 44
0.0
 45
0.0
 46
0.0
 47
0.0
 48
0.0
 49
0.0
140
0.0
141
0.0
142
1.0
143
1.0
 70
   688
 72
     1
 73
     0
 74
     5
  7

 75
    16
147
1.0
148
0.0
149
0.0
100
AcDbLayout
  1
Layout2
 70
     1
 71
     2
 10
0.0
 20
0.0
 11
0.0
 21
0.0
 12
0.0
 22
0.0
 32
0.0
 14
0.0
 24
0.0
 34
0.0
 15
0.0
 25
0.0
 35
0.0
146
0.0
 13
0.0
 23
0.0
 33
0.0
 16
1.0
 26
0.0
 36
0.0
 17
0.0
 27
1.0
 37
0.0
 76
     0
330
23
  0
LAYOUT
  5
22
102
{ACAD_REACTORS
330
1A
102
}
330
1A
100
AcDbPlotSettings
  1

  2
none_device
  4
Letter_(8.50_x_11.00_Inches)
  6

 40
6.35
 41
6.35
 42
6.35000508
 43
6.35000508
 44
215.9
 45
279.4
 46
0.0
 47
0.0
 48
0.0
 49
0.0
140
0.0
141
0.0
142
1.0
143
1.0
 70
  1712
 72
     1
 73
     0
 74
     0
  7

 75
     0
147
1.0
148
0.0
149
0.0
100
AcDbLayout
  1
Model
 70
     1
 71
     0
 10
0.0
 20
0.0
 11
210.0
 21
297.0
 12
0.0
 22
0.0
 32
0.0
 14
0.0
 24
0.0
 34
0.0
 15
210.0
 25
297.0
 35
0.0
146
0.0
 13
0.0
 23
0.0
 33
0.0
 16
1.0
 26
0.0
 36
0.0
 17
0.0
 27
1.0
 37
0.0
 76
     0
330
1F
331
29
  0
MLINESTYLE
  5
18
102
{ACAD_REACTORS
330
17
102
}
330
17
100
AcDbMlineStyle
  2
Standard
 70
     0
  3

 62
   256
 51
90.0
 52
90.0
 71
     2
 49
0.5
 62
   256
  6
BYLAYER
 49
-0.5
 62
   256
  6
BYLAYER
  0
ACDBPLACEHOLDER
  5
F
102
{ACAD_REACTORS
330
E
102
}
330
E
  0
SCALE
  5
48
102
{ACAD_REACTORS
330
47
102
}
330
47
100
AcDbScale
 70
     0
300
1:1
140
1.0
141
1.0
290
     1
  0
SCALE
  5
49
102
{ACAD_REACTORS
330
47
102
}
330
47
100
AcDbScale
 70
     0
300
1:2
140
1.0
141
2.0
290
     0
  0
SCALE
  5
4A
102
{ACAD_REACTORS
330
47
102
}
330
47
100
AcDbScale
 70
     0
300
1:4
140
1.0
141
4.0
290
     0
  0
SCALE
  5
4B
102
{ACAD_REACTORS
330
47
102
}
330
47
100
AcDbScale
 70
     0
300
1:5
140
1.0
141
5.0
290
     0
  0
SCALE
  5
4C
102
{ACAD_REACTORS
330
47
102
}
330
47
100
AcDbScale
 70
     0
300
1:8
140
1.0
141
8.0
290
     0
  0
SCALE
  5
4D
102
{ACAD_REACTORS
330
47
102
}
330
47
100
AcDbScale
 70
     0
300
1:10
140
1.0
141
10.0
290
     0
  0
SCALE
  5
4E
102
{ACAD_REACTORS
330
47
102
}
330
47
100
AcDbScale
 70
     0
300
1:16
140
1.0
141
16.0
290
     0
  0
SCALE
  5
4F
102
{ACAD_REACTORS
330
47
102
}
330
47
100
AcDbScale
 70
     0
300
1:20
140
1.0
141
20.0
290
     0
  0
SCALE
  5
50
102
{ACAD_REACTORS
330
47
102
}
330
47
100
AcDbScale
 70
     0
300
1:30
140
1.0
141
30.0
290
     0
  0
SCALE
  5
51
102
{ACAD_REACTORS
330
47
102
}
330
47
100
AcDbScale
 70
     0
300
1:40
140
1.0
141
40.0
290
     0
  0
SCALE
  5
52
102
{ACAD_REACTORS
330
47
102
}
330
47
100
AcDbScale
 70
     0
300
1:50
140
1.0
141
50.0
290
     0
  0
SCALE
  5
53
102
{ACAD_REACTORS
330
47
102
}
330
47
100
AcDbScale
 70
     0
300
1:100
140
1.0
141
100.0
290
     0
  0
SCALE
  5
54
102
{ACAD_REACTORS
330
47
102
}
330
47
100
AcDbScale
 70
     0
300
2:1
140
2.0
141
1.0
290
     0
  0
SCALE
  5
55
102
{ACAD_REACTORS
330
47
102
}
330
47
100
AcDbScale
 70
     0
300
4:1
140
4.0
141
1.0
290
     0
  0
SCALE
  5
56
102
{ACAD_REACTORS
330
47
102
}
330
47
100
AcDbScale
 70
     0
300
8:1
140
8.0
141
1.0
290
     0
  0
SCALE
  5
57
102
{ACAD_REACTORS
330
47
102
}
330
47
100
AcDbScale
 70
     0
300
10:1
140
10.0
141
1.0
290
     0
  0
SCALE
  5
58
102
{ACAD_REACTORS
330
47
102
}
330
47
100
AcDbScale
 70
     0
300
100:1
140
100.0
141
1.0
290
     0
  0
SCALE
  5
59
102
{ACAD_REACTORS
330
47
102
}
330
47
100
AcDbScale
 70
     0
300
1/128" = 1'-0"
140
0.0078125
141
12.0
290
     0
  0
SCALE
  5
5A
102
{ACAD_REACTORS
330
47
102
}
330
47
100
AcDbScale
 70
     0
300
1/64" = 1'-0"
140
0.015625
141
12.0
290
     0
  0
SCALE
  5
5B
102
{ACAD_REACTORS
330
47
102
}
330
47
100
AcDbScale
 70
     0
300
1/32" = 1'-0"
140
0.03125
141
12.0
290
     0
  0
SCALE
  5
5C
102
{ACAD_REACTORS
330
47
102
}
330
47
100
AcDbScale
 70
     0
300
1/16" = 1'-0"
140
0.0625
141
12.0
290
     0
  0
SCALE
  5
5D
102
{ACAD_REACTORS
330
47
102
}
330
47
100
AcDbScale
 70
     0
300
3/32" = 1'-0"
140
0.09375
141
12.0
290
     0
  0
SCALE
  5
5E
102
{ACAD_REACTORS
330
47
102
}
330
47
100
AcDbScale
 70
     0
300
1/8" = 1'-0"
140
0.125
141
12.0
290
     0
  0
SCALE
  5
5F
102
{ACAD_REACTORS
330
47
102
}
330
47
100
AcDbScale
 70
     0
300
3/16" = 1'-0"
140
0.1875
141
12.0
290
     0
  0
SCALE
  5
60
102
{ACAD_REACTORS
330
47
102
}
330
47
100
AcDbScale
 70
     0
300
1/4" = 1'-0"
140
0.25
141
12.0
290
     0
  0
SCALE
  5
61
102
{ACAD_REACTORS
330
47
102
}
330
47
100
AcDbScale
 70
     0
300
3/8" = 1'-0"
140
0.375
141
12.0
290
     0
  0
SCALE
  5
62
102
{ACAD_REACTORS
330
47
102
}
330
47
100
AcDbScale
 70
     0
300
1/2" = 1'-0"
140
0.5
141
12.0
290
     0
  0
SCALE
  5
63
102
{ACAD_REACTORS
330
47
102
}
330
47
100
AcDbScale
 70
     0
300
3/4" = 1'-0"
140
0.75
141
12.0
290
     0
  0
SCALE
  5
64
102
{ACAD_REACTORS
330
47
102
}
330
47
100
AcDbScale
 70
     0
300
1" = 1'-0"
140
1.0
141
12.0
290
     0
  0
SCALE
  5
65
102
{ACAD_REACTORS
330
47
102
}
330
47
100
AcDbScale
 70
     0
300
1-1/2" = 1'-0"
140
1.5
141
12.0
290
     0
  0
SCALE
  5
66
102
{ACAD_REACTORS
330
47
102
}
330
47
100
AcDbScale
 70
     0
300
3" = 1'-0"
140
3.0
141
12.0
290
     0
  0
SCALE
  5
67
102
{ACAD_REACTORS
330
47
102
}
330
47
100
AcDbScale
 70
     0
300
6" = 1'-0"
140
6.0
141
12.0
290
     0
  0
SCALE
  5
68
102
{ACAD_REACTORS
330
47
102
}
330
47
100
AcDbScale
 70
     0
300
1'-0" = 1'-0"
140
12.0
141
12.0
290
     0
  0
ENDSEC
  0
EOF
