  0
SECTION
  2
HEADER
  9
$ACADVER
  1
AC1015
  9
$ACADMAINTVER
 70
     6
  9
$DWGCODEPAGE
  3
DOS932
  9
$INSBASE
 10
0.0
 20
0.0
 30
0.0
  9
$EXTMIN
 10
0.0
 20
0.0
 30
0.0
  9
$EXTMAX
 10
210.0
 20
297.0
 30
0.0
  9
$LIMMIN
 10
0.0
 20
0.0
  9
$LIMMAX
 10
210.0
 20
297.0
  9
$ORTHOMODE
 70
     0
  9
$REGENMODE
 70
     1
  9
$FILLMODE
 70
     1
  9
$QTEXTMODE
 70
     0
  9
$MIRRTEXT
 70
     1
  9
$LTSCALE
 40
1.0
  9
$ATTMODE
 70
     1
  9
$TEXTSIZE
 40
3.5
  9
$TRACEWID
 40
1.0
  9
$TEXTSTYLE
  7
Standard
  9
$CLAYER
  8
0
  9
$CELTYPE
  6
ByLayer
  9
$CECOLOR
 62
   256
  9
$CELTSCALE
 40
1.0
  9
$DISPSILH
 70
     0
  9
$DIMSCALE
 40
1.0
  9
$DIMASZ
 40
3.0
  9
$DIMEXO
 40
1.0
  9
$DIMDLI
 40
3.75
  9
$DIMRND
 40
0.0
  9
$DIMDLE
 40
0.0
  9
$DIMEXE
 40
1.0
  9
$DIMTP
 40
0.0
  9
$DIMTM
 40
0.0
  9
$DIMTXT
 40
3.5
  9
$DIMCEN
 40
2.5
  9
$DIMTSZ
 40
0.0
  9
$DIMTOL
 70
     0
  9
$DIMLIM
 70
     0
  9
$DIMTIH
 70
     1
  9
$DIMTOH
 70
     1
  9
$DIMSE1
 70
     0
  9
$DIMSE2
 70
     0
  9
$DIMTAD
 70
     1
  9
$DIMZIN
 70
     0
  9
$DIMBLK
  1

  9
$DIMASO
 70
     1
  9
$DIMSHO
 70
     1
  9
$DIMPOST
  1

  9
$DIMAPOST
  1

  9
$DIMALT
 70
     0
  9
$DIMALTD
 70
     3
  9
$DIMALTF
 40
0.0393700787
  9
$DIMLFAC
 40
1.0
  9
$DIMTOFL
 70
     1
  9
$DIMTVP
 40
0.0
  9
$DIMTIX
 70
     0
  9
$DIMSOXD
 70
     0
  9
$DIMSAH
 70
     0
  9
$DIMBLK1
  1

  9
$DIMBLK2
  1

  9
$DIMSTYLE
  2
ISO-25
  9
$DIMCLRD
 70
     0
  9
$DIMCLRE
 70
     0
  9
$DIMCLRT
 70
     0
  9
$DIMTFAC
 40
1.0
  9
$DIMGAP
 40
1.524
  9
$DIMJUST
 70
     0
  9
$DIMSD1
 70
     0
  9
$DIMSD2
 70
     0
  9
$DIMTOLJ
 70
     0
  9
$DIMTZIN
 70
     0
  9
$DIMALTZ
 70
     0
  9
$DIMALTTZ
 70
     0
  9
$DIMUPT
 70
     0
  9
$DIMDEC
 70
     1
  9
$DIMTDEC
 70
     3
  9
$DIMALTU
 70
     2
  9
$DIMALTTD
 70
     3
  9
$DIMTXSTY
  7
Standard
  9
$DIMAUNIT
 70
     0
  9
$DIMADEC
 70
     2
  9
$DIMALTRND
 40
0.0
  9
$DIMAZIN
 70
     0
  9
$DIMDSEP
 70
    44
  9
$DIMATFIT
 70
     3
  9
$DIMFRAC
 70
     0
  9
$DIMLDRBLK
  1

  9
$DIMLUNIT
 70
     2
  9
$DIMLWD
 70
    -2
  9
$DIMLWE
 70
    -2
  9
$DIMTMOVE
 70
     0
  9
$LUNITS
 70
     2
  9
$LUPREC
 70
     1
  9
$SKETCHINC
 40
1.0
  9
$FILLETRAD
 40
10.0
  9
$AUNITS
 70
     0
  9
$AUPREC
 70
     2
  9
$MENU
  1
.
  9
$ELEVATION
 40
0.0
  9
$PELEVATION
 40
0.0
  9
$THICKNESS
 40
0.0
  9
$LIMCHECK
 70
     0
  9
$CHAMFERA
 40
0.0
  9
$CHAMFERB
 40
0.0
  9
$CHAMFERC
 40
0.0
  9
$CHAMFERD
 40
0.0
  9
$SKPOLY
 70
     0
  9
$TDCREATE
 40
2458675.804163137
  9
$TDUCREATE
 40
2458675.429163137
  9
$TDUPDATE
 40
2458675.804165845
  9
$TDUUPDATE
 40
2458675.429165845
  9
$TDINDWG
 40
0.0000000116
  9
$TDUSRTIMER
 40
0.0000000116
  9
$USRTIMER
 70
     1
  9
$ANGBASE
 50
0.0
  9
$ANGDIR
 70
     0
  9
$PDMODE
 70
     0
  9
$PDSIZE
 40
-1.0
  9
$PLINEWID
 40
0.0
  9
$SPLFRAME
 70
     0
  9
$SPLINETYPE
 70
     6
  9
$SPLINESEGS
 70
     8
  9
$HANDSEED
  5
22D
  9
$SURFTAB1
 70
     6
  9
$SURFTAB2
 70
     6
  9
$SURFTYPE
 70
     6
  9
$SURFU
 70
     6
  9
$SURFV
 70
     6
  9
$UCSBASE
  2

  9
$UCSNAME
  2

  9
$UCSORG
 10
0.0
 20
0.0
 30
0.0
  9
$UCSXDIR
 10
1.0
 20
0.0
 30
0.0
  9
$UCSYDIR
 10
0.0
 20
1.0
 30
0.0
  9
$UCSORTHOREF
  2

  9
$UCSORTHOVIEW
 70
     0
  9
$UCSORGTOP
 10
0.0
 20
0.0
 30
0.0
  9
$UCSORGBOTTOM
 10
0.0
 20
0.0
 30
0.0
  9
$UCSORGLEFT
 10
0.0
 20
0.0
 30
0.0
  9
$UCSORGRIGHT
 10
0.0
 20
0.0
 30
0.0
  9
$UCSORGFRONT
 10
0.0
 20
0.0
 30
0.0
  9
$UCSORGBACK
 10
0.0
 20
0.0
 30
0.0
  9
$PUCSBASE
  2

  9
$PUCSNAME
  2

  9
$PUCSORG
 10
0.0
 20
0.0
 30
0.0
  9
$PUCSXDIR
 10
1.0
 20
0.0
 30
0.0
  9
$PUCSYDIR
 10
0.0
 20
1.0
 30
0.0
  9
$PUCSORTHOREF
  2

  9
$PUCSORTHOVIEW
 70
     0
  9
$PUCSORGTOP
 10
0.0
 20
0.0
 30
0.0
  9
$PUCSORGBOTTOM
 10
0.0
 20
0.0
 30
0.0
  9
$PUCSORGLEFT
 10
0.0
 20
0.0
 30
0.0
  9
$PUCSORGRIGHT
 10
0.0
 20
0.0
 30
0.0
  9
$PUCSORGFRONT
 10
0.0
 20
0.0
 30
0.0
  9
$PUCSORGBACK
 10
0.0
 20
0.0
 30
0.0
  9
$USERI1
 70
     0
  9
$USERI2
 70
     0
  9
$USERI3
 70
     0
  9
$USERI4
 70
     0
  9
$USERI5
 70
     0
  9
$USERR1
 40
0.0
  9
$USERR2
 40
0.0
  9
$USERR3
 40
0.0
  9
$USERR4
 40
0.0
  9
$USERR5
 40
0.0
  9
$WORLDVIEW
 70
     1
  9
$SHADEDGE
 70
     3
  9
$SHADEDIF
 70
    70
  9
$TILEMODE
 70
     1
  9
$MAXACTVP
 70
    64
  9
$PINSBASE
 10
0.0
 20
0.0
 30
0.0
  9
$PLIMCHECK
 70
     0
  9
$PEXTMIN
 10
1.0000000000E+20
 20
1.0000000000E+20
 30
1.0000000000E+20
  9
$PEXTMAX
 10
-1.0000000000E+20
 20
-1.0000000000E+20
 30
-1.0000000000E+20
  9
$PLIMMIN
 10
0.0
 20
0.0
  9
$PLIMMAX
 10
420.0
 20
297.0
  9
$UNITMODE
 70
     0
  9
$VISRETAIN
 70
     1
  9
$PLINEGEN
 70
     0
  9
$PSLTSCALE
 70
     1
  9
$TREEDEPTH
 70
  3020
  9
$CMLSTYLE
  2
Standard
  9
$CMLJUST
 70
     0
  9
$CMLSCALE
 40
20.0
  9
$PROXYGRAPHICS
 70
     1
  9
$MEASUREMENT
 70
     1
  9
$CELWEIGHT
370
    -1
  9
$ENDCAPS
280
     0
  9
$JOINSTYLE
280
     0
  9
$LWDISPLAY
290
     1
  9
$INSUNITS
 70
     4
  9
$HYPERLINKBASE
  1

  9
$STYLESHEET
  1

  9
$XEDIT
290
     1
  9
$CEPSNTYPE
380
     0
  9
$PSTYLEMODE
290
     1
  9
$FINGERPRINTGUID
  2
{D21E078E-3A9D-47A2-BC31-64707598C430}
  9
$VERSIONGUID
  2
{FAEB1C32-E019-11D5-929B-00C0DF256EC4}
  9
$EXTNAMES
290
     1
  9
$PSVPSCALE
 40
0.0
  9
$OLESTARTUP
290
     0
  0
ENDSEC
  0
SECTION
  2
CLASSES
  0
CLASS
  1
ACDBDICTIONARYWDFLT
  2
AcDbDictionaryWithDefault
  3
ObjectDBX Classes
 90
        0
280
     0
281
     0
  0
CLASS
  1
VISUALSTYLE
  2
AcDbVisualStyle
  3
ObjectDBX Classes
 90
     4095
280
     0
281
     0
  0
CLASS
  1
MATERIAL
  2
AcDbMaterial
  3
ObjectDBX Classes
 90
     1153
280
     0
281
     0
  0
CLASS
  1
SCALE
  2
AcDbScale
  3
ObjectDBX Classes
 90
     1153
280
     0
281
     0
  0
CLASS
  1
TABLESTYLE
  2
AcDbTableStyle
  3
ObjectDBX Classes
 90
     4095
280
     0
281
     0
  0
CLASS
  1
MLEADERSTYLE
  2
AcDbMLeaderStyle
  3
ACDB_MLEADERSTYLE_CLASS
 90
     4095
280
     0
281
     0
  0
CLASS
  1
SUN
  2
AcDbSun
  3
SCENEOE
 90
     1153
280
     0
281
     0
  0
CLASS
  1
ACDBPLACEHOLDER
  2
AcDbPlaceHolder
  3
ObjectDBX Classes
 90
        0
280
     0
281
     0
  0
CLASS
  1
LAYOUT
  2
AcDbLayout
  3
ObjectDBX Classes
 90
        0
280
     0
281
     0
  0
ENDSEC
  0
SECTION
  2
TABLES
  0
TABLE
  2
VPORT
  5
8
330
0
100
AcDbSymbolTable
 70
     1
  0
VPORT
  5
29
330
8
100
AcDbSymbolTableRecord
100
AcDbViewportTableRecord
  2
*Active
 70
     0
 10
0.0
 20
0.0
 11
1.0
 21
1.0
 12
105.0
 22
148.5
 13
0.0
 23
0.0
 14
10.0
 24
10.0
 15
10.0
 25
10.0
 16
0.0
 26
0.0
 36
1.0
 17
0.0
 27
0.0
 37
0.0
 40
297.0
 41
0.7070707071
 42
50.0
 43
0.0
 44
0.0
 50
0.0
 51
0.0
 71
     0
 72
  2000
 73
     1
 74
     3
 75
     0
 76
     0
 77
     0
 78
     0
281
     0
 65
     1
110
0.0
120
0.0
130
0.0
111
1.0
121
0.0
131
0.0
112
0.0
122
1.0
132
0.0
 79
     0
146
0.0
  0
ENDTAB
  0
TABLE
  2
LTYPE
  5
5
330
0
100
AcDbSymbolTable
 70
     6
  0
LTYPE
  5
14
330
5
100
AcDbSymbolTableRecord
100
AcDbLinetypeTableRecord
  2
ByBlock
 70
     0
  3

 72
    65
 73
     0
 40
0.0
  0
LTYPE
  5
15
330
5
100
AcDbSymbolTableRecord
100
AcDbLinetypeTableRecord
  2
ByLayer
 70
     0
  3

 72
    65
 73
     0
 40
0.0
  0
LTYPE
  5
16
330
5
100
AcDbSymbolTableRecord
100
AcDbLinetypeTableRecord
  2
Continuous
 70
     0
  3
Solid line
 72
    65
 73
     0
 40
0.0
  0
LTYPE
  5
6E
330
5
100
AcDbSymbolTableRecord
100
AcDbLinetypeTableRecord
  2
HIDDEN
 70
     0
  3
Hidden __ __ __ __ __ __ __ __ __ __ __ __ __ __
 72
    65
 73
     2
 40
1.905
 49
1.27
 74
     0
 49
-0.635
 74
     0
  0
LTYPE
  5
6F
330
5
100
AcDbSymbolTableRecord
100
AcDbLinetypeTableRecord
  2
PHANTOM
 70
     0
  3
Phantom ______  __  __  ______  __  __  ______
 72
    65
 73
     6
 40
12.7
 49
6.35
 74
     0
 49
-1.27
 74
     0
 49
1.27
 74
     0
 49
-1.27
 74
     0
 49
1.27
 74
     0
 49
-1.27
 74
     0
  0
LTYPE
  5
70
330
5
100
AcDbSymbolTableRecord
100
AcDbLinetypeTableRecord
  2
CENTER
 70
     0
  3
Center ____ _ ____ _ ____ _ ____ _ ____ _ ____
 72
    65
 73
     4
 40
10.16
 49
6.35
 74
     0
 49
-1.27
 74
     0
 49
1.27
 74
     0
 49
-1.27
 74
     0
  0
LTYPE
  5
71
330
5
100
AcDbSymbolTableRecord
100
AcDbLinetypeTableRecord
  2
CENTERX2
 70
     0
  3
Center (2x) ________  __  ________  __  _____
 72
    65
 73
     4
 40
20.32
 49
12.7
 74
     0
 49
-2.54
 74
     0
 49
2.54
 74
     0
 49
-2.54
 74
     0
  0
LTYPE
  5
72
330
5
100
AcDbSymbolTableRecord
100
AcDbLinetypeTableRecord
  2
DOT2
 70
     0
  3
Dot (.5x) ........................................
 72
    65
 73
     2
 40
0.635
 49
0.0
 74
     0
 49
-0.635
 74
     0
  0
ENDTAB
  0
TABLE
  2
LAYER
  5
2
330
0
100
AcDbSymbolTable
 70
     1
  0
LAYER
  5
10
330
2
100
AcDbSymbolTableRecord
100
AcDbLayerTableRecord
  2
0
 70
     0
 62
     7
  6
Continuous
370
    -3
390
F
  0
ENDTAB
  0
TABLE
  2
STYLE
  5
3
330
0
100
AcDbSymbolTable
 70
     2
  0
STYLE
  5
11
330
3
100
AcDbSymbolTableRecord
100
AcDbTextStyleTableRecord
  2
Standard
 70
     0
 40
0.0
 41
1.0
 50
0.0
 71
     0
 42
3.5
  3
txt
  4
bigfont
  0
STYLE
  5
7B
330
3
100
AcDbSymbolTableRecord
100
AcDbTextStyleTableRecord
  2
SLDTEXTSTYLE0
 70
     0
 40
0.0
 41
0.7
 50
0.0
 71
     0
 42
3.5
  3
TXT
  4
bigfont
  0
ENDTAB
  0
TABLE
  2
VIEW
  5
6
330
0
100
AcDbSymbolTable
 70
     0
  0
ENDTAB
  0
TABLE
  2
UCS
  5
7
330
0
100
AcDbSymbolTable
 70
     0
  0
ENDTAB
  0
TABLE
  2
APPID
  5
9
330
0
100
AcDbSymbolTable
 70
     1
  0
APPID
  5
12
330
9
100
AcDbSymbolTableRecord
100
AcDbRegAppTableRecord
  2
ACAD
 70
     0
  0
ENDTAB
  0
TABLE
  2
DIMSTYLE
  5
A
330
0
100
AcDbSymbolTable
 70
     5
100
AcDbDimStyleTable
  0
DIMSTYLE
105
27
330
A
100
AcDbSymbolTableRecord
100
AcDbDimStyleTableRecord
  2
ISO-25
 70
     0
 41
2.5
 42
0.625
 43
3.75
 44
1.25
 73
     0
 74
     0
 77
     1
 78
     8
140
2.5
141
2.5
143
0.0393700787
147
0.625
171
     3
172
     1
178
     0
271
     2
272
     2
274
     3
278
    44
283
     0
284
     8
340
11
  0
DIMSTYLE
105
A3
102
{ACAD_REACTORS
330
A2
102
}
330
A
100
AcDbSymbolTableRecord
100
AcDbDimStyleTableRecord
  2
SLDDIMSTYLE0
 70
     0
 41
3.0
 44
0.0
 45
0.000000001
 78
    12
 79
     3
140
3.5
141
0.0
147
0.875
173
     1
178
     0
271
     1
272
     3
276
     2
284
    12
340
7B
  0
DIMSTYLE
105
B3
330
A
100
AcDbSymbolTableRecord
100
AcDbDimStyleTableRecord
  2
SLDDIMSTYLE1
 70
     0
 41
3.0
 44
0.0
 45
0.000000001
146
3.0
147
0.0
173
     1
178
     0
271
     0
272
     0
276
     2
340
11
  0
DIMSTYLE
105
1CC
102
{ACAD_REACTORS
330
1CB
330
1E3
330
208
102
}
330
A
100
AcDbSymbolTableRecord
100
AcDbDimStyleTableRecord
  2
SLDDIMSTYLE2
 70
     0
 41
3.0
 44
0.0
 45
0.000000001
 73
     0
 74
     0
 77
     3
 78
    12
 79
     3
140
3.5
147
0.875
173
     1
178
     0
271
     1
272
     3
276
     2
284
    12
340
7B
  0
DIMSTYLE
105
1D7
102
{ACAD_REACTORS
330
1D6
330
1EE
330
1FB
330
212
330
21F
102
}
330
A
100
AcDbSymbolTableRecord
100
AcDbDimStyleTableRecord
  2
SLDDIMSTYLE3
 70
     0
 41
3.0
 44
0.0
 45
0.000000001
 73
     0
 74
     0
 77
     3
 78
    12
 79
     3
140
3.5
147
0.875
172
     1
173
     1
178
     0
271
     1
272
     3
276
     2
284
    12
289
     0
340
7B
  0
ENDTAB
  0
TABLE
  2
BLOCK_RECORD
  5
1
330
0
100
AcDbSymbolTable
 70
    13
  0
BLOCK_RECORD
  5
1F
330
1
100
AcDbSymbolTableRecord
100
AcDbBlockTableRecord
  2
*Model_Space
340
22
  0
BLOCK_RECORD
  5
1B
330
1
100
AcDbSymbolTableRecord
100
AcDbBlockTableRecord
  2
*Paper_Space
340
1E
  0
BLOCK_RECORD
  5
23
330
1
100
AcDbSymbolTableRecord
100
AcDbBlockTableRecord
  2
*Paper_Space0
340
26
  0
BLOCK_RECORD
  5
A4
330
1
100
AcDbSymbolTableRecord
100
AcDbBlockTableRecord
  2
_D
340
0
  0
BLOCK_RECORD
  5
AD
330
1
100
AcDbSymbolTableRecord
100
AcDbBlockTableRecord
  2
SW_NOTE_0
340
0
102
{BLKREFS
331
B2
102
}
  0
BLOCK_RECORD
  5
B5
330
1
100
AcDbSymbolTableRecord
100
AcDbBlockTableRecord
  2
SW_NOTE_1
340
0
102
{BLKREFS
331
BA
102
}
  0
BLOCK_RECORD
  5
BC
330
1
100
AcDbSymbolTableRecord
100
AcDbBlockTableRecord
  2
SW_CENTERMARKSYMBOL_0
340
0
102
{BLKREFS
331
C7
102
}
  0
BLOCK_RECORD
  5
1CD
330
1
100
AcDbSymbolTableRecord
100
AcDbBlockTableRecord
  2
_D_1
340
0
  0
BLOCK_RECORD
  5
1D8
330
1
100
AcDbSymbolTableRecord
100
AcDbBlockTableRecord
  2
_D_2
340
0
  0
BLOCK_RECORD
  5
1E4
330
1
100
AcDbSymbolTableRecord
100
AcDbBlockTableRecord
  2
_D_3
340
0
  0
BLOCK_RECORD
  5
1EF
330
1
100
AcDbSymbolTableRecord
100
AcDbBlockTableRecord
  2
_D_4
340
0
  0
BLOCK_RECORD
  5
1FC
330
1
100
AcDbSymbolTableRecord
100
AcDbBlockTableRecord
  2
_D_5
340
0
  0
BLOCK_RECORD
  5
209
330
1
100
AcDbSymbolTableRecord
100
AcDbBlockTableRecord
  2
_D_6
340
0
  0
BLOCK_RECORD
  5
213
330
1
100
AcDbSymbolTableRecord
100
AcDbBlockTableRecord
  2
_D_7
340
0
  0
BLOCK_RECORD
  5
220
330
1
100
AcDbSymbolTableRecord
100
AcDbBlockTableRecord
  2
_D_8
340
0
  0
ENDTAB
  0
ENDSEC
  0
SECTION
  2
BLOCKS
  0
BLOCK
  5
20
330
1F
100
AcDbEntity
  8
0
100
AcDbBlockBegin
  2
*Model_Space
 70
     0
 10
0.0
 20
0.0
 30
0.0
  3
*Model_Space
  1

  0
ENDBLK
  5
21
330
1F
100
AcDbEntity
  8
0
100
AcDbBlockEnd
  0
BLOCK
  5
1C
330
1B
100
AcDbEntity
 67
     1
  8
0
100
AcDbBlockBegin
  2
*Paper_Space
 70
     0
 10
0.0
 20
0.0
 30
0.0
  3
*Paper_Space
  1

  0
ENDBLK
  5
1D
330
1B
100
AcDbEntity
 67
     1
  8
0
100
AcDbBlockEnd
  0
BLOCK
  5
24
330
23
100
AcDbEntity
  8
0
100
AcDbBlockBegin
  2
*Paper_Space0
 70
     0
 10
0.0
 20
0.0
 30
0.0
  3
*Paper_Space0
  1

  0
ENDBLK
  5
25
330
23
100
AcDbEntity
  8
0
100
AcDbBlockEnd
  0
BLOCK
  5
A5
330
A4
100
AcDbEntity
  8
0
100
AcDbBlockBegin
  2
_D
 70
     0
 10
0.0
 20
0.0
 30
0.0
  3
_D
  1

  0
ARC
  5
A7
330
A4
100
AcDbEntity
  8
0
  6
Continuous
 62
     7
370
    18
100
AcDbCircle
 10
61.761766157
 20
173.8000786264
 30
0.0
 40
8.000000000523313
100
AcDbArc
 50
100.9728799111
 51
120.635215493
  0
SOLID
  5
A8
330
A4
100
AcDbEntity
  8
0
  6
Continuous
 62
     7
370
    18
100
AcDbTrace
 10
58.5704676989
 20
181.1359912594
 30
0.0
 11
58.0614725865
 21
184.1861427271
 31
0.0
 12
56.6859889679
 22
183.5877742662
 32
0.0
 13
56.6859889679
 23
183.5877742662
 33
0.0
  0
LINE
  5
A9
330
A4
100
AcDbEntity
  8
0
  6
Continuous
 62
     7
370
    18
100
AcDbLine
 10
58.5704676989
 20
181.1359912594
 30
0.0
 11
52.7451927986
 21
194.526687333
 31
0.0
  0
LINE
  5
AA
330
A4
100
AcDbEntity
  8
0
  6
Continuous
 62
     7
370
    18
100
AcDbLine
 10
52.7451927986
 20
194.526687333
 30
0.0
 11
43.2141510557
 21
194.526687333
 31
0.0
  0
MTEXT
  5
AB
330
A4
100
AcDbEntity
  8
0
  6
Continuous
 62
     7
370
    18
100
AcDbMText
 10
43.2141510557
 20
199.038424655
 30
0.0
 40
3.5
 41
0.0
 71
     1
 72
     1
  1
%%c
  7
SLDTEXTSTYLE0
 73
     1
 44
1.0
  0
MTEXT
  5
AC
330
A4
100
AcDbEntity
  8
0
  6
Continuous
 62
     7
370
    18
100
AcDbMText
 10
47.0840815708
 20
199.038424655
 30
0.0
 40
3.5
 41
0.0
 71
     1
 72
     1
  1
16
  7
SLDTEXTSTYLE0
 73
     1
 44
1.0
  0
ENDBLK
  5
A6
330
A4
100
AcDbEntity
  8
0
100
AcDbBlockEnd
  0
BLOCK
  5
AE
330
AD
100
AcDbEntity
  8
0
100
AcDbBlockBegin
  2
SW_NOTE_0
 70
     0
 10
0.0
 20
0.0
 30
0.0
  3
SW_NOTE_0
  1

  0
LINE
  5
B0
330
AD
100
AcDbEntity
  8
0
  6
Continuous
 62
     0
370
     0
100
AcDbLine
 10
-34.7434797858
 20
0.0
 30
0.0
 11
0.0
 21
0.0
 31
0.0
  0
MTEXT
  5
B1
330
AD
100
AcDbEntity
  8
0
  6
Continuous
 62
     0
370
     0
100
AcDbMText
 10
-35.1727091751
 20
4.5431632
 30
0.0
 40
3.5
 41
0.0
 71
     1
 72
     1
  1
外径φ6配管用継手
  7
SLDTEXTSTYLE0
 73
     1
 44
1.0
  0
ENDBLK
  5
AF
330
AD
100
AcDbEntity
  8
0
100
AcDbBlockEnd
  0
BLOCK
  5
B6
330
B5
100
AcDbEntity
  8
0
100
AcDbBlockBegin
  2
SW_NOTE_1
 70
     0
 10
0.0
 20
0.0
 30
0.0
  3
SW_NOTE_1
  1

  0
LINE
  5
B8
330
B5
100
AcDbEntity
  8
0
  6
Continuous
 62
     0
370
     0
100
AcDbLine
 10
3.9558253648
 20
0.0
 30
0.0
 11
0.0
 21
0.0
 31
0.0
  0
MTEXT
  5
B9
330
B5
100
AcDbEntity
  8
0
  6
Continuous
 62
     0
370
     0
100
AcDbMText
 10
0.3883187424
 20
4.5608142748
 30
0.0
 40
3.5
 41
0.0
 71
     1
 72
     1
  1
M5
  7
SLDTEXTSTYLE0
 73
     1
 44
1.0
  0
ENDBLK
  5
B7
330
B5
100
AcDbEntity
  8
0
100
AcDbBlockEnd
  0
BLOCK
  5
BD
330
BC
100
AcDbEntity
  8
0
100
AcDbBlockBegin
  2
SW_CENTERMARKSYMBOL_0
 70
     0
 10
0.0
 20
0.0
 30
0.0
  3
SW_CENTERMARKSYMBOL_0
  1

  0
LINE
  5
BF
330
BC
100
AcDbEntity
  8
0
  6
Continuous
 62
     0
370
    18
100
AcDbLine
 10
0.0
 20
0.0
 30
0.0
 11
0.0
 21
2.5
 31
0.0
  0
LINE
  5
C0
330
BC
100
AcDbEntity
  8
0
  6
Continuous
 62
     0
370
    18
100
AcDbLine
 10
0.0
 20
0.0
 30
0.0
 11
-2.5
 21
0.0
 31
0.0
  0
LINE
  5
C1
330
BC
100
AcDbEntity
  8
0
  6
Continuous
 62
     0
370
    18
100
AcDbLine
 10
0.0
 20
0.0
 30
0.0
 11
0.0
 21
-2.5
 31
0.0
  0
LINE
  5
C2
330
BC
100
AcDbEntity
  8
0
  6
Continuous
 62
     0
370
    18
100
AcDbLine
 10
0.0
 20
0.0
 30
0.0
 11
2.5
 21
0.0
 31
0.0
  0
LINE
  5
C3
330
BC
100
AcDbEntity
  8
0
  6
Continuous
 62
     0
370
    18
100
AcDbLine
 10
0.0
 20
5.0
 30
0.0
 11
0.0
 21
10.5000000005
 31
0.0
  0
LINE
  5
C4
330
BC
100
AcDbEntity
  8
0
  6
Continuous
 62
     0
370
    18
100
AcDbLine
 10
-5.0
 20
0.0
 30
0.0
 11
-10.5000000005
 21
0.0
 31
0.0
  0
LINE
  5
C5
330
BC
100
AcDbEntity
  8
0
  6
Continuous
 62
     0
370
    18
100
AcDbLine
 10
0.0
 20
-5.0
 30
0.0
 11
0.0
 21
-10.5000000005
 31
0.0
  0
LINE
  5
C6
330
BC
100
AcDbEntity
  8
0
  6
Continuous
 62
     0
370
    18
100
AcDbLine
 10
5.0
 20
0.0
 30
0.0
 11
10.5000000005
 21
0.0
 31
0.0
  0
ENDBLK
  5
BE
330
BC
100
AcDbEntity
  8
0
100
AcDbBlockEnd
  0
BLOCK
  5
1CE
330
1CD
100
AcDbEntity
  8
0
100
AcDbBlockBegin
  2
_D_1
 70
     0
 10
0.0
 20
0.0
 30
0.0
  3
_D_1
  1

  0
SOLID
  5
1D0
330
1CD
100
AcDbEntity
  8
0
  6
Continuous
 62
     7
370
    18
100
AcDbTrace
 10
95.2260178351
 20
198.7563888572
 30
0.0
 11
98.226017835
 21
198.006388857
 31
0.0
 12
98.2260178351
 22
199.506388857
 32
0.0
 13
98.2260178351
 23
199.506388857
 33
0.0
  0
SOLID
  5
1D1
330
1CD
100
AcDbEntity
  8
0
  6
Continuous
 62
     7
370
    18
100
AcDbTrace
 10
177.2260178352
 20
198.7563888531
 30
0.0
 11
174.2260178353
 21
199.5063888533
 31
0.0
 12
174.2260178352
 22
198.0063888533
 32
0.0
 13
174.2260178352
 23
198.0063888533
 33
0.0
  0
LINE
  5
1D2
330
1CD
100
AcDbEntity
  8
0
  6
Continuous
 62
     7
370
    18
100
AcDbLine
 10
95.2260178342
 20
180.0000786238
 30
0.0
 11
95.2260178351
 21
199.7563888572
 31
0.0
  0
LINE
  5
1D3
330
1CD
100
AcDbEntity
  8
0
  6
Continuous
 62
     7
370
    18
100
AcDbLine
 10
177.2260178342
 20
177.3000786264
 30
0.0
 11
177.2260178353
 21
199.7563888531
 31
0.0
  0
LINE
  5
1D4
330
1CD
100
AcDbEntity
  8
0
  6
Continuous
 62
     7
370
    18
100
AcDbLine
 10
95.2260178351
 20
198.7563888572
 30
0.0
 11
177.2260178352
 21
198.7563888531
 31
0.0
  0
MTEXT
  5
1D5
330
1CD
100
AcDbEntity
  8
0
  6
Continuous
 62
     7
370
    18
100
AcDbMText
 10
134.189212338
 20
203.2681257116
 30
0.0
 40
3.5
 41
0.0
 71
     1
 72
     1
  1
82
  7
SLDTEXTSTYLE0
 73
     1
 44
1.0
  0
ENDBLK
  5
1CF
330
1CD
100
AcDbEntity
  8
0
100
AcDbBlockEnd
  0
BLOCK
  5
1D9
330
1D8
100
AcDbEntity
  8
0
100
AcDbBlockBegin
  2
_D_2
 70
     0
 10
0.0
 20
0.0
 30
0.0
  3
_D_2
  1

  0
SOLID
  5
1DB
330
1D8
100
AcDbEntity
  8
0
  6
Continuous
 62
     7
370
    18
100
AcDbTrace
 10
95.2260178332
 20
154.6833091796
 30
0.0
 11
92.2260178332
 21
155.4333091797
 31
0.0
 12
92.2260178331
 22
153.9333091797
 32
0.0
 13
92.2260178331
 23
153.9333091797
 33
0.0
  0
SOLID
  5
1DC
330
1D8
100
AcDbEntity
  8
0
  6
Continuous
 62
     7
370
    18
100
AcDbTrace
 10
104.2260178331
 20
154.6833091793
 30
0.0
 11
107.2260178331
 21
153.9333091791
 31
0.0
 12
107.2260178331
 22
155.4333091791
 32
0.0
 13
107.2260178331
 23
155.4333091791
 33
0.0
  0
LINE
  5
1DD
330
1D8
100
AcDbEntity
  8
0
  6
Continuous
 62
     7
370
    18
100
AcDbLine
 10
95.2260178338
 20
172.8000786264
 30
0.0
 11
95.2260178331
 21
153.6833091796
 31
0.0
  0
LINE
  5
1DE
330
1D8
100
AcDbEntity
  8
0
  6
Continuous
 62
     7
370
    18
100
AcDbLine
 10
104.2260178338
 20
172.8000786264
 30
0.0
 11
104.2260178331
 21
153.6833091793
 31
0.0
  0
LINE
  5
1DF
330
1D8
100
AcDbEntity
  8
0
  6
Continuous
 62
     7
370
    18
100
AcDbLine
 10
95.2260178332
 20
154.6833091796
 30
0.0
 11
90.2260178332
 21
154.6833091798
 31
0.0
  0
LINE
  5
1E0
330
1D8
100
AcDbEntity
  8
0
  6
Continuous
 62
     7
370
    18
100
AcDbLine
 10
95.2260178332
 20
154.6833091796
 30
0.0
 11
104.2260178331
 21
154.6833091793
 31
0.0
  0
LINE
  5
1E1
330
1D8
100
AcDbEntity
  8
0
  6
Continuous
 62
     7
370
    18
100
AcDbLine
 10
104.2260178331
 20
154.6833091793
 30
0.0
 11
109.2260178331
 21
154.6833091791
 31
0.0
  0
MTEXT
  5
1E2
330
1D8
100
AcDbEntity
  8
0
  6
Continuous
 62
     7
370
    18
100
AcDbMText
 10
98.7076150846
 20
159.1950460358
 30
0.0
 40
3.5
 41
0.0
 71
     1
 72
     1
  1
9
  7
SLDTEXTSTYLE0
 73
     1
 44
1.0
  0
ENDBLK
  5
1DA
330
1D8
100
AcDbEntity
  8
0
100
AcDbBlockEnd
  0
BLOCK
  5
1E5
330
1E4
100
AcDbEntity
  8
0
100
AcDbBlockBegin
  2
_D_3
 70
     0
 10
0.0
 20
0.0
 30
0.0
  3
_D_3
  1

  0
SOLID
  5
1E7
330
1E4
100
AcDbEntity
  8
0
  6
Continuous
 62
     7
370
    18
100
AcDbTrace
 10
149.2260178341
 20
188.5806395585
 30
0.0
 11
146.2260178341
 21
189.3306395585
 31
0.0
 12
146.2260178341
 22
187.8306395585
 32
0.0
 13
146.2260178341
 23
187.8306395585
 33
0.0
  0
SOLID
  5
1E8
330
1E4
100
AcDbEntity
  8
0
  6
Continuous
 62
     7
370
    18
100
AcDbTrace
 10
119.2260178345
 20
188.5806395585
 30
0.0
 11
122.2260178345
 21
187.8306395585
 31
0.0
 12
122.2260178345
 22
189.3306395585
 32
0.0
 13
122.2260178345
 23
189.3306395585
 33
0.0
  0
LINE
  5
1E9
330
1E4
100
AcDbEntity
  8
0
  6
Continuous
 62
     7
370
    18
100
AcDbLine
 10
149.2260178341
 20
178.9001173412
 30
0.0
 11
149.2260178341
 21
189.5806395585
 31
0.0
  0
LINE
  5
1EA
330
1E4
100
AcDbEntity
  8
0
  6
Continuous
 62
     7
370
    18
100
AcDbLine
 10
119.2260178345
 20
179.0000786265
 30
0.0
 11
119.2260178345
 21
189.5806395585
 31
0.0
  0
LINE
  5
1EB
330
1E4
100
AcDbEntity
  8
0
  6
Continuous
 62
     7
370
    18
100
AcDbLine
 10
149.2260178341
 20
188.5806395585
 30
0.0
 11
119.2260178345
 21
188.5806395585
 31
0.0
  0
MTEXT
  5
1EC
330
1E4
100
AcDbEntity
  8
0
  6
Continuous
 62
     7
370
    18
100
AcDbMText
 10
130.1524068393
 20
193.0923764149
 30
0.0
 40
3.5
 41
0.0
 71
     1
 72
     1
  1
30
  7
SLDTEXTSTYLE0
 73
     1
 44
1.0
  0
MTEXT
  5
1ED
330
1E4
100
AcDbEntity
  8
0
  6
Continuous
 62
     7
370
    18
100
AcDbMText
 10
134.2260178343
 20
193.0923764149
 30
0.0
 40
3.5
 41
0.0
 71
     1
 72
     1
  1
st
  7
SLDTEXTSTYLE0
 73
     1
 44
1.0
  0
ENDBLK
  5
1E6
330
1E4
100
AcDbEntity
  8
0
100
AcDbBlockEnd
  0
BLOCK
  5
1F0
330
1EF
100
AcDbEntity
  8
0
100
AcDbBlockBegin
  2
_D_4
 70
     0
 10
0.0
 20
0.0
 30
0.0
  3
_D_4
  1

  0
SOLID
  5
1F2
330
1EF
100
AcDbEntity
  8
0
  6
Continuous
 62
     7
370
    18
100
AcDbTrace
 10
87.1432083241
 20
179.3000786264
 30
0.0
 11
87.8932083241
 21
182.3000786264
 31
0.0
 12
86.3932083241
 22
182.3000786264
 32
0.0
 13
86.3932083241
 23
182.3000786264
 33
0.0
  0
SOLID
  5
1F3
330
1EF
100
AcDbEntity
  8
0
  6
Continuous
 62
     7
370
    18
100
AcDbTrace
 10
87.1432083241
 20
168.3000786264
 30
0.0
 11
86.3932083241
 21
165.3000786264
 31
0.0
 12
87.8932083241
 22
165.3000786264
 32
0.0
 13
87.8932083241
 23
165.3000786264
 33
0.0
  0
LINE
  5
1F4
330
1EF
100
AcDbEntity
  8
0
  6
Continuous
 62
     7
370
    18
100
AcDbLine
 10
94.5260178341
 20
179.3000786264
 30
0.0
 11
86.1432083241
 21
179.3000786264
 31
0.0
  0
LINE
  5
1F5
330
1EF
100
AcDbEntity
  8
0
  6
Continuous
 62
     7
370
    18
100
AcDbLine
 10
94.5260178341
 20
168.3000786264
 30
0.0
 11
86.1432083241
 21
168.3000786264
 31
0.0
  0
LINE
  5
1F6
330
1EF
100
AcDbEntity
  8
0
  6
Continuous
 62
     7
370
    18
100
AcDbLine
 10
87.1432083241
 20
179.3000786264
 30
0.0
 11
87.1432083241
 21
184.3000786264
 31
0.0
  0
LINE
  5
1F7
330
1EF
100
AcDbEntity
  8
0
  6
Continuous
 62
     7
370
    18
100
AcDbLine
 10
87.1432083241
 20
179.3000786264
 30
0.0
 11
87.1432083241
 21
168.3000786264
 31
0.0
  0
LINE
  5
1F8
330
1EF
100
AcDbEntity
  8
0
  6
Continuous
 62
     7
370
    18
100
AcDbLine
 10
87.1432083241
 20
168.3000786264
 30
0.0
 11
87.1432083241
 21
163.3000786264
 31
0.0
  0
MTEXT
  5
1F9
330
1EF
100
AcDbEntity
  8
0
  6
Continuous
 62
     7
370
    18
100
AcDbMText
 10
82.631471002
 20
169.8283077549
 30
0.0
 40
3.5
 41
0.0
 71
     1
 72
     1
  1
%%c
  7
SLDTEXTSTYLE0
 11
-7.044195017643634E-15
 21
1.0
 31
0.0
 73
     1
 44
1.0
  0
MTEXT
  5
1FA
330
1EF
100
AcDbEntity
  8
0
  6
Continuous
 62
     7
370
    18
100
AcDbMText
 10
82.631471002
 20
173.69823827
 30
0.0
 40
3.5
 41
0.0
 71
     1
 72
     1
  1
11
  7
SLDTEXTSTYLE0
 11
-7.044195017643634E-15
 21
1.0
 31
0.0
 73
     1
 44
1.0
  0
ENDBLK
  5
1F1
330
1EF
100
AcDbEntity
  8
0
100
AcDbBlockEnd
  0
BLOCK
  5
1FD
330
1FC
100
AcDbEntity
  8
0
100
AcDbBlockBegin
  2
_D_5
 70
     0
 10
0.0
 20
0.0
 30
0.0
  3
_D_5
  1

  0
SOLID
  5
1FF
330
1FC
100
AcDbEntity
  8
0
  6
Continuous
 62
     7
370
    18
100
AcDbTrace
 10
77.6752934179
 20
180.8000786264
 30
0.0
 11
78.4252934179
 21
183.8000786264
 31
0.0
 12
76.9252934179
 22
183.8000786264
 32
0.0
 13
76.9252934179
 23
183.8000786264
 33
0.0
  0
SOLID
  5
200
330
1FC
100
AcDbEntity
  8
0
  6
Continuous
 62
     7
370
    18
100
AcDbTrace
 10
77.6752934179
 20
166.8000786264
 30
0.0
 11
76.9252934179
 21
163.8000786264
 31
0.0
 12
78.4252934179
 22
163.8000786264
 32
0.0
 13
78.4252934179
 23
163.8000786264
 33
0.0
  0
LINE
  5
201
330
1FC
100
AcDbEntity
  8
0
  6
Continuous
 62
     7
370
    18
100
AcDbLine
 10
103.5260178341
 20
180.8000786264
 30
0.0
 11
76.6752934179
 21
180.8000786264
 31
0.0
  0
LINE
  5
202
330
1FC
100
AcDbEntity
  8
0
  6
Continuous
 62
     7
370
    18
100
AcDbLine
 10
103.5260178341
 20
166.8000786264
 30
0.0
 11
76.6752934179
 21
166.8000786264
 31
0.0
  0
LINE
  5
203
330
1FC
100
AcDbEntity
  8
0
  6
Continuous
 62
     7
370
    18
100
AcDbLine
 10
77.6752934179
 20
180.8000786264
 30
0.0
 11
77.6752934179
 21
185.8000786264
 31
0.0
  0
LINE
  5
204
330
1FC
100
AcDbEntity
  8
0
  6
Continuous
 62
     7
370
    18
100
AcDbLine
 10
77.6752934179
 20
180.8000786264
 30
0.0
 11
77.6752934179
 21
166.8000786264
 31
0.0
  0
LINE
  5
205
330
1FC
100
AcDbEntity
  8
0
  6
Continuous
 62
     7
370
    18
100
AcDbLine
 10
77.6752934179
 20
166.8000786264
 30
0.0
 11
77.6752934179
 21
161.8000786264
 31
0.0
  0
MTEXT
  5
206
330
1FC
100
AcDbEntity
  8
0
  6
Continuous
 62
     7
370
    18
100
AcDbMText
 10
73.1635560959
 20
169.8283077549
 30
0.0
 40
3.5
 41
0.0
 71
     1
 72
     1
  1
%%c
  7
SLDTEXTSTYLE0
 11
-7.044195017643634E-15
 21
1.0
 31
0.0
 73
     1
 44
1.0
  0
MTEXT
  5
207
330
1FC
100
AcDbEntity
  8
0
  6
Continuous
 62
     7
370
    18
100
AcDbMText
 10
73.1635560959
 20
173.69823827
 30
0.0
 40
3.5
 41
0.0
 71
     1
 72
     1
  1
14
  7
SLDTEXTSTYLE0
 11
-7.044195017643634E-15
 21
1.0
 31
0.0
 73
     1
 44
1.0
  0
ENDBLK
  5
1FE
330
1FC
100
AcDbEntity
  8
0
100
AcDbBlockEnd
  0
BLOCK
  5
20A
330
209
100
AcDbEntity
  8
0
100
AcDbBlockBegin
  2
_D_6
 70
     0
 10
0.0
 20
0.0
 30
0.0
  3
_D_6
  1

  0
SOLID
  5
20C
330
209
100
AcDbEntity
  8
0
  6
Continuous
 62
     7
370
    18
100
AcDbTrace
 10
154.2260178341
 20
154.6833091802
 30
0.0
 11
157.2260178341
 21
153.9333091802
 31
0.0
 12
157.2260178341
 22
155.4333091802
 32
0.0
 13
157.2260178341
 23
155.4333091802
 33
0.0
  0
SOLID
  5
20D
330
209
100
AcDbEntity
  8
0
  6
Continuous
 62
     7
370
    18
100
AcDbTrace
 10
175.2260178341
 20
154.6833091802
 30
0.0
 11
172.2260178341
 21
155.4333091802
 31
0.0
 12
172.2260178341
 22
153.9333091802
 32
0.0
 13
172.2260178341
 23
153.9333091802
 33
0.0
  0
LINE
  5
20E
330
209
100
AcDbEntity
  8
0
  6
Continuous
 62
     7
370
    18
100
AcDbLine
 10
154.2260178341
 20
165.2172108788
 30
0.0
 11
154.2260178341
 21
153.6833091802
 31
0.0
  0
LINE
  5
20F
330
209
100
AcDbEntity
  8
0
  6
Continuous
 62
     7
370
    18
100
AcDbLine
 10
175.2260178341
 20
167.8113498452
 30
0.0
 11
175.2260178341
 21
153.6833091802
 31
0.0
  0
LINE
  5
210
330
209
100
AcDbEntity
  8
0
  6
Continuous
 62
     7
370
    18
100
AcDbLine
 10
154.2260178341
 20
154.6833091802
 30
0.0
 11
175.2260178341
 21
154.6833091802
 31
0.0
  0
MTEXT
  5
211
330
209
100
AcDbEntity
  8
0
  6
Continuous
 62
     7
370
    18
100
AcDbMText
 10
162.6892123366
 20
159.1950460366
 30
0.0
 40
3.5
 41
0.0
 71
     1
 72
     1
  1
21
  7
SLDTEXTSTYLE0
 73
     1
 44
1.0
  0
ENDBLK
  5
20B
330
209
100
AcDbEntity
  8
0
100
AcDbBlockEnd
  0
BLOCK
  5
214
330
213
100
AcDbEntity
  8
0
100
AcDbBlockBegin
  2
_D_7
 70
     0
 10
0.0
 20
0.0
 30
0.0
  3
_D_7
  1

  0
SOLID
  5
216
330
213
100
AcDbEntity
  8
0
  6
Continuous
 62
     7
370
    18
100
AcDbTrace
 10
194.1866901301
 20
179.8000786267
 30
0.0
 11
194.9366901301
 21
182.8000786267
 31
0.0
 12
193.4366901301
 22
182.8000786267
 32
0.0
 13
193.4366901301
 23
182.8000786267
 33
0.0
  0
SOLID
  5
217
330
213
100
AcDbEntity
  8
0
  6
Continuous
 62
     7
370
    18
100
AcDbTrace
 10
194.1866901301
 20
167.800078626
 30
0.0
 11
193.4366901301
 21
164.800078626
 31
0.0
 12
194.9366901301
 22
164.800078626
 32
0.0
 13
194.9366901301
 23
164.800078626
 33
0.0
  0
LINE
  5
218
330
213
100
AcDbEntity
  8
0
  6
Continuous
 62
     7
370
    18
100
AcDbLine
 10
175.2260178341
 20
179.8000786267
 30
0.0
 11
195.1866901301
 21
179.8000786267
 31
0.0
  0
LINE
  5
219
330
213
100
AcDbEntity
  8
0
  6
Continuous
 62
     7
370
    18
100
AcDbLine
 10
175.2260178341
 20
167.800078626
 30
0.0
 11
195.1866901301
 21
167.800078626
 31
0.0
  0
LINE
  5
21A
330
213
100
AcDbEntity
  8
0
  6
Continuous
 62
     7
370
    18
100
AcDbLine
 10
194.1866901301
 20
179.8000786267
 30
0.0
 11
194.1866901301
 21
184.8000786267
 31
0.0
  0
LINE
  5
21B
330
213
100
AcDbEntity
  8
0
  6
Continuous
 62
     7
370
    18
100
AcDbLine
 10
194.1866901301
 20
179.8000786267
 30
0.0
 11
194.1866901301
 21
167.800078626
 31
0.0
  0
LINE
  5
21C
330
213
100
AcDbEntity
  8
0
  6
Continuous
 62
     7
370
    18
100
AcDbLine
 10
194.1866901301
 20
167.800078626
 30
0.0
 11
194.1866901301
 21
162.800078626
 31
0.0
  0
MTEXT
  5
21D
330
213
100
AcDbEntity
  8
0
  6
Continuous
 62
     7
370
    18
100
AcDbMText
 10
189.674952808
 20
169.8283077549
 30
0.0
 40
3.5
 41
0.0
 71
     1
 72
     1
  1
%%c
  7
SLDTEXTSTYLE0
 11
-7.044195017643634E-15
 21
1.0
 31
0.0
 73
     1
 44
1.0
  0
MTEXT
  5
21E
330
213
100
AcDbEntity
  8
0
  6
Continuous
 62
     7
370
    18
100
AcDbMText
 10
189.674952808
 20
173.69823827
 30
0.0
 40
3.5
 41
0.0
 71
     1
 72
     1
  1
12
  7
SLDTEXTSTYLE0
 11
-7.044195017643634E-15
 21
1.0
 31
0.0
 73
     1
 44
1.0
  0
ENDBLK
  5
215
330
213
100
AcDbEntity
  8
0
100
AcDbBlockEnd
  0
BLOCK
  5
221
330
220
100
AcDbEntity
  8
0
100
AcDbBlockBegin
  2
_D_8
 70
     0
 10
0.0
 20
0.0
 30
0.0
  3
_D_8
  1

  0
SOLID
  5
223
330
220
100
AcDbEntity
  8
0
  6
Continuous
 62
     7
370
    18
100
AcDbTrace
 10
185.6915643468
 20
176.7000786262
 30
0.0
 11
186.4415643468
 21
179.7000786262
 31
0.0
 12
184.9415643468
 22
179.7000786262
 32
0.0
 13
184.9415643468
 23
179.7000786262
 33
0.0
  0
SOLID
  5
224
330
220
100
AcDbEntity
  8
0
  6
Continuous
 62
     7
370
    18
100
AcDbTrace
 10
185.6915643468
 20
170.9000786267
 30
0.0
 11
184.9415643468
 21
167.9000786267
 31
0.0
 12
186.4415643468
 22
167.9000786267
 32
0.0
 13
186.4415643468
 23
167.9000786267
 33
0.0
  0
LINE
  5
225
330
220
100
AcDbEntity
  8
0
  6
Continuous
 62
     7
370
    18
100
AcDbLine
 10
177.7260178341
 20
176.7000786262
 30
0.0
 11
186.6915643468
 21
176.7000786262
 31
0.0
  0
LINE
  5
226
330
220
100
AcDbEntity
  8
0
  6
Continuous
 62
     7
370
    18
100
AcDbLine
 10
177.7260178341
 20
170.9000786267
 30
0.0
 11
186.6915643468
 21
170.9000786267
 31
0.0
  0
LINE
  5
227
330
220
100
AcDbEntity
  8
0
  6
Continuous
 62
     7
370
    18
100
AcDbLine
 10
185.6915643468
 20
176.7000786262
 30
0.0
 11
185.6915643468
 21
190.4370663789
 31
0.0
  0
LINE
  5
228
330
220
100
AcDbEntity
  8
0
  6
Continuous
 62
     7
370
    18
100
AcDbLine
 10
185.6915643468
 20
176.7000786262
 30
0.0
 11
185.6915643468
 21
170.9000786267
 31
0.0
  0
LINE
  5
229
330
220
100
AcDbEntity
  8
0
  6
Continuous
 62
     7
370
    18
100
AcDbLine
 10
185.6915643468
 20
170.9000786267
 30
0.0
 11
185.6915643468
 21
165.9000786267
 31
0.0
  0
MTEXT
  5
22A
330
220
100
AcDbEntity
  8
0
  6
Continuous
 62
     7
370
    18
100
AcDbMText
 10
181.1798270248
 20
180.4567193714
 30
0.0
 40
3.5
 41
0.0
 71
     1
 72
     1
  1
%%c
  7
SLDTEXTSTYLE0
 11
-7.044195017643634E-15
 21
1.0
 31
0.0
 73
     1
 44
1.0
  0
MTEXT
  5
22B
330
220
100
AcDbEntity
  8
0
  6
Continuous
 62
     7
370
    18
100
AcDbMText
 10
181.1798270248
 20
184.3266498865
 30
0.0
 40
3.5
 41
0.0
 71
     1
 72
     1
  1
5.8
  7
SLDTEXTSTYLE0
 11
-7.044195017643634E-15
 21
1.0
 31
0.0
 73
     1
 44
1.0
  0
ENDBLK
  5
222
330
220
100
AcDbEntity
  8
0
100
AcDbBlockEnd
  0
ENDSEC
  0
SECTION
  2
ENTITIES
  0
LINE
  5
73
330
1F
100
AcDbEntity
  8
0
  6
Continuous
 62
     7
370
    18
100
AcDbLine
 10
20.2604743903
 20
285.0
 30
0.0
 11
196.7604743903
 21
285.0
 31
0.0
  0
LINE
  5
74
330
1F
100
AcDbEntity
  8
0
  6
Continuous
 62
     7
370
    18
100
AcDbLine
 10
20.2604743903
 20
285.0
 30
0.0
 11
20.2604743903
 21
10.0
 31
0.0
  0
LINE
  5
75
330
1F
100
AcDbEntity
  8
0
  6
Continuous
 62
     7
370
    18
100
AcDbLine
 10
20.2604743903
 20
10.0
 30
0.0
 11
196.7604743903
 21
10.0
 31
0.0
  0
LINE
  5
76
330
1F
100
AcDbEntity
  8
0
  6
Continuous
 62
     7
370
    18
100
AcDbLine
 10
196.7604743903
 20
285.0
 30
0.0
 11
196.7604743903
 21
10.0
 31
0.0
  0
LINE
  5
77
330
1F
100
AcDbEntity
  8
0
  6
Continuous
 62
     7
370
    18
100
AcDbLine
 10
127.0104743903
 20
50.75
 30
0.0
 11
196.7604743903
 21
50.75
 31
0.0
  0
LINE
  5
78
330
1F
100
AcDbEntity
  8
0
  6
Continuous
 62
     7
370
    18
100
AcDbLine
 10
127.0104743903
 20
50.75
 30
0.0
 11
127.0104743903
 21
10.0
 31
0.0
  0
LINE
  5
79
330
1F
100
AcDbEntity
  8
0
  6
Continuous
 62
     7
370
    18
100
AcDbLine
 10
127.0104743903
 20
22.75
 30
0.0
 11
196.7604743903
 21
22.75
 31
0.0
  0
LINE
  5
7A
330
1F
100
AcDbEntity
  8
0
  6
Continuous
 62
     7
370
    18
100
AcDbLine
 10
127.0104743903
 20
36.75
 30
0.0
 11
196.7604743903
 21
36.75
 31
0.0
  0
MTEXT
  5
7C
330
1F
100
AcDbEntity
  8
0
  6
Continuous
 62
     7
370
     0
100
AcDbMText
 10
162.0726381867
 20
30.4171582345
 30
0.0
 40
4.2333333333
 41
0.0
 71
     2
 72
     1
  1
VFILP-S-30-P12
  7
SLDTEXTSTYLE0
 73
     1
 44
1.0
  0
MTEXT
  5
7D
330
1F
100
AcDbEntity
  8
0
  6
Continuous
 62
     7
370
     0
100
AcDbMText
 10
160.2799415598
 20
43.9409718514
 30
0.0
 40
4.2333333333
 41
0.0
 71
     2
 72
     1
  1
吸着樹脂具・スモール用
  7
SLDTEXTSTYLE0
 73
     1
 44
1.0
  0
MTEXT
  5
7E
330
1F
100
AcDbEntity
  8
0
  6
Continuous
 62
     7
370
     0
100
AcDbMText
 10
163.0498858773
 20
16.8228189052
 30
0.0
 40
4.2333333333
 41
0.0
 71
     2
 72
     1
  1
211095
  7
SLDTEXTSTYLE0
 73
     1
 44
1.0
  0
LWPOLYLINE
  5
7F
330
1F
100
AcDbEntity
  8
0
  6
Continuous
 62
     7
370
    18
100
AcDbPolyline
 90
        3
 70
   128
 43
0.0
 10
59.4117661909
 20
164.5000785921
 10
59.6077660535
 20
163.1000781764
 10
59.761766062
 20
162.0000781823
  0
LWPOLYLINE
  5
80
330
1F
100
AcDbEntity
  8
0
  6
Continuous
 62
     7
370
    18
100
AcDbPolyline
 90
        3
 70
   128
 43
0.0
 10
63.761766252
 20
162.0000781823
 10
63.9577661146
 20
163.4000785981
 10
64.1117661231
 20
164.5000785921
  0
LWPOLYLINE
  5
81
330
1F
100
AcDbEntity
  8
0
  6
Continuous
 62
     7
370
    18
100
AcDbPolyline
 90
        3
 70
   128
 43
0.0
 10
59.4117661909
 20
162.0000781823
 10
59.6077660535
 20
160.6000786979
 10
59.761766062
 20
159.5000787039
  0
LWPOLYLINE
  5
82
330
1F
100
AcDbEntity
  8
0
  6
Continuous
 62
     7
370
    18
100
AcDbPolyline
 90
        3
 70
   128
 43
0.0
 10
63.761766252
 20
159.5000787039
 10
63.9577661146
 20
160.9000781883
 10
64.1117661231
 20
162.0000781823
  0
SPLINE
  5
83
330
1F
100
AcDbEntity
  8
0
  6
Continuous
 62
     7
370
    18
100
AcDbSpline
210
0.0
220
0.0
230
1.0
 70
     8
 71
     3
 72
     9
 73
     5
 74
     0
 42
0.000000001
 43
0.00000001
 40
0.0
 40
0.0
 40
0.0
 40
0.0
 40
0.8823407407498167
 40
1.0
 40
1.0
 40
1.0
 40
1.0
 10
60.96997444694585
 20
166.8401555489918
 30
0.0
 10
60.87153705247431
 20
166.849497960844
 30
0.0
 10
60.75997312946211
 20
166.8600861740147
 30
0.0
 10
60.67110913687354
 20
166.9031685205254
 30
0.0
 10
60.66065346533156
 20
166.9082375575026
 30
0.0
  0
LINE
  5
84
330
1F
100
AcDbEntity
  8
0
  6
Continuous
 62
     7
370
    18
100
AcDbLine
 10
59.611766084
 20
167.1725171019
 30
0.0
 11
59.611766084
 21
164.5000785921
 31
0.0
  0
LINE
  5
85
330
1F
100
AcDbEntity
  8
0
  6
Continuous
 62
     7
370
    18
100
AcDbLine
 10
63.91176623
 20
164.5000785921
 30
0.0
 11
63.91176623
 21
167.1725171019
 31
0.0
  0
SPLINE
  5
86
330
1F
100
AcDbEntity
  8
0
  6
Continuous
 62
     7
370
    18
100
AcDbSpline
210
0.0
220
0.0
230
1.0
 70
     8
 71
     3
 72
    22
 73
    18
 74
     0
 42
0.000000001
 43
0.00000001
 40
0.0
 40
0.0
 40
0.0
 40
0.0
 40
0.0589935191167883
 40
0.1262082701920923
 40
0.1934230210134947
 40
0.2606377745698606
 40
0.3278525215670313
 40
0.3950672646389441
 40
0.4622820156262025
 40
0.5294967591447758
 40
0.596711503490586
 40
0.6639262545658899
 40
0.7311410053872923
 40
0.7983557589436583
 40
0.8655705059408288
 40
0.9327852490127417
 40
1.0
 40
1.0
 40
1.0
 40
1.0
 10
63.91176623003281
 20
166.526894025149
 30
0.0
 10
64.32635776957906
 20
166.6655818883119
 30
0.0
 10
65.21331758865385
 20
166.9622849087197
 30
0.0
 10
66.42714573156034
 20
167.7441477743397
 30
0.0
 10
67.52156053702802
 20
168.7653831381923
 30
0.0
 10
68.39240980085077
 20
169.9872233085301
 30
0.0
 10
69.00904191629908
 20
171.353680193133
 30
0.0
 10
69.34700589453468
 20
172.8146627824482
 30
0.0
 10
69.39351632906228
 20
174.3133751867456
 30
0.0
 10
69.14673086649923
 20
175.7924062958755
 30
0.0
 10
68.61615103327668
 20
177.1948349690295
 30
0.0
 10
67.82215174700944
 20
178.4669149294687
 30
0.0
 10
66.79528372595712
 20
179.5592487984388
 30
0.0
 10
65.57487841358576
 20
180.4317623733243
 30
0.0
 10
64.20831475442601
 20
181.0438181815336
 30
0.0
 10
62.74632440554123
 20
181.3984230771994
 30
0.0
 10
61.74994132738869
 20
181.3881051222249
 30
0.0
 10
61.2517497589784
 20
181.3829461444338
 30
0.0
  0
SPLINE
  5
87
330
1F
100
AcDbEntity
  8
0
  6
Continuous
 62
     7
370
    18
100
AcDbSpline
210
0.0
220
0.0
230
1.0
 70
     8
 71
     3
 72
    22
 73
    18
 74
     0
 42
0.000000001
 43
0.00000001
 40
0.0
 40
0.0
 40
0.0
 40
0.0
 40
0.0704555482041281
 40
0.1409110972753789
 40
0.2113666534005906
 40
0.2818222092596588
 40
0.3522777679855585
 40
0.4227333198360069
 40
0.4931888675719386
 40
0.5636444236048596
 40
0.6340999718089877
 40
0.7045555208802384
 40
0.7750110770054502
 40
0.8454666328645183
 40
0.915922191590418
 40
0.9863777434408664
 40
1.0
 40
1.0
 40
1.0
 40
1.0
 10
61.2517497589784
 20
181.3829461444338
 30
0.0
 10
60.75735452661407
 20
181.3213446651415
 30
0.0
 10
59.7685640558007
 20
181.1981417057987
 30
0.0
 10
58.36722732405408
 20
180.65095266776
 30
0.0
 10
57.09493424692976
 20
179.8614091843797
 30
0.0
 10
56.00236090317688
 20
178.8333271582071
 30
0.0
 10
55.13101834412254
 20
177.6133220632617
 30
0.0
 10
54.51451794783996
 20
176.2463715395799
 30
0.0
 10
54.17652038812886
 20
174.7855284313517
 30
0.0
 10
54.13001256034619
 20
173.2867517417497
 30
0.0
 10
54.37682117740553
 20
171.8078382927323
 30
0.0
 10
54.90730578589605
 20
170.4050032644197
 30
0.0
 10
55.70166281663006
 20
169.1344310646494
 30
0.0
 10
56.7271950845156
 20
168.0364725080292
 30
0.0
 10
57.95258566510195
 20
167.1849499231372
 30
0.0
 10
58.93809843671625
 20
166.680191622939
 30
0.0
 10
59.51783704178589
 20
166.5546551150258
 30
0.0
 10
59.61176608400142
 20
166.5343157347461
 30
0.0
  0
SPLINE
  5
88
330
1F
100
AcDbEntity
  8
0
  6
Continuous
 62
     7
370
    18
100
AcDbSpline
210
0.0
220
0.0
230
1.0
 70
     8
 71
     3
 72
    22
 73
    18
 74
     0
 42
0.000000001
 43
0.00000001
 40
0.0
 40
0.0
 40
0.0
 40
0.0
 40
0.0668680176422451
 40
0.133736040229241
 40
0.2006040460104581
 40
0.2674720662981594
 40
0.3343400724795834
 40
0.4012080967703102
 40
0.4680761129376831
 40
0.5349441360808089
 40
0.6018121537230541
 40
0.6686801763100501
 40
0.7355481820912672
 40
0.8024162023789684
 40
0.8692842085603923
 40
0.9361522328511191
 40
0.9999999999999999
 40
0.9999999999999999
 40
0.9999999999999999
 40
0.9999999999999999
 10
61.22490683048687
 20
181.7820448760112
 30
0.0
 10
61.7493189789832
 20
181.7874752129012
 30
0.0
 10
62.79814331475508
 20
181.7983358870828
 30
0.0
 10
64.33708049399084
 20
181.425067667249
 30
0.0
 10
65.77556841819751
 20
180.7807980041778
 30
0.0
 10
67.06020497028938
 20
179.8623623952667
 30
0.0
 10
68.14111978032454
 20
178.7125383646785
 30
0.0
 10
68.97690747097054
 20
177.3735063017361
 30
0.0
 10
69.53541334876603
 20
175.8972655041732
 30
0.0
 10
69.79518762587894
 20
174.3403918532705
 30
0.0
 10
69.74623057528267
 20
172.7627950079324
 30
0.0
 10
69.39047134424283
 20
171.22493627469
 30
0.0
 10
68.74141378826168
 20
169.7864948843932
 30
0.0
 10
67.82462076533069
 20
168.5005937507451
 30
0.0
 10
66.6730142842348
 20
167.4246907326869
 30
0.0
 10
65.35954698710366
 20
166.5829866685871
 30
0.0
 10
64.3868683988598
 20
166.2593595182126
 30
0.0
 10
63.91176623003281
 20
166.1012847308239
 30
0.0
  0
SPLINE
  5
89
330
1F
100
AcDbEntity
  8
0
  6
Continuous
 62
     7
370
    18
100
AcDbSpline
210
0.0
220
0.0
230
1.0
 70
     8
 71
     3
 72
    22
 73
    18
 74
     0
 42
0.000000001
 43
0.00000001
 40
0.0
 40
0.0
 40
0.0
 40
0.0
 40
0.0187424411546735
 40
0.0888322554814442
 40
0.1589220850136449
 40
0.2290118997599051
 40
0.2991017334880037
 40
0.369191558701352
 40
0.4392813912265561
 40
0.5093712179858383
 40
0.5794610499281174
 40
0.6495508642548882
 40
0.7196406937870888
 40
0.789730508533349
 40
0.8598203422614475
 40
0.9299101674747957
 40
0.9999999999999999
 40
0.9999999999999999
 40
0.9999999999999999
 40
0.9999999999999999
 10
59.61176608400142
 20
166.1257258948108
 30
0.0
 10
59.47485807144077
 20
166.1547810297739
 30
0.0
 10
58.82596460826392
 20
166.2924916487263
 30
0.0
 10
57.75153902502553
 20
166.834856027286
 30
0.0
 10
56.46236939888816
 20
167.7336424759691
 30
0.0
 10
55.38266918454617
 20
168.8887316379068
 30
0.0
 10
54.54655618478313
 20
170.2263523339894
 30
0.0
 10
53.98813694756137
 20
171.702973466769
 30
0.0
 10
53.72834141726808
 20
173.2597371436532
 30
0.0
 10
53.77729684000857
 20
174.8373935498306
 30
0.0
 10
54.13308383565059
 20
176.375124013735
 30
0.0
 10
54.78203196109553
 20
177.8140189204757
 30
0.0
 10
55.69923494160875
 20
179.0982342575204
 30
0.0
 10
56.8493110230228
 20
180.1804269450924
 30
0.0
 10
58.18856751100865
 20
181.011524339786
 30
0.0
 10
59.66365855755932
 20
181.5875135232038
 30
0.0
 10
60.7044907214142
 20
181.7172010894872
 30
0.0
 10
61.22490683048687
 20
181.7820448760112
 30
0.0
  0
SPLINE
  5
8A
330
1F
100
AcDbEntity
  8
0
  6
Continuous
 62
     7
370
    18
100
AcDbSpline
210
0.0
220
0.0
230
1.0
 70
     8
 71
     3
 72
    33
 73
    29
 74
     0
 42
0.000000001
 43
0.00000001
 40
0.0
 40
0.0
 40
0.0
 40
0.0
 40
0.0125326068134496
 40
0.0250361823974898
 40
0.0375300658794424
 40
0.0500336413586776
 40
0.0625662479630028
 40
0.0938388078910985
 40
0.1251113679925473
 40
0.1563839283128946
 40
0.1876564884698982
 40
0.2501259056882397
 40
0.312595322906581
 40
0.375064740736413
 40
0.4375341581404723
 40
0.5000035755502352
 40
0.5624729929599983
 40
0.6249424103640574
 40
0.6874118281938896
 40
0.7498812454122309
 40
0.8123506626305723
 40
0.843623222787576
 40
0.8748957831079233
 40
0.9061683432093721
 40
0.9374409031374676
 40
0.9583088818550776
 40
0.9791320209916652
 40
1.0
 40
1.0
 40
1.0
 40
1.0
 10
56.56176615959631
 20
173.8000786263665
 30
0.0
 10
56.56253299709157
 20
173.7319050445436
 30
0.0
 10
56.56406489573694
 20
173.595715801985
 30
0.0
 10
56.57650805071292
 20
173.3918762639884
 30
0.0
 10
56.59638601666417
 20
173.1888258625607
 30
0.0
 10
56.62442443249053
 20
172.9865598016451
 30
0.0
 10
56.67830487735001
 20
172.684999517587
 30
0.0
 10
56.77756682761519
 20
172.2881153523927
 30
0.0
 10
56.94991497577288
 20
171.8069581921592
 30
0.0
 10
57.16832877618921
 20
171.344800544492
 30
0.0
 10
57.51848219294583
 20
170.7608359151284
 30
0.0
 10
58.06114771585102
 20
170.0992975621499
 30
0.0
 10
58.85416762169819
 20
169.4485986989728
 30
0.0
 10
59.75898747695908
 20
168.9649275108747
 30
0.0
 10
60.74075631565928
 20
168.667121582018
 30
0.0
 10
61.76176615483815
 20
168.5665571529357
 30
0.0
 10
62.78277600709078
 20
168.6671215799071
 30
0.0
 10
63.76454480656972
 20
168.9649275193184
 30
0.0
 10
64.66936480564192
 20
169.4485986673089
 30
0.0
 10
65.46238417546506
 20
170.099297680362
 30
0.0
 10
66.00505136567824
 20
170.7608355670635
 30
0.0
 10
66.35520137928553
 20
171.344801148161
 30
0.0
 10
66.57362557715113
 20
171.8069558880469
 30
0.0
 10
66.74593468941963
 20
172.2881239651726
 30
0.0
 10
66.85634660510188
 20
172.7290352550046
 30
0.0
 10
66.92075894248912
 20
173.1208443700245
 30
0.0
 10
66.9553847232869
 20
173.4597373091014
 30
0.0
 10
66.95963748606893
 20
173.6865502062398
 30
0.0
 10
66.96176615443791
 20
173.8000786263665
 30
0.0
  0
SPLINE
  5
8B
330
1F
100
AcDbEntity
  8
0
  6
Continuous
 62
     7
370
    18
100
AcDbSpline
210
0.0
220
0.0
230
1.0
 70
     8
 71
     3
 72
    33
 73
    29
 74
     0
 42
0.000000001
 43
0.00000001
 40
0.0
 40
0.0
 40
0.0
 40
0.0
 40
0.0125326068134497
 40
0.0250361823974899
 40
0.0375300658794425
 40
0.0500336413586776
 40
0.0625662479630028
 40
0.0938388078910984
 40
0.1251113679925473
 40
0.1563839283128946
 40
0.1876564884698983
 40
0.2501259056882397
 40
0.3125953229065811
 40
0.3750647407364132
 40
0.4375341581404723
 40
0.5000035755502354
 40
0.5624729929599984
 40
0.6249424103640576
 40
0.6874118281938897
 40
0.749881245412231
 40
0.8123506626305724
 40
0.8436232227875762
 40
0.8748957831079234
 40
0.9061683432093723
 40
0.9374409031374679
 40
0.958308881855078
 40
0.9791320209916654
 40
1.0
 40
1.0
 40
1.0
 40
1.0
 10
66.96176615443791
 20
173.8000786263665
 30
0.0
 10
66.96099931694266
 20
173.8682522081894
 30
0.0
 10
66.95946741829728
 20
174.004441450748
 30
0.0
 10
66.9470242633213
 20
174.2082809887446
 30
0.0
 10
66.92714629737006
 20
174.4113313901723
 30
0.0
 10
66.89910788154369
 20
174.6135974510879
 30
0.0
 10
66.84522743668421
 20
174.915157735146
 30
0.0
 10
66.74596548641904
 20
175.3120419003402
 30
0.0
 10
66.57361733826134
 20
175.7931990605738
 30
0.0
 10
66.35520353784501
 20
176.255356708241
 30
0.0
 10
66.00505012108839
 20
176.8393213376046
 30
0.0
 10
65.46238459818319
 20
177.5008596905831
 30
0.0
 10
64.66936469233603
 20
178.1515585537601
 30
0.0
 10
63.76454483707515
 20
178.6352297418582
 30
0.0
 10
62.78277599837495
 20
178.9330356707149
 30
0.0
 10
61.76176615919607
 20
179.0336000997973
 30
0.0
 10
60.74075630694344
 20
178.9330356728258
 30
0.0
 10
59.75898750746451
 20
178.6352297334145
 30
0.0
 10
58.8541675083923
 20
178.1515585854241
 30
0.0
 10
58.06114813856916
 20
177.5008595723709
 30
0.0
 10
57.51848094835596
 20
176.8393216856694
 30
0.0
 10
57.16833093474868
 20
176.255356104572
 30
0.0
 10
56.94990673688308
 20
175.793201364686
 30
0.0
 10
56.77759762461459
 20
175.3120332875604
 30
0.0
 10
56.66718570893234
 20
174.8711219977283
 30
0.0
 10
56.6027733715451
 20
174.4793128827085
 30
0.0
 10
56.56814759074732
 20
174.1404199436316
 30
0.0
 10
56.5638948279653
 20
173.9136070464931
 30
0.0
 10
56.56176615959631
 20
173.8000786263665
 30
0.0
  0
SPLINE
  5
8C
330
1F
100
AcDbEntity
  8
0
  6
Continuous
 62
     7
370
    18
100
AcDbSpline
210
0.0
220
0.0
230
1.0
 70
     8
 71
     3
 72
    14
 73
    10
 74
     0
 42
0.000000001
 43
0.00000001
 40
0.0
 40
0.0
 40
0.0
 40
0.0
 40
0.25
 40
0.25
 40
0.4999999999999999
 40
0.4999999999999999
 40
0.75
 40
0.75
 40
1.0
 40
1.0
 40
1.0
 40
1.0
 10
59.66176615701711
 20
173.8000786259893
 30
0.0
 10
59.66176615711713
 20
173.2431397596971
 30
0.0
 10
59.88302666749885
 20
172.7089696348759
 30
0.0
 10
60.67065716564732
 20
171.9213391367781
 30
0.0
 10
61.20482729048274
 20
171.7000786264307
 30
0.0
 10
62.31870502306718
 20
171.7000786263023
 30
0.0
 10
62.85287514795363
 20
171.9213391365265
 30
0.0
 10
63.64050564628374
 20
172.7089696344427
 30
0.0
 10
63.86176615678865
 20
173.2431397592128
 30
0.0
 10
63.86176615701711
 20
173.800078625505
 30
0.0
  0
SPLINE
  5
8D
330
1F
100
AcDbEntity
  8
0
  6
Continuous
 62
     7
370
    18
100
AcDbSpline
210
0.0
220
0.0
230
1.0
 70
     8
 71
     3
 72
    12
 73
     8
 74
     0
 42
0.000000001
 43
0.00000001
 40
0.0
 40
0.0
 40
0.0
 40
0.0
 40
0.3333333333333334
 40
0.3333333333333334
 40
0.6666666666666666
 40
0.6666666666666666
 40
0.9999999999999999
 40
0.9999999999999999
 40
0.9999999999999999
 40
0.9999999999999999
 10
63.86176615701711
 20
173.800078625505
 30
0.0
 10
63.86176615732482
 20
174.5502268296975
 30
0.0
 10
63.46141355884584
 20
175.2436578717528
 30
0.0
 10
62.16211875618308
 20
175.9938060763006
 30
0.0
 10
61.36141355875102
 20
175.9938060764648
 30
0.0
 10
60.06211875578055
 20
175.24365787245
 30
0.0
 10
59.66176615701711
 20
174.5502268305589
 30
0.0
 10
59.66176615701711
 20
173.8000786263665
 30
0.0
  0
SPLINE
  5
8E
330
1F
100
AcDbEntity
  8
0
  6
Continuous
 62
     7
370
    18
100
AcDbSpline
210
0.0
220
0.0
230
1.0
 70
    24
 71
     3
 72
    10
 73
     6
 74
     0
 42
0.000000001
 43
0.00000001
 40
0.0
 40
0.0
 40
0.0
 40
0.0
 40
0.5
 40
0.5
 40
1.0
 40
1.0
 40
1.0
 40
1.0
 10
56.26176615663124
 20
173.8000786263665
 30
0.0
 10
56.2617661567285
 20
173.8000786263665
 30
0.0
 10
56.2910554786292
 20
173.8000786263665
 30
0.0
 10
56.40821276614004
 20
173.8000786263665
 30
0.0
 10
56.4910554786095
 20
173.8000786263665
 30
0.0
 10
56.56176615682454
 20
173.8000786263665
 30
0.0
  0
SPLINE
  5
8F
330
1F
100
AcDbEntity
  8
0
  6
Continuous
 62
     7
370
    18
100
AcDbSpline
210
0.0
220
0.0
230
1.0
 70
     8
 71
     3
 72
    14
 73
    10
 74
     0
 42
0.000000001
 43
0.00000001
 40
0.0
 40
0.0
 40
0.0
 40
0.0
 40
0.25
 40
0.25
 40
0.5
 40
0.5
 40
0.75
 40
0.75
 40
1.0
 40
1.0
 40
1.0
 40
1.0
 10
56.26176615701711
 20
173.8000786253787
 30
0.0
 10
56.26176615727906
 20
172.341429213661
 30
0.0
 10
56.84125797018356
 20
170.9424122200817
 30
0.0
 10
58.90409975104861
 20
168.8795704393493
 30
0.0
 10
60.30311674466518
 20
168.3000786265347
 30
0.0
 10
63.22041556810063
 20
168.3000786261983
 30
0.0
 10
64.61943256185084
 20
168.8795704386902
 30
0.0
 10
66.68227434319162
 20
170.9424122189469
 30
0.0
 10
67.26176615641877
 20
172.3414292123926
 30
0.0
 10
67.2617661570171
 20
173.8000786241103
 30
0.0
  0
SPLINE
  5
90
330
1F
100
AcDbEntity
  8
0
  6
Continuous
 62
     7
370
    18
100
AcDbSpline
210
0.0
220
0.0
230
1.0
 70
    24
 71
     3
 72
    10
 73
     6
 74
     0
 42
0.000000001
 43
0.00000001
 40
0.0
 40
0.0
 40
0.0
 40
0.0
 40
0.5
 40
0.5
 40
1.0
 40
1.0
 40
1.0
 40
1.0
 10
66.96176615720968
 20
173.8000786263665
 30
0.0
 10
67.03247683542472
 20
173.8000786263665
 30
0.0
 10
67.11531954789419
 20
173.8000786263665
 30
0.0
 10
67.23247683540501
 20
173.8000786263665
 30
0.0
 10
67.26176615730573
 20
173.8000786263665
 30
0.0
 10
67.26176615740297
 20
173.8000786263665
 30
0.0
  0
SPLINE
  5
91
330
1F
100
AcDbEntity
  8
0
  6
Continuous
 62
     7
370
    18
100
AcDbSpline
210
0.0
220
0.0
230
1.0
 70
     8
 71
     3
 72
    12
 73
     8
 74
     0
 42
0.000000001
 43
0.00000001
 40
0.0
 40
0.0
 40
0.0
 40
0.0
 40
0.3333333333333332
 40
0.3333333333333332
 40
0.6666666666666665
 40
0.6666666666666665
 40
0.9999999999999999
 40
0.9999999999999999
 40
0.9999999999999999
 40
0.9999999999999999
 10
67.2617661570171
 20
173.8000786241103
 30
0.0
 10
67.26176615782303
 20
175.7647524922334
 30
0.0
 10
66.21322363799712
 20
177.580881411902
 30
0.0
 10
62.81030867864228
 20
179.5455552809557
 30
0.0
 10
60.71322363774878
 20
179.5455552813858
 30
0.0
 10
57.31030867758802
 20
177.580881413728
 30
0.0
 10
56.26176615701711
 20
175.7647524944896
 30
0.0
 10
56.26176615701711
 20
173.8000786263665
 30
0.0
  0
SPLINE
  5
92
330
1F
100
AcDbEntity
  8
0
  6
Continuous
 62
     7
370
    18
100
AcDbSpline
210
0.0
220
0.0
230
1.0
 70
     8
 71
     3
 72
    33
 73
    29
 74
     0
 42
0.000000001
 43
0.00000001
 40
0.0
 40
0.0
 40
0.0
 40
0.0
 40
0.0125326068134496
 40
0.0250361823974898
 40
0.0375300658794424
 40
0.0500336413586776
 40
0.0625662479630028
 40
0.0938388078910986
 40
0.1251113679925474
 40
0.1563839283128947
 40
0.1876564884698984
 40
0.2501259056882397
 40
0.3125953229065812
 40
0.3750647407364132
 40
0.4375341581404724
 40
0.5000035755502354
 40
0.5624729929599984
 40
0.6249424103640576
 40
0.6874118281938897
 40
0.7498812454122311
 40
0.8123506626305724
 40
0.843623222787576
 40
0.8748957831079234
 40
0.9061683432093722
 40
0.9374409031374679
 40
0.9583088818550777
 40
0.9791320209916653
 40
1.0
 40
1.0
 40
1.0
 40
1.0
 10
55.06176616034031
 20
173.8000786263665
 30
0.0
 10
55.0627542009592
 20
173.7122395882485
 30
0.0
 10
55.06472799344458
 20
173.5367649872595
 30
0.0
 10
55.08076052004826
 20
173.2741255825331
 30
0.0
 10
55.10637251463928
 20
173.0125029499244
 30
0.0
 10
55.14249893503094
 20
172.7518909098985
 30
0.0
 10
55.21192181590757
 20
172.3633420823621
 30
0.0
 10
55.33981702105694
 20
171.8519721002849
 30
0.0
 10
55.56188098118321
 20
171.2320196053686
 30
0.0
 10
55.84329876248885
 20
170.6365472516436
 30
0.0
 10
56.29445797254066
 20
169.8841312868867
 30
0.0
 10
56.99366162705311
 20
169.0317645628566
 30
0.0
 10
58.01543727497158
 20
168.1933641045324
 30
0.0
 10
59.18126285771157
 20
167.5701723814059
 30
0.0
 10
60.44623424603682
 20
167.1864608961483
 30
0.0
 10
61.7617661542096
 20
167.0568874971383
 30
0.0
 10
63.07729807922742
 20
167.1864608934285
 30
0.0
 10
64.34226941701758
 20
167.5701723922853
 30
0.0
 10
65.50809518505292
 20
168.1933640637345
 30
0.0
 10
66.52987014232505
 20
169.0317647151685
 30
0.0
 10
67.22907594509974
 20
169.8841308384184
 30
0.0
 10
67.68023077032451
 20
170.6365480294479
 30
0.0
 10
67.96166194834365
 20
171.2320166366086
 30
0.0
 10
68.18367561222804
 20
171.8519831975206
 30
0.0
 10
68.32593711897249
 20
172.4200804363426
 30
0.0
 10
68.40892993829834
 20
172.9249114114643
 30
0.0
 10
68.45354392509549
 20
173.3615619291211
 30
0.0
 10
68.45902344637234
 20
173.653801623511
 30
0.0
 10
68.46176615369392
 20
173.8000786263665
 30
0.0
  0
SPLINE
  5
93
330
1F
100
AcDbEntity
  8
0
  6
Continuous
 62
     7
370
    18
100
AcDbSpline
210
0.0
220
0.0
230
1.0
 70
     8
 71
     3
 72
    33
 73
    29
 74
     0
 42
0.000000001
 43
0.00000001
 40
0.0
 40
0.0
 40
0.0
 40
0.0
 40
0.0125326068134496
 40
0.0250361823974898
 40
0.0375300658794425
 40
0.0500336413586776
 40
0.0625662479630028
 40
0.0938388078910984
 40
0.1251113679925473
 40
0.1563839283128946
 40
0.1876564884698983
 40
0.2501259056882397
 40
0.312595322906581
 40
0.3750647407364131
 40
0.4375341581404723
 40
0.5000035755502352
 40
0.5624729929599982
 40
0.6249424103640574
 40
0.6874118281938895
 40
0.7498812454122309
 40
0.8123506626305722
 40
0.843623222787576
 40
0.8748957831079233
 40
0.9061683432093721
 40
0.9374409031374678
 40
0.9583088818550778
 40
0.9791320209916653
 40
1.0
 40
1.0
 40
1.0
 40
1.0
 10
68.46176615369392
 20
173.8000786263665
 30
0.0
 10
68.46077811307502
 20
173.8879176644844
 30
0.0
 10
68.45880432058964
 20
174.0633922654734
 30
0.0
 10
68.44277179398595
 20
174.3260316701998
 30
0.0
 10
68.41715979939494
 20
174.5876543028086
 30
0.0
 10
68.38103337900327
 20
174.8482663428344
 30
0.0
 10
68.31161049812665
 20
175.2368151703708
 30
0.0
 10
68.18371529297727
 20
175.748185152448
 30
0.0
 10
67.96165133285102
 20
176.3681376473643
 30
0.0
 10
67.68023355154537
 20
176.9636100010893
 30
0.0
 10
67.22907434149356
 20
177.7160259658463
 30
0.0
 10
66.52987068698111
 20
178.5683926898763
 30
0.0
 10
65.50809503906264
 20
179.4067931482006
 30
0.0
 10
64.34226945632265
 20
180.029984871327
 30
0.0
 10
63.0772980679974
 20
180.4136963565846
 30
0.0
 10
61.76176615982462
 20
180.5432697555946
 30
0.0
 10
60.4462342348068
 20
180.4136963593045
 30
0.0
 10
59.18126289701664
 20
180.0299848604476
 30
0.0
 10
58.0154371289813
 20
179.4067931889984
 30
0.0
 10
56.99366217170918
 20
178.5683925375645
 30
0.0
 10
56.29445636893449
 20
177.7160264143145
 30
0.0
 10
55.84330154370971
 20
176.9636092232851
 30
0.0
 10
55.56187036569057
 20
176.3681406161244
 30
0.0
 10
55.33985670180618
 20
175.7481740552124
 30
0.0
 10
55.19759519506173
 20
175.1800768163904
 30
0.0
 10
55.11460237573587
 20
174.6752458412687
 30
0.0
 10
55.06998838893873
 20
174.2385953236119
 30
0.0
 10
55.06450886766189
 20
173.9463556292219
 30
0.0
 10
55.06176616034031
 20
173.8000786263665
 30
0.0
  0
SPLINE
  5
94
330
1F
100
AcDbEntity
  8
0
  6
Continuous
 62
     7
370
    18
100
AcDbSpline
210
0.0
220
0.0
230
1.0
 70
    24
 71
     3
 72
    10
 73
     6
 74
     0
 42
0.000000001
 43
0.00000001
 40
0.0
 40
0.0
 40
0.0
 40
0.0
 40
0.5
 40
0.5
 40
1.0
 40
1.0
 40
1.0
 40
1.0
 10
68.46176615720968
 20
173.8000786263665
 30
0.0
 10
68.53247683542473
 20
173.8000786263665
 30
0.0
 10
68.61531954789419
 20
173.8000786263665
 30
0.0
 10
68.73247683540502
 20
173.8000786263665
 30
0.0
 10
68.76176615730573
 20
173.8000786263665
 30
0.0
 10
68.76176615740299
 20
173.8000786263665
 30
0.0
  0
SPLINE
  5
95
330
1F
100
AcDbEntity
  8
0
  6
Continuous
 62
     7
370
    18
100
AcDbSpline
210
0.0
220
0.0
230
1.0
 70
     8
 71
     3
 72
    12
 73
     8
 74
     0
 42
0.000000001
 43
0.00000001
 40
0.0
 40
0.0
 40
0.0
 40
0.0
 40
0.3333333333333332
 40
0.3333333333333332
 40
0.6666666666666665
 40
0.6666666666666665
 40
0.9999999999999999
 40
0.9999999999999999
 40
0.9999999999999999
 40
0.9999999999999999
 10
68.7617661570171
 20
173.800078623495
 30
0.0
 10
68.76176615804283
 20
176.3005726374699
 30
0.0
 10
67.4272574964462
 20
178.6120094443208
 30
0.0
 10
63.09627482090369
 20
181.1125034594801
 30
0.0
 10
60.42725749613015
 20
181.1125034600275
 30
0.0
 10
56.09627481956191
 20
178.6120094466448
 30
0.0
 10
54.76176615701711
 20
176.3005726403414
 30
0.0
 10
54.76176615701711
 20
173.8000786263665
 30
0.0
  0
SPLINE
  5
96
330
1F
100
AcDbEntity
  8
0
  6
Continuous
 62
     7
370
    18
100
AcDbSpline
210
0.0
220
0.0
230
1.0
 70
    24
 71
     3
 72
    10
 73
     6
 74
     0
 42
0.000000001
 43
0.00000001
 40
0.0
 40
0.0
 40
0.0
 40
0.0
 40
0.5
 40
0.5
 40
1.0
 40
1.0
 40
1.0
 40
1.0
 10
54.76176615663124
 20
173.8000786263665
 30
0.0
 10
54.76176615672849
 20
173.8000786263665
 30
0.0
 10
54.7910554786292
 20
173.8000786263665
 30
0.0
 10
54.90821276614003
 20
173.8000786263665
 30
0.0
 10
54.9910554786095
 20
173.8000786263665
 30
0.0
 10
55.06176615682454
 20
173.8000786263665
 30
0.0
  0
SPLINE
  5
97
330
1F
100
AcDbEntity
  8
0
  6
Continuous
 62
     7
370
    18
100
AcDbSpline
210
0.0
220
0.0
230
1.0
 70
     8
 71
     3
 72
    14
 73
    10
 74
     0
 42
0.000000001
 43
0.00000001
 40
0.0
 40
0.0
 40
0.0
 40
0.0
 40
0.25
 40
0.25
 40
0.5
 40
0.5
 40
0.75
 40
0.75
 40
1.0
 40
1.0
 40
1.0
 40
1.0
 10
54.76176615701711
 20
173.8000786251094
 30
0.0
 10
54.76176615735051
 20
171.9436157374686
 30
0.0
 10
55.49930119195623
 20
170.1630486547313
 30
0.0
 10
58.12473618578447
 20
167.5376136610718
 30
0.0
 10
59.9053032685692
 20
166.8000786265806
 30
0.0
 10
63.61822904385068
 20
166.8000786261524
 30
0.0
 10
65.39879612680551
 20
167.5376136602331
 30
0.0
 10
68.02423112123921
 20
170.163048653287
 30
0.0
 10
68.76176615625558
 20
171.9436157358543
 30
0.0
 10
68.7617661570171
 20
173.800078623495
 30
0.0
  0
SPLINE
  5
98
330
1F
100
AcDbEntity
  8
0
  6
Continuous
 62
     7
370
    18
100
AcDbSpline
210
0.0
220
0.0
230
1.0
 70
     8
 71
     3
 72
    10
 73
     6
 74
     0
 42
0.000000001
 43
0.00000001
 40
0.0
 40
0.0
 40
0.0
 40
0.0
 40
0.5
 40
0.5
 40
1.0
 40
1.0
 40
1.0
 40
1.0
 10
62.50250430735925
 20
166.5490441953914
 30
0.0
 10
62.49543795951487
 20
166.6179219973145
 30
0.0
 10
62.49683681491966
 20
166.6979634127239
 30
0.0
 10
62.52343675225634
 20
166.8133917892834
 30
0.0
 10
62.54760295256212
 20
166.8442879614319
 30
0.0
 10
62.57117420298039
 20
166.8470319112919
 30
0.0
  0
SPLINE
  5
99
330
1F
100
AcDbEntity
  8
0
  6
Continuous
 62
     7
370
    18
100
AcDbSpline
210
0.0
220
0.0
230
1.0
 70
     8
 71
     3
 72
    10
 73
     6
 74
     0
 42
0.000000001
 43
0.00000001
 40
0.0
 40
0.0
 40
0.0
 40
0.0
 40
0.5
 40
0.5
 40
1.0
 40
1.0
 40
1.0
 40
1.0
 10
61.02102784101711
 20
166.5490442173665
 30
0.0
 10
61.02809419294734
 20
166.6179220220669
 30
0.0
 10
61.02669533919304
 20
166.6979634421733
 30
0.0
 10
61.00009539541331
 20
166.8133918204924
 30
0.0
 10
60.97592918749793
 20
166.8442879886229
 30
0.0
 10
60.95235793001711
 20
166.8470319323665
 30
0.0
  0
SPLINE
  5
9A
330
1F
100
AcDbEntity
  8
0
  6
Continuous
 62
     7
370
    18
100
AcDbSpline
210
0.0
220
0.0
230
1.0
 70
     8
 71
     3
 72
    16
 73
    12
 74
     0
 42
0.000000001
 43
0.00000001
 40
0.0
 40
0.0
 40
0.0
 40
0.0
 40
0.0864429162688
 40
0.1715998848054081
 40
0.2555040849425243
 40
0.3381902047989415
 40
0.4196944884322911
 40
0.5000547796939445
 40
0.66188635478642
 40
0.8284401449971457
 40
1.0
 40
1.0
 40
1.0
 40
1.0
 10
61.02102784179134
 20
166.549044218154
 30
0.0
 10
61.06201642218414
 20
166.5438792011748
 30
0.0
 10
61.1433838259847
 20
166.5336260033779
 30
0.0
 10
61.26779901775036
 20
166.5214993569566
 30
0.0
 10
61.39211640863354
 20
166.5119225158755
 30
0.0
 10
61.51610846008817
 20
166.5051092352105
 30
0.0
 10
61.63924313346359
 20
166.5010086195986
 30
0.0
 10
61.80284461360114
 20
166.4991390985671
 30
0.0
 10
62.00941683264013
 20
166.5039677639606
 30
0.0
 10
62.25903237559215
 20
166.5199314599182
 30
0.0
 10
62.42054997136935
 20
166.5392446492544
 30
0.0
 10
62.50250447307084
 20
166.549044218154
 30
0.0
  0
SPLINE
  5
9B
330
1F
100
AcDbEntity
  8
0
  6
Continuous
 62
     7
370
    18
100
AcDbSpline
210
0.0
220
0.0
230
1.0
 70
    24
 71
     3
 72
    12
 73
     8
 74
     0
 42
0.000000001
 43
0.00000001
 40
0.0
 40
0.0
 40
0.0
 40
0.0
 40
0.3333333333333333
 40
0.3333333333333333
 40
0.6666666666666665
 40
0.6666666666666665
 40
0.9999999999999999
 40
0.9999999999999999
 40
0.9999999999999999
 40
0.9999999999999999
 10
59.41176615701711
 20
164.5000786263665
 30
0.0
 10
59.41176615701711
 20
164.5000786263665
 30
0.0
 10
59.85977977944286
 20
164.5000786263664
 30
0.0
 10
61.31375253514792
 20
164.5000786263664
 30
0.0
 10
62.20977977989332
 20
164.5000786263664
 30
0.0
 10
63.66375253525403
 20
164.5000786263663
 30
0.0
 10
64.11176615736146
 20
164.5000786263663
 30
0.0
 10
64.11176615701712
 20
164.5000786263663
 30
0.0
  0
SPLINE
  5
9C
330
1F
100
AcDbEntity
  8
0
  6
Continuous
 62
     7
370
    18
100
AcDbSpline
210
0.0
220
0.0
230
1.0
 70
    24
 71
     3
 72
    12
 73
     8
 74
     0
 42
0.000000001
 43
0.00000001
 40
0.0
 40
0.0
 40
0.0
 40
0.0
 40
0.3333333333333333
 40
0.3333333333333333
 40
0.6666666666666665
 40
0.6666666666666665
 40
0.9999999999999999
 40
0.9999999999999999
 40
0.9999999999999999
 40
0.9999999999999999
 10
59.41176615701711
 20
162.0000786263665
 30
0.0
 10
59.41176615701711
 20
162.0000786263665
 30
0.0
 10
59.85977977944286
 20
162.0000786263665
 30
0.0
 10
61.31375253514792
 20
162.0000786263664
 30
0.0
 10
62.20977977989332
 20
162.0000786263664
 30
0.0
 10
63.66375253525403
 20
162.0000786263664
 30
0.0
 10
64.11176615736146
 20
162.0000786263664
 30
0.0
 10
64.11176615701712
 20
162.0000786263664
 30
0.0
  0
SPLINE
  5
9D
330
1F
100
AcDbEntity
  8
0
  6
Continuous
 62
     7
370
    18
100
AcDbSpline
210
0.0
220
0.0
230
1.0
 70
    24
 71
     3
 72
    12
 73
     8
 74
     0
 42
0.000000001
 43
0.00000001
 40
0.0
 40
0.0
 40
0.0
 40
0.0
 40
0.3333333333333332
 40
0.3333333333333332
 40
0.6666666666666665
 40
0.6666666666666665
 40
0.9999999999999999
 40
0.9999999999999999
 40
0.9999999999999999
 40
0.9999999999999999
 10
63.76176615701711
 20
159.5000786263665
 30
0.0
 10
63.76176615731018
 20
159.5000786263665
 30
0.0
 10
63.38047796828257
 20
159.5000786263665
 30
0.0
 10
62.14305434669898
 20
159.5000786263665
 30
0.0
 10
61.38047796819227
 20
159.5000786263665
 30
0.0
 10
60.14305434631562
 20
159.5000786263665
 30
0.0
 10
59.76176615701711
 20
159.5000786263665
 30
0.0
 10
59.76176615701711
 20
159.5000786263665
 30
0.0
  0
LINE
  5
9E
330
1F
100
AcDbEntity
  8
0
  6
Continuous
 62
     7
370
    18
100
AcDbLine
 10
62.5711741828
 20
166.8470319692
 30
0.0
 11
62.7558321663
 21
166.8926467519
 31
0.0
  0
SPLINE
  5
9F
330
1F
100
AcDbEntity
  8
0
  6
Continuous
 62
     8
370
    18
100
AcDbSpline
210
0.0
220
0.0
230
1.0
 70
     8
 71
     3
 72
    11
 73
     7
 74
     0
 42
0.000000001
 43
0.00000001
 40
0.0
 40
0.0
 40
0.0
 40
0.0
 40
0.3386678765476321
 40
0.6830977802228775
 40
0.8609607551054502
 40
1.0
 40
1.0
 40
1.0
 40
1.0
 10
62.50250433515481
 20
166.5490441356023
 30
0.0
 10
62.60158976779255
 20
166.5661639675392
 30
0.0
 10
62.80144645268762
 20
166.6006949047899
 30
0.0
 10
63.01408806294859
 20
166.7156375835114
 30
0.0
 10
63.14728734537782
 20
166.844444174703
 30
0.0
 10
63.19292284742284
 20
166.9251308954186
 30
0.0
 10
63.2129451929564
 20
166.9605317857286
 30
0.0
  0
LINE
  5
A0
330
1F
100
AcDbEntity
  8
0
  6
Continuous
 62
     8
370
    18
100
AcDbLine
 10
60.7315437607
 20
166.9015464705
 30
0.0
 11
60.9523578402
 21
166.8470319692
 31
0.0
  0
SPLINE
  5
A1
330
1F
100
AcDbEntity
  8
0
  6
Continuous
 62
     8
370
    18
100
AcDbSpline
210
0.0
220
0.0
230
1.0
 70
     8
 71
     3
 72
    11
 73
     7
 74
     0
 42
0.000000001
 43
0.00000001
 40
0.0
 40
0.0
 40
0.0
 40
0.0
 40
0.1394356876023531
 40
0.3174492299708979
 40
0.6619685200791104
 40
0.9999999999999999
 40
0.9999999999999999
 40
0.9999999999999999
 40
0.9999999999999999
 10
60.31057757502145
 20
166.9605350453576
 30
0.0
 10
60.33066619923091
 20
166.9250402758822
 30
0.0
 10
60.37640139368599
 20
166.8442303524566
 30
0.0
 10
60.50979431669158
 20
166.7153767530245
 30
0.0
 10
60.72242360994711
 20
166.6006164175029
 30
0.0
 10
60.92212581206726
 20
166.5661256150956
 30
0.0
 10
61.02102780425644
 20
166.5490441356023
 30
0.0
  0
DIMENSION
  5
A2
330
1F
100
AcDbEntity
  8
0
  6
Continuous
 62
     7
370
    18
100
AcDbDimension
  2
_D
 10
64.9530646151
 20
166.4641659933
 30
0.0
 11
47.1859219271
 21
197.0634929125
 31
0.0
 70
   163
  1
<>
 71
     1
 42
-1.0
  3
SLDDIMSTYLE0
100
AcDbDiametricDimension
 15
58.5704676989
 25
181.1359912594
 35
0.0
 40
0.0
  0
INSERT
  5
B2
330
1F
100
AcDbEntity
  8
0
  6
Continuous
 62
     7
370
     0
100
AcDbBlockReference
  2
SW_NOTE_0
 10
57.6227495149
 20
147.7968199817
 30
0.0
  0
LEADER
  5
B4
330
1F
100
AcDbEntity
  8
0
  6
Continuous
 62
     7
370
     0
100
AcDbLeader
  3
SLDDIMSTYLE1
 76
     2
 10
61.8233344005
 20
162.7532705482
 30
0.0
 10
57.6227495149
 20
147.7968199817
 30
0.0
  0
INSERT
  5
BA
330
1F
100
AcDbEntity
  8
0
  6
Continuous
 62
     7
370
     0
100
AcDbBlockReference
  2
SW_NOTE_1
 10
72.8804475854
 20
196.5600708651
 30
0.0
  0
LEADER
  5
BB
330
1F
100
AcDbEntity
  8
0
  6
Continuous
 62
     7
370
     0
100
AcDbLeader
  3
SLDDIMSTYLE1
 76
     2
 10
63.0059915708
 20
175.4917946545
 30
0.0
 10
72.8804475854
 20
196.5600708651
 30
0.0
  0
INSERT
  5
C7
330
1F
100
AcDbEntity
  8
0
  6
Continuous
 62
     7
370
    18
100
AcDbBlockReference
  2
SW_CENTERMARKSYMBOL_0
 10
61.761766157
 20
173.8000786264
 30
0.0
  0
LINE
  5
C8
330
1F
100
AcDbEntity
  8
0
  6
Continuous
 62
     7
370
    18
100
AcDbLine
 10
175.3260178341
 20
169.3000786264
 30
0.0
 11
175.9260178341
 21
169.3000786264
 31
0.0
  0
LINE
  5
C9
330
1F
100
AcDbEntity
  8
0
  6
Continuous
 62
     7
370
    18
100
AcDbLine
 10
175.9260178341
 20
177.5838174113
 30
0.0
 11
175.3260178341
 21
177.5838174113
 31
0.0
  0
LINE
  5
CA
330
1F
100
AcDbEntity
  8
0
  6
Continuous
 62
     7
370
    18
100
AcDbLine
 10
111.9260178341
 20
180.8000786264
 30
0.0
 11
110.5260178341
 21
180.8000786264
 31
0.0
  0
LINE
  5
CB
330
1F
100
AcDbEntity
  8
0
  6
Continuous
 62
     7
370
    18
100
AcDbLine
 10
110.6760074937
 20
166.8000786264
 30
0.0
 11
111.9260178341
 21
166.8000786264
 31
0.0
  0
LINE
  5
CC
330
1F
100
AcDbEntity
  8
0
  6
Continuous
 62
     7
370
    18
100
AcDbLine
 10
105.9260178341
 20
180.8000786264
 30
0.0
 11
104.5260178341
 21
180.8000786264
 31
0.0
  0
LINE
  5
CD
330
1F
100
AcDbEntity
  8
0
  6
Continuous
 62
     7
370
    18
100
AcDbLine
 10
104.5260178341
 20
166.8000786264
 30
0.0
 11
105.7760281745
 21
166.8000786264
 31
0.0
  0
SPLINE
  5
CE
330
1F
100
AcDbEntity
  8
0
  6
Continuous
 62
     7
370
    18
100
AcDbSpline
210
0.0
220
0.0
230
1.0
 70
     8
 71
     3
 72
    13
 73
     9
 74
     0
 42
0.000000001
 43
0.00000001
 40
0.0
 40
0.0
 40
0.0
 40
0.0
 40
0.2394568445579554
 40
0.3683606603995837
 40
0.500000000134529
 40
0.6316393398649053
 40
0.7605431556802862
 40
0.9999999999999999
 40
0.9999999999999999
 40
0.9999999999999999
 40
0.9999999999999999
 10
110.526017833911
 20
180.8000786263181
 30
0.0
 10
110.488278937663
 20
180.7960712293274
 30
0.0
 10
110.4302245322008
 20
180.789906580308
 30
0.0
 10
110.3603797073337
 20
180.7524973010318
 30
0.0
 10
110.3123176895702
 20
180.7137787706513
 30
0.0
 10
110.2735991591786
 20
180.6657167529021
 30
0.0
 10
110.2361898798838
 20
180.595871928099
 30
0.0
 10
110.2300252307692
 20
180.5378175226938
 30
0.0
 10
110.2260178337177
 20
180.5000786264933
 30
0.0
  0
SPLINE
  5
CF
330
1F
100
AcDbEntity
  8
0
  6
Continuous
 62
     7
370
    18
100
AcDbSpline
210
0.0
220
0.0
230
1.0
 70
     8
 71
     3
 72
    13
 73
     9
 74
     0
 42
0.000000001
 43
0.00000001
 40
0.0
 40
0.0
 40
0.0
 40
0.0
 40
0.2394568443197192
 40
0.3683606601351008
 40
0.4999999998654737
 40
0.6316393396004102
 40
0.7605431554420505
 40
1.0
 40
1.0
 40
1.0
 40
1.0
 10
106.2260178344895
 20
180.5000786264933
 30
0.0
 10
106.222010437438
 20
180.5378175226938
 30
0.0
 10
106.2158457883234
 20
180.5958719280991
 30
0.0
 10
106.1784365090286
 20
180.6657167529021
 30
0.0
 10
106.139717978637
 20
180.7137787706514
 30
0.0
 10
106.0916559608735
 20
180.7524973010318
 30
0.0
 10
106.0218111360064
 20
180.789906580308
 30
0.0
 10
105.9637567305442
 20
180.7960712293274
 30
0.0
 10
105.9260178342962
 20
180.8000786263181
 30
0.0
  0
SPLINE
  5
D0
330
1F
100
AcDbEntity
  8
0
  6
Continuous
 62
     7
370
    18
100
AcDbSpline
210
0.0
220
0.0
230
1.0
 70
     8
 71
     3
 72
    13
 73
     9
 74
     0
 42
0.000000001
 43
0.00000001
 40
0.0
 40
0.0
 40
0.0
 40
0.0
 40
0.2394568445579434
 40
0.3683606603995823
 40
0.5000000001345151
 40
0.6316393398648972
 40
0.7605431556802777
 40
1.0
 40
1.0
 40
1.0
 40
1.0
 10
111.9260178342962
 20
166.8000786264149
 30
0.0
 10
111.9637567305442
 20
166.8040860234056
 30
0.0
 10
112.0218111360064
 20
166.810250672425
 30
0.0
 10
112.0916559608735
 20
166.8476599517012
 30
0.0
 10
112.139717978637
 20
166.8863784820816
 30
0.0
 10
112.1784365090286
 20
166.9344404998309
 30
0.0
 10
112.2158457883234
 20
167.0042853246339
 30
0.0
 10
112.222010437438
 20
167.0623397300392
 30
0.0
 10
112.2260178344895
 20
167.1000786262397
 30
0.0
  0
SPLINE
  5
D1
330
1F
100
AcDbEntity
  8
0
  6
Continuous
 62
     7
370
    18
100
AcDbSpline
210
0.0
220
0.0
230
1.0
 70
     8
 71
     3
 72
    13
 73
     9
 74
     0
 42
0.000000001
 43
0.00000001
 40
0.0
 40
0.0
 40
0.0
 40
0.0
 40
0.2394568443197251
 40
0.3683606601351065
 40
0.4999999998654873
 40
0.6316393396004155
 40
0.760543155442059
 40
0.9999999999999999
 40
0.9999999999999999
 40
0.9999999999999999
 40
0.9999999999999999
 10
112.2260178344895
 20
180.5000786264933
 30
0.0
 10
112.222010437438
 20
180.5378175226938
 30
0.0
 10
112.2158457883235
 20
180.595871928099
 30
0.0
 10
112.1784365090286
 20
180.6657167529021
 30
0.0
 10
112.139717978637
 20
180.7137787706513
 30
0.0
 10
112.0916559608735
 20
180.7524973010318
 30
0.0
 10
112.0218111360064
 20
180.789906580308
 30
0.0
 10
111.9637567305442
 20
180.7960712293274
 30
0.0
 10
111.9260178342962
 20
180.8000786263181
 30
0.0
  0
SPLINE
  5
D2
330
1F
100
AcDbEntity
  8
0
  6
Continuous
 62
     7
370
    18
100
AcDbSpline
210
0.0
220
0.0
230
1.0
 70
     8
 71
     3
 72
    13
 73
     9
 74
     0
 42
0.000000001
 43
0.00000001
 40
0.0
 40
0.0
 40
0.0
 40
0.0
 40
0.2394568445579588
 40
0.3683606603995922
 40
0.5000000001345372
 40
0.6316393398649076
 40
0.7605431556802945
 40
1.0
 40
1.0
 40
1.0
 40
1.0
 10
104.526017833911
 20
180.8000786263181
 30
0.0
 10
104.488278937663
 20
180.7960712293274
 30
0.0
 10
104.4302245322008
 20
180.789906580308
 30
0.0
 10
104.3603797073337
 20
180.7524973010318
 30
0.0
 10
104.3123176895702
 20
180.7137787706513
 30
0.0
 10
104.2735991591786
 20
180.6657167529021
 30
0.0
 10
104.2361898798838
 20
180.595871928099
 30
0.0
 10
104.2300252307692
 20
180.5378175226938
 30
0.0
 10
104.2260178337177
 20
180.5000786264933
 30
0.0
  0
SPLINE
  5
D3
330
1F
100
AcDbEntity
  8
0
  6
Continuous
 62
     7
370
    18
100
AcDbSpline
210
0.0
220
0.0
230
1.0
 70
     8
 71
     3
 72
    13
 73
     9
 74
     0
 42
0.000000001
 43
0.00000001
 40
0.0
 40
0.0
 40
0.0
 40
0.0
 40
0.2394568443197147
 40
0.3683606601351023
 40
0.4999999998654677
 40
0.6316393396004099
 40
0.7605431554420439
 40
1.0
 40
1.0
 40
1.0
 40
1.0
 10
104.2260178337177
 20
167.1000786262397
 30
0.0
 10
104.2300252307692
 20
167.0623397300392
 30
0.0
 10
104.2361898798838
 20
167.0042853246339
 30
0.0
 10
104.2735991591786
 20
166.9344404998309
 30
0.0
 10
104.3123176895702
 20
166.8863784820816
 30
0.0
 10
104.3603797073337
 20
166.8476599517012
 30
0.0
 10
104.4302245322008
 20
166.810250672425
 30
0.0
 10
104.488278937663
 20
166.8040860234056
 30
0.0
 10
104.526017833911
 20
166.8000786264149
 30
0.0
  0
SPLINE
  5
D4
330
1F
100
AcDbEntity
  8
0
  6
Continuous
 62
     7
370
    18
100
AcDbSpline
210
0.0
220
0.0
230
1.0
 70
     8
 71
     3
 72
    13
 73
     9
 74
     0
 42
0.000000001
 43
0.00000001
 40
0.0
 40
0.0
 40
0.0
 40
0.0
 40
0.2394568443197142
 40
0.3683606601351004
 40
0.4999999998654692
 40
0.6316393396004082
 40
0.7605431554420459
 40
1.0
 40
1.0
 40
1.0
 40
1.0
 10
97.22601783448948
 20
179.0000786264933
 30
0.0
 10
97.22201043743799
 20
179.0378175226938
 30
0.0
 10
97.21584578832346
 20
179.0958719280991
 30
0.0
 10
97.17843650902863
 20
179.1657167529021
 30
0.0
 10
97.139717978637
 20
179.2137787706514
 30
0.0
 10
97.09165596087347
 20
179.2524973010317
 30
0.0
 10
97.02181113600642
 20
179.289906580308
 30
0.0
 10
96.96375673054419
 20
179.2960712293274
 30
0.0
 10
96.92601783429616
 20
179.3000786263181
 30
0.0
  0
SPLINE
  5
D5
330
1F
100
AcDbEntity
  8
0
  6
Continuous
 62
     7
370
    18
100
AcDbSpline
210
0.0
220
0.0
230
1.0
 70
     8
 71
     3
 72
    13
 73
     9
 74
     0
 42
0.000000001
 43
0.00000001
 40
0.0
 40
0.0
 40
0.0
 40
0.0
 40
0.2394568445579545
 40
0.3683606603995894
 40
0.50000000013453
 40
0.6316393398648996
 40
0.7605431556802855
 40
1.0
 40
1.0
 40
1.0
 40
1.0
 10
96.92601783429616
 20
168.3000786264148
 30
0.0
 10
96.96375673054419
 20
168.3040860234056
 30
0.0
 10
97.02181113600642
 20
168.310250672425
 30
0.0
 10
97.09165596087347
 20
168.3476599517012
 30
0.0
 10
97.139717978637
 20
168.3863784820816
 30
0.0
 10
97.17843650902863
 20
168.4344404998309
 30
0.0
 10
97.21584578832346
 20
168.5042853246339
 30
0.0
 10
97.222010437438
 20
168.5623397300392
 30
0.0
 10
97.22601783448948
 20
168.6000786262397
 30
0.0
  0
SPLINE
  5
D6
330
1F
100
AcDbEntity
  8
0
  6
Continuous
 62
     7
370
    18
100
AcDbSpline
210
0.0
220
0.0
230
1.0
 70
     8
 71
     3
 72
    13
 73
     9
 74
     0
 42
0.000000001
 43
0.00000001
 40
0.0
 40
0.0
 40
0.0
 40
0.0
 40
0.2394568445579534
 40
0.3683606603995902
 40
0.5000000001345303
 40
0.631639339864899
 40
0.760543155680285
 40
1.0
 40
1.0
 40
1.0
 40
1.0
 10
95.52601783391103
 20
179.3000786263181
 30
0.0
 10
95.48827893766301
 20
179.2960712293274
 30
0.0
 10
95.4302245322008
 20
179.289906580308
 30
0.0
 10
95.36037970733375
 20
179.2524973010317
 30
0.0
 10
95.31231768957021
 20
179.2137787706513
 30
0.0
 10
95.27359915917857
 20
179.1657167529021
 30
0.0
 10
95.23618987988375
 20
179.095871928099
 30
0.0
 10
95.2300252307692
 20
179.0378175226938
 30
0.0
 10
95.22601783371773
 20
179.0000786264933
 30
0.0
  0
SPLINE
  5
D7
330
1F
100
AcDbEntity
  8
0
  6
Continuous
 62
     7
370
    18
100
AcDbSpline
210
0.0
220
0.0
230
1.0
 70
     8
 71
     3
 72
    13
 73
     9
 74
     0
 42
0.000000001
 43
0.00000001
 40
0.0
 40
0.0
 40
0.0
 40
0.0
 40
0.2394568443197151
 40
0.3683606601351012
 40
0.4999999998654712
 40
0.6316393396004113
 40
0.7605431554420463
 40
1.0
 40
1.0
 40
1.0
 40
1.0
 10
95.22601783371773
 20
168.6000786262397
 30
0.0
 10
95.2300252307692
 20
168.5623397300392
 30
0.0
 10
95.23618987988375
 20
168.5042853246339
 30
0.0
 10
95.27359915917857
 20
168.4344404998309
 30
0.0
 10
95.31231768957021
 20
168.3863784820816
 30
0.0
 10
95.36037970733375
 20
168.3476599517012
 30
0.0
 10
95.4302245322008
 20
168.310250672425
 30
0.0
 10
95.48827893766301
 20
168.3040860234056
 30
0.0
 10
95.52601783391103
 20
168.3000786264148
 30
0.0
  0
LINE
  5
D8
330
1F
100
AcDbEntity
  8
0
  6
Continuous
 62
     7
370
    18
100
AcDbLine
 10
96.9260178341
 20
179.3000786264
 30
0.0
 11
95.5260178341
 21
179.3000786264
 31
0.0
  0
LINE
  5
D9
330
1F
100
AcDbEntity
  8
0
  6
Continuous
 62
     7
370
    18
100
AcDbLine
 10
95.5260178341
 20
168.3000786264
 30
0.0
 11
96.9260178341
 21
168.3000786264
 31
0.0
  0
SPLINE
  5
DA
330
1F
100
AcDbEntity
  8
0
  6
Continuous
 62
     7
370
    18
100
AcDbSpline
210
0.0
220
0.0
230
1.0
 70
     8
 71
     3
 72
    13
 73
     9
 74
     0
 42
0.000000001
 43
0.00000001
 40
0.0
 40
0.0
 40
0.0
 40
0.0
 40
0.2394568445579616
 40
0.3683606603995994
 40
0.5000000001345293
 40
0.6316393398649034
 40
0.7605431556802881
 40
0.9999999999999999
 40
0.9999999999999999
 40
0.9999999999999999
 40
0.9999999999999999
 10
118.9260178342962
 20
169.3000786264148
 30
0.0
 10
118.9637567305442
 20
169.3040860234056
 30
0.0
 10
119.0218111360064
 20
169.310250672425
 30
0.0
 10
119.0916559608735
 20
169.3476599517012
 30
0.0
 10
119.139717978637
 20
169.3863784820816
 30
0.0
 10
119.1784365090286
 20
169.4344404998309
 30
0.0
 10
119.2158457883234
 20
169.5042853246339
 30
0.0
 10
119.222010437438
 20
169.5623397300392
 30
0.0
 10
119.2260178344895
 20
169.6000786262397
 30
0.0
  0
SPLINE
  5
DB
330
1F
100
AcDbEntity
  8
0
  6
Continuous
 62
     7
370
    18
100
AcDbSpline
210
0.0
220
0.0
230
1.0
 70
     8
 71
     3
 72
    13
 73
     9
 74
     0
 42
0.000000001
 43
0.00000001
 40
0.0
 40
0.0
 40
0.0
 40
0.0
 40
0.2394568443197091
 40
0.3683606601350932
 40
0.4999999998654678
 40
0.6316393396004026
 40
0.7605431554420398
 40
1.0
 40
1.0
 40
1.0
 40
1.0
 10
119.2260178344895
 20
178.0000786264933
 30
0.0
 10
119.222010437438
 20
178.0378175226938
 30
0.0
 10
119.2158457883235
 20
178.0958719280991
 30
0.0
 10
119.1784365090286
 20
178.1657167529021
 30
0.0
 10
119.139717978637
 20
178.2137787706514
 30
0.0
 10
119.0916559608735
 20
178.2524973010318
 30
0.0
 10
119.0218111360064
 20
178.289906580308
 30
0.0
 10
118.9637567305442
 20
178.2960712293274
 30
0.0
 10
118.9260178342962
 20
178.3000786263181
 30
0.0
  0
LINE
  5
DC
330
1F
100
AcDbEntity
  8
0
  6
Continuous
 62
     7
370
    18
100
AcDbLine
 10
118.9260178341
 20
178.3000786264
 30
0.0
 11
116.4766732202
 21
178.3000786264
 31
0.0
  0
LINE
  5
DD
330
1F
100
AcDbEntity
  8
0
  6
Continuous
 62
     7
370
    18
100
AcDbLine
 10
115.4552862955
 20
178.3000786264
 30
0.0
 11
112.2260178341
 21
178.3000786264
 31
0.0
  0
LINE
  5
DE
330
1F
100
AcDbEntity
  8
0
  6
Continuous
 62
     7
370
    18
100
AcDbLine
 10
112.2260178341
 20
169.3000786264
 30
0.0
 11
116.9872793412
 21
169.3000786264
 31
0.0
  0
LINE
  5
DF
330
1F
100
AcDbEntity
  8
0
  6
Continuous
 62
     7
370
    18
100
AcDbLine
 10
118.0099924202
 20
169.3000786264
 30
0.0
 11
118.9260178341
 21
169.3000786264
 31
0.0
  0
LINE
  5
E0
330
1F
100
AcDbEntity
  8
0
  6
Continuous
 62
     7
370
    18
100
AcDbLine
 10
110.2260178341
 20
178.3000786264
 30
0.0
 11
106.2260178341
 21
178.3000786264
 31
0.0
  0
LINE
  5
E1
330
1F
100
AcDbEntity
  8
0
  6
Continuous
 62
     7
370
    18
100
AcDbLine
 10
104.2260178341
 20
177.7000786264
 30
0.0
 11
97.2260178341
 21
177.7000786264
 31
0.0
  0
LINE
  5
E2
330
1F
100
AcDbEntity
  8
0
  6
Continuous
 62
     7
370
    18
100
AcDbLine
 10
97.2260178341
 20
169.9000786264
 30
0.0
 11
104.2260178341
 21
169.9000786264
 31
0.0
  0
SPLINE
  5
E3
330
1F
100
AcDbEntity
  8
0
  6
Continuous
 62
     7
370
    18
100
AcDbSpline
210
0.0
220
0.0
230
1.0
 70
     8
 71
     3
 72
    10
 73
     6
 74
     0
 42
0.000000001
 43
0.00000001
 40
0.0
 40
0.0
 40
0.0
 40
0.0
 40
0.2072307843908167
 40
0.4846517688018639
 40
0.9999999999999999
 40
0.9999999999999999
 40
0.9999999999999999
 40
0.9999999999999999
 10
175.1486136719636
 20
170.9008278560825
 30
0.0
 10
175.1585311138715
 20
170.9122008461397
 30
0.0
 10
175.1817250895
 20
170.9387989201856
 30
0.0
 10
175.2154807218553
 20
171.0046139540767
 30
0.0
 10
175.2218666152154
 20
171.0624691974677
 30
0.0
 10
175.2260178344895
 20
171.1000786262397
 30
0.0
  0
SPLINE
  5
E4
330
1F
100
AcDbEntity
  8
0
  6
Continuous
 62
     7
370
    18
100
AcDbSpline
210
0.0
220
0.0
230
1.0
 70
     8
 71
     3
 72
    10
 73
     6
 74
     0
 42
0.000000001
 43
0.00000001
 40
0.0
 40
0.0
 40
0.0
 40
0.0
 40
0.5153981217219133
 40
0.7928459630771942
 40
0.9999999999999999
 40
0.9999999999999999
 40
0.9999999999999999
 40
0.9999999999999999
 10
175.2260178344895
 20
176.5000786264931
 30
0.0
 10
175.2218665204341
 20
176.5376879817713
 30
0.0
 10
175.2154804812704
 20
176.5955431121056
 30
0.0
 10
175.181728781246
 20
176.6613522905809
 30
0.0
 10
175.1585396883694
 20
176.6879452461705
 30
0.0
 10
175.1486269859691
 20
176.6993130066993
 30
0.0
  0
SPLINE
  5
E5
330
1F
100
AcDbEntity
  8
0
  6
Continuous
 62
     7
370
    18
100
AcDbSpline
210
0.0
220
0.0
230
1.0
 70
     8
 71
     3
 72
    10
 73
     6
 74
     0
 42
0.000000001
 43
0.00000001
 40
0.0
 40
0.0
 40
0.0
 40
0.0
 40
0.5153482314382914
 40
0.7927692159786806
 40
1.0
 40
1.0
 40
1.0
 40
1.0
 10
175.9260178337178
 20
171.1000786262397
 30
0.0
 10
175.9301690529923
 20
171.062469197468
 30
0.0
 10
175.936554946353
 20
171.0046139540776
 30
0.0
 10
175.9703105786894
 20
170.9387989202147
 30
0.0
 10
175.9935045542945
 20
170.9122008461935
 30
0.0
 10
176.0034219961795
 20
170.9008278561614
 30
0.0
  0
SPLINE
  5
E6
330
1F
100
AcDbEntity
  8
0
  6
Continuous
 62
     7
370
    18
100
AcDbSpline
210
0.0
220
0.0
230
1.0
 70
     8
 71
     3
 72
    10
 73
     6
 74
     0
 42
0.000000001
 43
0.00000001
 40
0.0
 40
0.0
 40
0.0
 40
0.0
 40
0.207230784021377
 40
0.4846517685617541
 40
0.9999999999999999
 40
0.9999999999999999
 40
0.9999999999999999
 40
0.9999999999999999
 10
176.0034219961795
 20
176.6993293965716
 30
0.0
 10
175.9935045542945
 20
176.6879564065395
 30
0.0
 10
175.9703105786894
 20
176.6613583325183
 30
0.0
 10
175.936554946353
 20
176.5955432986553
 30
0.0
 10
175.9301690529923
 20
176.5376880552649
 30
0.0
 10
175.9260178337177
 20
176.5000786264933
 30
0.0
  0
LINE
  5
E7
330
1F
100
AcDbEntity
  8
0
  6
Continuous
 62
     7
370
    18
100
AcDbLine
 10
176.8260040962
 20
170.9000648884
 30
0.0
 11
177.2260178341
 21
171.3000786264
 31
0.0
  0
LINE
  5
E8
330
1F
100
AcDbEntity
  8
0
  6
Continuous
 62
     7
370
    18
100
AcDbLine
 10
177.2260178341
 20
176.3000786264
 30
0.0
 11
176.8260040961
 21
176.7000923643
 31
0.0
  0
LINE
  5
E9
330
1F
100
AcDbEntity
  8
0
  6
Continuous
 62
     7
370
    18
100
AcDbLine
 10
105.8760178341
 20
162.0000786264
 30
0.0
 11
106.2260178341
 21
159.5000786264
 31
0.0
  0
LINE
  5
EA
330
1F
100
AcDbEntity
  8
0
  6
Continuous
 62
     7
370
    18
100
AcDbLine
 10
110.2260178341
 20
159.5000786264
 30
0.0
 11
110.5760178341
 21
162.0000786264
 31
0.0
  0
LINE
  5
EB
330
1F
100
AcDbEntity
  8
0
  6
Continuous
 62
     7
370
    18
100
AcDbLine
 10
105.8760178341
 20
164.5000786264
 30
0.0
 11
106.2260178341
 21
162.0000786264
 31
0.0
  0
LINE
  5
EC
330
1F
100
AcDbEntity
  8
0
  6
Continuous
 62
     7
370
    18
100
AcDbLine
 10
110.2260178341
 20
162.0000786264
 30
0.0
 11
110.5760178341
 21
164.5000786264
 31
0.0
  0
LINE
  5
ED
330
1F
100
AcDbEntity
  8
0
  6
Continuous
 62
     7
370
    18
100
AcDbLine
 10
106.0760178341
 20
166.5000820495
 30
0.0
 11
106.0760178341
 21
164.5000786264
 31
0.0
  0
LINE
  5
EE
330
1F
100
AcDbEntity
  8
0
  6
Continuous
 62
     7
370
    18
100
AcDbLine
 10
110.3760178341
 20
164.5000786264
 30
0.0
 11
110.3760178341
 21
166.5000820495
 31
0.0
  0
LINE
  5
EF
330
1F
100
AcDbEntity
  8
0
  6
Continuous
 62
     7
370
    18
100
AcDbLine
 10
175.3260178341
 20
175.8000786264
 30
0.0
 11
175.2260178341
 21
175.8000786264
 31
0.0
  0
LINE
  5
F0
330
1F
100
AcDbEntity
  8
0
  6
Continuous
 62
     7
370
    18
100
AcDbLine
 10
175.2260178341
 20
171.8000786264
 30
0.0
 11
175.3260178341
 21
171.8000786264
 31
0.0
  0
SPLINE
  5
F1
330
1F
100
AcDbEntity
  8
0
  6
Continuous
 62
     7
370
    18
100
AcDbSpline
210
0.0
220
0.0
230
1.0
 70
     8
 71
     3
 72
    13
 73
     9
 74
     0
 42
0.000000001
 43
0.00000001
 40
0.0
 40
0.0
 40
0.0
 40
0.0
 40
0.2394568444189901
 40
0.3683606602625918
 40
0.5000000000178362
 40
0.631639339770116
 40
0.7605431556055334
 40
1.0
 40
1.0
 40
1.0
 40
1.0
 10
110.3760178342603
 20
166.5000786264197
 30
0.0
 10
110.3800252312423
 20
166.5378175226313
 30
0.0
 10
110.3861898802494
 20
166.5958719280496
 30
0.0
 10
110.4235991594722
 20
166.6657167528892
 30
0.0
 10
110.4623176898184
 20
166.71377877066
 30
0.0
 10
110.510379707542
 20
166.7524973010625
 30
0.0
 10
110.580224532333
 20
166.7899065803649
 30
0.0
 10
110.6382789377396
 20
166.7960712294357
 30
0.0
 10
110.676017833943
 20
166.800078626459
 30
0.0
  0
SPLINE
  5
F2
330
1F
100
AcDbEntity
  8
0
  6
Continuous
 62
     7
370
    18
100
AcDbSpline
210
0.0
220
0.0
230
1.0
 70
     8
 71
     3
 72
    13
 73
     9
 74
     0
 42
0.000000001
 43
0.00000001
 40
0.0
 40
0.0
 40
0.0
 40
0.0
 40
0.2394568443944676
 40
0.368360660229873
 40
0.4999999999821567
 40
0.6316393397373983
 40
0.7605431555810073
 40
1.0
 40
1.0
 40
1.0
 40
1.0
 10
105.7760178342642
 20
166.800078626459
 30
0.0
 10
105.8137567304676
 20
166.7960712294357
 30
0.0
 10
105.8718111358742
 20
166.7899065803649
 30
0.0
 10
105.9416559606652
 20
166.7524973010625
 30
0.0
 10
105.9897179783888
 20
166.71377877066
 30
0.0
 10
106.0284365087349
 20
166.6657167528892
 30
0.0
 10
106.0658457879578
 20
166.5958719280496
 30
0.0
 10
106.0720104369649
 20
166.5378175226313
 30
0.0
 10
106.0760178339469
 20
166.5000786264197
 30
0.0
  0
SPLINE
  5
F3
330
1F
100
AcDbEntity
  8
0
  6
Continuous
 62
     7
370
    18
100
AcDbSpline
210
0.0
220
0.0
230
1.0
 70
     8
 71
     3
 72
    14
 73
    10
 74
     0
 42
0.000000001
 43
0.00000001
 40
0.0
 40
0.0
 40
0.0
 40
0.0
 40
0.1398973199228016
 40
0.2750777181740705
 40
0.5323742529376124
 40
0.6553785092835356
 40
0.7745258312981598
 40
0.8895820292133426
 40
1.0
 40
1.0
 40
1.0
 40
1.0
 10
131.7318934115593
 20
170.5565756604951
 30
0.0
 10
131.7705150610562
 20
170.3446765990004
 30
0.0
 10
131.8464561528625
 20
169.9280230823259
 30
0.0
 10
132.0019521221697
 20
169.2141185398063
 30
0.0
 10
132.1724283807673
 20
168.633447164136
 30
0.0
 10
132.381535919027
 20
168.2077193308126
 30
0.0
 10
132.560266927034
 20
167.9780558838629
 30
0.0
 10
132.7616210364473
 20
167.828092911849
 30
0.0
 10
132.9174424682228
 20
167.809601988319
 30
0.0
 10
132.9937504834637
 20
167.8005467148662
 30
0.0
  0
SPLINE
  5
F4
330
1F
100
AcDbEntity
  8
0
  6
Continuous
 62
     7
370
    18
100
AcDbSpline
210
0.0
220
0.0
230
1.0
 70
     8
 71
     3
 72
    27
 73
    23
 74
     0
 42
0.000000001
 43
0.00000001
 40
0.0
 40
0.0
 40
0.0
 40
0.0
 40
0.0187273511520414
 40
0.0486564008826568
 40
0.0784498278907597
 40
0.1417329951477435
 40
0.2099594910339961
 40
0.2811926594931062
 40
0.3458467390757957
 40
0.4023604899175464
 40
0.4506485320561238
 40
0.498756822594507
 40
0.5545497140763035
 40
0.6181154818495529
 40
0.6892649489364386
 40
0.7614999728241749
 40
0.8322078612084013
 40
0.8671569003964577
 40
0.9023965433147699
 40
0.9454087146046886
 40
0.9712309999634335
 40
1.0
 40
1.0
 40
1.0
 40
1.0
 10
135.2976668607532
 20
178.8281931782492
 30
0.0
 10
135.2912377521377
 20
178.8302382944714
 30
0.0
 10
135.2745339864221
 20
178.8355518059205
 30
0.0
 10
135.334081844668
 20
178.7180785660652
 30
0.0
 10
135.4081648120254
 20
178.4934715545633
 30
0.0
 10
135.5265740018011
 20
178.0614780115006
 30
0.0
 10
135.6801989595203
 20
177.3247544535102
 30
0.0
 10
135.8402698280096
 20
176.4130814856676
 30
0.0
 10
135.9906962454926
 20
175.4516970441247
 30
0.0
 10
136.1236594415043
 20
174.5529311814586
 30
0.0
 10
136.2436598703929
 20
173.7232688757604
 30
0.0
 10
136.3631230698302
 20
172.8975907666461
 30
0.0
 10
136.4947485577796
 20
172.0083131245524
 30
0.0
 10
136.6449089064558
 20
171.0494960398737
 30
0.0
 10
136.807768120903
 20
170.1152857308163
 30
0.0
 10
136.9803914064788
 20
169.2897426694871
 30
0.0
 10
137.1322563996316
 20
168.7402110524343
 30
0.0
 10
137.2673970021069
 20
168.393025022925
 30
0.0
 10
137.3740861595979
 20
168.1732550672218
 30
0.0
 10
137.5456026446577
 20
167.9592613162866
 30
0.0
 10
137.7682954913347
 20
167.8237301070551
 30
0.0
 10
137.9160727461958
 20
167.8085718454068
 30
0.0
 10
137.9939497153809
 20
167.8005836101646
 30
0.0
  0
SPLINE
  5
F5
330
1F
100
AcDbEntity
  8
0
  6
Continuous
 62
     7
370
    18
100
AcDbSpline
210
0.0
220
0.0
230
1.0
 70
     8
 71
     3
 72
    25
 73
    21
 74
     0
 42
0.000000001
 43
0.00000001
 40
0.0
 40
0.0
 40
0.0
 40
0.0
 40
0.0274534484192718
 40
0.0603144863089444
 40
0.1201084651036823
 40
0.1723894532565431
 40
0.2277072750911108
 40
0.2887785063154183
 40
0.3549129119018156
 40
0.4209873702292043
 40
0.4859658926238729
 40
0.5498185330391113
 40
0.6132503637804599
 40
0.6780923915515517
 40
0.7445772547375925
 40
0.8135688544267737
 40
0.8528230949958601
 40
0.8971874872092924
 40
0.9471997597795704
 40
1.0
 40
1.0
 40
1.0
 40
1.0
 10
140.2972550450857
 20
178.8339636562737
 30
0.0
 10
140.2970763877136
 20
178.8262069264051
 30
0.0
 10
140.2966838822819
 20
178.809165599927
 30
0.0
 10
140.3581368182557
 20
178.6565404183398
 30
0.0
 10
140.4450614001426
 20
178.3684772505065
 30
0.0
 10
140.5752747871668
 20
177.8353071571304
 30
0.0
 10
140.7061474663224
 20
177.1789309194788
 30
0.0
 10
140.8497349618205
 20
176.3532012969803
 30
0.0
 10
141.0022555855567
 20
175.3772591305438
 30
0.0
 10
141.1580381935009
 20
174.3178349012192
 30
0.0
 10
141.3120917665721
 20
173.2479774763985
 30
0.0
 10
141.4640577349949
 20
172.2103532317892
 30
0.0
 10
141.6159904190233
 20
171.2286808889148
 30
0.0
 10
141.7705285319992
 20
170.318405848589
 30
0.0
 10
141.9342376747504
 20
169.4994476574875
 30
0.0
 10
142.0730045733199
 20
168.9347033033627
 30
0.0
 10
142.2259614684691
 20
168.4853949713238
 30
0.0
 10
142.3983023731696
 20
168.1483290253105
 30
0.0
 10
142.6464758436165
 20
167.866649595641
 30
0.0
 10
142.8649106796712
 20
167.8266009161181
 30
0.0
 10
142.9770897472102
 20
167.806033576191
 30
0.0
  0
SPLINE
  5
F6
330
1F
100
AcDbEntity
  8
0
  6
Continuous
 62
     7
370
    18
100
AcDbSpline
210
0.0
220
0.0
230
1.0
 70
     8
 71
     3
 72
    33
 73
    29
 74
     0
 42
0.000000001
 43
0.00000001
 40
0.0
 40
0.0
 40
0.0
 40
0.0
 40
0.0262900884036368
 40
0.0630470915606041
 40
0.0979807515557572
 40
0.1641931770416148
 40
0.2253564511678481
 40
0.2828796210771156
 40
0.3372094200873441
 40
0.3721273809370458
 40
0.4118963683711303
 40
0.4582701040339484
 40
0.4974364866930878
 40
0.540373312423287
 40
0.5870980631513485
 40
0.6375997358707348
 40
0.6856872737976992
 40
0.7270444064157667
 40
0.7616340791012977
 40
0.789412660352916
 40
0.8103449460064304
 40
0.8244080369244545
 40
0.8387627447186039
 40
0.8604226507480188
 40
0.8896819679308334
 40
0.9245879716789164
 40
0.9613023671261717
 40
1.0
 40
1.0
 40
1.0
 40
1.0
 10
145.305533226798
 20
178.8188676435083
 30
0.0
 10
145.2991063360784
 20
178.8186741829283
 30
0.0
 10
145.2836938064046
 20
178.8182102389995
 30
0.0
 10
145.3594495134696
 20
178.6521749981472
 30
0.0
 10
145.445099148137
 20
178.3649990670732
 30
0.0
 10
145.5660068838287
 20
177.8843531214616
 30
0.0
 10
145.7088245439759
 20
177.1648054413733
 30
0.0
 10
145.8440674606194
 20
176.3834516189914
 30
0.0
 10
145.9591220510672
 20
175.6541794213083
 30
0.0
 10
146.0603569740917
 20
174.9818422502315
 30
0.0
 10
146.1553675724635
 20
174.3340629420657
 30
0.0
 10
146.2538173224823
 20
173.6528657537256
 30
0.0
 10
146.3547482125235
 20
172.9564218000472
 30
0.0
 10
146.4560573408277
 20
172.2689788628831
 30
0.0
 10
146.566423143421
 20
171.5467635607621
 30
0.0
 10
146.6809568843792
 20
170.8417613167719
 30
0.0
 10
146.7913760246459
 20
170.2191969788524
 30
0.0
 10
146.889311095662
 20
169.7238386805792
 30
0.0
 10
146.9713286370846
 20
169.3545625924118
 30
0.0
 10
147.0370512443379
 20
169.0908288496435
 30
0.0
 10
147.0871192097022
 20
168.9100899896454
 30
0.0
 10
147.1253562006031
 20
168.7843319898803
 30
0.0
 10
147.1688597801584
 20
168.6481259383381
 30
0.0
 10
147.2330252682188
 20
168.4696447710128
 30
0.0
 10
147.3268741795454
 20
168.2621136171434
 30
0.0
 10
147.4582407609553
 20
168.0550409143405
 30
0.0
 10
147.6730638718637
 20
167.8500601476269
 30
0.0
 10
147.8847584560931
 20
167.8171187212643
 30
0.0
 10
147.99338939315
 20
167.800214849931
 30
0.0
  0
SPLINE
  5
F7
330
1F
100
AcDbEntity
  8
0
  6
Continuous
 62
     7
370
    18
100
AcDbSpline
210
0.0
220
0.0
230
1.0
 70
     8
 71
     3
 72
    17
 73
    13
 74
     0
 42
0.000000001
 43
0.00000001
 40
0.0
 40
0.0
 40
0.0
 40
0.0
 40
0.0255822847344365
 40
0.1044377010297634
 40
0.213546578539105
 40
0.3570323168817396
 40
0.4419584404824883
 40
0.5357004480859964
 40
0.6383367300770738
 40
0.7498968625455759
 40
0.8704306214663604
 40
0.9999999999999999
 40
0.9999999999999999
 40
0.9999999999999999
 40
0.9999999999999999
 10
150.2909781464738
 20
178.8403844595902
 30
0.0
 10
150.2862651712645
 20
178.8422715525312
 30
0.0
 10
150.2670248140803
 20
178.8499754636723
 30
0.0
 10
150.3374928124047
 20
178.7291222699474
 30
0.0
 10
150.418594063957
 20
178.4701922868897
 30
0.0
 10
150.5261852682379
 20
178.0626311872728
 30
0.0
 10
150.627847140632
 20
177.5848121949213
 30
0.0
 10
150.7191408746583
 20
177.1084862102544
 30
0.0
 10
150.8201450407241
 20
176.5278474494099
 30
0.0
 10
150.9311082617158
 20
175.8386424457846
 30
0.0
 10
151.0517807165226
 20
175.0432383541568
 30
0.0
 10
151.1356685101276
 20
174.467235002946
 30
0.0
 10
151.1791277381669
 20
174.1688285254852
 30
0.0
  0
SPLINE
  5
F8
330
1F
100
AcDbEntity
  8
0
  6
Continuous
 62
     7
370
    18
100
AcDbSpline
210
0.0
220
0.0
230
1.0
 70
     8
 71
     3
 72
    13
 73
     9
 74
     0
 42
0.000000001
 43
0.00000001
 40
0.0
 40
0.0
 40
0.0
 40
0.0
 40
0.1829754337394959
 40
0.3465841860910566
 40
0.4920188555220287
 40
0.6234328548254225
 40
0.8651043416905875
 40
1.0
 40
1.0
 40
1.0
 40
1.0
 10
150.4944469084386
 20
179.7999555095373
 30
0.0
 10
150.3778399673562
 20
179.7802943706971
 30
0.0
 10
150.1569681216574
 20
179.7430530882839
 30
0.0
 10
149.9305313009684
 20
179.5087569244085
 30
0.0
 10
149.787536959871
 20
179.258815975178
 30
0.0
 10
149.6670999899935
 20
178.9567642416303
 30
0.0
 10
149.5526385507274
 20
178.590498869652
 30
0.0
 10
149.4752850413197
 20
178.2452960693713
 30
0.0
 10
149.4475751024474
 20
178.1216358945769
 30
0.0
  0
LINE
  5
F9
330
1F
100
AcDbEntity
  8
0
  6
Continuous
 62
     7
370
    18
100
AcDbLine
 10
149.2260178341
 20
176.9992459965
 30
0.0
 11
149.1748637797
 21
176.7000786265
 31
0.0
  0
SPLINE
  5
FA
330
1F
100
AcDbEntity
  8
0
  6
Continuous
 62
     7
370
    18
100
AcDbSpline
210
0.0
220
0.0
230
1.0
 70
     8
 71
     3
 72
    10
 73
     6
 74
     0
 42
0.000000001
 43
0.00000001
 40
0.0
 40
0.0
 40
0.0
 40
0.0
 40
0.311653781762562
 40
0.7071037941220628
 40
1.0
 40
1.0
 40
1.0
 40
1.0
 10
148.2874656962586
 20
170.9000786260662
 30
0.0
 10
148.2549297815163
 20
170.7133822818246
 30
0.0
 10
148.1811098245455
 20
170.2897914220719
 30
0.0
 10
148.0759940808125
 20
169.7678408438786
 30
0.0
 10
148.0103197119653
 20
169.5115419984513
 30
0.0
 10
147.9823748014694
 20
169.4024850189726
 30
0.0
  0
SPLINE
  5
FB
330
1F
100
AcDbEntity
  8
0
  6
Continuous
 62
     7
370
    18
100
AcDbSpline
210
0.0
220
0.0
230
1.0
 70
     8
 71
     3
 72
    14
 73
    10
 74
     0
 42
0.000000001
 43
0.00000001
 40
0.0
 40
0.0
 40
0.0
 40
0.0
 40
0.0670785760728016
 40
0.1418551495303634
 40
0.3137793000143422
 40
0.5017808931028908
 40
0.7021524264190069
 40
0.9022818357293894
 40
0.9999999999999999
 40
0.9999999999999999
 40
0.9999999999999999
 40
0.9999999999999999
 10
145.4938791047632
 20
179.7998400849394
 30
0.0
 10
145.4220252577573
 20
179.7927800972543
 30
0.0
 10
145.2700715519975
 20
179.7778499113828
 30
0.0
 10
145.026658659943
 20
179.6302975050033
 30
0.0
 10
144.8120281530351
 20
179.338172984039
 30
0.0
 10
144.6110464791088
 20
178.8109439599172
 30
0.0
 10
144.435935162922
 20
178.1111977415656
 30
0.0
 10
144.2897216792654
 20
177.3899540675567
 30
0.0
 10
144.2035886125018
 20
176.8705012774863
 30
0.0
 10
144.175329979853
 20
176.7000786265288
 30
0.0
  0
SPLINE
  5
FC
330
1F
100
AcDbEntity
  8
0
  6
Continuous
 62
     7
370
    18
100
AcDbSpline
210
0.0
220
0.0
230
1.0
 70
     8
 71
     3
 72
    10
 73
     6
 74
     0
 42
0.000000001
 43
0.00000001
 40
0.0
 40
0.0
 40
0.0
 40
0.0
 40
0.0756606665957283
 40
0.5889130467150135
 40
1.0
 40
1.0
 40
1.0
 40
1.0
 10
143.2873999436892
 20
170.9000786260662
 30
0.0
 10
143.279587719802
 20
170.8524063028088
 30
0.0
 10
143.2187804235142
 20
170.4813435776614
 30
0.0
 10
143.1163427938089
 20
169.9512874289304
 30
0.0
 10
143.024120623787
 20
169.5701914015966
 30
0.0
 10
142.983106107224
 20
169.4007042888837
 30
0.0
  0
SPLINE
  5
FD
330
1F
100
AcDbEntity
  8
0
  6
Continuous
 62
     7
370
    18
100
AcDbSpline
210
0.0
220
0.0
230
1.0
 70
     8
 71
     3
 72
    16
 73
    12
 74
     0
 42
0.000000001
 43
0.00000001
 40
0.0
 40
0.0
 40
0.0
 40
0.0
 40
0.0831799493518096
 40
0.1567778964929804
 40
0.2753908526495699
 40
0.3622933112464881
 40
0.4446027283758427
 40
0.6151357479223005
 40
0.7941376261270987
 40
0.9806600860282005
 40
1.0
 40
1.0
 40
1.0
 40
1.0
 10
140.493923808254
 20
179.7996323898826
 30
0.0
 10
140.4156872622371
 20
179.791508093513
 30
0.0
 10
140.2682267118401
 20
179.7761953876839
 30
0.0
 10
140.0431631962507
 20
179.6379143117499
 30
0.0
 10
139.8666119634059
 20
179.4151102770618
 30
0.0
 10
139.7611703751602
 20
179.1937827439332
 30
0.0
 10
139.64701416046
 20
178.899146987168
 30
0.0
 10
139.5104335455343
 20
178.429458367198
 30
0.0
 10
139.3505598050832
 20
177.6965503030767
 30
0.0
 10
139.2386948910996
 20
177.1038257103152
 30
0.0
 10
139.1790917415801
 20
176.7347516040617
 30
0.0
 10
139.1734922735352
 20
176.7000786265288
 30
0.0
  0
SPLINE
  5
FE
330
1F
100
AcDbEntity
  8
0
  6
Continuous
 62
     7
370
    18
100
AcDbSpline
210
0.0
220
0.0
230
1.0
 70
     8
 71
     3
 72
    10
 73
     6
 74
     0
 42
0.000000001
 43
0.00000001
 40
0.0
 40
0.0
 40
0.0
 40
0.0
 40
0.1656059349364679
 40
0.71604581639005
 40
1.0
 40
1.0
 40
1.0
 40
1.0
 10
138.2863375087421
 20
170.9000786260662
 30
0.0
 10
138.2690451154126
 20
170.7961704561042
 30
0.0
 10
138.1942763826152
 20
170.3468930167508
 30
0.0
 10
138.0893474326955
 20
169.8171609393863
 30
0.0
 10
138.0094032404071
 20
169.5109597273695
 30
0.0
 10
137.9821972848447
 20
169.4067558280141
 30
0.0
  0
SPLINE
  5
FF
330
1F
100
AcDbEntity
  8
0
  6
Continuous
 62
     7
370
    18
100
AcDbSpline
210
0.0
220
0.0
230
1.0
 70
     8
 71
     3
 72
    15
 73
    11
 74
     0
 42
0.000000001
 43
0.00000001
 40
0.0
 40
0.0
 40
0.0
 40
0.0
 40
0.0703416285099035
 40
0.1551325540963723
 40
0.2542349356447263
 40
0.3633475988783257
 40
0.5560524205928637
 40
0.7247458787814358
 40
0.9036951495057964
 40
1.0
 40
1.0
 40
1.0
 40
1.0
 10
135.4941045977348
 20
179.799562288623
 30
0.0
 10
135.4204494373768
 20
179.7919162660347
 30
0.0
 10
135.2580091670737
 20
179.7750536053609
 30
0.0
 10
135.0739841247078
 20
179.6555856613995
 30
0.0
 10
134.9083820573176
 20
179.4728218146023
 30
0.0
 10
134.7325718256906
 20
179.1491278557076
 30
0.0
 10
134.5686798704361
 20
178.6580362391651
 30
0.0
 10
134.4130086960416
 20
177.9983420360383
 30
0.0
 10
134.2825745516629
 20
177.3472822677256
 30
0.0
 10
134.2030950850998
 20
176.8678281754563
 30
0.0
 10
134.1752871158282
 20
176.7000786265288
 30
0.0
  0
SPLINE
  5
100
330
1F
100
AcDbEntity
  8
0
  6
Continuous
 62
     7
370
    18
100
AcDbSpline
210
0.0
220
0.0
230
1.0
 70
     8
 71
     3
 72
    11
 73
     7
 74
     0
 42
0.000000001
 43
0.00000001
 40
0.0
 40
0.0
 40
0.0
 40
0.0
 40
0.0739548839798293
 40
0.6084140994886357
 40
0.8816021360391426
 40
1.0
 40
1.0
 40
1.0
 40
1.0
 10
133.2874000846568
 20
170.9000786260662
 30
0.0
 10
133.279547454574
 20
170.8521605507727
 30
0.0
 10
133.2149452186793
 20
170.4579467942227
 30
0.0
 10
133.1231771863674
 20
170.000374349014
 30
0.0
 10
133.0275597230699
 20
169.5619997889578
 30
0.0
 10
132.9888536873559
 20
169.4167138504368
 30
0.0
 10
132.9771507329212
 20
169.3727859542537
 30
0.0
  0
SPLINE
  5
101
330
1F
100
AcDbEntity
  8
0
  6
Continuous
 62
     7
370
    18
100
AcDbSpline
210
0.0
220
0.0
230
1.0
 70
     8
 71
     3
 72
    14
 73
    10
 74
     0
 42
0.000000001
 43
0.00000001
 40
0.0
 40
0.0
 40
0.0
 40
0.0
 40
0.0658087933311838
 40
0.1366665910035708
 40
0.293903183105905
 40
0.4716205368438692
 40
0.6698899750891885
 40
0.8702169347794877
 40
1.0
 40
1.0
 40
1.0
 40
1.0
 10
132.9707842968818
 20
167.8005669935537
 30
0.0
 10
133.0418739772763
 20
167.8073329417029
 30
0.0
 10
133.1895075043971
 20
167.8213839373471
 30
0.0
 10
133.4252326807604
 20
167.9592902342058
 30
0.0
 10
133.6323806309769
 20
168.2265226101856
 30
0.0
 10
133.8262618604728
 20
168.7034700151621
 30
0.0
 10
134.0004281966783
 20
169.3604595098489
 30
0.0
 10
134.1565742697595
 20
170.1088232918772
 30
0.0
 10
134.2523191883423
 20
170.6767842455966
 30
0.0
 10
134.289961392684
 20
170.9000786260662
 30
0.0
  0
SPLINE
  5
102
330
1F
100
AcDbEntity
  8
0
  6
Continuous
 62
     7
370
    18
100
AcDbSpline
210
0.0
220
0.0
230
1.0
 70
     8
 71
     3
 72
    10
 73
     6
 74
     0
 42
0.000000001
 43
0.00000001
 40
0.0
 40
0.0
 40
0.0
 40
0.0
 40
0.5072068415532969
 40
0.9869108666147831
 40
1.0
 40
1.0
 40
1.0
 40
1.0
 10
135.1765583229605
 20
176.7000786265288
 30
0.0
 10
135.2283590814759
 20
176.9889090956756
 30
0.0
 10
135.3291517508358
 20
177.5509084719804
 30
0.0
 10
135.4327474244307
 20
178.0257732996845
 30
0.0
 10
135.4798679609669
 20
178.199544173722
 30
0.0
 10
135.4811195347303
 20
178.2041597210562
 30
0.0
  0
SPLINE
  5
103
330
1F
100
AcDbEntity
  8
0
  6
Continuous
 62
     7
370
    18
100
AcDbSpline
210
0.0
220
0.0
230
1.0
 70
     8
 71
     3
 72
    16
 73
    12
 74
     0
 42
0.000000001
 43
0.00000001
 40
0.0
 40
0.0
 40
0.0
 40
0.0
 40
0.0861026019351836
 40
0.1613004762227078
 40
0.2537201564036131
 40
0.3237136576904532
 40
0.3839894553702
 40
0.4460844605745619
 40
0.6204712069448366
 40
0.8081541080817819
 40
1.0
 40
1.0
 40
1.0
 40
1.0
 10
137.9709188138135
 20
167.8005828218097
 30
0.0
 10
138.0521979549549
 20
167.8093528715105
 30
0.0
 10
138.2044623915506
 20
167.825782261116
 30
0.0
 10
138.4115447957009
 20
167.9586885140207
 30
0.0
 10
138.5655994930071
 20
168.1386511440892
 30
0.0
 10
138.6637764245336
 20
168.3195922761561
 30
0.0
 10
138.7275767236633
 20
168.4659307803832
 30
0.0
 10
138.8282420710751
 20
168.733688986808
 30
0.0
 10
138.9607233857683
 20
169.1964829762256
 30
0.0
 10
139.1261060013581
 20
169.948264667801
 30
0.0
 10
139.2362295461199
 20
170.580495692895
 30
0.0
 10
139.2918952822975
 20
170.9000786260662
 30
0.0
  0
SPLINE
  5
104
330
1F
100
AcDbEntity
  8
0
  6
Continuous
 62
     7
370
    18
100
AcDbSpline
210
0.0
220
0.0
230
1.0
 70
     8
 71
     3
 72
    10
 73
     6
 74
     0
 42
0.000000001
 43
0.00000001
 40
0.0
 40
0.0
 40
0.0
 40
0.0
 40
0.3216704916238808
 40
0.8319594382686991
 40
1.0
 40
1.0
 40
1.0
 40
1.0
 10
140.1790475934642
 20
176.7000786265288
 30
0.0
 10
140.2125808043961
 20
176.8949933186307
 30
0.0
 10
140.2993101502849
 20
177.3991151512948
 30
0.0
 10
140.4034458741544
 20
177.9073451086153
 30
0.0
 10
140.467381833029
 20
178.1412644287259
 30
0.0
 10
140.4832204989155
 20
178.1992125696601
 30
0.0
  0
SPLINE
  5
105
330
1F
100
AcDbEntity
  8
0
  6
Continuous
 62
     7
370
    18
100
AcDbSpline
210
0.0
220
0.0
230
1.0
 70
     8
 71
     3
 72
    15
 73
    11
 74
     0
 42
0.000000001
 43
0.00000001
 40
0.0
 40
0.0
 40
0.0
 40
0.0
 40
0.0687318381107847
 40
0.1489876503956669
 40
0.2406704280832769
 40
0.3406037288523835
 40
0.5236726485183257
 40
0.6921656163309572
 40
0.8714242807581731
 40
0.9999999999999999
 40
0.9999999999999999
 40
0.9999999999999999
 40
0.9999999999999999
 10
142.971697056271
 20
167.8004079569601
 30
0.0
 10
143.0445515671909
 20
167.8079514040213
 30
0.0
 10
143.2024757941728
 20
167.8243030757416
 30
0.0
 10
143.383162745592
 20
167.9384748287327
 30
0.0
 10
143.5420016853642
 20
168.1067998512685
 30
0.0
 10
143.7111713318811
 20
168.4005975907689
 30
0.0
 10
143.870063338586
 20
168.8518213126287
 30
0.0
 10
144.0237568309771
 20
169.4707630234223
 30
0.0
 10
144.1640482644014
 20
170.1525012888061
 30
0.0
 10
144.2529093962036
 20
170.6798264064545
 30
0.0
 10
144.2900247560862
 20
170.9000786260662
 30
0.0
  0
SPLINE
  5
106
330
1F
100
AcDbEntity
  8
0
  6
Continuous
 62
     7
370
    18
100
AcDbSpline
210
0.0
220
0.0
230
1.0
 70
     8
 71
     3
 72
    10
 73
     6
 74
     0
 42
0.000000001
 43
0.00000001
 40
0.0
 40
0.0
 40
0.0
 40
0.0
 40
0.540746511121453
 40
0.820769791391886
 40
1.0
 40
1.0
 40
1.0
 40
1.0
 10
145.1766354508468
 20
176.7000786265288
 30
0.0
 10
145.2323513552047
 20
177.0110706065202
 30
0.0
 10
145.3169195036006
 20
177.4831084602878
 30
0.0
 10
145.4185696496913
 20
177.9546571105834
 30
0.0
 10
145.463636256381
 20
178.1313479676421
 30
0.0
 10
145.4812241408802
 20
178.2003040886878
 30
0.0
  0
SPLINE
  5
107
330
1F
100
AcDbEntity
  8
0
  6
Continuous
 62
     7
370
    18
100
AcDbSpline
210
0.0
220
0.0
230
1.0
 70
     8
 71
     3
 72
    16
 73
    12
 74
     0
 42
0.000000001
 43
0.00000001
 40
0.0
 40
0.0
 40
0.0
 40
0.0
 40
0.0843085719535819
 40
0.1610306112717798
 40
0.2917093614282627
 40
0.3973587312179283
 40
0.4930351308857356
 40
0.665075734197529
 40
0.8129211045621275
 40
0.9529527274896238
 40
1.0
 40
1.0
 40
1.0
 40
1.0
 10
147.970364095549
 20
167.8002322033758
 30
0.0
 10
148.0492915871559
 20
167.808561726045
 30
0.0
 10
148.2000442558954
 20
167.8244712367382
 30
0.0
 10
148.4328806942419
 20
167.9713018803376
 30
0.0
 10
148.6191936518844
 20
168.216922267208
 30
0.0
 10
148.7357000095493
 20
168.4804393035781
 30
0.0
 10
148.8602580613239
 20
168.8342625254499
 30
0.0
 10
148.990594980988
 20
169.3238886935848
 30
0.0
 10
149.1263201439158
 20
169.9692578786648
 30
0.0
 10
149.2234397790141
 20
170.4884265274857
 30
0.0
 10
149.2775661189689
 20
170.8173578066418
 30
0.0
 10
149.2911780053331
 20
170.9000786260662
 30
0.0
  0
SPLINE
  5
108
330
1F
100
AcDbEntity
  8
0
  6
Continuous
 62
     7
370
    18
100
AcDbSpline
210
0.0
220
0.0
230
1.0
 70
     8
 71
     3
 72
    19
 73
    15
 74
     0
 42
0.000000001
 43
0.00000001
 40
0.0
 40
0.0
 40
0.0
 40
0.0
 40
0.1078555652034071
 40
0.2086473418279506
 40
0.3023452594776196
 40
0.3889068021962994
 40
0.4930584910285933
 40
0.5843200311243258
 40
0.6625427831360852
 40
0.7550720442015113
 40
0.8242357119024769
 40
0.9036451087733497
 40
0.9496971894721288
 40
1.0
 40
1.0
 40
1.0
 40
1.0
 10
152.1790773872243
 20
174.1694838490681
 30
0.0
 10
152.1339303770734
 20
174.480146999671
 30
0.0
 10
152.0465931716017
 20
175.0811270274976
 30
0.0
 10
151.9194835686434
 20
175.9201743899037
 30
0.0
 10
151.8007120205208
 20
176.6560558169643
 30
0.0
 10
151.6796628941505
 20
177.3454296345999
 30
0.0
 10
151.5581172444923
 20
177.9588493113156
 30
0.0
 10
151.4378772978849
 20
178.470628033494
 30
0.0
 10
151.3194221605495
 20
178.8874784833609
 30
0.0
 10
151.2051408805171
 20
179.1954595601251
 30
0.0
 10
151.0775847246191
 20
179.4496716614789
 30
0.0
 10
150.898073180056
 20
179.65766863043
 30
0.0
 10
150.6822493821005
 20
179.7798323682957
 30
0.0
 10
150.5437283880131
 20
179.7930616245167
 30
0.0
 10
150.4714124398447
 20
179.7999680592668
 30
0.0
  0
SPLINE
  5
109
330
1F
100
AcDbEntity
  8
0
  6
Continuous
 62
     7
370
    18
100
AcDbSpline
210
0.0
220
0.0
230
1.0
 70
     8
 71
     3
 72
    26
 73
    22
 74
     0
 42
0.000000001
 43
0.00000001
 40
0.0
 40
0.0
 40
0.0
 40
0.0
 40
0.021349682900268
 40
0.0510393885498629
 40
0.1118894903850129
 40
0.1744797331954234
 40
0.2378914036489206
 40
0.3011873208254644
 40
0.3642629781454384
 40
0.4272650505451819
 40
0.4912296065006566
 40
0.5563664319605656
 40
0.6226883352072224
 40
0.6885390332848094
 40
0.750346495660435
 40
0.8080583204548946
 40
0.837688466451498
 40
0.8782956502722832
 40
0.9321166541548053
 40
0.9643388713723829
 40
1.0
 40
1.0
 40
1.0
 40
1.0
 10
148.1679501378997
 20
168.765636436343
 30
0.0
 10
148.1694126811031
 20
168.7699893320431
 30
0.0
 10
148.1729090941964
 20
168.780395535076
 30
0.0
 10
148.117198280897
 20
168.9088672519767
 30
0.0
 10
148.0285873809861
 20
169.1966555722884
 30
0.0
 10
147.8868438050814
 20
169.7724312339137
 30
0.0
 10
147.738719489059
 20
170.5283184775136
 30
0.0
 10
147.5893535816266
 20
171.4086301616572
 30
0.0
 10
147.439316339725
 20
172.3804770044788
 30
0.0
 10
147.2886146134397
 20
173.4104577082435
 30
0.0
 10
147.1362507458537
 20
174.4680531903743
 30
0.0
 10
146.9811844674862
 20
175.5224307763211
 30
0.0
 10
146.8242928077057
 20
176.5256728959147
 30
0.0
 10
146.6697588752418
 20
177.4131599798874
 30
0.0
 10
146.5198663443649
 20
178.1485350331715
 30
0.0
 10
146.3970312978275
 20
178.6332131193232
 30
0.0
 10
146.2870611305994
 20
178.9878016682422
 30
0.0
 10
146.1404272495524
 20
179.343972828157
 30
0.0
 10
145.9342825551468
 20
179.6158422712486
 30
0.0
 10
145.6943159239017
 20
179.7751478773649
 30
0.0
 10
145.5478408376812
 20
179.791341775904
 30
0.0
 10
145.4708931441724
 20
179.7998489095992
 30
0.0
  0
SPLINE
  5
10A
330
1F
100
AcDbEntity
  8
0
  6
Continuous
 62
     7
370
    18
100
AcDbSpline
210
0.0
220
0.0
230
1.0
 70
     8
 71
     3
 72
    26
 73
    22
 74
     0
 42
0.000000001
 43
0.00000001
 40
0.0
 40
0.0
 40
0.0
 40
0.0
 40
0.0190656138935782
 40
0.0494221688335768
 40
0.0797976163480184
 40
0.1447084347280822
 40
0.2151817475684635
 40
0.2890993126954401
 40
0.355789576572262
 40
0.4135392681816179
 40
0.4622390592512747
 40
0.5099993842710548
 40
0.5647713747303755
 40
0.626608948859897
 40
0.6954203375148732
 40
0.7667131850834338
 40
0.8389477323742046
 40
0.8756455561338189
 40
0.9129695839100832
 40
0.9538022677954758
 40
1.0
 40
1.0
 40
1.0
 40
1.0
 10
143.1675373865367
 20
168.7717839507053
 30
0.0
 10
143.1739666362205
 20
168.769795283514
 30
0.0
 10
143.1906326331887
 20
168.7646402307457
 30
0.0
 10
143.1297468403285
 20
168.8847980280629
 30
0.0
 10
143.053641395403
 20
169.1164463912395
 30
0.0
 10
142.9315425696781
 20
169.567113297297
 30
0.0
 10
142.7726552827597
 20
170.3380025798941
 30
0.0
 10
142.6070336050276
 20
171.2951113587565
 30
0.0
 10
142.451812192668
 20
172.2976315567446
 30
0.0
 10
142.3159002475805
 20
173.2229940932148
 30
0.0
 10
142.1948350307829
 20
174.0614940819189
 30
0.0
 10
142.076037990806
 20
174.8798170275257
 30
0.0
 10
141.9468438421328
 20
175.7460033430877
 30
0.0
 10
141.8005449702652
 20
176.6686627702904
 30
0.0
 10
141.6417781813354
 20
177.5652760545102
 30
0.0
 10
141.4695726345571
 20
178.3752791216667
 30
0.0
 10
141.311283850183
 20
178.9256647238236
 30
0.0
 10
141.1637206971043
 20
179.280003419569
 30
0.0
 10
141.0462900798262
 20
179.4891501737546
 30
0.0
 10
140.839901742973
 20
179.7295201426338
 30
0.0
 10
140.5988518416471
 20
179.7753246240478
 30
0.0
 10
140.4708970496365
 20
179.7996386887301
 30
0.0
  0
SPLINE
  5
10B
330
1F
100
AcDbEntity
  8
0
  6
Continuous
 62
     7
370
    18
100
AcDbSpline
210
0.0
220
0.0
230
1.0
 70
     8
 71
     3
 72
    26
 73
    22
 74
     0
 42
0.000000001
 43
0.00000001
 40
0.0
 40
0.0
 40
0.0
 40
0.0
 40
0.0208922172044904
 40
0.0889373324883387
 40
0.1585482192912153
 40
0.2292884878046252
 40
0.2968068199596334
 40
0.3570960227724907
 40
0.4100393367506411
 40
0.4561105783726178
 40
0.5061000467159488
 40
0.5643047143003431
 40
0.630818826383587
 40
0.7027390919490096
 40
0.7712000824352769
 40
0.8357534838585107
 40
0.8666411825307115
 40
0.8989830886958393
 40
0.9426462957441453
 40
0.9696047571654547
 40
1.0
 40
1.0
 40
1.0
 40
1.0
 10
138.1705869031788
 20
168.7647988484366
 30
0.0
 10
138.1744348158629
 20
168.765488840217
 30
0.0
 10
138.1908152261574
 20
168.7684261076109
 30
0.0
 10
138.0548507696818
 20
169.0660579952399
 30
0.0
 10
137.9221477912241
 20
169.6211728435625
 30
0.0
 10
137.7560779196656
 20
170.4248677657196
 30
0.0
 10
137.6005103115094
 20
171.339927982185
 30
0.0
 10
137.4577867596429
 20
172.2591775510643
 30
0.0
 10
137.3319519673948
 20
173.1127862862361
 30
0.0
 10
137.2141974176992
 20
173.9270853198885
 30
0.0
 10
137.0922345834351
 20
174.7697022087002
 30
0.0
 10
136.9538705415662
 20
175.7011121316201
 30
0.0
 10
136.7977654884235
 20
176.6876774549681
 30
0.0
 10
136.6330470447975
 20
177.6105844500284
 30
0.0
 10
136.465707204017
 20
178.3851709773281
 30
0.0
 10
136.3241260301325
 20
178.881144794595
 30
0.0
 10
136.2068984000594
 20
179.1869400933265
 30
0.0
 10
136.1003080028553
 20
179.4125446283533
 30
0.0
 10
135.9228491480566
 20
179.6370932124886
 30
0.0
 10
135.697155019874
 20
179.7759608993642
 30
0.0
 10
135.5494007904001
 20
179.7913869094504
 30
0.0
 10
135.4710967690128
 20
179.7995620975856
 30
0.0
  0
SPLINE
  5
10C
330
1F
100
AcDbEntity
  8
0
  6
Continuous
 62
     7
370
    18
100
AcDbSpline
210
0.0
220
0.0
230
1.0
 70
     8
 71
     3
 72
    13
 73
     9
 74
     0
 42
0.000000001
 43
0.00000001
 40
0.0
 40
0.0
 40
0.0
 40
0.0
 40
0.0740748451191981
 40
0.2138727888865558
 40
0.3758004061294938
 40
0.5605040332536798
 40
0.7684452958912918
 40
1.0
 40
1.0
 40
1.0
 40
1.0
 10
133.0913756798321
 20
168.814431562792
 30
0.0
 10
133.0951002099372
 20
168.8206469292571
 30
0.0
 10
133.105853869153
 20
168.8385922622202
 30
0.0
 10
133.0831800524765
 20
168.9343073830215
 30
0.0
 10
133.0343156093212
 20
169.1295784177442
 30
0.0
 10
132.9549756612628
 20
169.4591567738881
 30
0.0
 10
132.8509740031771
 20
169.9436198851315
 30
0.0
 10
132.7692843224227
 20
170.3848118658381
 30
0.0
 10
132.7262449516728
 20
170.6172601390361
 30
0.0
  0
SPLINE
  5
10D
330
1F
100
AcDbEntity
  8
0
  6
Continuous
 62
     7
370
    18
100
AcDbSpline
210
0.0
220
0.0
230
1.0
 70
     8
 71
     3
 72
    14
 73
    10
 74
     0
 42
0.000000001
 43
0.00000001
 40
0.0
 40
0.0
 40
0.0
 40
0.0
 40
0.1019633232608051
 40
0.1958129402349483
 40
0.3600496991138562
 40
0.5025474103911873
 40
0.6460156068260884
 40
0.9496372444679361
 40
1.0
 40
1.0
 40
1.0
 40
1.0
 10
113.0125567762703
 20
167.8075300876218
 30
0.0
 10
113.0847780552554
 20
167.8194314280663
 30
0.0
 10
113.2234736227727
 20
167.8422870627265
 30
0.0
 10
113.4343377300791
 20
167.9767363949997
 30
0.0
 10
113.5982056536781
 20
168.1861487009523
 30
0.0
 10
113.6922765950276
 20
168.3786337961185
 30
0.0
 10
113.8103196483751
 20
168.6777960340269
 30
0.0
 10
113.9041079729909
 20
168.9703313474073
 30
0.0
 10
113.9669047301075
 20
169.2590075278049
 30
0.0
 10
113.9758390723776
 20
169.3000786263665
 30
0.0
  0
SPLINE
  5
10E
330
1F
100
AcDbEntity
  8
0
  6
Continuous
 62
     7
370
    18
100
AcDbSpline
210
0.0
220
0.0
230
1.0
 70
     8
 71
     3
 72
    14
 73
    10
 74
     0
 42
0.000000001
 43
0.00000001
 40
0.0
 40
0.0
 40
0.0
 40
0.0
 40
0.1082853574994105
 40
0.2081145888958843
 40
0.3831271506683177
 40
0.5363825749365656
 40
0.6875579210666398
 40
0.988333864837794
 40
1.0
 40
1.0
 40
1.0
 40
1.0
 10
117.9714034119515
 20
167.8004832014552
 30
0.0
 10
118.0433025250108
 20
167.8071992117597
 30
0.0
 10
118.1814860680295
 20
167.820106771524
 30
0.0
 10
118.3946032958514
 20
167.9393571290035
 30
0.0
 10
118.5657366923707
 20
168.1350515815169
 30
0.0
 10
118.6778506443946
 20
168.3493225997643
 30
0.0
 10
118.8199742734173
 20
168.7061272311604
 30
0.0
 10
118.9176253161024
 20
169.0153752896034
 30
0.0
 10
118.9781893844653
 20
169.2998398612675
 30
0.0
 10
118.9804507591492
 20
169.3104613567883
 30
0.0
  0
LINE
  5
10F
330
1F
100
AcDbEntity
  8
0
  6
Continuous
 62
     7
370
    18
100
AcDbLine
 10
119.2260178345
 20
170.5331713058
 30
0.0
 11
119.2910682015
 21
170.9000786261
 31
0.0
  0
SPLINE
  5
110
330
1F
100
AcDbEntity
  8
0
  6
Continuous
 62
     7
370
    18
100
AcDbSpline
210
0.0
220
0.0
230
1.0
 70
     8
 71
     3
 72
    10
 73
     6
 74
     0
 42
0.000000001
 43
0.00000001
 40
0.0
 40
0.0
 40
0.0
 40
0.0
 40
0.3184662598364547
 40
0.8378625407392204
 40
1.0
 40
1.0
 40
1.0
 40
1.0
 10
120.1793137311236
 20
176.7000786265288
 30
0.0
 10
120.2125759967307
 20
176.8940924885987
 30
0.0
 10
120.3000867000203
 20
177.4045294419388
 30
0.0
 10
120.40406459541
 20
177.9123810037474
 30
0.0
 10
120.4682687079651
 20
178.1461012402298
 30
0.0
 10
120.4835429212143
 20
178.2017034842391
 30
0.0
  0
SPLINE
  5
111
330
1F
100
AcDbEntity
  8
0
  6
Continuous
 62
     7
370
    18
100
AcDbSpline
210
0.0
220
0.0
230
1.0
 70
     8
 71
     3
 72
    16
 73
    12
 74
     0
 42
0.000000001
 43
0.00000001
 40
0.0
 40
0.0
 40
0.0
 40
0.0
 40
0.0815874207976187
 40
0.1561035702025803
 40
0.283865916222815
 40
0.387805051048758
 40
0.4837768984986011
 40
0.666394072989881
 40
0.8379442692574961
 40
0.9988633886040309
 40
1.0
 40
1.0
 40
1.0
 40
1.0
 10
122.9710573545711
 20
167.8005968172334
 30
0.0
 10
123.0476380009158
 20
167.8084205451249
 30
0.0
 10
123.1941619648548
 20
167.8233899098166
 30
0.0
 10
123.4229060838773
 20
167.9626795021167
 30
0.0
 10
123.6094093313419
 20
168.1999512676413
 30
0.0
 10
123.7281883767783
 20
168.4620340822724
 30
0.0
 10
123.8551056200775
 20
168.8161468620124
 30
0.0
 10
123.9963826967648
 20
169.3426351666399
 30
0.0
 10
124.1483178464318
 20
170.0816883249688
 30
0.0
 10
124.2451420758374
 20
170.6074359943186
 30
0.0
 10
124.2920631650889
 20
170.8980404118594
 30
0.0
 10
124.2923922558561
 20
170.9000786260662
 30
0.0
  0
SPLINE
  5
112
330
1F
100
AcDbEntity
  8
0
  6
Continuous
 62
     7
370
    18
100
AcDbSpline
210
0.0
220
0.0
230
1.0
 70
     8
 71
     3
 72
    11
 73
     7
 74
     0
 42
0.000000001
 43
0.00000001
 40
0.0
 40
0.0
 40
0.0
 40
0.0
 40
0.0811568887072018
 40
0.3799305672432839
 40
0.6580450427870853
 40
0.9999999999999999
 40
0.9999999999999999
 40
0.9999999999999999
 40
0.9999999999999999
 10
125.1769766193877
 20
176.7000786265288
 30
0.0
 10
125.1854917939616
 20
176.7508814313599
 30
0.0
 10
125.2253550163887
 20
176.9887113773384
 30
0.0
 10
125.2935896132293
 20
177.3513632650222
 30
0.0
 10
125.3883609947658
 20
177.8286272227255
 30
0.0
 10
125.4489707761829
 20
178.0664308230578
 30
0.0
 10
125.482395767186
 20
178.197574394537
 30
0.0
  0
SPLINE
  5
113
330
1F
100
AcDbEntity
  8
0
  6
Continuous
 62
     7
370
    18
100
AcDbSpline
210
0.0
220
0.0
230
1.0
 70
     8
 71
     3
 72
    14
 73
    10
 74
     0
 42
0.000000001
 43
0.00000001
 40
0.0
 40
0.0
 40
0.0
 40
0.0
 40
0.1130834778131929
 40
0.2619067522431845
 40
0.3903864021620371
 40
0.5578924744688224
 40
0.7289777387844162
 40
0.9037807867434356
 40
1.0
 40
1.0
 40
1.0
 40
1.0
 10
127.9707336013789
 20
167.8005113131985
 30
0.0
 10
128.0786769621793
 20
167.8172660299138
 30
0.0
 10
128.3286789571672
 20
167.8560707565149
 30
0.0
 10
128.5835605242858
 20
168.1500595895681
 30
0.0
 10
128.7477125032258
 20
168.4971870803246
 30
0.0
 10
128.9001510395322
 20
168.9627179136712
 30
0.0
 10
129.0554608582771
 20
169.6147321893982
 30
0.0
 10
129.1839631347927
 20
170.2629607148825
 30
0.0
 10
129.2624245553317
 20
170.7331503556309
 30
0.0
 10
129.2902801865311
 20
170.9000786260662
 30
0.0
  0
SPLINE
  5
114
330
1F
100
AcDbEntity
  8
0
  6
Continuous
 62
     7
370
    18
100
AcDbSpline
210
0.0
220
0.0
230
1.0
 70
     8
 71
     3
 72
    10
 73
     6
 74
     0
 42
0.000000001
 43
0.00000001
 40
0.0
 40
0.0
 40
0.0
 40
0.0
 40
0.3413502334894892
 40
0.8219215884774939
 40
0.9999999999999999
 40
0.9999999999999999
 40
0.9999999999999999
 40
0.9999999999999999
 10
130.1787326129073
 20
176.7000786265288
 30
0.0
 10
130.2142640963668
 20
176.9054142320076
 30
0.0
 10
130.299818727537
 20
177.3998324291212
 30
0.0
 10
130.4031273637449
 20
177.903402680018
 30
0.0
 10
130.4667397887518
 20
178.1382340877772
 30
0.0
 10
130.4839386099983
 20
178.2017251967028
 30
0.0
  0
SPLINE
  5
115
330
1F
100
AcDbEntity
  8
0
  6
Continuous
 62
     7
370
    18
100
AcDbSpline
210
0.0
220
0.0
230
1.0
 70
     8
 71
     3
 72
    22
 73
    18
 74
     0
 42
0.000000001
 43
0.00000001
 40
0.0
 40
0.0
 40
0.0
 40
0.0
 40
0.0853413497619515
 40
0.1676219227156853
 40
0.2468438717273403
 40
0.3229644089258631
 40
0.395975547008918
 40
0.4658520779337233
 40
0.5325208255125966
 40
0.5951609169243524
 40
0.6534510640696064
 40
0.7074099681953734
 40
0.8022902923263271
 40
0.8451983153863922
 40
0.8917835664272913
 40
0.9432951254281491
 40
0.9999999999999999
 40
0.9999999999999999
 40
0.9999999999999999
 40
0.9999999999999999
 10
132.7262332220633
 20
170.6172364164054
 30
0.0
 10
132.6751094032924
 20
170.9132778932605
 30
0.0
 10
132.5746953270814
 20
171.494743287146
 30
0.0
 10
132.4267306363579
 20
172.4668401257233
 30
0.0
 10
132.2842714605374
 20
173.4407044539348
 30
0.0
 10
132.1472118819059
 20
174.3916444961739
 30
0.0
 10
132.0156535692195
 20
175.2887334919177
 30
0.0
 10
131.8895826216652
 20
176.1123111698863
 30
0.0
 10
131.7696529128388
 20
176.843534057074
 30
0.0
 10
131.6559819012194
 20
177.4746998133265
 30
0.0
 10
131.5485868195198
 20
178.0049809329817
 30
0.0
 10
131.4184895242566
 20
178.560532358346
 30
0.0
 10
131.2930651845581
 20
178.9778135386913
 30
0.0
 10
131.1584564318782
 20
179.2978204840341
 30
0.0
 10
131.0129622702139
 20
179.5356299880771
 30
0.0
 10
130.7914693335797
 20
179.7485641964987
 30
0.0
 10
130.5814676560307
 20
179.7821569378281
 30
0.0
 10
130.4714278183448
 20
179.799759367706
 30
0.0
  0
SPLINE
  5
116
330
1F
100
AcDbEntity
  8
0
  6
Continuous
 62
     7
370
    18
100
AcDbSpline
210
0.0
220
0.0
230
1.0
 70
     8
 71
     3
 72
    27
 73
    23
 74
     0
 42
0.000000001
 43
0.00000001
 40
0.0
 40
0.0
 40
0.0
 40
0.0
 40
0.0125476671698431
 40
0.0498126137696418
 40
0.0846360188227185
 40
0.1471497208798242
 40
0.2029080898336945
 40
0.2655136577863207
 40
0.3365974352400721
 40
0.4110189036729193
 40
0.4785943193349743
 40
0.5389554529794022
 40
0.5938615087070258
 40
0.647497491990617
 40
0.7000698636244101
 40
0.7555680777707559
 40
0.8192942980717887
 40
0.854467797085004
 40
0.8931689825600627
 40
0.9410200987867787
 40
0.9691169864328206
 40
1.0
 40
1.0
 40
1.0
 40
1.0
 10
128.1624899166811
 20
168.7744600305181
 30
0.0
 10
128.167765393003
 20
168.7734337332617
 30
0.0
 10
128.1887083508384
 20
168.7693594660568
 30
0.0
 10
128.1343449086869
 20
168.8697481826549
 30
0.0
 10
128.0548753746829
 20
169.1148899085664
 30
0.0
 10
127.9440286146844
 20
169.5237583686142
 30
0.0
 10
127.8034674882481
 20
170.1848612983504
 30
0.0
 10
127.6554449857189
 20
171.0039315487529
 30
0.0
 10
127.4918117204557
 20
172.0290283114836
 30
0.0
 10
127.3239456774443
 20
173.1652322961495
 30
0.0
 10
127.1646102479076
 20
174.272131002135
 30
0.0
 10
127.0205362460792
 20
175.2572683854899
 30
0.0
 10
126.8875246065665
 20
176.1269874205925
 30
0.0
 10
126.76016336738
 20
176.901798798248
 30
0.0
 10
126.6321717472063
 20
177.6040985363841
 30
0.0
 10
126.493862564311
 20
178.2625360705432
 30
0.0
 10
126.3617463621967
 20
178.7613071834155
 30
0.0
 10
126.2364811561767
 20
179.1171822252131
 30
0.0
 10
126.1198649056081
 20
179.3823612243382
 30
0.0
 10
125.933507152214
 20
179.6284585731903
 30
0.0
 10
125.7006406155561
 20
179.7751706495374
 30
0.0
 10
125.5499070885964
 20
179.7911918706625
 30
0.0
 10
125.4709801073304
 20
179.7995808909761
 30
0.0
  0
SPLINE
  5
117
330
1F
100
AcDbEntity
  8
0
  6
Continuous
 62
     7
370
    18
100
AcDbSpline
210
0.0
220
0.0
230
1.0
 70
     8
 71
     3
 72
    27
 73
    23
 74
     0
 42
0.000000001
 43
0.00000001
 40
0.0
 40
0.0
 40
0.0
 40
0.0
 40
0.0172578232212267
 40
0.0481316682464158
 40
0.0810678242194903
 40
0.1160174525312415
 40
0.1527499041185412
 40
0.189498910905942
 40
0.2613832428645868
 40
0.3311071964546417
 40
0.3990575994941503
 40
0.4679510546180694
 40
0.5381806903317072
 40
0.6097607390578951
 40
0.67923056292558
 40
0.74416407022237
 40
0.8052704994505194
 40
0.8730954646990029
 40
0.9107239890964764
 40
0.9450847944917826
 40
0.9748548136595289
 40
1.0
 40
1.0
 40
1.0
 40
1.0
 10
123.1685675419108
 20
168.7639159915556
 30
0.0
 10
123.1710089714528
 20
168.7659327598851
 30
0.0
 10
123.1778180617567
 20
168.7715574799276
 30
0.0
 10
123.1432165417615
 20
168.850296836895
 30
0.0
 10
123.0909945066592
 20
169.0024238867852
 30
0.0
 10
123.0193796235859
 20
169.2402588592379
 30
0.0
 10
122.9377524770904
 20
169.5623811046788
 30
0.0
 10
122.8266547342948
 20
170.0688128991178
 30
0.0
 10
122.6872981543832
 20
170.8145937410348
 30
0.0
 10
122.5215819570286
 20
171.8366516923173
 30
0.0
 10
122.3574726156653
 20
172.9344300309067
 30
0.0
 10
122.193128204528
 20
174.073962429718
 30
0.0
 10
122.0257530339807
 20
175.2256609715344
 30
0.0
 10
121.8577105633724
 20
176.321336480305
 30
0.0
 10
121.6937448197857
 20
177.2864998486866
 30
0.0
 10
121.5352453231637
 20
178.0793143903449
 30
0.0
 10
121.380719027887
 20
178.712176948691
 30
0.0
 10
121.2197045823144
 20
179.1795701398473
 30
0.0
 10
121.0477877771307
 20
179.4854798235613
 30
0.0
 10
120.8861186016309
 20
179.6599203571306
 30
0.0
 10
120.7040108656895
 20
179.7758599970113
 30
0.0
 10
120.5441762398949
 20
179.792136309806
 30
0.0
 10
120.4709893800431
 20
179.7995890893116
 30
0.0
  0
SPLINE
  5
118
330
1F
100
AcDbEntity
  8
0
  6
Continuous
 62
     7
370
    18
100
AcDbSpline
210
0.0
220
0.0
230
1.0
 70
     8
 71
     3
 72
    27
 73
    23
 74
     0
 42
0.000000001
 43
0.00000001
 40
0.0
 40
0.0
 40
0.0
 40
0.0
 40
0.0202525168637025
 40
0.0501352268556777
 40
0.0801630330347895
 40
0.1433285347535089
 40
0.2105980971062301
 40
0.279079220692192
 40
0.34090585689069
 40
0.3954991870131246
 40
0.4435931429548816
 40
0.4963481772285949
 40
0.5573176712283237
 40
0.6265995051334843
 40
0.700943434247268
 40
0.7706985966792725
 40
0.8353761776579451
 40
0.8658730316419533
 40
0.8970306443970473
 40
0.940585649117204
 40
0.9682935276245379
 40
1.0
 40
1.0
 40
1.0
 40
1.0
 10
118.1694707071647
 20
168.7702059029123
 30
0.0
 10
118.1757651116122
 20
168.7680217806964
 30
0.0
 10
118.19134694754
 20
168.7626149730628
 30
0.0
 10
118.1289233779595
 20
168.8881118329743
 30
0.0
 10
118.0551713525178
 20
169.1142451420914
 30
0.0
 10
117.936611159681
 20
169.5477544787757
 30
0.0
 10
117.7852885988711
 20
170.2751123059941
 30
0.0
 10
117.6302618414623
 20
171.155708075469
 30
0.0
 10
117.485649421399
 20
172.0751700942299
 30
0.0
 10
117.3565738510667
 20
172.9437968176407
 30
0.0
 10
117.2345397452744
 20
173.7858839167067
 30
0.0
 10
117.1074943471438
 20
174.66524582185
 30
0.0
 10
116.9635511519116
 20
175.6384996359587
 30
0.0
 10
116.802250209629
 20
176.6615009132117
 30
0.0
 10
116.6336466772296
 20
177.6093242385728
 30
0.0
 10
116.4643601576513
 20
178.3902320213442
 30
0.0
 10
116.323679464307
 20
178.8837438424912
 30
0.0
 10
116.2075717132839
 20
179.1849253811395
 30
0.0
 10
116.1068151057622
 20
179.4003188893414
 30
0.0
 10
115.9331316507248
 20
179.6282606960382
 30
0.0
 10
115.7049545711538
 20
179.7744055776789
 30
0.0
 10
115.5525243379451
 20
179.7909473975902
 30
0.0
 10
115.4711799336622
 20
179.799774940907
 30
0.0
  0
SPLINE
  5
119
330
1F
100
AcDbEntity
  8
0
  6
Continuous
 62
     7
370
    18
100
AcDbSpline
210
0.0
220
0.0
230
1.0
 70
     8
 71
     3
 72
     9
 73
     5
 74
     0
 42
0.000000001
 43
0.00000001
 40
0.0
 40
0.0
 40
0.0
 40
0.0
 40
0.4927978834236338
 40
1.0
 40
1.0
 40
1.0
 40
1.0
 10
112.3383608354261
 20
168.2516666558609
 30
0.0
 10
112.4364902556451
 20
168.1130620556227
 30
0.0
 10
112.6356173694575
 20
167.8318015127093
 30
0.0
 10
112.8996628754285
 20
167.8162601917734
 30
0.0
 10
113.0335873149295
 20
167.8083776009002
 30
0.0
  0
SPLINE
  5
11A
330
1F
100
AcDbEntity
  8
0
  6
Continuous
 62
     7
370
    18
100
AcDbSpline
210
0.0
220
0.0
230
1.0
 70
     8
 71
     3
 72
    27
 73
    23
 74
     0
 42
0.000000001
 43
0.00000001
 40
0.0
 40
0.0
 40
0.0
 40
0.0
 40
0.0189983780920055
 40
0.0475861920756161
 40
0.076700844890416
 40
0.1394878796787397
 40
0.20837503311281
 40
0.2815250371206401
 40
0.3485368048883607
 40
0.4075427904223549
 40
0.4584447019977897
 40
0.5076058949777125
 40
0.5641297438766921
 40
0.6281406797839787
 40
0.6984189590948834
 40
0.7667472441958217
 40
0.8318941411336509
 40
0.8633591086581648
 40
0.89584688392952
 40
0.9402798811094584
 40
0.9682142336304115
 40
1.0
 40
1.0
 40
1.0
 40
1.0
 10
115.294405896633
 20
178.8313273522454
 30
0.0
 10
115.2881291522299
 20
178.8337050241528
 30
0.0
 10
115.2724074751831
 20
178.8396604984321
 30
0.0
 10
115.332135074337
 20
178.7222505082041
 30
0.0
 10
115.4039620090696
 20
178.5065579689992
 30
0.0
 10
115.5225234802003
 20
178.0783326014924
 30
0.0
 10
115.677694410342
 20
177.3392862548566
 30
0.0
 10
115.8417072382773
 20
176.4051561475616
 30
0.0
 10
115.997493644939
 20
175.4077580570834
 30
0.0
 10
116.1363147711814
 20
174.4661441943812
 30
0.0
 10
116.2611498896209
 20
173.6018430546164
 30
0.0
 10
116.3840956737824
 20
172.7540728498919
 30
0.0
 10
116.51745591351
 20
171.8588124210984
 30
0.0
 10
116.6679257110443
 20
170.9104189254071
 30
0.0
 10
116.8277222207922
 20
170.0126058941111
 30
0.0
 10
116.9925089527408
 20
169.2431974904869
 30
0.0
 10
117.1328595252433
 20
168.7429797554929
 30
0.0
 10
117.2513717826127
 20
168.428947730848
 30
0.0
 10
117.3545634564473
 20
168.2049487581634
 30
0.0
 10
117.5302336248682
 20
167.9733616877542
 30
0.0
 10
117.7599941852289
 20
167.8261145384527
 30
0.0
 10
117.9129964360532
 20
167.8093868811212
 30
0.0
 10
117.9944312002344
 20
167.8004836602682
 30
0.0
  0
SPLINE
  5
11B
330
1F
100
AcDbEntity
  8
0
  6
Continuous
 62
     7
370
    18
100
AcDbSpline
210
0.0
220
0.0
230
1.0
 70
     8
 71
     3
 72
    25
 73
    21
 74
     0
 42
0.000000001
 43
0.00000001
 40
0.0
 40
0.0
 40
0.0
 40
0.0
 40
0.0285908497066852
 40
0.064574809334523
 40
0.0979595111132199
 40
0.1286471582638637
 40
0.1912337928203137
 40
0.2583328429533302
 40
0.3294319182820979
 40
0.4002806645347238
 40
0.4698753977913984
 40
0.5381607745784355
 40
0.6066644997897159
 40
0.6771657352728088
 40
0.7498395948309116
 40
0.8222417202175769
 40
0.8889793554326881
 40
0.9492479331007793
 40
0.9758286010937126
 40
1.0
 40
1.0
 40
1.0
 40
1.0
 10
120.3013297176071
 20
178.8300379384767
 30
0.0
 10
120.2999306209474
 20
178.8226590272986
 30
0.0
 10
120.296770644907
 20
178.8059931433775
 30
0.0
 10
120.34212061106
 20
178.6906880835014
 30
0.0
 10
120.4014905817278
 20
178.5079494007431
 30
0.0
 10
120.4964903624147
 20
178.1712741382743
 30
0.0
 10
120.6202386022633
 20
177.6274922662438
 30
0.0
 10
120.777625791943
 20
176.7862096438204
 30
0.0
 10
120.9429899335175
 20
175.7681232790601
 30
0.0
 10
121.1105296535812
 20
174.6461887489289
 30
0.0
 10
121.2759654348329
 20
173.4982685944219
 30
0.0
 10
121.4396006719253
 20
172.373627714443
 30
0.0
 10
121.6039221653464
 20
171.3005473158937
 30
0.0
 10
121.7728450739379
 20
170.3030136404919
 30
0.0
 10
121.94713955398
 20
169.4338422878487
 30
0.0
 10
122.1215515264887
 20
168.7575086456332
 30
0.0
 10
122.3192765227908
 20
168.2483683248001
 30
0.0
 10
122.5314894481533
 20
167.9658477302916
 30
0.0
 10
122.7721879586203
 20
167.8222698925595
 30
0.0
 10
122.9224662433256
 20
167.8075879437635
 30
0.0
 10
122.9940384292185
 20
167.8005954553241
 30
0.0
  0
SPLINE
  5
11C
330
1F
100
AcDbEntity
  8
0
  6
Continuous
 62
     7
370
    18
100
AcDbSpline
210
0.0
220
0.0
230
1.0
 70
     8
 71
     3
 72
    27
 73
    23
 74
     0
 42
0.000000001
 43
0.00000001
 40
0.0
 40
0.0
 40
0.0
 40
0.0
 40
0.0293199586671163
 40
0.0668026726579938
 40
0.1017009045510607
 40
0.1645893248194814
 40
0.2190907538244196
 40
0.2737440690960346
 40
0.330328810654108
 40
0.3907907084722338
 40
0.4592108537723031
 40
0.5357775649661652
 40
0.5755573537605762
 40
0.6125435199706497
 40
0.6777576707062895
 40
0.731847656602619
 40
0.786067248115515
 40
0.8454868609466525
 40
0.8775757025981703
 40
0.913414184543016
 40
0.9541162440748358
 40
1.0
 40
1.0
 40
1.0
 40
1.0
 10
125.3054207802202
 20
178.8183271658781
 30
0.0
 10
125.2995893515056
 20
178.8168677528313
 30
0.0
 10
125.2863030086436
 20
178.8135426222217
 30
0.0
 10
125.3660819537312
 20
178.6323481954146
 30
0.0
 10
125.4502269459112
 20
178.3452036433139
 30
0.0
 10
125.5636987930211
 20
177.8902783153721
 30
0.0
 10
125.6967501602464
 20
177.2272486966632
 30
0.0
 10
125.8262907886693
 20
176.4910076100718
 30
0.0
 10
125.9609157698139
 20
175.6466540928876
 30
0.0
 10
126.106639834013
 20
174.6718868256989
 30
0.0
 10
126.268128439169
 20
173.5531922169575
 30
0.0
 10
126.4136525752258
 20
172.5504333202078
 30
0.0
 10
126.5341684411719
 20
171.7560256385942
 30
0.0
 10
126.6458400164038
 20
171.0510265711633
 30
0.0
 10
126.7694563258647
 20
170.3297534643256
 30
0.0
 10
126.9068108022451
 20
169.6323653210271
 30
0.0
 10
127.0439955675869
 20
169.0444172270299
 30
0.0
 10
127.1736246483309
 20
168.6235960079922
 30
0.0
 10
127.2915337812146
 20
168.333883255822
 30
0.0
 10
127.4326909801289
 20
168.0882171082505
 30
0.0
 10
127.6580676141566
 20
167.8566444775227
 30
0.0
 10
127.8774898703017
 20
167.8199546388761
 30
0.0
 10
127.9937666206259
 20
167.8005118745791
 30
0.0
  0
SPLINE
  5
11D
330
1F
100
AcDbEntity
  8
0
  6
Continuous
 62
     7
370
    18
100
AcDbSpline
210
0.0
220
0.0
230
1.0
 70
     8
 71
     3
 72
    21
 73
    17
 74
     0
 42
0.000000001
 43
0.00000001
 40
0.0
 40
0.0
 40
0.0
 40
0.0
 40
0.0329422283081176
 40
0.083173859212815
 40
0.1783829363425836
 40
0.2231091150604127
 40
0.2713165070820898
 40
0.3289175028038112
 40
0.3959678693539388
 40
0.4725075062905391
 40
0.5586156585672691
 40
0.6543323969806386
 40
0.7597279452265457
 40
0.874846990538597
 40
0.9361883763076037
 40
1.0
 40
1.0
 40
1.0
 40
1.0
 10
130.3075960260381
 20
178.8259796988634
 30
0.0
 10
130.3051861791905
 20
178.8215834393486
 30
0.0
 10
130.2991017012205
 20
178.8104835870096
 30
0.0
 10
130.3479713689748
 20
178.685877697756
 30
0.0
 10
130.4218706000073
 20
178.4473420352904
 30
0.0
 10
130.5150734641906
 20
178.0858156233213
 30
0.0
 10
130.5925066002921
 20
177.7441748457636
 30
0.0
 10
130.6816798542856
 20
177.3019566493688
 30
0.0
 10
130.786278508871
 20
176.7246597257916
 30
0.0
 10
130.9061905980189
 20
175.9975196064371
 30
0.0
 10
131.0414375950564
 20
175.1138360115577
 30
0.0
 10
131.1921436649505
 20
174.0818076414207
 30
0.0
 10
131.3582309887299
 20
172.9278976628959
 30
0.0
 10
131.5065777954553
 20
171.9302731338457
 30
0.0
 10
131.6326681365616
 20
171.1324426654167
 30
0.0
 10
131.698372488787
 20
170.7510556146025
 30
0.0
 10
131.7318730927053
 20
170.5565982294191
 30
0.0
  0
SPLINE
  5
11E
330
1F
100
AcDbEntity
  8
0
  6
Continuous
 62
     7
370
    18
100
AcDbSpline
210
0.0
220
0.0
230
1.0
 70
     8
 71
     3
 72
    16
 73
    12
 74
     0
 42
0.000000001
 43
0.00000001
 40
0.0
 40
0.0
 40
0.0
 40
0.0
 40
0.0819321800378157
 40
0.1567297185670588
 40
0.2848559167713839
 40
0.3887730923771338
 40
0.4831130032574858
 40
0.6565096624210851
 40
0.8109276322685862
 40
0.9536139365759221
 40
1.0
 40
1.0
 40
1.0
 40
1.0
 10
130.4944444315917
 20
179.7997281782156
 30
0.0
 10
130.4177889065848
 20
179.7920173596025
 30
0.0
 10
130.2711530077792
 20
179.7772671792631
 30
0.0
 10
130.0422414054933
 20
179.6374857321072
 30
0.0
 10
129.8556938248032
 20
179.3997814631106
 30
0.0
 10
129.7374274107403
 20
179.1392537447036
 30
0.0
 10
129.6138706149574
 20
178.7957365461847
 30
0.0
 10
129.4807671661895
 20
178.3038109966093
 30
0.0
 10
129.341581835363
 20
177.6458380705882
 30
0.0
 10
129.2419823977455
 20
177.1137286202626
 30
0.0
 10
129.1872720094271
 20
176.7815689972518
 30
0.0
 10
129.1738496380202
 20
176.7000786265288
 30
0.0
  0
SPLINE
  5
11F
330
1F
100
AcDbEntity
  8
0
  6
Continuous
 62
     7
370
    18
100
AcDbSpline
210
0.0
220
0.0
230
1.0
 70
     8
 71
     3
 72
    12
 73
     8
 74
     0
 42
0.000000001
 43
0.00000001
 40
0.0
 40
0.0
 40
0.0
 40
0.0
 40
0.0202522336527258
 40
0.3399063325616414
 40
0.6351847179599349
 40
0.906046450040551
 40
1.0
 40
1.0
 40
1.0
 40
1.0
 10
128.2886736699436
 20
170.9000786260662
 30
0.0
 10
128.286560949247
 20
170.8873307067986
 30
0.0
 10
128.2511017917031
 20
170.6733741348795
 30
0.0
 10
128.1854469120524
 20
170.3196007134489
 30
0.0
 10
128.0950830083223
 20
169.8660573783975
 30
0.0
 10
128.0285424039119
 20
169.5649254772536
 30
0.0
 10
127.9934424166053
 20
169.4311618856041
 30
0.0
 10
127.9844028599493
 20
169.3967127687236
 30
0.0
  0
SPLINE
  5
120
330
1F
100
AcDbEntity
  8
0
  6
Continuous
 62
     7
370
    18
100
AcDbSpline
210
0.0
220
0.0
230
1.0
 70
     8
 71
     3
 72
    19
 73
    15
 74
     0
 42
0.000000001
 43
0.00000001
 40
0.0
 40
0.0
 40
0.0
 40
0.0
 40
0.0973940678593599
 40
0.2404592429069412
 40
0.3689643536925964
 40
0.4315554985065825
 40
0.4760626183752165
 40
0.5198656803283628
 40
0.5806206802762811
 40
0.6582653055839119
 40
0.7527241147313931
 40
0.8638882215229041
 40
0.991626309864057
 40
1.0
 40
1.0
 40
1.0
 40
1.0
 10
125.4940004849974
 20
179.7995770394362
 30
0.0
 10
125.3921390759298
 20
179.7842574189445
 30
0.0
 10
125.140650275388
 20
179.7464343315018
 30
0.0
 10
124.9029893268369
 20
179.4819525803121
 30
0.0
 10
124.7655602218876
 20
179.2135596976431
 30
0.0
 10
124.6782955853683
 20
178.9803491984736
 30
0.0
 10
124.6299199077036
 20
178.8318200562707
 30
0.0
 10
124.5868867072846
 20
178.6902296752675
 30
0.0
 10
124.5332694295357
 20
178.4957156406758
 30
0.0
 10
124.4655396891684
 20
178.2208984883646
 30
0.0
 10
124.3831770782933
 20
177.8469151500511
 30
0.0
 10
124.2865199459937
 20
177.3509037594851
 30
0.0
 10
124.2148501389489
 20
176.9572123043874
 30
0.0
 10
124.1754815709041
 20
176.7149808707653
 30
0.0
 10
124.1730595895473
 20
176.7000786265288
 30
0.0
  0
SPLINE
  5
121
330
1F
100
AcDbEntity
  8
0
  6
Continuous
 62
     7
370
    18
100
AcDbSpline
210
0.0
220
0.0
230
1.0
 70
     8
 71
     3
 72
    10
 73
     6
 74
     0
 42
0.000000001
 43
0.00000001
 40
0.0
 40
0.0
 40
0.0
 40
0.0
 40
0.2171052651370705
 40
0.6833832170724327
 40
1.0
 40
1.0
 40
1.0
 40
1.0
 10
123.2867135890899
 20
170.9000786260662
 30
0.0
 10
123.2639364505096
 20
170.7660655435076
 30
0.0
 10
123.1922407492153
 20
170.3442319623145
 30
0.0
 10
123.086667419863
 20
169.8116275538158
 30
0.0
 10
123.0115099677084
 20
169.5182250963372
 30
0.0
 10
122.9811149354587
 20
169.3995678387863
 30
0.0
  0
SPLINE
  5
122
330
1F
100
AcDbEntity
  8
0
  6
Continuous
 62
     7
370
    18
100
AcDbSpline
210
0.0
220
0.0
230
1.0
 70
     8
 71
     3
 72
    16
 73
    12
 74
     0
 42
0.000000001
 43
0.00000001
 40
0.0
 40
0.0
 40
0.0
 40
0.0
 40
0.0809047357111969
 40
0.1530182875159781
 40
0.2708869470331897
 40
0.3587490886435081
 40
0.4414669131833825
 40
0.6147671992224788
 40
0.7990020805780775
 40
0.9941755818343943
 40
1.0
 40
1.0
 40
1.0
 40
1.0
 10
120.4939860059822
 20
179.7996000560508
 30
0.0
 10
120.4177843198432
 20
179.7918497585133
 30
0.0
 10
120.2736610937264
 20
179.7771913179845
 30
0.0
 10
120.0512525437145
 20
179.6441622599997
 30
0.0
 10
119.8734089279231
 20
179.4268103388054
 30
0.0
 10
119.7648201788463
 20
179.202515040039
 30
0.0
 10
119.6500626316133
 20
178.9073487357987
 30
0.0
 10
119.5101491912495
 20
178.4296106235844
 30
0.0
 10
119.3448992632527
 20
177.66796202321
 30
0.0
 10
119.2325216695159
 20
177.0715855744031
 30
0.0
 10
119.1742118098175
 20
176.7076366548765
 30
0.0
 10
119.1725221355809
 20
176.6970903233306
 30
0.0
  0
SPLINE
  5
123
330
1F
100
AcDbEntity
  8
0
  6
Continuous
 62
     7
370
    18
100
AcDbSpline
210
0.0
220
0.0
230
1.0
 70
     8
 71
     3
 72
    14
 73
    10
 74
     0
 42
0.000000001
 43
0.00000001
 40
0.0
 40
0.0
 40
0.0
 40
0.0
 40
0.1130368899662881
 40
0.216233683952549
 40
0.3937945748694157
 40
0.5456764983417532
 40
0.6957719791947615
 40
0.9961031580183143
 40
1.0
 40
1.0
 40
1.0
 40
1.0
 10
115.4942119855692
 20
179.7997855663587
 30
0.0
 10
115.4201513626891
 20
179.7925698470711
 30
0.0
 10
115.2784772479293
 20
179.7787665518427
 30
0.0
 10
115.061869318008
 20
179.653706162427
 30
0.0
 10
114.8905286592425
 20
179.4520394966343
 30
0.0
 10
114.7803591696365
 20
179.2370490440914
 30
0.0
 10
114.6408778741263
 20
178.8801962689604
 30
0.0
 10
114.5460464918569
 20
178.5799047301458
 30
0.0
 10
114.4872853422298
 20
178.3036175751515
 30
0.0
 10
114.4865326735107
 20
178.3000786263665
 30
0.0
  0
SPLINE
  5
124
330
1F
100
AcDbEntity
  8
0
  6
Continuous
 62
     7
370
    18
100
AcDbSpline
210
0.0
220
0.0
230
1.0
 70
     8
 71
     3
 72
     9
 73
     5
 74
     0
 42
0.000000001
 43
0.00000001
 40
0.0
 40
0.0
 40
0.0
 40
0.0
 40
0.7938875543637173
 40
0.9999999999999999
 40
0.9999999999999999
 40
0.9999999999999999
 40
0.9999999999999999
 10
112.9548362359936
 20
169.3000786263665
 30
0.0
 10
112.9261220915106
 20
169.1881959290605
 30
0.0
 10
112.8899530593534
 20
169.0472657725277
 30
0.0
 10
112.8586590359862
 20
168.9653590040945
 30
0.0
 10
112.8522089482962
 20
168.9484769997386
 30
0.0
  0
LINE
  5
125
330
1F
100
AcDbEntity
  8
0
  6
Continuous
 62
     7
370
    18
100
AcDbLine
 10
152.6260178341
 20
181.8000786269
 30
0.0
 11
152.2260178341
 21
181.4000786264
 31
0.0
  0
LINE
  5
126
330
1F
100
AcDbEntity
  8
0
  6
Continuous
 62
     7
370
    18
100
AcDbLine
 10
152.2260178341
 20
166.2000786263
 30
0.0
 11
152.6260178341
 21
165.8000786258
 31
0.0
  0
LINE
  5
127
330
1F
100
AcDbEntity
  8
0
  6
Continuous
 62
     7
370
    18
100
AcDbLine
 10
153.8260178341
 20
165.8000786258
 30
0.0
 11
154.2260178341
 21
166.2000786263
 31
0.0
  0
LINE
  5
128
330
1F
100
AcDbEntity
  8
0
  6
Continuous
 62
     7
370
    18
100
AcDbLine
 10
154.2260178341
 20
181.4000786264
 30
0.0
 11
153.8260178341
 21
181.8000786269
 31
0.0
  0
LINE
  5
129
330
1F
100
AcDbEntity
  8
0
  6
Continuous
 62
     7
370
    18
100
AcDbLine
 10
153.8260178341
 20
181.8000786269
 30
0.0
 11
152.6260178341
 21
181.8000786269
 31
0.0
  0
LINE
  5
12A
330
1F
100
AcDbEntity
  8
0
  6
Continuous
 62
     7
370
    18
100
AcDbLine
 10
152.6260178341
 20
165.8000786258
 30
0.0
 11
153.8260178341
 21
165.8000786258
 31
0.0
  0
LINE
  5
12B
330
1F
100
AcDbEntity
  8
0
  6
Continuous
 62
     7
370
    18
100
AcDbLine
 10
174.2260178341
 20
179.8000786267
 30
0.0
 11
154.2260178341
 21
179.8000786267
 31
0.0
  0
LINE
  5
12C
330
1F
100
AcDbEntity
  8
0
  6
Continuous
 62
     7
370
    18
100
AcDbLine
 10
154.2260178341
 20
167.800078626
 30
0.0
 11
174.2260178341
 21
167.800078626
 31
0.0
  0
LINE
  5
12D
330
1F
100
AcDbEntity
  8
0
  6
Continuous
 62
     7
370
    18
100
AcDbLine
 10
174.2260178341
 20
167.800078626
 30
0.0
 11
175.2260178341
 21
168.8000786266
 31
0.0
  0
LINE
  5
12E
330
1F
100
AcDbEntity
  8
0
  6
Continuous
 62
     7
370
    18
100
AcDbLine
 10
175.2260178341
 20
178.8000786261
 30
0.0
 11
174.2260178341
 21
179.8000786267
 31
0.0
  0
LINE
  5
12F
330
1F
100
AcDbEntity
  8
0
  6
Continuous
 62
     7
370
    18
100
AcDbLine
 10
149.6260178341
 20
178.3000786264
 30
0.0
 11
149.2260178341
 21
177.900078626
 31
0.0
  0
LINE
  5
130
330
1F
100
AcDbEntity
  8
0
  6
Continuous
 62
     7
370
    18
100
AcDbLine
 10
149.2260178341
 20
169.7000786267
 30
0.0
 11
149.6260178341
 21
169.3000786263
 31
0.0
  0
LINE
  5
131
330
1F
100
AcDbEntity
  8
0
  6
Continuous
 62
     7
370
    18
100
AcDbLine
 10
152.2260178341
 20
178.3000786264
 30
0.0
 11
151.4742533782
 21
178.3000786264
 31
0.0
  0
LINE
  5
132
330
1F
100
AcDbEntity
  8
0
  6
Continuous
 62
     7
370
    18
100
AcDbLine
 10
150.4590791464
 20
178.3000786264
 30
0.0
 11
149.6260178341
 21
178.3000786264
 31
0.0
  0
LINE
  5
133
330
1F
100
AcDbEntity
  8
0
  6
Continuous
 62
     7
370
    18
100
AcDbLine
 10
149.6260178341
 20
169.3000786263
 30
0.0
 11
152.2260178341
 21
169.3000786263
 31
0.0
  0
SPLINE
  5
134
330
1F
100
AcDbEntity
  8
0
  6
Continuous
 62
     7
370
    18
100
AcDbSpline
210
0.0
220
0.0
230
1.0
 70
    24
 71
     3
 72
    29
 73
    25
 74
     0
 42
0.000000001
 43
0.00000001
 40
0.0
 40
0.0
 40
0.0
 40
0.0
 40
0.0156493635550868
 40
0.031274172868118
 40
0.0468989821712087
 40
0.0625483456965205
 40
0.093816389108451
 40
0.1250844327877677
 40
0.1875713826016605
 40
0.2500583318247132
 40
0.3125452810205054
 40
0.3750322306465041
 40
0.4375191800006937
 40
0.5000061293813307
 40
0.5624930786759454
 40
0.6249800282329899
 40
0.6874669779016694
 40
0.7499539273700779
 40
0.8124408768410422
 40
0.8749278262234974
 40
0.9061958696396408
 40
0.9374639128748163
 40
0.9687319565164603
 40
1.0
 40
1.0
 40
1.0
 40
1.0
 10
175.9260178341036
 20
169.3012479972802
 30
0.0
 10
175.9260178341036
 20
169.3032779220914
 30
0.0
 10
175.9260178341036
 20
169.3073345867113
 30
0.0
 10
175.9260178341036
 20
169.3223402355655
 30
0.0
 10
175.9260178341036
 20
169.3438776568399
 30
0.0
 10
175.9260178341036
 20
169.3820839582865
 30
0.0
 10
175.9260178341036
 20
169.4470831234754
 30
0.0
 10
175.9260178341036
 20
169.5874715377101
 30
0.0
 10
175.9260178341036
 20
169.8296459038706
 30
0.0
 10
175.9260178341036
 20
170.2194991314151
 30
0.0
 10
175.9260178341036
 20
170.6989337072195
 30
0.0
 10
175.9260178341036
 20
171.2559442019993
 30
0.0
 10
175.9260178341036
 20
171.8765995929293
 30
0.0
 10
175.9260178341036
 20
172.5453727054678
 30
0.0
 10
175.9260178341036
 20
173.2455334964055
 30
0.0
 10
175.9260178341036
 20
173.9595674840935
 30
0.0
 10
175.9260178341036
 20
174.6696091595109
 30
0.0
 10
175.9260178341036
 20
175.357908065099
 30
0.0
 10
175.9260178341036
 20
176.0072009141344
 30
0.0
 10
175.9260178341036
 20
176.5024546696831
 30
0.0
 10
175.9260178341036
 20
176.8634430787903
 30
0.0
 10
175.9260178341036
 20
177.1146648229757
 30
0.0
 10
175.9260178341036
 20
177.3468732711848
 30
0.0
 10
175.9260178341036
 20
177.4826263842264
 30
0.0
 10
175.9260178341036
 20
177.5505029405756
 30
0.0
  0
SPLINE
  5
135
330
1F
100
AcDbEntity
  8
0
  6
Continuous
 62
     7
370
    18
100
AcDbSpline
210
0.0
220
0.0
230
1.0
 70
    24
 71
     3
 72
    14
 73
    10
 74
     0
 42
0.000000001
 43
0.00000001
 40
0.0
 40
0.0
 40
0.0
 40
0.0
 40
0.25
 40
0.25
 40
0.5
 40
0.5
 40
0.75
 40
0.75
 40
1.0
 40
1.0
 40
1.0
 40
1.0
 10
175.3260178341036
 20
169.3012479953849
 30
0.0
 10
175.3260178341036
 20
169.3230858748428
 30
0.0
 10
175.3260178341036
 20
169.6500211850649
 30
0.0
 10
175.3260178341036
 20
170.8188375277499
 30
0.0
 10
175.3260178341036
 20
171.6302974474633
 30
0.0
 10
175.3260178341036
 20
173.4709105321166
 30
0.0
 10
175.3260178341036
 20
174.4521575409465
 30
0.0
 10
175.3260178341036
 20
176.2506565703004
 30
0.0
 10
175.3260178341036
 20
177.0210985491147
 30
0.0
 10
175.3260178341036
 20
177.5505029375902
 30
0.0
  0
LINE
  5
136
330
1F
100
AcDbEntity
  8
0
  6
Continuous
 62
     7
370
    18
100
AcDbLine
 10
175.9260178341
 20
177.5505029361
 30
0.0
 11
175.3260178341
 21
177.5505029361
 31
0.0
  0
SPLINE
  5
137
330
1F
100
AcDbEntity
  8
0
  6
Continuous
 62
     7
370
    18
100
AcDbSpline
210
0.0
220
0.0
230
1.0
 70
    24
 71
     3
 72
    14
 73
    10
 74
     0
 42
0.000000001
 43
0.00000001
 40
0.0
 40
0.0
 40
0.0
 40
0.0
 40
0.2500000000000001
 40
0.2500000000000001
 40
0.5000000000000002
 40
0.5000000000000002
 40
0.7500000000000001
 40
0.7500000000000001
 40
1.0
 40
1.0
 40
1.0
 40
1.0
 10
106.2260178344895
 20
167.3365269701837
 30
0.0
 10
106.2260178344895
 20
167.5198566594245
 30
0.0
 10
106.2260178344895
 20
167.8193718671714
 30
0.0
 10
106.2260178344895
 20
168.6486711791078
 30
0.0
 10
106.2260178344895
 20
169.1782156810181
 30
0.0
 10
106.2260178344895
 20
170.3867169169931
 30
0.0
 10
106.2260178344895
 20
171.0635873739183
 30
0.0
 10
106.2260178344895
 20
172.4413242622762
 30
0.0
 10
106.2260178344895
 20
173.1403816683446
 30
0.0
 10
106.2260178344895
 20
173.8000786263665
 30
0.0
  0
SPLINE
  5
138
330
1F
100
AcDbEntity
  8
0
  6
Continuous
 62
     7
370
    18
100
AcDbSpline
210
0.0
220
0.0
230
1.0
 70
    24
 71
     3
 72
    10
 73
     6
 74
     0
 42
0.000000001
 43
0.00000001
 40
0.0
 40
0.0
 40
0.0
 40
0.0
 40
0.5
 40
0.5
 40
1.0
 40
1.0
 40
1.0
 40
1.0
 10
105.9260178342962
 20
173.8000786263665
 30
0.0
 10
105.9967285125112
 20
173.8000786263665
 30
0.0
 10
106.0795712249807
 20
173.8000786263665
 30
0.0
 10
106.1967285124915
 20
173.8000786263665
 30
0.0
 10
106.2260178343922
 20
173.8000786263665
 30
0.0
 10
106.2260178344895
 20
173.8000786263665
 30
0.0
  0
SPLINE
  5
139
330
1F
100
AcDbEntity
  8
0
  6
Continuous
 62
     7
370
    18
100
AcDbSpline
210
0.0
220
0.0
230
1.0
 70
    24
 71
     3
 72
    10
 73
     6
 74
     0
 42
0.000000001
 43
0.00000001
 40
0.0
 40
0.0
 40
0.0
 40
0.0
 40
0.4999999999999999
 40
0.4999999999999999
 40
1.0
 40
1.0
 40
1.0
 40
1.0
 10
105.9260178341036
 20
173.800078623495
 30
0.0
 10
105.9260178341036
 20
172.0837887688749
 30
0.0
 10
105.9260178341036
 20
170.4271339802769
 30
0.0
 10
105.9260178341036
 20
167.8634429979152
 30
0.0
 10
105.9260178341036
 20
167.0454860933628
 30
0.0
 10
105.9260178341036
 20
166.8470319326434
 30
0.0
  0
SPLINE
  5
13A
330
1F
100
AcDbEntity
  8
0
  6
Continuous
 62
     7
370
    18
100
AcDbSpline
210
0.0
220
0.0
230
1.0
 70
     8
 71
     3
 72
    14
 73
    10
 74
     0
 42
0.000000001
 43
0.00000001
 40
0.0
 40
0.0
 40
0.0
 40
0.0
 40
0.25
 40
0.25
 40
0.5
 40
0.5
 40
0.75
 40
0.75
 40
1.0
 40
1.0
 40
1.0
 40
1.0
 10
105.9260178341036
 20
166.8470319323665
 30
0.0
 10
105.9472066981036
 20
166.8599215693665
 30
0.0
 10
105.9723629621036
 20
166.8770687263665
 30
0.0
 10
106.0293305941036
 20
166.9250270943665
 30
0.0
 10
106.0612416221036
 20
166.9559792283665
 30
0.0
 10
106.1249300901036
 20
167.0355626443665
 30
0.0
 10
106.1570326917703
 20
167.0845219086998
 30
0.0
 10
106.2080699211036
 20
167.2021491593665
 30
0.0
 10
106.2260178341036
 20
167.2694957433665
 30
0.0
 10
106.2260178341036
 20
167.3365269713665
 30
0.0
  0
SPLINE
  5
13B
330
1F
100
AcDbEntity
  8
0
  6
Continuous
 62
     7
370
    18
100
AcDbSpline
210
0.0
220
0.0
230
1.0
 70
    27
 71
     3
 72
    12
 73
     8
 74
     0
 42
0.000000001
 43
0.00000001
 40
0.0
 40
0.0
 40
0.0
 40
0.0
 40
0.3333333333333333
 40
0.3333333333333333
 40
0.6666666666666665
 40
0.6666666666666665
 40
0.9999999999999999
 40
0.9999999999999999
 40
0.9999999999999999
 40
0.9999999999999999
 10
111.9260178341036
 20
173.8000786263665
 30
0.0
 10
111.9260178341036
 20
176.3005726403414
 30
0.0
 10
111.9260178341036
 20
178.6120094466448
 30
0.0
 10
111.9260178341036
 20
181.1125034600275
 30
0.0
 10
111.9260178341036
 20
181.1125034594801
 30
0.0
 10
111.9260178341036
 20
178.6120094443208
 30
0.0
 10
111.9260178341036
 20
176.3005726374699
 30
0.0
 10
111.9260178341036
 20
173.800078623495
 30
0.0
  0
SPLINE
  5
13C
330
1F
100
AcDbEntity
  8
0
  6
Continuous
 62
     7
370
    18
100
AcDbSpline
210
0.0
220
0.0
230
1.0
 70
    27
 71
     3
 72
    14
 73
    10
 74
     0
 42
0.000000001
 43
0.00000001
 40
0.0
 40
0.0
 40
0.0
 40
0.0
 40
0.25
 40
0.25
 40
0.5000000000000001
 40
0.5000000000000001
 40
0.75
 40
0.75
 40
1.0
 40
1.0
 40
1.0
 40
1.0
 10
111.9260178341036
 20
173.800078623495
 30
0.0
 10
111.9260178341036
 20
171.9436157358543
 30
0.0
 10
111.9260178341036
 20
170.163048653287
 30
0.0
 10
111.9260178341036
 20
167.5376136602331
 30
0.0
 10
111.9260178341036
 20
166.8000786261524
 30
0.0
 10
111.9260178341036
 20
166.8000786265806
 30
0.0
 10
111.9260178341036
 20
167.5376136610718
 30
0.0
 10
111.9260178341036
 20
170.1630486547313
 30
0.0
 10
111.9260178341036
 20
171.9436157374686
 30
0.0
 10
111.9260178341036
 20
173.8000786251094
 30
0.0
  0
SPLINE
  5
13D
330
1F
100
AcDbEntity
  8
0
  6
Continuous
 62
     7
370
    18
100
AcDbSpline
210
0.0
220
0.0
230
1.0
 70
    24
 71
     3
 72
    10
 73
     6
 74
     0
 42
0.000000001
 43
0.00000001
 40
0.0
 40
0.0
 40
0.0
 40
0.0
 40
0.5000000000000002
 40
0.5000000000000002
 40
1.0
 40
1.0
 40
1.0
 40
1.0
 10
110.5260178341036
 20
166.8470319326434
 30
0.0
 10
110.5260178341036
 20
167.0454860933628
 30
0.0
 10
110.5260178341036
 20
167.8634429979152
 30
0.0
 10
110.5260178341036
 20
170.4271339802769
 30
0.0
 10
110.5260178341036
 20
172.0837887688749
 30
0.0
 10
110.5260178341036
 20
173.800078623495
 30
0.0
  0
SPLINE
  5
13E
330
1F
100
AcDbEntity
  8
0
  6
Continuous
 62
     7
370
    18
100
AcDbSpline
210
0.0
220
0.0
230
1.0
 70
    27
 71
     3
 72
    12
 73
     8
 74
     0
 42
0.000000001
 43
0.00000001
 40
0.0
 40
0.0
 40
0.0
 40
0.0
 40
0.3333333333333332
 40
0.3333333333333332
 40
0.6666666666666665
 40
0.6666666666666665
 40
0.9999999999999999
 40
0.9999999999999999
 40
0.9999999999999999
 40
0.9999999999999999
 10
110.5260178341036
 20
173.800078623495
 30
0.0
 10
110.5260178341036
 20
176.3005726374699
 30
0.0
 10
110.5260178341036
 20
178.6120094443208
 30
0.0
 10
110.5260178341036
 20
181.1125034594801
 30
0.0
 10
110.5260178341036
 20
181.1125034600275
 30
0.0
 10
110.5260178341036
 20
178.6120094466448
 30
0.0
 10
110.5260178341036
 20
176.3005726403414
 30
0.0
 10
110.5260178341036
 20
173.8000786263665
 30
0.0
  0
SPLINE
  5
13F
330
1F
100
AcDbEntity
  8
0
  6
Continuous
 62
     7
370
    18
100
AcDbSpline
210
0.0
220
0.0
230
1.0
 70
     8
 71
     3
 72
    14
 73
    10
 74
     0
 42
0.000000001
 43
0.00000001
 40
0.0
 40
0.0
 40
0.0
 40
0.0
 40
0.25
 40
0.25
 40
0.5
 40
0.5
 40
0.75
 40
0.75
 40
1.0
 40
1.0
 40
1.0
 40
1.0
 10
110.2260178341036
 20
167.3365269713665
 30
0.0
 10
110.2260178341036
 20
167.2693987953665
 30
0.0
 10
110.2439902011036
 20
167.2020643143665
 30
0.0
 10
110.2950632597703
 20
167.0844115063665
 30
0.0
 10
110.3271944366036
 20
167.0354233893665
 30
0.0
 10
110.3910013626036
 20
166.9557485213665
 30
0.0
 10
110.4228068271036
 20
166.9249258116998
 30
0.0
 10
110.4798896191036
 20
166.8769018263665
 30
0.0
 10
110.5049514601036
 20
166.8598470553665
 30
0.0
 10
110.5260178341036
 20
166.8470319323665
 30
0.0
  0
SPLINE
  5
140
330
1F
100
AcDbEntity
  8
0
  6
Continuous
 62
     7
370
    18
100
AcDbSpline
210
0.0
220
0.0
230
1.0
 70
    24
 71
     3
 72
    10
 73
     6
 74
     0
 42
0.000000001
 43
0.00000001
 40
0.0
 40
0.0
 40
0.0
 40
0.0
 40
0.5
 40
0.5
 40
1.0
 40
1.0
 40
1.0
 40
1.0
 10
110.526017833911
 20
173.8000786263665
 30
0.0
 10
110.455307155696
 20
173.8000786263665
 30
0.0
 10
110.3724644432265
 20
173.8000786263665
 30
0.0
 10
110.2553071557157
 20
173.8000786263665
 30
0.0
 10
110.226017833815
 20
173.8000786263665
 30
0.0
 10
110.2260178337177
 20
173.8000786263665
 30
0.0
  0
SPLINE
  5
141
330
1F
100
AcDbEntity
  8
0
  6
Continuous
 62
     7
370
    18
100
AcDbSpline
210
0.0
220
0.0
230
1.0
 70
    24
 71
     3
 72
    14
 73
    10
 74
     0
 42
0.000000001
 43
0.00000001
 40
0.0
 40
0.0
 40
0.0
 40
0.0
 40
0.2500000000000001
 40
0.2500000000000001
 40
0.5000000000000001
 40
0.5000000000000001
 40
0.75
 40
0.75
 40
1.0
 40
1.0
 40
1.0
 40
1.0
 10
110.2260178337177
 20
173.8000786263665
 30
0.0
 10
110.2260178337177
 20
173.1403816683446
 30
0.0
 10
110.2260178337177
 20
172.4413242622762
 30
0.0
 10
110.2260178337177
 20
171.0635873739183
 30
0.0
 10
110.2260178337177
 20
170.3867169169931
 30
0.0
 10
110.2260178337177
 20
169.1782156810181
 30
0.0
 10
110.2260178337177
 20
168.6486711791078
 30
0.0
 10
110.2260178337177
 20
167.8193718671714
 30
0.0
 10
110.2260178337177
 20
167.5198566594245
 30
0.0
 10
110.2260178337177
 20
167.3365269701837
 30
0.0
  0
SPLINE
  5
142
330
1F
100
AcDbEntity
  8
0
  6
Continuous
 62
     7
370
    18
100
AcDbSpline
210
0.0
220
0.0
230
1.0
 70
    24
 71
     3
 72
    20
 73
    16
 74
     0
 42
0.000000001
 43
0.00000001
 40
0.0
 40
0.0
 40
0.0
 40
0.0
 40
0.1249999999999999
 40
0.1249999999999999
 40
0.2499999999999998
 40
0.2499999999999998
 40
0.3749999999999997
 40
0.3749999999999997
 40
0.4999999999999997
 40
0.4999999999999997
 40
0.6249999999999998
 40
0.6249999999999998
 40
0.7499999999999998
 40
0.7499999999999998
 40
1.0
 40
1.0
 40
1.0
 40
1.0
 10
110.2260178337177
 20
180.5000786264933
 30
0.0
 10
110.2260178337177
 20
180.5000786264922
 30
0.0
 10
110.2260178337177
 20
180.4292462793498
 30
0.0
 10
110.2260178337177
 20
180.1586032813156
 30
0.0
 10
110.2260178337177
 20
179.9591328363982
 30
0.0
 10
110.2260178337177
 20
179.4645538283144
 30
0.0
 10
110.2260178337177
 20
179.1698853444216
 30
0.0
 10
110.2260178337177
 20
178.5261623194517
 30
0.0
 10
110.2260178337177
 20
178.1774119597781
 30
0.0
 10
110.2260178337177
 20
177.4627452930985
 30
0.0
 10
110.2260178337177
 20
177.0969308757203
 30
0.0
 10
110.2260178337177
 20
176.3751364894768
 30
0.0
 10
110.2260178337177
 20
176.019118626406
 30
0.0
 10
110.2260178337177
 20
174.9899986263877
 30
0.0
 10
110.2260178337177
 20
174.3584119597098
 30
0.0
 10
110.2260178337177
 20
173.8000786263665
 30
0.0
  0
SPLINE
  5
143
330
1F
100
AcDbEntity
  8
0
  6
Continuous
 62
     7
370
    18
100
AcDbSpline
210
0.0
220
0.0
230
1.0
 70
    24
 71
     3
 72
    20
 73
    16
 74
     0
 42
0.000000001
 43
0.00000001
 40
0.0
 40
0.0
 40
0.0
 40
0.0
 40
0.2500000000000001
 40
0.2500000000000001
 40
0.3750000000000001
 40
0.3750000000000001
 40
0.5
 40
0.5
 40
0.625
 40
0.625
 40
0.75
 40
0.75
 40
0.875
 40
0.875
 40
1.0
 40
1.0
 40
1.0
 40
1.0
 10
106.2260178344895
 20
173.8000786263665
 30
0.0
 10
106.2260178344895
 20
174.3584119597109
 30
0.0
 10
106.2260178344895
 20
174.9899986263903
 30
0.0
 10
106.2260178344895
 20
176.0191186264109
 30
0.0
 10
106.2260178344895
 20
176.3751364894825
 30
0.0
 10
106.2260178344895
 20
177.0969308757276
 30
0.0
 10
106.2260178344895
 20
177.4627452931065
 30
0.0
 10
106.2260178344895
 20
178.1774119597872
 30
0.0
 10
106.2260178344895
 20
178.5261623194613
 30
0.0
 10
106.2260178344895
 20
179.1698853444313
 30
0.0
 10
106.2260178344895
 20
179.4645538283239
 30
0.0
 10
106.2260178344895
 20
179.9591328364064
 30
0.0
 10
106.2260178344895
 20
180.1586032813228
 30
0.0
 10
106.2260178344895
 20
180.429246279354
 30
0.0
 10
106.2260178344895
 20
180.5000786264944
 30
0.0
 10
106.2260178344895
 20
180.5000786264933
 30
0.0
  0
SPLINE
  5
144
330
1F
100
AcDbEntity
  8
0
  6
Continuous
 62
     7
370
    18
100
AcDbSpline
210
0.0
220
0.0
230
1.0
 70
    24
 71
     3
 72
    25
 73
    21
 74
     0
 42
0.000000001
 43
0.00000001
 40
0.0
 40
0.0
 40
0.0
 40
0.0
 40
0.0250529547012751
 40
0.0500478753409906
 40
0.0750234212569811
 40
0.1000183416871891
 40
0.1250712959704198
 40
0.1875858261821789
 40
0.2501003567404747
 40
0.3126148877363534
 40
0.3751294184057044
 40
0.5000071476030016
 40
0.6248848768002989
 40
0.6873994074696499
 40
0.7499139384655285
 40
0.8124284690238243
 40
0.8749429992355833
 40
0.916658544395097
 40
0.9582844542529622
 40
1.0
 40
1.0
 40
1.0
 40
1.0
 10
112.2260178341036
 20
173.8000786263665
 30
0.0
 10
112.2260178341036
 20
173.7122395882405
 30
0.0
 10
112.2260178341036
 20
173.5367649872356
 30
0.0
 10
112.2260178341036
 20
173.2741255826285
 30
0.0
 10
112.2260178341036
 20
173.0125029495671
 30
0.0
 10
112.2260178341036
 20
172.7518909112352
 30
0.0
 10
112.2260178341036
 20
172.3633420741994
 30
0.0
 10
112.2260178341036
 20
171.8519721841772
 30
0.0
 10
112.2260178341036
 20
171.2320193009398
 30
0.0
 10
112.2260178341036
 20
170.6365483854664
 30
0.0
 10
112.2260178341036
 20
169.8841252721247
 30
0.0
 10
112.2260178341036
 20
169.0318129659357
 30
0.0
 10
112.2260178341036
 20
168.3327889285145
 30
0.0
 10
112.2260178341036
 20
167.8816102261952
 30
0.0
 10
112.2260178341036
 20
167.6001838506944
 30
0.0
 10
112.2260178341036
 20
167.3781688954016
 30
0.0
 10
112.2260178341036
 20
167.235907711504
 30
0.0
 10
112.2260178341036
 20
167.1529148347408
 30
0.0
 10
112.2260178341036
 20
167.1083008608804
 30
0.0
 10
112.2260178341036
 20
167.1028213378761
 30
0.0
 10
112.2260178341036
 20
167.1000786296897
 30
0.0
  0
SPLINE
  5
145
330
1F
100
AcDbEntity
  8
0
  6
Continuous
 62
     7
370
    18
100
AcDbSpline
210
0.0
220
0.0
230
1.0
 70
    24
 71
     3
 72
    10
 73
     6
 74
     0
 42
0.000000001
 43
0.00000001
 40
0.0
 40
0.0
 40
0.0
 40
0.0
 40
0.5
 40
0.5
 40
1.0
 40
1.0
 40
1.0
 40
1.0
 10
111.9260178342962
 20
173.8000786263665
 30
0.0
 10
111.9967285125112
 20
173.8000786263665
 30
0.0
 10
112.0795712249807
 20
173.8000786263665
 30
0.0
 10
112.1967285124915
 20
173.8000786263665
 30
0.0
 10
112.2260178343922
 20
173.8000786263665
 30
0.0
 10
112.2260178344895
 20
173.8000786263665
 30
0.0
  0
SPLINE
  5
146
330
1F
100
AcDbEntity
  8
0
  6
Continuous
 62
     7
370
    18
100
AcDbSpline
210
0.0
220
0.0
230
1.0
 70
    24
 71
     3
 72
    10
 73
     6
 74
     0
 42
0.000000001
 43
0.00000001
 40
0.0
 40
0.0
 40
0.0
 40
0.0
 40
0.5
 40
0.5
 40
1.0
 40
1.0
 40
1.0
 40
1.0
 10
112.2260178344895
 20
173.8000786263665
 30
0.0
 10
112.2260178343922
 20
173.8000786263665
 30
0.0
 10
112.1967285124915
 20
173.8000786263665
 30
0.0
 10
112.0795712249807
 20
173.8000786263665
 30
0.0
 10
111.9967285125112
 20
173.8000786263665
 30
0.0
 10
111.9260178342962
 20
173.8000786263665
 30
0.0
  0
SPLINE
  5
147
330
1F
100
AcDbEntity
  8
0
  6
Continuous
 62
     7
370
    18
100
AcDbSpline
210
0.0
220
0.0
230
1.0
 70
    24
 71
     3
 72
    25
 73
    21
 74
     0
 42
0.000000001
 43
0.00000001
 40
0.0
 40
0.0
 40
0.0
 40
0.0
 40
0.0250529546961805
 40
0.0500478753371753
 40
0.0750234212544377
 40
0.1000183416859154
 40
0.1250712959704197
 40
0.1875858261821788
 40
0.2501003567404746
 40
0.3126148877363533
 40
0.3751294184057042
 40
0.5000071476030015
 40
0.6248848768002986
 40
0.6873994074696498
 40
0.7499139384655285
 40
0.8124284690238244
 40
0.8749429992355832
 40
0.9166585443972171
 40
0.9582844542572012
 40
1.0
 40
1.0
 40
1.0
 40
1.0
 10
112.2260178341036
 20
180.5000786230433
 30
0.0
 10
112.2260178341036
 20
180.4990905823982
 30
0.0
 10
112.2260178341036
 20
180.4971167898601
 30
0.0
 10
112.2260178341036
 20
180.4810842636568
 30
0.0
 10
112.2260178341036
 20
180.4554722675551
 30
0.0
 10
112.2260178341036
 20
180.4193458528156
 30
0.0
 10
112.2260178341036
 20
180.3499229402363
 30
0.0
 10
112.2260178341036
 20
180.2220280422949
 30
0.0
 10
112.2260178341036
 20
179.9999627862499
 30
0.0
 10
112.2260178341036
 20
179.7185498047285
 30
0.0
 10
112.2260178341036
 20
179.2673667381654
 30
0.0
 10
112.2260178341036
 20
178.5683446888076
 30
0.0
 10
112.2260178341036
 20
177.7160323601431
 30
0.0
 10
112.2260178341036
 20
176.9636081025392
 30
0.0
 10
112.2260178341036
 20
176.3681409167136
 30
0.0
 10
112.2260178341036
 20
175.7481739736013
 30
0.0
 10
112.2260178341036
 20
175.1800768303273
 30
0.0
 10
112.2260178341036
 20
174.6752458382062
 30
0.0
 10
112.2260178341036
 20
174.2385953243787
 30
0.0
 10
112.2260178341036
 20
173.9463556294778
 30
0.0
 10
112.2260178341036
 20
173.8000786263665
 30
0.0
  0
SPLINE
  5
148
330
1F
100
AcDbEntity
  8
0
  6
Continuous
 62
     7
370
    18
100
AcDbSpline
210
0.0
220
0.0
230
1.0
 70
    24
 71
     3
 72
    10
 73
     6
 74
     0
 42
0.000000001
 43
0.00000001
 40
0.0
 40
0.0
 40
0.0
 40
0.0
 40
0.5
 40
0.5
 40
1.0
 40
1.0
 40
1.0
 40
1.0
 10
104.2260178337177
 20
173.8000786263665
 30
0.0
 10
104.226017833815
 20
173.8000786263665
 30
0.0
 10
104.2553071557157
 20
173.8000786263665
 30
0.0
 10
104.3724644432265
 20
173.8000786263665
 30
0.0
 10
104.455307155696
 20
173.8000786263665
 30
0.0
 10
104.526017833911
 20
173.8000786263665
 30
0.0
  0
SPLINE
  5
149
330
1F
100
AcDbEntity
  8
0
  6
Continuous
 62
     7
370
    18
100
AcDbSpline
210
0.0
220
0.0
230
1.0
 70
    24
 71
     3
 72
    25
 73
    21
 74
     0
 42
0.000000001
 43
0.00000001
 40
0.0
 40
0.0
 40
0.0
 40
0.0
 40
0.0250529547012752
 40
0.0500478753409905
 40
0.0750234212569812
 40
0.1000183416871889
 40
0.1250712959704198
 40
0.1875858261821786
 40
0.2501003567404746
 40
0.3126148877363532
 40
0.3751294184057043
 40
0.5000071476030015
 40
0.6248848768002988
 40
0.6873994074696499
 40
0.7499139384655283
 40
0.8124284690238244
 40
0.8749429992355832
 40
0.9166585443950973
 40
0.958284454252962
 40
1.0
 40
1.0
 40
1.0
 40
1.0
 10
104.2260178341036
 20
173.8000786263665
 30
0.0
 10
104.2260178341036
 20
173.8879176644924
 30
0.0
 10
104.2260178341036
 20
174.0633922654973
 30
0.0
 10
104.2260178341036
 20
174.3260316701045
 30
0.0
 10
104.2260178341036
 20
174.5876543031659
 30
0.0
 10
104.2260178341036
 20
174.8482663414978
 30
0.0
 10
104.2260178341036
 20
175.2368151785335
 30
0.0
 10
104.2260178341036
 20
175.7481850685558
 30
0.0
 10
104.2260178341036
 20
176.3681379517931
 30
0.0
 10
104.2260178341036
 20
176.9636088672665
 30
0.0
 10
104.2260178341036
 20
177.7160319806082
 30
0.0
 10
104.2260178341036
 20
178.5683442867972
 30
0.0
 10
104.2260178341036
 20
179.2673683242185
 30
0.0
 10
104.2260178341036
 20
179.7185470265378
 30
0.0
 10
104.2260178341036
 20
179.9999734020386
 30
0.0
 10
104.2260178341036
 20
180.2219883573314
 30
0.0
 10
104.2260178341036
 20
180.364249541229
 30
0.0
 10
104.2260178341036
 20
180.4472424179921
 30
0.0
 10
104.2260178341036
 20
180.4918563918526
 30
0.0
 10
104.2260178341036
 20
180.4973359148568
 30
0.0
 10
104.2260178341036
 20
180.5000786230433
 30
0.0
  0
SPLINE
  5
14A
330
1F
100
AcDbEntity
  8
0
  6
Continuous
 62
     7
370
    18
100
AcDbSpline
210
0.0
220
0.0
230
1.0
 70
    24
 71
     3
 72
    25
 73
    21
 74
     0
 42
0.000000001
 43
0.00000001
 40
0.0
 40
0.0
 40
0.0
 40
0.0
 40
0.0250529546961802
 40
0.0500478753371751
 40
0.0750234212544376
 40
0.1000183416859151
 40
0.1250712959704197
 40
0.1875858261821788
 40
0.2501003567404745
 40
0.3126148877363533
 40
0.3751294184057042
 40
0.5000071476030015
 40
0.6248848768002986
 40
0.6873994074696497
 40
0.7499139384655282
 40
0.8124284690238243
 40
0.8749429992355832
 40
0.9166585443972167
 40
0.958284454257201
 40
1.0
 40
1.0
 40
1.0
 40
1.0
 10
104.2260178341036
 20
167.1000786296897
 30
0.0
 10
104.2260178341036
 20
167.1010666703348
 30
0.0
 10
104.2260178341036
 20
167.1030404628728
 30
0.0
 10
104.2260178341036
 20
167.1190729890761
 30
0.0
 10
104.2260178341036
 20
167.1446849851779
 30
0.0
 10
104.2260178341036
 20
167.1808113999174
 30
0.0
 10
104.2260178341036
 20
167.2502343124967
 30
0.0
 10
104.2260178341036
 20
167.3781292104381
 30
0.0
 10
104.2260178341036
 20
167.6001944664831
 30
0.0
 10
104.2260178341036
 20
167.8816074480044
 30
0.0
 10
104.2260178341036
 20
168.3327905145676
 30
0.0
 10
104.2260178341036
 20
169.0318125639253
 30
0.0
 10
104.2260178341036
 20
169.8841248925899
 30
0.0
 10
104.2260178341036
 20
170.6365491501938
 30
0.0
 10
104.2260178341036
 20
171.2320163360194
 30
0.0
 10
104.2260178341036
 20
171.8519832791316
 30
0.0
 10
104.2260178341036
 20
172.4200804224057
 30
0.0
 10
104.2260178341036
 20
172.9249114145267
 30
0.0
 10
104.2260178341036
 20
173.3615619283542
 30
0.0
 10
104.2260178341036
 20
173.6538016232552
 30
0.0
 10
104.2260178341036
 20
173.8000786263665
 30
0.0
  0
SPLINE
  5
14B
330
1F
100
AcDbEntity
  8
0
  6
Continuous
 62
     7
370
    18
100
AcDbSpline
210
0.0
220
0.0
230
1.0
 70
    24
 71
     3
 72
    10
 73
     6
 74
     0
 42
0.000000001
 43
0.00000001
 40
0.0
 40
0.0
 40
0.0
 40
0.0
 40
0.5
 40
0.5
 40
1.0
 40
1.0
 40
1.0
 40
1.0
 10
96.92601783429616
 20
173.8000786263665
 30
0.0
 10
96.99672851251121
 20
173.8000786263665
 30
0.0
 10
97.07957122498068
 20
173.8000786263665
 30
0.0
 10
97.1967285124915
 20
173.8000786263665
 30
0.0
 10
97.22601783439222
 20
173.8000786263665
 30
0.0
 10
97.22601783448948
 20
173.8000786263665
 30
0.0
  0
SPLINE
  5
14C
330
1F
100
AcDbEntity
  8
0
  6
Continuous
 62
     7
370
    18
100
AcDbSpline
210
0.0
220
0.0
230
1.0
 70
    24
 71
     3
 72
    20
 73
    16
 74
     0
 42
0.000000001
 43
0.00000001
 40
0.0
 40
0.0
 40
0.0
 40
0.0
 40
0.25
 40
0.25
 40
0.375
 40
0.375
 40
0.5
 40
0.5
 40
0.625
 40
0.625
 40
0.75
 40
0.75
 40
0.875
 40
0.875
 40
1.0
 40
1.0
 40
1.0
 40
1.0
 10
97.22601783448948
 20
173.8000786263665
 30
0.0
 10
97.22601783448948
 20
174.2334119597108
 30
0.0
 10
97.22601783448948
 20
174.72359862639
 30
0.0
 10
97.22601783448948
 20
175.5223186264104
 30
0.0
 10
97.22601783448948
 20
175.798630997751
 30
0.0
 10
97.22601783448948
 20
176.3588296258846
 30
0.0
 10
97.22601783448948
 20
176.6427452931055
 30
0.0
 10
97.22601783448948
 20
177.1974119597862
 30
0.0
 10
97.22601783448948
 20
177.4680838807287
 30
0.0
 10
97.22601783448948
 20
177.967689810559
 30
0.0
 10
97.22601783448948
 20
178.1963877383574
 30
0.0
 10
97.22601783448948
 20
178.5802401028415
 30
0.0
 10
97.22601783448948
 20
178.735052985464
 30
0.0
 10
97.22601783448948
 20
178.9451042675192
 30
0.0
 10
97.22601783448948
 20
179.0000786264941
 30
0.0
 10
97.22601783448948
 20
179.0000786264933
 30
0.0
  0
SPLINE
  5
14D
330
1F
100
AcDbEntity
  8
0
  6
Continuous
 62
     7
370
    18
100
AcDbSpline
210
0.0
220
0.0
230
1.0
 70
    24
 71
     3
 72
    20
 73
    16
 74
     0
 42
0.000000001
 43
0.00000001
 40
0.0
 40
0.0
 40
0.0
 40
0.0
 40
0.125
 40
0.125
 40
0.25
 40
0.25
 40
0.375
 40
0.375
 40
0.5
 40
0.5
 40
0.625
 40
0.625
 40
0.75
 40
0.75
 40
1.0
 40
1.0
 40
1.0
 40
1.0
 10
97.22601783448948
 20
168.6000786262397
 30
0.0
 10
97.22601783448948
 20
168.6000786262406
 30
0.0
 10
97.22601783448948
 20
168.655052985217
 30
0.0
 10
97.22601783448948
 20
168.8651042672746
 30
0.0
 10
97.22601783448948
 20
169.0199171498979
 30
0.0
 10
97.22601783448948
 20
169.4037695143829
 30
0.0
 10
97.22601783448948
 20
169.6324674421816
 30
0.0
 10
97.22601783448948
 20
170.1320733720116
 30
0.0
 10
97.22601783448948
 20
170.4027452929539
 30
0.0
 10
97.22601783448948
 20
170.9574119596336
 30
0.0
 10
97.22601783448948
 20
171.241327626854
 30
0.0
 10
97.22601783448948
 20
171.8015262549864
 30
0.0
 10
97.22601783448948
 20
172.0778386263264
 30
0.0
 10
97.22601783448948
 20
172.8765586263449
 30
0.0
 10
97.22601783448948
 20
173.366745293023
 30
0.0
 10
97.22601783448948
 20
173.8000786263665
 30
0.0
  0
SPLINE
  5
14E
330
1F
100
AcDbEntity
  8
0
  6
Continuous
 62
     7
370
    18
100
AcDbSpline
210
0.0
220
0.0
230
1.0
 70
    24
 71
     3
 72
    10
 73
     6
 74
     0
 42
0.000000001
 43
0.00000001
 40
0.0
 40
0.0
 40
0.0
 40
0.0
 40
0.5
 40
0.5
 40
1.0
 40
1.0
 40
1.0
 40
1.0
 10
95.22601783371773
 20
173.8000786263665
 30
0.0
 10
95.22601783381498
 20
173.8000786263665
 30
0.0
 10
95.2553071557157
 20
173.8000786263665
 30
0.0
 10
95.37246444322653
 20
173.8000786263665
 30
0.0
 10
95.455307155696
 20
173.8000786263665
 30
0.0
 10
95.52601783391103
 20
173.8000786263665
 30
0.0
  0
SPLINE
  5
14F
330
1F
100
AcDbEntity
  8
0
  6
Continuous
 62
     7
370
    18
100
AcDbSpline
210
0.0
220
0.0
230
1.0
 70
    24
 71
     3
 72
    25
 73
    21
 74
     0
 42
0.000000001
 43
0.00000001
 40
0.0
 40
0.0
 40
0.0
 40
0.0
 40
0.0250529547012752
 40
0.0500478753409905
 40
0.0750234212569812
 40
0.1000183416871889
 40
0.1250712959704198
 40
0.1875858261821786
 40
0.2501003567404745
 40
0.312614887736353
 40
0.3751294184057041
 40
0.5000071476030014
 40
0.6248848768002986
 40
0.6873994074696498
 40
0.7499139384655282
 40
0.8124284690238243
 40
0.874942999235583
 40
0.9166585443950973
 40
0.958284454252962
 40
1.0
 40
1.0
 40
1.0
 40
1.0
 10
95.2260178341036
 20
173.8000786263665
 30
0.0
 10
95.2260178341036
 20
173.8682522081956
 30
0.0
 10
95.2260178341036
 20
174.0044414507665
 30
0.0
 10
95.2260178341036
 20
174.2082809886706
 30
0.0
 10
95.2260178341036
 20
174.4113313904496
 30
0.0
 10
95.2260178341036
 20
174.6135974500505
 30
0.0
 10
95.2260178341036
 20
174.9151577414812
 30
0.0
 10
95.2260178341036
 20
175.3120418352298
 30
0.0
 10
95.2260178341036
 20
175.7931992968469
 30
0.0
 10
95.2260178341036
 20
176.255355828259
 30
0.0
 10
95.2260178341036
 20
176.839326005778
 30
0.0
 10
95.2260178341036
 20
177.5008221240142
 30
0.0
 10
95.2260178341036
 20
178.0433482426099
 30
0.0
 10
95.2260178341036
 20
178.3935167876935
 30
0.0
 10
95.2260178341036
 20
178.6119372582314
 30
0.0
 10
95.2260178341036
 20
178.784247372787
 30
0.0
 10
95.2260178341036
 20
178.8946590379016
 30
0.0
 10
95.2260178341036
 20
178.959071419867
 30
0.0
 10
95.2260178341036
 20
178.9936971906243
 30
0.0
 10
95.2260178341036
 20
178.997949954747
 30
0.0
 10
95.2260178341036
 20
179.0000786237873
 30
0.0
  0
SPLINE
  5
150
330
1F
100
AcDbEntity
  8
0
  6
Continuous
 62
     7
370
    18
100
AcDbSpline
210
0.0
220
0.0
230
1.0
 70
    24
 71
     3
 72
    25
 73
    21
 74
     0
 42
0.000000001
 43
0.00000001
 40
0.0
 40
0.0
 40
0.0
 40
0.0
 40
0.0250529546961802
 40
0.0500478753371752
 40
0.0750234212544376
 40
0.1000183416859151
 40
0.1250712959704199
 40
0.1875858261821789
 40
0.2501003567404746
 40
0.3126148877363534
 40
0.3751294184057043
 40
0.5000071476030015
 40
0.6248848768002988
 40
0.6873994074696499
 40
0.7499139384655285
 40
0.8124284690238245
 40
0.8749429992355833
 40
0.9166585443972168
 40
0.9582844542572012
 40
1.0
 40
1.0
 40
1.0
 40
1.0
 10
95.2260178341036
 20
168.6000786289457
 30
0.0
 10
95.2260178341036
 20
168.6008454664613
 30
0.0
 10
95.2260178341036
 20
168.6023773651475
 30
0.0
 10
95.2260178341036
 20
168.6148205198128
 30
0.0
 10
95.2260178341036
 20
168.6346984869365
 30
0.0
 10
95.2260178341036
 20
168.6627368983762
 30
0.0
 10
95.2260178341036
 20
168.7166173678407
 30
0.0
 10
95.2260178341036
 20
168.8158790796758
 30
0.0
 10
95.2260178341036
 20
168.9882282336211
 30
0.0
 10
95.2260178341036
 20
169.2066383088318
 30
0.0
 10
95.2260178341036
 20
169.5568102410897
 30
0.0
 10
95.2260178341036
 20
170.0993348167106
 30
0.0
 10
95.2260178341036
 20
170.7608309523906
 30
0.0
 10
95.2260178341036
 20
171.3448020179936
 30
0.0
 10
95.2260178341036
 20
171.8069556547538
 30
0.0
 10
95.2260178341036
 20
172.2881240285126
 30
0.0
 10
95.2260178341036
 20
172.7290352441879
 30
0.0
 10
95.2260178341036
 20
173.1208443724013
 30
0.0
 10
95.2260178341036
 20
173.4597373085062
 30
0.0
 10
95.2260178341036
 20
173.6865502060413
 30
0.0
 10
95.2260178341036
 20
173.8000786263665
 30
0.0
  0
SPLINE
  5
151
330
1F
100
AcDbEntity
  8
0
  6
Continuous
 62
     7
370
    18
100
AcDbSpline
210
0.0
220
0.0
230
1.0
 70
    24
 71
     3
 72
    23
 73
    19
 74
     0
 42
0.000000001
 43
0.00000001
 40
0.0
 40
0.0
 40
0.0
 40
0.0
 40
0.0313055084069047
 40
0.0625354171774648
 40
0.0937653257842644
 40
0.1250708337010743
 40
0.1875873933451743
 40
0.2501039533358223
 40
0.3126205137640674
 40
0.3751370738657741
 40
0.5000188570150315
 40
0.6249006401642888
 40
0.6874172002659957
 40
0.7499337606942406
 40
0.8124503206848885
 40
0.8749668803289885
 40
0.9374834398340949
 40
1.0
 40
1.0
 40
1.0
 40
1.0
 10
119.2260178341036
 20
173.8000786263665
 30
0.0
 10
119.2260178341036
 20
173.7312726149361
 30
0.0
 10
119.2260178341036
 20
173.5938267516334
 30
0.0
 10
119.2260178341036
 20
173.3882368153828
 30
0.0
 10
119.2260178341036
 20
173.1836378250422
 30
0.0
 10
119.2260178341036
 20
172.9127828550939
 30
0.0
 10
119.2260178341036
 20
172.5788801530061
 30
0.0
 10
119.2260178341036
 20
172.190249715155
 30
0.0
 10
119.2260178341036
 20
171.816970246641
 30
0.0
 10
119.2260178341036
 20
171.3453020661593
 30
0.0
 10
119.2260178341036
 20
170.8110144031922
 30
0.0
 10
119.2260178341036
 20
170.3728287333169
 30
0.0
 10
119.2260178341036
 20
170.0899829728054
 30
0.0
 10
119.2260178341036
 20
169.9136193496363
 30
0.0
 10
119.2260178341036
 20
169.7742471507213
 30
0.0
 10
119.2260178341036
 20
169.6746864159626
 30
0.0
 10
119.2260178341036
 20
169.6116898630126
 30
0.0
 10
119.2260178341036
 20
169.6039490399843
 30
0.0
 10
119.2260178341036
 20
169.6000786284497
 30
0.0
  0
SPLINE
  5
152
330
1F
100
AcDbEntity
  8
0
  6
Continuous
 62
     7
370
    18
100
AcDbSpline
210
0.0
220
0.0
230
1.0
 70
    24
 71
     3
 72
    10
 73
     6
 74
     0
 42
0.000000001
 43
0.00000001
 40
0.0
 40
0.0
 40
0.0
 40
0.0
 40
0.5
 40
0.5
 40
1.0
 40
1.0
 40
1.0
 40
1.0
 10
118.9260178342962
 20
173.8000786263665
 30
0.0
 10
118.9967285125112
 20
173.8000786263665
 30
0.0
 10
119.0795712249807
 20
173.8000786263665
 30
0.0
 10
119.1967285124915
 20
173.8000786263665
 30
0.0
 10
119.2260178343922
 20
173.8000786263665
 30
0.0
 10
119.2260178344895
 20
173.8000786263665
 30
0.0
  0
SPLINE
  5
153
330
1F
100
AcDbEntity
  8
0
  6
Continuous
 62
     7
370
    18
100
AcDbSpline
210
0.0
220
0.0
230
1.0
 70
    27
 71
     3
 72
    14
 73
    10
 74
     0
 42
0.000000001
 43
0.00000001
 40
0.0
 40
0.0
 40
0.0
 40
0.0
 40
0.25
 40
0.25
 40
0.5000000000000001
 40
0.5000000000000001
 40
0.75
 40
0.75
 40
1.0
 40
1.0
 40
1.0
 40
1.0
 10
118.9260178341036
 20
173.8000786245206
 30
0.0
 10
118.9260178341036
 20
172.6066381967515
 30
0.0
 10
118.9260178341036
 20
171.4619879293869
 30
0.0
 10
118.9260178341036
 20
169.774208290995
 30
0.0
 10
118.9260178341036
 20
169.3000786262289
 30
0.0
 10
118.9260178341036
 20
169.3000786265041
 30
0.0
 10
118.9260178341036
 20
169.7742082915342
 30
0.0
 10
118.9260178341036
 20
171.4619879303153
 30
0.0
 10
118.9260178341036
 20
172.6066381977893
 30
0.0
 10
118.9260178341036
 20
173.8000786255583
 30
0.0
  0
SPLINE
  5
154
330
1F
100
AcDbEntity
  8
0
  6
Continuous
 62
     7
370
    18
100
AcDbSpline
210
0.0
220
0.0
230
1.0
 70
    24
 71
     3
 72
    10
 73
     6
 74
     0
 42
0.000000001
 43
0.00000001
 40
0.0
 40
0.0
 40
0.0
 40
0.0
 40
0.5
 40
0.5
 40
1.0
 40
1.0
 40
1.0
 40
1.0
 10
119.2260178344895
 20
173.8000786263665
 30
0.0
 10
119.2260178343922
 20
173.8000786263665
 30
0.0
 10
119.1967285124915
 20
173.8000786263665
 30
0.0
 10
119.0795712249807
 20
173.8000786263665
 30
0.0
 10
118.9967285125112
 20
173.8000786263665
 30
0.0
 10
118.9260178342962
 20
173.8000786263665
 30
0.0
  0
SPLINE
  5
155
330
1F
100
AcDbEntity
  8
0
  6
Continuous
 62
     7
370
    18
100
AcDbSpline
210
0.0
220
0.0
230
1.0
 70
    27
 71
     3
 72
    12
 73
     8
 74
     0
 42
0.000000001
 43
0.00000001
 40
0.0
 40
0.0
 40
0.0
 40
0.0
 40
0.3333333333333333
 40
0.3333333333333333
 40
0.6666666666666665
 40
0.6666666666666665
 40
0.9999999999999999
 40
0.9999999999999999
 40
0.9999999999999999
 40
0.9999999999999999
 10
118.9260178341036
 20
173.8000786263665
 30
0.0
 10
118.9260178341036
 20
175.4075390639217
 30
0.0
 10
118.9260178341036
 20
176.8934627251168
 30
0.0
 10
118.9260178341036
 20
178.5009231622914
 30
0.0
 10
118.9260178341036
 20
178.5009231619395
 30
0.0
 10
118.9260178341036
 20
176.8934627236228
 30
0.0
 10
118.9260178341036
 20
175.4075390620758
 30
0.0
 10
118.9260178341036
 20
173.8000786245206
 30
0.0
  0
SPLINE
  5
156
330
1F
100
AcDbEntity
  8
0
  6
Continuous
 62
     7
370
    18
100
AcDbSpline
210
0.0
220
0.0
230
1.0
 70
    24
 71
     3
 72
    23
 73
    19
 74
     0
 42
0.000000001
 43
0.00000001
 40
0.0
 40
0.0
 40
0.0
 40
0.0
 40
0.0313055084021313
 40
0.0625354171742862
 40
0.0937653257826732
 40
0.1250708337010743
 40
0.1875873933451743
 40
0.2501039533358223
 40
0.3126205137640674
 40
0.3751370738657741
 40
0.5000188570150315
 40
0.624900640164289
 40
0.6874172002659958
 40
0.7499337606942408
 40
0.8124503206848888
 40
0.8749668803289885
 40
0.9374834398372706
 40
1.0
 40
1.0
 40
1.0
 40
1.0
 10
119.2260178341036
 20
178.0000786242833
 30
0.0
 10
119.2260178341036
 20
177.9991111805226
 30
0.0
 10
119.2260178341036
 20
177.9971786292798
 30
0.0
 10
119.2260178341036
 20
177.9814679527348
 30
0.0
 10
119.2260178341036
 20
177.9563610033235
 30
0.0
 10
119.2260178341036
 20
177.9092666315337
 30
0.0
 10
119.2260178341036
 20
177.8257864381449
 30
0.0
 10
119.2260178341036
 20
177.6865709873155
 30
0.0
 10
119.2260178341036
 20
177.5101656069204
 30
0.0
 10
119.2260178341036
 20
177.227333545869
 30
0.0
 10
119.2260178341036
 20
176.7891409197449
 30
0.0
 10
119.2260178341036
 20
176.2548559518472
 30
0.0
 10
119.2260178341036
 20
175.7831860137434
 30
0.0
 10
119.2260178341036
 20
175.4099111803059
 30
0.0
 10
119.2260178341036
 20
175.0212635211636
 30
0.0
 10
119.2260178341036
 20
174.6207655709669
 30
0.0
 10
119.2260178341036
 20
174.2124220683283
 30
0.0
 10
119.2260178341036
 20
173.9375264408334
 30
0.0
 10
119.2260178341036
 20
173.8000786263665
 30
0.0
  0
LINE
  5
157
330
1F
100
AcDbEntity
  8
0
  6
Continuous
 62
     7
370
    18
100
AcDbLine
 10
110.2260178341
 20
175.126728542
 30
0.0
 11
106.2260178341
 21
175.126728542
 31
0.0
  0
LINE
  5
158
330
1F
100
AcDbEntity
  8
0
  6
Continuous
 62
     7
370
    18
100
AcDbLine
 10
106.2260178341
 20
172.4734287116
 30
0.0
 11
110.2260178341
 21
172.4734287116
 31
0.0
  0
SPLINE
  5
159
330
1F
100
AcDbEntity
  8
0
  6
Continuous
 62
     7
370
    18
100
AcDbSpline
210
0.0
220
0.0
230
1.0
 70
     8
 71
     3
 72
    14
 73
    10
 74
     0
 42
0.000000001
 43
0.00000001
 40
0.0
 40
0.0
 40
0.0
 40
0.0
 40
0.0836762611521495
 40
0.166704900191425
 40
0.2508158839822991
 40
0.4999698398158444
 40
0.7492796192960639
 40
0.8740091570941633
 40
1.0
 40
1.0
 40
1.0
 40
1.0
 10
106.5260178341036
 20
169.5449597407034
 30
0.0
 10
106.5124240174925
 20
169.5451361772479
 30
0.0
 10
106.4853415951881
 20
169.545487684786
 30
0.0
 10
106.4454190864834
 20
169.5484370769081
 30
0.0
 10
106.3819947164336
 20
169.5562022249857
 30
0.0
 10
106.3034500713781
 20
169.5755794053339
 30
0.0
 10
106.2510262375246
 20
169.607229274376
 30
0.0
 10
106.2290271651567
 20
169.6365469119197
 30
0.0
 10
106.2270243030703
 20
169.6523772632779
 30
0.0
 10
106.2260178341036
 20
169.6603322580235
 30
0.0
  0
SPLINE
  5
15A
330
1F
100
AcDbEntity
  8
0
  6
Continuous
 62
     7
370
    18
100
AcDbSpline
210
0.0
220
0.0
230
1.0
 70
     8
 71
     3
 72
    11
 73
     7
 74
     0
 42
0.000000001
 43
0.00000001
 40
0.0
 40
0.0
 40
0.0
 40
0.0
 40
0.2516029273659005
 40
0.500765075458893
 40
0.7508242773942502
 40
1.0
 40
1.0
 40
1.0
 40
1.0
 10
106.7341810981036
 20
169.5747884777253
 30
0.0
 10
106.7198119188732
 20
169.5702637692761
 30
0.0
 10
106.6912129546364
 20
169.5612582462017
 30
0.0
 10
106.6395497430559
 20
169.5520965555106
 30
0.0
 10
106.5840908865261
 20
169.5460368300664
 30
0.0
 10
106.5453526670011
 20
169.5453183466657
 30
0.0
 10
106.5260178341036
 20
169.5449597407034
 30
0.0
  0
SPLINE
  5
15B
330
1F
100
AcDbEntity
  8
0
  6
Continuous
 62
     7
370
    18
100
AcDbSpline
210
0.0
220
0.0
230
1.0
 70
     8
 71
     3
 72
    17
 73
    13
 74
     0
 42
0.000000001
 43
0.00000001
 40
0.0
 40
0.0
 40
0.0
 40
0.0
 40
0.0809202995338427
 40
0.149566105448084
 40
0.2059365193618301
 40
0.2500312875690208
 40
0.382580221188446
 40
0.500575903723421
 40
0.6288999479137488
 40
0.750130864301123
 40
0.8762035009060177
 40
0.9999999999999999
 40
0.9999999999999999
 40
0.9999999999999999
 40
0.9999999999999999
 10
106.7341810988376
 20
169.574788479827
 30
0.0
 10
106.7662561479937
 20
169.5859072955101
 30
0.0
 10
106.8255409036357
 20
169.6064583558559
 30
0.0
 10
106.9125749012853
 20
169.6344686538365
 30
0.0
 10
106.9864746680494
 20
169.6572189080332
 30
0.0
 10
107.0912523712973
 20
169.687923656068
 30
0.0
 10
107.2301131824691
 20
169.7245750078199
 30
0.0
 10
107.4186370795131
 20
169.7667448111149
 30
0.0
 10
107.6099850327256
 20
169.8007888914048
 30
0.0
 10
107.8124033309297
 20
169.8269352064102
 30
0.0
 10
108.0172464448271
 20
169.8436944776655
 30
0.0
 10
108.1568512732092
 20
169.8458482554092
 30
0.0
 10
108.2260178349855
 20
169.8469153345575
 30
0.0
  0
SPLINE
  5
15C
330
1F
100
AcDbEntity
  8
0
  6
Continuous
 62
     7
370
    18
100
AcDbSpline
210
0.0
220
0.0
230
1.0
 70
     8
 71
     3
 72
    16
 73
    12
 74
     0
 42
0.000000001
 43
0.00000001
 40
0.0
 40
0.0
 40
0.0
 40
0.0
 40
0.0825131279004402
 40
0.1659968509629867
 40
0.2505485903695803
 40
0.371610393790541
 40
0.4997548425967561
 40
0.6178132014559203
 40
0.7504583669370589
 40
0.8507320746232616
 40
0.9999999999999999
 40
0.9999999999999999
 40
0.9999999999999999
 40
0.9999999999999999
 10
108.2260178349855
 20
169.8469153345575
 30
0.0
 10
108.2721065802602
 20
169.8464418707679
 30
0.0
 10
108.3648262089435
 20
169.845489373873
 30
0.0
 10
108.5040232951008
 20
169.837881495992
 30
0.0
 10
108.6628930295878
 20
169.824081324288
 30
0.0
 10
108.8427499906385
 20
169.8006326778707
 30
0.0
 10
109.033903275243
 20
169.7666498380542
 30
0.0
 10
109.2224548154525
 20
169.7244561511001
 30
0.0
 10
109.3876168466735
 20
169.6807772875185
 30
0.0
 10
109.557548981038
 20
169.6295489943565
 30
0.0
 10
109.6578547971486
 20
169.5952844489516
 30
0.0
 10
109.7178545690916
 20
169.574788479827
 30
0.0
  0
SPLINE
  5
15D
330
1F
100
AcDbEntity
  8
0
  6
Continuous
 62
     7
370
    18
100
AcDbSpline
210
0.0
220
0.0
230
1.0
 70
     8
 71
     3
 72
    12
 73
     8
 74
     0
 42
0.000000001
 43
0.00000001
 40
0.0
 40
0.0
 40
0.0
 40
0.0
 40
0.1667610443292028
 40
0.332355404905959
 40
0.4999001905056926
 40
0.7487321180604072
 40
0.9999999999999999
 40
0.9999999999999999
 40
0.9999999999999999
 40
0.9999999999999999
 10
109.9260178341036
 20
169.5449597407034
 30
0.0
 10
109.9130932043804
 20
169.545120508732
 30
0.0
 10
109.8873343674637
 20
169.5454409200334
 30
0.0
 10
109.8492825513727
 20
169.5480997883068
 30
0.0
 10
109.8067756421976
 20
169.5530727641241
 30
0.0
 10
109.7607734914066
 20
169.5612812128611
 30
0.0
 10
109.7322072586393
 20
169.5702714591312
 30
0.0
 10
109.7178545701036
 20
169.5747884777253
 30
0.0
  0
SPLINE
  5
15E
330
1F
100
AcDbEntity
  8
0
  6
Continuous
 62
     7
370
    18
100
AcDbSpline
210
0.0
220
0.0
230
1.0
 70
     8
 71
     3
 72
    13
 73
     9
 74
     0
 42
0.000000001
 43
0.00000001
 40
0.0
 40
0.0
 40
0.0
 40
0.0
 40
0.126023850968171
 40
0.2507860845933103
 40
0.5004940164429482
 40
0.7497201447862497
 40
0.8751047801654428
 40
1.0
 40
1.0
 40
1.0
 40
1.0
 10
110.2260178341036
 20
169.6603322580235
 30
0.0
 10
110.2250111900679
 20
169.6523769857159
 30
0.0
 10
110.2230079794506
 20
169.6365460808627
 30
0.0
 10
110.2009985508238
 20
169.6072162333576
 30
0.0
 10
110.1484951806895
 20
169.5754991681488
 30
0.0
 10
110.0644006816336
 20
169.5549424175378
 30
0.0
 10
109.9870384255225
 20
169.5461666027448
 30
0.0
 10
109.9463314974746
 20
169.5453615032671
 30
0.0
 10
109.9260178341036
 20
169.5449597407034
 30
0.0
  0
SPLINE
  5
15F
330
1F
100
AcDbEntity
  8
0
  6
Continuous
 62
     7
370
    18
100
AcDbSpline
210
0.0
220
0.0
230
1.0
 70
    24
 71
     3
 72
    10
 73
     6
 74
     0
 42
0.000000001
 43
0.00000001
 40
0.0
 40
0.0
 40
0.0
 40
0.0
 40
0.5
 40
0.5
 40
1.0
 40
1.0
 40
1.0
 40
1.0
 10
176.2260178339111
 20
173.8000786263665
 30
0.0
 10
176.155307155696
 20
173.8000786263665
 30
0.0
 10
176.0724644432265
 20
173.8000786263665
 30
0.0
 10
175.9553071557157
 20
173.8000786263665
 30
0.0
 10
175.9260178338149
 20
173.8000786263665
 30
0.0
 10
175.9260178337177
 20
173.8000786263665
 30
0.0
  0
SPLINE
  5
160
330
1F
100
AcDbEntity
  8
0
  6
Continuous
 62
     7
370
    18
100
AcDbSpline
210
0.0
220
0.0
230
1.0
 70
    24
 71
     3
 72
    13
 73
     9
 74
     0
 42
0.000000001
 43
0.00000001
 40
0.0
 40
0.0
 40
0.0
 40
0.0
 40
0.3773382869334789
 40
0.7462480129018585
 40
0.8727456408929511
 40
0.9430037977921788
 40
0.9722806858949987
 40
1.0
 40
1.0
 40
1.0
 40
1.0
 10
176.0024996712228
 20
170.9000786263665
 30
0.0
 10
176.0054281548407
 20
170.9000786263665
 30
0.0
 10
176.011219708882
 20
170.9000786263665
 30
0.0
 10
176.0540994896209
 20
170.9000786263665
 30
0.0
 10
176.1242665014737
 20
170.9000786263665
 30
0.0
 10
176.1694243938698
 20
170.9000786263665
 30
0.0
 10
176.2021604445112
 20
170.9000786263665
 30
0.0
 10
176.2182115846228
 20
170.9000786263665
 30
0.0
 10
176.2260178344652
 20
170.9000786263665
 30
0.0
  0
SPLINE
  5
161
330
1F
100
AcDbEntity
  8
0
  6
Continuous
 62
     7
370
    18
100
AcDbSpline
210
0.0
220
0.0
230
1.0
 70
    24
 71
     3
 72
    10
 73
     6
 74
     0
 42
0.000000001
 43
0.00000001
 40
0.0
 40
0.0
 40
0.0
 40
0.0
 40
0.5000000000000002
 40
0.5000000000000002
 40
1.0
 40
1.0
 40
1.0
 40
1.0
 10
176.2260178341036
 20
170.9000786266572
 30
0.0
 10
176.2260178341036
 20
171.0695387078879
 30
0.0
 10
176.2260178341036
 20
171.4458671718454
 30
0.0
 10
176.2260178341036
 20
172.4948758447247
 30
0.0
 10
176.2260178341036
 20
173.1382239231771
 30
0.0
 10
176.2260178341036
 20
173.8000786251359
 30
0.0
  0
SPLINE
  5
162
330
1F
100
AcDbEntity
  8
0
  6
Continuous
 62
     7
370
    18
100
AcDbSpline
210
0.0
220
0.0
230
1.0
 70
    24
 71
     3
 72
    10
 73
     6
 74
     0
 42
0.000000001
 43
0.00000001
 40
0.0
 40
0.0
 40
0.0
 40
0.0
 40
0.5
 40
0.5
 40
1.0
 40
1.0
 40
1.0
 40
1.0
 10
175.9260178337177
 20
173.8000786263665
 30
0.0
 10
175.9260178338149
 20
173.8000786263665
 30
0.0
 10
175.9553071557157
 20
173.8000786263665
 30
0.0
 10
176.0724644432265
 20
173.8000786263665
 30
0.0
 10
176.155307155696
 20
173.8000786263665
 30
0.0
 10
176.2260178339111
 20
173.8000786263665
 30
0.0
  0
SPLINE
  5
163
330
1F
100
AcDbEntity
  8
0
  6
Continuous
 62
     7
370
    18
100
AcDbSpline
210
0.0
220
0.0
230
1.0
 70
    24
 71
     3
 72
    16
 73
    12
 74
     0
 42
0.000000001
 43
0.00000001
 40
0.0
 40
0.0
 40
0.0
 40
0.0
 40
0.0274758931459905
 40
0.0564743593175887
 40
0.125929088304528
 40
0.2509756194348916
 40
0.3654373335167957
 40
0.5001885375104725
 40
0.748985875238153
 40
0.9980061835944121
 40
0.9999999999999999
 40
0.9999999999999999
 40
0.9999999999999999
 40
0.9999999999999999
 10
176.2260178344652
 20
176.7000786263665
 30
0.0
 10
176.218272343531
 20
176.7000786263665
 30
0.0
 10
176.2023521462953
 20
176.7000786263665
 30
0.0
 10
176.1698755303849
 20
176.7000786263665
 30
0.0
 10
176.1250151503124
 20
176.7000786263665
 30
0.0
 10
176.0860037210842
 20
176.7000786263665
 30
0.0
 10
176.0542750568034
 20
176.7000786263665
 30
0.0
 10
176.025647989335
 20
176.7000786263665
 30
0.0
 10
176.0086593074498
 20
176.7000786263665
 30
0.0
 10
175.9987446118756
 20
176.7000786263665
 30
0.0
 10
176.0024700796657
 20
176.7000786263665
 30
0.0
 10
176.0024996712228
 20
176.7000786263665
 30
0.0
  0
SPLINE
  5
164
330
1F
100
AcDbEntity
  8
0
  6
Continuous
 62
     7
370
    18
100
AcDbSpline
210
0.0
220
0.0
230
1.0
 70
    24
 71
     3
 72
    10
 73
     6
 74
     0
 42
0.000000001
 43
0.00000001
 40
0.0
 40
0.0
 40
0.0
 40
0.0
 40
0.4999999999999999
 40
0.4999999999999999
 40
1.0
 40
1.0
 40
1.0
 40
1.0
 10
176.2260178341036
 20
173.8000786251359
 30
0.0
 10
176.2260178341036
 20
174.4619333276081
 30
0.0
 10
176.2260178341036
 20
175.1052814067101
 30
0.0
 10
176.2260178341036
 20
176.1542900806621
 30
0.0
 10
176.2260178341036
 20
176.5306185449664
 30
0.0
 10
176.2260178341036
 20
176.7000786262137
 30
0.0
  0
LINE
  5
165
330
1F
100
AcDbEntity
  8
0
  6
Continuous
 62
     7
370
    18
100
AcDbLine
 10
119.2260178341
 20
176.7000786262
 30
0.0
 11
120.787939627
 21
176.7000786262
 31
0.0
  0
LINE
  5
166
330
1F
100
AcDbEntity
  8
0
  6
Continuous
 62
     7
370
    18
100
AcDbLine
 10
121.7898643413
 20
176.7000786262
 30
0.0
 11
125.7871995148
 21
176.7000786262
 31
0.0
  0
LINE
  5
167
330
1F
100
AcDbEntity
  8
0
  6
Continuous
 62
     7
370
    18
100
AcDbLine
 10
126.7913557717
 20
176.7000786262
 30
0.0
 11
130.7884526678
 21
176.7000786262
 31
0.0
  0
LINE
  5
168
330
1F
100
AcDbEntity
  8
0
  6
Continuous
 62
     7
370
    18
100
AcDbLine
 10
131.7914143413
 20
176.7000786262
 30
0.0
 11
135.786031959
 21
176.7000786262
 31
0.0
  0
LINE
  5
169
330
1F
100
AcDbEntity
  8
0
  6
Continuous
 62
     7
370
    18
100
AcDbLine
 10
136.7916707548
 20
176.7000786262
 30
0.0
 11
140.7865729845
 21
176.7000786262
 31
0.0
  0
LINE
  5
16A
330
1F
100
AcDbEntity
  8
0
  6
Continuous
 62
     7
370
    18
100
AcDbLine
 10
141.7915325855
 20
176.7000786262
 30
0.0
 11
145.7867875325
 21
176.7000786262
 31
0.0
  0
LINE
  5
16B
330
1F
100
AcDbEntity
  8
0
  6
Continuous
 62
     7
370
    18
100
AcDbLine
 10
146.7907458014
 20
176.7000786262
 30
0.0
 11
149.2260178341
 21
176.7000786262
 31
0.0
  0
LINE
  5
16C
330
1F
100
AcDbEntity
  8
0
  6
Continuous
 62
     7
370
    18
100
AcDbLine
 10
149.2260178341
 20
170.9000786267
 30
0.0
 11
147.6786275591
 21
170.9000786267
 31
0.0
  0
LINE
  5
16D
330
1F
100
AcDbEntity
  8
0
  6
Continuous
 62
     7
370
    18
100
AcDbLine
 10
146.6731643029
 20
170.9000786267
 30
0.0
 11
142.6794335489
 21
170.9000786267
 31
0.0
  0
LINE
  5
16E
330
1F
100
AcDbEntity
  8
0
  6
Continuous
 62
     7
370
    18
100
AcDbLine
 10
141.6748426766
 20
170.9000786267
 30
0.0
 11
137.679018795
 21
170.9000786267
 31
0.0
  0
LINE
  5
16F
330
1F
100
AcDbEntity
  8
0
  6
Continuous
 62
     7
370
    18
100
AcDbLine
 10
136.6746002873
 20
170.9000786267
 30
0.0
 11
132.6784797644
 21
170.9000786267
 31
0.0
  0
LINE
  5
170
330
1F
100
AcDbEntity
  8
0
  6
Continuous
 62
     7
370
    18
100
AcDbLine
 10
131.673591144
 20
170.9000786267
 30
0.0
 11
127.6773449224
 21
170.9000786267
 31
0.0
  0
LINE
  5
171
330
1F
100
AcDbEntity
  8
0
  6
Continuous
 62
     7
370
    18
100
AcDbLine
 10
126.6747172376
 20
170.9000786267
 30
0.0
 11
122.6769268775
 21
170.9000786267
 31
0.0
  0
LINE
  5
172
330
1F
100
AcDbEntity
  8
0
  6
Continuous
 62
     7
370
    18
100
AcDbLine
 10
121.6753264657
 20
170.9000786267
 30
0.0
 11
119.2260178341
 21
170.9000786267
 31
0.0
  0
LINE
  5
173
330
1F
100
AcDbEntity
  8
0
  6
Continuous
 62
     7
370
    18
100
AcDbLine
 10
176.2260178341
 20
176.7000786262
 30
0.0
 11
176.7260178341
 21
176.7000786262
 31
0.0
  0
LINE
  5
174
330
1F
100
AcDbEntity
  8
0
  6
Continuous
 62
     7
370
    18
100
AcDbLine
 10
176.7260178341
 20
170.9000786267
 30
0.0
 11
176.2260178341
 21
170.9000786267
 31
0.0
  0
SPLINE
  5
175
330
1F
100
AcDbEntity
  8
0
  6
Continuous
 62
     7
370
    18
100
AcDbSpline
210
0.0
220
0.0
230
1.0
 70
    24
 71
     3
 72
    10
 73
     6
 74
     0
 42
0.000000001
 43
0.00000001
 40
0.0
 40
0.0
 40
0.0
 40
0.0
 40
0.4999999999999998
 40
0.4999999999999998
 40
1.0
 40
1.0
 40
1.0
 40
1.0
 10
176.7260178341036
 20
173.8000786251359
 30
0.0
 10
176.7260178341036
 20
173.1382239231771
 30
0.0
 10
176.7260178341036
 20
172.4948758447247
 30
0.0
 10
176.7260178341036
 20
171.4458671718454
 30
0.0
 10
176.7260178341036
 20
171.0695387078879
 30
0.0
 10
176.7260178341036
 20
170.9000786266572
 30
0.0
  0
SPLINE
  5
176
330
1F
100
AcDbEntity
  8
0
  6
Continuous
 62
     7
370
    18
100
AcDbSpline
210
0.0
220
0.0
230
1.0
 70
    24
 71
     3
 72
    10
 73
     6
 74
     0
 42
0.000000001
 43
0.00000001
 40
0.0
 40
0.0
 40
0.0
 40
0.0
 40
0.5000000000000001
 40
0.5000000000000001
 40
1.0
 40
1.0
 40
1.0
 40
1.0
 10
176.7260178341036
 20
176.7000786262137
 30
0.0
 10
176.7260178341036
 20
176.5306185449664
 30
0.0
 10
176.7260178341036
 20
176.1542900806621
 30
0.0
 10
176.7260178341036
 20
175.1052814067102
 30
0.0
 10
176.7260178341036
 20
174.4619333276081
 30
0.0
 10
176.7260178341036
 20
173.8000786251359
 30
0.0
  0
SPLINE
  5
177
330
1F
100
AcDbEntity
  8
0
  6
Continuous
 62
     7
370
    18
100
AcDbSpline
210
0.0
220
0.0
230
1.0
 70
     8
 71
     3
 72
     9
 73
     5
 74
     0
 42
0.000000001
 43
0.00000001
 40
0.0
 40
0.0
 40
0.0
 40
0.0
 40
0.0002747512244864
 40
1.0
 40
1.0
 40
1.0
 40
1.0
 10
176.8259903584045
 20
170.9000786261764
 30
0.0
 10
176.8259995168204
 20
170.9000786261763
 30
0.0
 10
176.8593330024291
 20
170.9000786260164
 30
0.0
 10
176.7926662598818
 20
170.9000786260413
 30
0.0
 10
176.7260178341036
 20
170.9000786260662
 30
0.0
  0
SPLINE
  5
178
330
1F
100
AcDbEntity
  8
0
  6
Continuous
 62
     7
370
    18
100
AcDbSpline
210
0.0
220
0.0
230
1.0
 70
    24
 71
     3
 72
     9
 73
     5
 74
     0
 42
0.000000001
 43
0.00000001
 40
0.0
 40
0.0
 40
0.0
 40
0.0
 40
0.9997252481033677
 40
1.0
 40
1.0
 40
1.0
 40
1.0
 10
176.7260178341036
 20
176.7000786265288
 30
0.0
 10
176.792666259884
 20
176.7000786266001
 30
0.0
 10
176.8593330024785
 20
176.7000786266715
 30
0.0
 10
176.8259995167756
 20
176.7000786265566
 30
0.0
 10
176.8259903583372
 20
176.7000786265566
 30
0.0
  0
SPLINE
  5
179
330
1F
100
AcDbEntity
  8
0
  6
Continuous
 62
     7
370
    18
100
AcDbSpline
210
0.0
220
0.0
230
1.0
 70
    24
 71
     3
 72
    10
 73
     6
 74
     0
 42
0.000000001
 43
0.00000001
 40
0.0
 40
0.0
 40
0.0
 40
0.0
 40
0.4999999999999999
 40
0.4999999999999999
 40
0.9999999999999999
 40
0.9999999999999999
 40
0.9999999999999999
 40
0.9999999999999999
 10
177.2260178341036
 20
173.8000786259175
 30
0.0
 10
177.2260178341036
 20
173.1370561660458
 30
0.0
 10
177.2260178341036
 20
172.5011393507825
 30
0.0
 10
177.2260178341036
 20
171.5634839959041
 30
0.0
 10
177.2260178341037
 20
171.3000786264429
 30
0.0
 10
177.2260178341037
 20
171.3000786263665
 30
0.0
  0
SPLINE
  5
17A
330
1F
100
AcDbEntity
  8
0
  6
Continuous
 62
     7
370
    18
100
AcDbSpline
210
0.0
220
0.0
230
1.0
 70
    24
 71
     3
 72
    10
 73
     6
 74
     0
 42
0.000000001
 43
0.00000001
 40
0.0
 40
0.0
 40
0.0
 40
0.0
 40
0.5000000000000002
 40
0.5000000000000002
 40
1.0
 40
1.0
 40
1.0
 40
1.0
 10
177.2260178341036
 20
176.3000786263665
 30
0.0
 10
177.2260178341036
 20
176.3000786265025
 30
0.0
 10
177.2260178341036
 20
176.0366732570741
 30
0.0
 10
177.2260178341036
 20
175.0990179019541
 30
0.0
 10
177.2260178341037
 20
174.4631010864557
 30
0.0
 10
177.2260178341037
 20
173.8000786263665
 30
0.0
  0
SPLINE
  5
17B
330
1F
100
AcDbEntity
  8
0
  6
Continuous
 62
     7
370
    18
100
AcDbSpline
210
0.0
220
0.0
230
1.0
 70
    24
 71
     3
 72
    10
 73
     6
 74
     0
 42
0.000000001
 43
0.00000001
 40
0.0
 40
0.0
 40
0.0
 40
0.0
 40
0.4999999999999999
 40
0.4999999999999999
 40
1.0
 40
1.0
 40
1.0
 40
1.0
 10
108.2260178350676
 20
162.0000786263665
 30
0.0
 10
108.849258947347
 20
162.0000786263665
 30
0.0
 10
109.4470207536374
 20
162.0000786263665
 30
0.0
 10
110.3284167870198
 20
162.0000786263664
 30
0.0
 10
110.5760178341755
 20
162.0000786263664
 30
0.0
 10
110.5760178341036
 20
162.0000786263664
 30
0.0
  0
SPLINE
  5
17C
330
1F
100
AcDbEntity
  8
0
  6
Continuous
 62
     7
370
    18
100
AcDbSpline
210
0.0
220
0.0
230
1.0
 70
    24
 71
     3
 72
    10
 73
     6
 74
     0
 42
0.000000001
 43
0.00000001
 40
0.0
 40
0.0
 40
0.0
 40
0.0
 40
0.5000000000000001
 40
0.5000000000000001
 40
1.0
 40
1.0
 40
1.0
 40
1.0
 10
105.8760178341036
 20
162.0000786263665
 30
0.0
 10
105.8760178342314
 20
162.0000786263665
 30
0.0
 10
106.1236188817393
 20
162.0000786263665
 30
0.0
 10
107.0050149159136
 20
162.0000786263664
 30
0.0
 10
107.6027767225837
 20
162.0000786263664
 30
0.0
 10
108.2260178350676
 20
162.0000786263664
 30
0.0
  0
SPLINE
  5
17D
330
1F
100
AcDbEntity
  8
0
  6
Continuous
 62
     7
370
    18
100
AcDbSpline
210
0.0
220
0.0
230
1.0
 70
    24
 71
     3
 72
    10
 73
     6
 74
     0
 42
0.000000001
 43
0.00000001
 40
0.0
 40
0.0
 40
0.0
 40
0.0
 40
0.4999999999999999
 40
0.4999999999999999
 40
1.0
 40
1.0
 40
1.0
 40
1.0
 10
108.2260178350676
 20
164.5000786263665
 30
0.0
 10
108.849258947347
 20
164.5000786263665
 30
0.0
 10
109.4470207536374
 20
164.5000786263665
 30
0.0
 10
110.3284167870198
 20
164.5000786263664
 30
0.0
 10
110.5760178341755
 20
164.5000786263664
 30
0.0
 10
110.5760178341036
 20
164.5000786263664
 30
0.0
  0
SPLINE
  5
17E
330
1F
100
AcDbEntity
  8
0
  6
Continuous
 62
     7
370
    18
100
AcDbSpline
210
0.0
220
0.0
230
1.0
 70
    24
 71
     3
 72
    10
 73
     6
 74
     0
 42
0.000000001
 43
0.00000001
 40
0.0
 40
0.0
 40
0.0
 40
0.0
 40
0.5000000000000001
 40
0.5000000000000001
 40
1.0
 40
1.0
 40
1.0
 40
1.0
 10
105.8760178341036
 20
164.5000786263665
 30
0.0
 10
105.8760178342314
 20
164.5000786263665
 30
0.0
 10
106.1236188817393
 20
164.5000786263665
 30
0.0
 10
107.0050149159136
 20
164.5000786263664
 30
0.0
 10
107.6027767225837
 20
164.5000786263664
 30
0.0
 10
108.2260178350676
 20
164.5000786263664
 30
0.0
  0
SPLINE
  5
17F
330
1F
100
AcDbEntity
  8
0
  6
Continuous
 62
     7
370
    18
100
AcDbSpline
210
0.0
220
0.0
230
1.0
 70
    24
 71
     3
 72
    10
 73
     6
 74
     0
 42
0.000000001
 43
0.00000001
 40
0.0
 40
0.0
 40
0.0
 40
0.0
 40
0.5000000000000001
 40
0.5000000000000001
 40
1.0
 40
1.0
 40
1.0
 40
1.0
 10
110.2260178341036
 20
159.5000786263665
 30
0.0
 10
110.2260178341648
 20
159.5000786263665
 30
0.0
 10
110.0152935387131
 20
159.5000786263665
 30
0.0
 10
109.2651692549834
 20
159.5000786263665
 30
0.0
 10
108.7564358028214
 20
159.5000786263665
 30
0.0
 10
108.226017834924
 20
159.5000786263665
 30
0.0
  0
SPLINE
  5
180
330
1F
100
AcDbEntity
  8
0
  6
Continuous
 62
     7
370
    18
100
AcDbSpline
210
0.0
220
0.0
230
1.0
 70
    24
 71
     3
 72
    10
 73
     6
 74
     0
 42
0.000000001
 43
0.00000001
 40
0.0
 40
0.0
 40
0.0
 40
0.0
 40
0.5000000000000002
 40
0.5000000000000002
 40
1.0
 40
1.0
 40
1.0
 40
1.0
 10
108.226017834924
 20
159.5000786263665
 30
0.0
 10
107.6955998668526
 20
159.5000786263665
 30
0.0
 10
107.1868664143674
 20
159.5000786263665
 30
0.0
 10
106.4367421299637
 20
159.5000786263665
 30
0.0
 10
106.2260178342124
 20
159.5000786263665
 30
0.0
 10
106.2260178341036
 20
159.5000786263665
 30
0.0
  0
SPLINE
  5
181
330
1F
100
AcDbEntity
  8
0
  6
Continuous
 62
     7
370
    18
100
AcDbSpline
210
0.0
220
0.0
230
1.0
 70
     8
 71
     3
 72
    14
 73
    10
 74
     0
 42
0.000000001
 43
0.00000001
 40
0.0
 40
0.0
 40
0.0
 40
0.0
 40
0.2500000000000002
 40
0.2500000000000002
 40
0.5000000000000001
 40
0.5000000000000001
 40
0.75
 40
0.75
 40
1.0
 40
1.0
 40
1.0
 40
1.0
 10
110.2443851811036
 20
166.5490442173665
 30
0.0
 10
110.2074160521036
 20
166.5624069103665
 30
0.0
 10
110.1634254551036
 20
166.5822056793665
 30
0.0
 10
110.0632393337703
 20
166.6461017353665
 30
0.0
 10
110.0074174871036
 20
166.6900706263665
 30
0.0
 10
109.8954298391036
 20
166.8129392543665
 30
0.0
 10
109.8390363291036
 20
166.8920391003665
 30
0.0
 10
109.7493979131036
 20
167.0922532923665
 30
0.0
 10
109.7178547051036
 20
167.2110020913665
 30
0.0
 10
109.7178545691036
 20
167.3365269713665
 30
0.0
  0
LINE
  5
182
330
1F
100
AcDbEntity
  8
0
  6
Continuous
 62
     7
370
    18
100
AcDbLine
 10
109.7178545691
 20
169.5747884798
 30
0.0
 11
109.7178545691
 21
167.3365269718
 31
0.0
  0
LINE
  5
183
330
1F
100
AcDbEntity
  8
0
  6
Continuous
 62
     7
370
    18
100
AcDbLine
 10
106.7341810988
 20
167.3365269718
 30
0.0
 11
106.7341810988
 21
169.5747884798
 31
0.0
  0
SPLINE
  5
184
330
1F
100
AcDbEntity
  8
0
  6
Continuous
 62
     7
370
    18
100
AcDbSpline
210
0.0
220
0.0
230
1.0
 70
     8
 71
     3
 72
    18
 73
    14
 74
     0
 42
0.000000001
 43
0.00000001
 40
0.0
 40
0.0
 40
0.0
 40
0.0
 40
0.0884096293516565
 40
0.1712958459353656
 40
0.248965413543748
 40
0.3779336499071835
 40
0.498511365860921
 40
0.626538449220377
 40
0.7488730468569605
 40
0.8122711756634334
 40
0.8742355429967265
 40
0.9380760258737805
 40
0.9999999999999999
 40
0.9999999999999999
 40
0.9999999999999999
 40
0.9999999999999999
 10
106.2076504871794
 20
166.549044218154
 30
0.0
 10
106.2220074070166
 20
166.554580154165
 30
0.0
 10
106.2498242946858
 20
166.5653061672589
 30
0.0
 10
106.2968476321118
 20
166.5886908812088
 30
0.0
 10
106.3558910204735
 20
166.6237719922266
 30
0.0
 10
106.4285558265174
 20
166.6778255388375
 30
0.0
 10
106.5155898197192
 20
166.763671219822
 30
0.0
 10
106.598311029049
 20
166.8728116650248
 30
0.0
 10
106.6581638261812
 20
166.9866297978715
 30
0.0
 10
106.6952912346249
 20
167.0864560865925
 30
0.0
 10
106.71684881808
 20
167.1673099501218
 30
0.0
 10
106.7313665678024
 20
167.2509163710803
 30
0.0
 10
106.7332525016622
 20
167.3082814981973
 30
0.0
 10
106.7341810988376
 20
167.3365269717753
 30
0.0
  0
SPLINE
  5
185
330
1F
100
AcDbEntity
  8
0
  6
Continuous
 62
     7
370
    18
100
AcDbSpline
210
0.0
220
0.0
230
1.0
 70
     8
 71
     3
 72
    12
 73
     8
 74
     0
 42
0.000000001
 43
0.00000001
 40
0.0
 40
0.0
 40
0.0
 40
0.0
 40
0.5
 40
0.5
 40
0.75
 40
0.75
 40
1.0
 40
1.0
 40
1.0
 40
1.0
 10
106.2260178341036
 20
167.3365268813408
 30
0.0
 10
106.226017838403
 20
167.3365268965028
 30
0.0
 10
106.2461036395614
 20
167.3365269102727
 30
0.0
 10
106.3273120481873
 20
167.3365269124409
 30
0.0
 10
106.3623755921312
 20
167.3365269099943
 30
0.0
 10
106.4411134404408
 20
167.3365268984547
 30
0.0
 10
106.4844804517926
 20
167.3365268894021
 30
0.0
 10
106.5260178398998
 20
167.336526878552
 30
0.0
  0
LINE
  5
186
330
1F
100
AcDbEntity
  8
0
  6
Continuous
 62
     7
370
    18
100
AcDbLine
 10
106.5260178342
 20
167.3365269714
 30
0.0
 11
106.5260178342
 21
169.5449597418
 31
0.0
  0
SPLINE
  5
187
330
1F
100
AcDbEntity
  8
0
  6
Continuous
 62
     7
370
    18
100
AcDbSpline
210
0.0
220
0.0
230
1.0
 70
     8
 71
     3
 72
    10
 73
     6
 74
     0
 42
0.000000001
 43
0.00000001
 40
0.0
 40
0.0
 40
0.0
 40
0.0
 40
0.5
 40
0.5
 40
1.0
 40
1.0
 40
1.0
 40
1.0
 10
110.5260178206975
 20
166.8470319405217
 30
0.0
 10
110.460920375441
 20
166.8442879991447
 30
0.0
 10
110.3852720281505
 20
166.8133918325688
 30
0.0
 10
110.2761789341099
 20
166.6979634535687
 30
0.0
 10
110.2469785008866
 20
166.617922031645
 30
0.0
 10
110.2443851575773
 20
166.5490442258702
 30
0.0
  0
SPLINE
  5
188
330
1F
100
AcDbEntity
  8
0
  6
Continuous
 62
     7
370
    18
100
AcDbSpline
210
0.0
220
0.0
230
1.0
 70
    24
 71
     3
 72
    12
 73
     8
 74
     0
 42
0.000000001
 43
0.00000001
 40
0.0
 40
0.0
 40
0.0
 40
0.0
 40
0.25
 40
0.25
 40
0.5
 40
0.5
 40
1.0
 40
1.0
 40
1.0
 40
1.0
 10
109.9260178344738
 20
167.3365269713665
 30
0.0
 10
109.9675552240644
 20
167.3365269713665
 30
0.0
 10
110.0109222369207
 20
167.3365269713665
 30
0.0
 10
110.0896600869683
 20
167.3365269713665
 30
0.0
 10
110.1247236310943
 20
167.3365269713665
 30
0.0
 10
110.2059320376741
 20
167.3365269713665
 30
0.0
 10
110.2260178341036
 20
167.3365269713665
 30
0.0
 10
110.2260178341036
 20
167.3365269713665
 30
0.0
  0
SPLINE
  5
189
330
1F
100
AcDbEntity
  8
0
  6
Continuous
 62
     7
370
    18
100
AcDbSpline
210
0.0
220
0.0
230
1.0
 70
    24
 71
     3
 72
    10
 73
     6
 74
     0
 42
0.000000001
 43
0.00000001
 40
0.0
 40
0.0
 40
0.0
 40
0.0
 40
0.5
 40
0.5
 40
1.0
 40
1.0
 40
1.0
 40
1.0
 10
109.7178545691036
 20
167.3365269713665
 30
0.0
 10
109.7407841583801
 20
167.3365269713665
 30
0.0
 10
109.7698682556121
 20
167.3365269713665
 30
0.0
 10
109.8404522790885
 20
167.3365269713665
 30
0.0
 10
109.8820660950329
 20
167.3365269713665
 30
0.0
 10
109.9260178344738
 20
167.3365269713665
 30
0.0
  0
LINE
  5
18A
330
1F
100
AcDbEntity
  8
0
  6
Continuous
 62
     7
370
    18
100
AcDbLine
 10
109.9260178341
 20
169.5449597418
 30
0.0
 11
109.9260178341
 21
167.3365269714
 31
0.0
  0
SPLINE
  5
18B
330
1F
100
AcDbEntity
  8
0
  6
Continuous
 62
     7
370
    18
100
AcDbSpline
210
0.0
220
0.0
230
1.0
 70
     8
 71
     3
 72
    10
 73
     6
 74
     0
 42
0.000000001
 43
0.00000001
 40
0.0
 40
0.0
 40
0.0
 40
0.0
 40
0.5
 40
0.5
 40
1.0
 40
1.0
 40
1.0
 40
1.0
 10
106.2076504263074
 20
166.5490441953914
 30
0.0
 10
106.20505708599
 20
166.6179219973145
 30
0.0
 10
106.1758566593083
 20
166.6979634127239
 30
0.0
 10
106.0667635820821
 20
166.8133917892834
 30
0.0
 10
105.9911152430835
 20
166.8442879614319
 30
0.0
 10
105.9260177994598
 20
166.8470319112919
 30
0.0
  0
SPLINE
  5
18C
330
1F
100
AcDbEntity
  8
0
  6
Continuous
 62
     7
370
    18
100
AcDbSpline
210
0.0
220
0.0
230
1.0
 70
     8
 71
     3
 72
    10
 73
     6
 74
     0
 42
0.000000001
 43
0.00000001
 40
0.0
 40
0.0
 40
0.0
 40
0.0
 40
0.5
 40
0.5
 40
1.0
 40
1.0
 40
1.0
 40
1.0
 10
106.5260178398998
 20
167.336526878552
 30
0.0
 10
106.5699695777712
 20
167.3365268670713
 30
0.0
 10
106.6115833922185
 20
167.3365268537105
 30
0.0
 10
106.682167413586
 20
167.3365268274466
 30
0.0
 10
106.7112515101771
 20
167.3365268145789
 30
0.0
 10
106.7341810991034
 20
167.3365268030234
 30
0.0
  0
LINE
  5
18D
330
1F
100
AcDbEntity
  8
0
  6
Continuous
 62
     7
370
    18
100
AcDbLine
 10
147.9855536471
 20
167.8235838432
 30
0.0
 11
147.9793646908
 21
167.82512415
 31
0.0
  0
LINE
  5
18E
330
1F
100
AcDbEntity
  8
0
  6
Continuous
 62
     7
370
    18
100
AcDbLine
 10
142.9854335946
 20
167.8187068999
 30
0.0
 11
142.97854396
 21
167.8213487532
 31
0.0
  0
LINE
  5
18F
330
1F
100
AcDbEntity
  8
0
  6
Continuous
 62
     7
370
    18
100
AcDbLine
 10
140.4853456532
 20
179.7755221159
 30
0.0
 11
140.4788964981
 21
179.7772370294
 31
0.0
  0
LINE
  5
190
330
1F
100
AcDbEntity
  8
0
  6
Continuous
 62
     7
370
    18
100
AcDbLine
 10
132.9888762238
 20
167.800617065
 30
0.0
 11
132.9830351097
 21
167.8044517931
 31
0.0
  0
SPLINE
  5
191
330
1F
100
AcDbEntity
  8
0
  6
Continuous
 62
     7
370
    18
100
AcDbSpline
210
0.0
220
0.0
230
1.0
 70
     8
 71
     3
 72
    11
 73
     7
 74
     0
 42
0.000000001
 43
0.00000001
 40
0.0
 40
0.0
 40
0.0
 40
0.0
 40
0.25
 40
0.5
 40
0.75
 40
1.0
 40
1.0
 40
1.0
 40
1.0
 10
151.6791105881886
 20
174.13560405178
 30
0.0
 10
151.5485073033846
 20
174.1356039019128
 30
0.0
 10
151.2872989238638
 20
174.1428641609724
 30
0.0
 10
151.1250042909757
 20
174.1691565938792
 30
0.0
 10
151.2872991501567
 20
174.1954490124099
 30
0.0
 10
151.5485072972979
 20
174.2027092862625
 30
0.0
 10
151.6791105822807
 20
174.20270913644
 30
0.0
  0
SPLINE
  5
192
330
1F
100
AcDbEntity
  8
0
  6
Continuous
 62
     7
370
    18
100
AcDbSpline
210
0.0
220
0.0
230
1.0
 70
     8
 71
     3
 72
    11
 73
     7
 74
     0
 42
0.000000001
 43
0.00000001
 40
0.0
 40
0.0
 40
0.0
 40
0.0
 40
0.25
 40
0.5
 40
0.75
 40
1.0
 40
1.0
 40
1.0
 40
1.0
 10
151.6791105813536
 20
174.2027091364799
 30
0.0
 10
151.8097111717281
 20
174.2027089869634
 30
0.0
 10
152.0709105440115
 20
174.1954484858089
 30
0.0
 10
152.2331984791049
 20
174.169156594294
 30
0.0
 10
152.0709107800258
 20
174.1428646881325
 30
0.0
 10
151.8097111782234
 20
174.1356042013521
 30
0.0
 10
151.67911058807
 20
174.1356040516465
 30
0.0
  0
LINE
  5
193
330
1F
100
AcDbEntity
  8
0
  6
Continuous
 62
     7
370
    18
100
AcDbLine
 10
125.4799061198
 20
179.7732371507
 30
0.0
 11
125.4861346221
 21
179.7741309469
 31
0.0
  0
LINE
  5
194
330
1F
100
AcDbEntity
  8
0
  6
Continuous
 62
     7
370
    18
100
AcDbLine
 10
130.4796281456
 20
179.7725366438
 30
0.0
 11
130.4872468822
 21
179.7725821446
 31
0.0
  0
SPLINE
  5
195
330
1F
100
AcDbEntity
  8
0
  6
Continuous
 62
     7
370
    18
100
AcDbSpline
210
0.0
220
0.0
230
1.0
 70
     8
 71
     3
 72
    20
 73
    16
 74
     0
 42
0.000000001
 43
0.00000001
 40
0.0
 40
0.0
 40
0.0
 40
0.0
 40
0.0415258399433393
 40
0.0831034694563983
 40
0.1254611910700271
 40
0.1885579476231918
 40
0.2507154038133148
 40
0.3752410123210894
 40
0.4997564120423479
 40
0.6244059248255367
 40
0.749071432589701
 40
0.8113104045104795
 40
0.8744942259477033
 40
0.9377174747302656
 40
1.0
 40
1.0
 40
1.0
 40
1.0
 10
112.7791105960472
 20
167.9952916359702
 30
0.0
 10
112.8007737632117
 20
167.9960864591164
 30
0.0
 10
112.8441271150824
 20
167.9976770966844
 30
0.0
 10
112.9084215366985
 20
168.0107596545463
 30
0.0
 10
112.9810655100524
 20
168.0347981603533
 30
0.0
 10
113.0588884170894
 20
168.0745141118052
 30
0.0
 10
113.1603150038585
 20
168.1547001929343
 30
0.0
 10
113.2520344033866
 20
168.2893097418603
 30
0.0
 10
113.2925817211583
 20
168.4786157012979
 30
0.0
 10
113.2523469465657
 20
168.6680952057648
 30
0.0
 10
113.1606949332464
 20
168.8029159253531
 30
0.0
 10
113.0592038478553
 20
168.8834107909697
 30
0.0
 10
112.9716897427894
 20
168.927803451256
 30
0.0
 10
112.8771808458854
 20
168.9572983591855
 30
0.0
 10
112.8116369139318
 20
168.960945989154
 30
0.0
 10
112.779110588916
 20
168.962756133806
 30
0.0
  0
SPLINE
  5
196
330
1F
100
AcDbEntity
  8
0
  6
Continuous
 62
     7
370
    18
100
AcDbSpline
210
0.0
220
0.0
230
1.0
 70
     8
 71
     3
 72
    11
 73
     7
 74
     0
 42
0.000000001
 43
0.00000001
 40
0.0
 40
0.0
 40
0.0
 40
0.0
 40
0.25
 40
0.5
 40
0.75
 40
1.0
 40
1.0
 40
1.0
 40
1.0
 10
112.779110602852
 20
167.995291622104
 30
0.0
 10
112.64851001249
 20
167.9952937810984
 30
0.0
 10
112.3873104102261
 20
168.0999693427312
 30
0.0
 10
112.2250227063558
 20
168.4790238696668
 30
0.0
 10
112.3873106365094
 20
168.8580781749239
 30
0.0
 10
112.648510006983
 20
168.9627539623349
 30
0.0
 10
112.7791105971357
 20
168.9627561229327
 30
0.0
  0
SPLINE
  5
197
330
1F
100
AcDbEntity
  8
0
  6
Continuous
 62
     7
370
    18
100
AcDbSpline
210
0.0
220
0.0
230
1.0
 70
    24
 71
     3
 72
    23
 73
    19
 74
     0
 42
0.000000001
 43
0.00000001
 40
0.0
 40
0.0
 40
0.0
 40
0.0
 40
0.0420142851599864
 40
0.105879999482654
 40
0.1697457138053214
 40
0.2336114281279892
 40
0.2974771424506568
 40
0.3613428567733243
 40
0.4252085710959918
 40
0.4890742854186594
 40
0.552939999741327
 40
0.6168057140639946
 40
0.6806714283866623
 40
0.7445371427093297
 40
0.8084028570319971
 40
0.872268571354665
 40
0.9361342856773327
 40
1.0
 40
1.0
 40
1.0
 40
1.0
 10
152.6260178341036
 20
181.7654043236969
 30
0.0
 10
152.6260178341036
 20
181.7662084285844
 30
0.0
 10
152.6260178341036
 20
181.7682348494733
 30
0.0
 10
152.6260178341036
 20
181.4211616448872
 30
0.0
 10
152.6260178341036
 20
180.7818449027223
 30
0.0
 10
152.6260178341036
 20
179.8620822256661
 30
0.0
 10
152.6260178341036
 20
178.7126131675616
 30
0.0
 10
152.6260178341036
 20
177.3734866642026
 30
0.0
 10
152.6260178341036
 20
175.8972690679693
 30
0.0
 10
152.6260178341036
 20
174.340397221189
 30
0.0
 10
152.6260178341036
 20
172.7627698519511
 30
0.0
 10
152.6260178341036
 20
171.2250316027157
 30
0.0
 10
152.6260178341036
 20
169.7861386461553
 30
0.0
 10
152.6260178341036
 20
168.5019225076028
 30
0.0
 10
152.6260178341036
 20
167.4197304350029
 30
0.0
 10
152.6260178341036
 20
166.5886326189961
 30
0.0
 10
152.6260178341036
 20
166.0126435157735
 30
0.0
 10
152.6260178341036
 20
165.8829562215664
 30
0.0
 10
152.6260178341036
 20
165.8181125744629
 30
0.0
  0
LINE
  5
198
330
1F
100
AcDbEntity
  8
0
  6
Continuous
 62
     7
370
    18
100
AcDbLine
 10
152.6260178341
 20
165.8181125744
 30
0.0
 11
152.6260178341
 21
165.8347529292
 31
0.0
  0
SPLINE
  5
199
330
1F
100
AcDbEntity
  8
0
  6
Continuous
 62
     7
370
    18
100
AcDbSpline
210
0.0
220
0.0
230
1.0
 70
    24
 71
     3
 72
    23
 73
    19
 74
     0
 42
0.000000001
 43
0.00000001
 40
0.0
 40
0.0
 40
0.0
 40
0.0
 40
0.0638638932409004
 40
0.1277277864818014
 40
0.1915916797227022
 40
0.2554555729636026
 40
0.3193194662045031
 40
0.3831833594454041
 40
0.4470472526863049
 40
0.5109111459272053
 40
0.574775039168106
 40
0.6386389324090067
 40
0.7025028256499075
 40
0.7663667188908079
 40
0.8302306121317086
 40
0.8940945053726091
 40
0.9579583986135096
 40
1.0
 40
1.0
 40
1.0
 40
1.0
 10
152.2260178341036
 20
166.2172108774581
 30
0.0
 10
152.2260178341036
 20
166.278812342146
 30
0.0
 10
152.2260178341036
 20
166.4020152715217
 30
0.0
 10
152.2260178341036
 20
166.9492049193905
 30
0.0
 10
152.2260178341036
 20
167.7387478443996
 30
0.0
 10
152.2260178341036
 20
168.7668303131965
 30
0.0
 10
152.2260178341036
 20
169.9868356445941
 30
0.0
 10
152.2260178341036
 20
171.353783953373
 30
0.0
 10
152.2260178341036
 20
172.8146352892742
 30
0.0
 10
152.2260178341036
 20
174.3133812927359
 30
0.0
 10
152.2260178341036
 20
175.7924095367347
 30
0.0
 10
152.2260178341036
 20
177.1948162918764
 30
0.0
 10
152.2260178341036
 20
178.4669863254864
 30
0.0
 10
152.2260178341036
 20
179.5589824703741
 30
0.0
 10
152.2260178341036
 20
180.4327549997126
 30
0.0
 10
152.2260178341036
 20
181.0401134210601
 30
0.0
 10
152.2260178341036
 20
181.3698634983337
 30
0.0
 10
152.2260178341036
 20
181.3679272896665
 30
0.0
 10
152.2260178341036
 20
181.3671586674785
 30
0.0
  0
SPLINE
  5
19A
330
1F
100
AcDbEntity
  8
0
  6
Continuous
 62
     7
370
    18
100
AcDbSpline
210
0.0
220
0.0
230
1.0
 70
    24
 71
     3
 72
    23
 73
    19
 74
     0
 42
0.000000001
 43
0.00000001
 40
0.0
 40
0.0
 40
0.0
 40
0.0
 40
0.0420142850881653
 40
0.105879999415621
 40
0.1697457137430767
 40
0.2336114280705322
 40
0.2974771423979876
 40
0.3613428567254433
 40
0.4252085710528991
 40
0.4890742853803547
 40
0.5529399997078105
 40
0.6168057140352662
 40
0.6806714283627217
 40
0.7445371426901775
 40
0.8084028570176328
 40
0.8722685713450886
 40
0.9361342856725445
 40
0.9999999999999999
 40
0.9999999999999999
 40
0.9999999999999999
 40
0.9999999999999999
 10
153.8260178341036
 20
181.7654043236396
 30
0.0
 10
153.8260178341036
 20
181.7662084285936
 30
0.0
 10
153.8260178341036
 20
181.7682348496521
 30
0.0
 10
153.8260178341036
 20
181.4211616454647
 30
0.0
 10
153.8260178341036
 20
180.7818449036523
 30
0.0
 10
153.8260178341035
 20
179.8620822268869
 30
0.0
 10
153.8260178341036
 20
178.7126131690332
 30
0.0
 10
153.8260178341035
 20
177.3734866658665
 30
0.0
 10
153.8260178341036
 20
175.8972690697621
 30
0.0
 10
153.8260178341036
 20
174.3403972230417
 30
0.0
 10
153.8260178341036
 20
172.7627698537925
 30
0.0
 10
153.8260178341035
 20
171.225031604475
 30
0.0
 10
153.8260178341036
 20
169.7861386477649
 30
0.0
 10
153.8260178341035
 20
168.501922509001
 30
0.0
 10
153.8260178341036
 20
167.4197304361358
 30
0.0
 10
153.8260178341036
 20
166.5886326198201
 30
0.0
 10
153.8260178341036
 20
166.0126435162573
 30
0.0
 10
153.8260178341036
 20
165.8829562218102
 30
0.0
 10
153.8260178341036
 20
165.8181125745867
 30
0.0
  0
LINE
  5
19B
330
1F
100
AcDbEntity
  8
0
  6
Continuous
 62
     7
370
    18
100
AcDbLine
 10
153.8260178341
 20
165.8181125746
 30
0.0
 11
153.8260178341
 21
165.8347529293
 31
0.0
  0
SPLINE
  5
19C
330
1F
100
AcDbEntity
  8
0
  6
Continuous
 62
     7
370
    18
100
AcDbSpline
210
0.0
220
0.0
230
1.0
 70
    24
 71
     3
 72
    23
 73
    19
 74
     0
 42
0.000000001
 43
0.00000001
 40
0.0
 40
0.0
 40
0.0
 40
0.0
 40
0.0420433924493641
 40
0.1059071662860732
 40
0.1697709401227826
 40
0.2336347139594915
 40
0.2974984877962004
 40
0.3613622616329095
 40
0.4252260354696186
 40
0.4890898093063277
 40
0.5529535831430368
 40
0.6168173569797459
 40
0.6806811308164546
 40
0.7445449046531638
 40
0.808408678489873
 40
0.8722724523265819
 40
0.9361362261632908
 40
1.0
 40
1.0
 40
1.0
 40
1.0
 10
154.2260178341036
 20
181.3671600201229
 30
0.0
 10
154.2260178341036
 20
181.367928952158
 30
0.0
 10
154.2260178341036
 20
181.3698658894067
 30
0.0
 10
154.2260178341036
 20
181.0401138101882
 30
0.0
 10
154.2260178341036
 20
180.4327548964766
 30
0.0
 10
154.2260178341036
 20
179.5589824994326
 30
0.0
 10
154.2260178341036
 20
178.4669863194089
 30
0.0
 10
154.2260178341036
 20
177.1948162954602
 30
0.0
 10
154.2260178341036
 20
175.7924095379011
 30
0.0
 10
154.2260178341036
 20
174.3133812946398
 30
0.0
 10
154.2260178341036
 20
172.8146352909849
 30
0.0
 10
154.2260178341036
 20
171.3537839550547
 30
0.0
 10
154.2260178341036
 20
169.9868356461205
 30
0.0
 10
154.2260178341036
 20
168.7668303145255
 30
0.0
 10
154.2260178341036
 20
167.7387478454757
 30
0.0
 10
154.2260178341036
 20
166.9492049201734
 30
0.0
 10
154.2260178341036
 20
166.4020152719814
 30
0.0
 10
154.2260178341036
 20
166.2788123423776
 30
0.0
 10
154.2260178341036
 20
166.2172108775757
 30
0.0
  0
SPLINE
  5
19D
330
1F
100
AcDbEntity
  8
0
  6
Continuous
 62
     7
370
    18
100
AcDbSpline
210
0.0
220
0.0
230
1.0
 70
    24
 71
     3
 72
    23
 73
    19
 74
     0
 42
0.000000001
 43
0.00000001
 40
0.0
 40
0.0
 40
0.0
 40
0.0
 40
0.0638643159900606
 40
0.1277286319801208
 40
0.1915929479701817
 40
0.255457263960242
 40
0.3193215799503024
 40
0.3831858959403629
 40
0.4470502119304234
 40
0.510914527920484
 40
0.5747788439105446
 40
0.638643159900605
 40
0.7025074758906654
 40
0.766371791880726
 40
0.8302361078707866
 40
0.8941004238608471
 40
0.9579647398509076
 40
1.0
 40
1.0
 40
1.0
 40
1.0
 10
174.2260178341036
 20
167.8136040874388
 30
0.0
 10
174.2260178341036
 20
167.8622368227336
 30
0.0
 10
174.2260178341036
 20
167.9595022933234
 30
0.0
 10
174.2260178341036
 20
168.3914941206466
 30
0.0
 10
174.2260178341036
 20
169.0148174825624
 30
0.0
 10
174.2260178341036
 20
169.8264615369448
 30
0.0
 10
174.2260178341036
 20
170.7896236407641
 30
0.0
 10
174.2260178341036
 20
171.868793358259
 30
0.0
 10
174.2260178341036
 20
173.022097044705
 30
0.0
 10
174.2260178341036
 20
174.2053175733101
 30
0.0
 10
174.2260178341036
 20
175.3729714521114
 30
0.0
 10
174.2260178341036
 20
176.4801346728033
 30
0.0
 10
174.2260178341036
 20
177.4844794627095
 30
0.0
 10
174.2260178341036
 20
178.3465815835004
 30
0.0
 10
174.2260178341036
 20
179.0364023704284
 30
0.0
 10
174.2260178341036
 20
179.5158944837506
 30
0.0
 10
174.2260178341036
 20
179.7762178958083
 30
0.0
 10
174.2260178341036
 20
179.7746913459364
 30
0.0
 10
174.2260178341036
 20
179.7740854046916
 30
0.0
  0
LINE
  5
19E
330
1F
100
AcDbEntity
  8
0
  6
Continuous
 62
     7
370
    18
100
AcDbLine
 10
174.2260178341
 20
167.8260718481
 30
0.0
 11
174.2260178341
 21
167.8136040874
 31
0.0
  0
SPLINE
  5
19F
330
1F
100
AcDbEntity
  8
0
  6
Continuous
 62
     7
370
    18
100
AcDbSpline
210
0.0
220
0.0
230
1.0
 70
    24
 71
     3
 72
    23
 73
    19
 74
     0
 42
0.000000001
 43
0.00000001
 40
0.0
 40
0.0
 40
0.0
 40
0.0
 40
0.0420530313931208
 40
0.1059161626335794
 40
0.1697792938740384
 40
0.2336424251144968
 40
0.2975055563549551
 40
0.3613686875954139
 40
0.4252318188358725
 40
0.4890949500763312
 40
0.5529580813167898
 40
0.6168212125572485
 40
0.6806843437977068
 40
0.7445474750381655
 40
0.8084106062786243
 40
0.8722737375190827
 40
0.9361368687595413
 40
0.9999999999999999
 40
0.9999999999999999
 40
0.9999999999999999
 40
0.9999999999999999
 10
175.2260178341036
 20
178.7784264375394
 30
0.0
 10
175.2260178341036
 20
178.7789334108151
 30
0.0
 10
175.2260178341036
 20
178.7802102905582
 30
0.0
 10
175.2260178341036
 20
178.5632610436653
 30
0.0
 10
175.2260178341036
 20
178.1636810667742
 30
0.0
 10
175.2260178341036
 20
177.5888312729184
 30
0.0
 10
175.2260178341036
 20
176.870412608219
 30
0.0
 10
175.2260178341036
 20
176.0334586786757
 30
0.0
 10
175.2260178341036
 20
175.1108226450106
 30
0.0
 10
175.2260178341036
 20
174.1377777505807
 30
0.0
 10
175.2260178341036
 20
173.1517606423171
 30
0.0
 10
175.2260178341036
 20
172.1906742373265
 30
0.0
 10
175.2260178341036
 20
171.2913661393531
 30
0.0
 10
175.2260178341036
 20
170.4887310528457
 30
0.0
 10
175.2260178341036
 20
169.8123610074686
 30
0.0
 10
175.2260178341036
 20
169.2929248724516
 30
0.0
 10
175.2260178341036
 20
168.9329316828952
 30
0.0
 10
175.2260178341036
 20
168.8518771239678
 30
0.0
 10
175.2260178341036
 20
168.8113498445041
 30
0.0
  0
SPLINE
  5
1A0
330
1F
100
AcDbEntity
  8
0
  6
Continuous
 62
     7
370
    18
100
AcDbSpline
210
0.0
220
0.0
230
1.0
 70
    24
 71
     3
 72
    23
 73
    19
 74
     0
 42
0.000000001
 43
0.00000001
 40
0.0
 40
0.0
 40
0.0
 40
0.0
 40
0.0420142851294741
 40
0.1058799994541759
 40
0.1697457137788777
 40
0.2336114281035794
 40
0.2974771424282807
 40
0.3613428567529826
 40
0.4252085710776844
 40
0.4890742854023862
 40
0.5529399997270876
 40
0.6168057140517894
 40
0.6806714283764915
 40
0.7445371427011931
 40
0.8084028570258945
 40
0.8722685713505963
 40
0.9361342856752984
 40
0.9999999999999999
 40
0.9999999999999999
 40
0.9999999999999999
 40
0.9999999999999999
 10
149.6260178341036
 20
178.2805743308612
 30
0.0
 10
149.6260178341036
 20
178.2810266398634
 30
0.0
 10
149.6260178341036
 20
178.2821665016213
 30
0.0
 10
149.6260178341036
 20
178.0869378240964
 30
0.0
 10
149.6260178341035
 20
177.7273221566783
 30
0.0
 10
149.6260178341036
 20
177.2099556508833
 30
0.0
 10
149.6260178341036
 20
176.5633793057537
 30
0.0
 10
149.6260178341036
 20
175.8101206476692
 30
0.0
 10
149.6260178341036
 20
174.9797482498424
 30
0.0
 10
149.6260178341036
 20
174.10400783608
 30
0.0
 10
149.6260178341036
 20
173.2165924409303
 30
0.0
 10
149.6260178341035
 20
172.3516146757754
 30
0.0
 10
149.6260178341036
 20
171.542237387742
 30
0.0
 10
149.6260178341036
 20
170.8198658098288
 30
0.0
 10
149.6260178341036
 20
170.2111327690036
 30
0.0
 10
149.6260178341036
 20
169.7436402475011
 30
0.0
 10
149.6260178341036
 20
169.4196463769296
 30
0.0
 10
149.6260178341036
 20
169.3466972739237
 30
0.0
 10
149.6260178341036
 20
169.3102227224207
 30
0.0
  0
LINE
  5
1A1
330
1F
100
AcDbEntity
  8
0
  6
Continuous
 62
     7
370
    18
100
AcDbLine
 10
149.6260178341
 20
169.3102227224
 30
0.0
 11
149.6260178341
 21
169.3195829219
 31
0.0
  0
SPLINE
  5
1A2
330
1F
100
AcDbEntity
  8
0
  6
Continuous
 62
     7
370
    18
100
AcDbSpline
210
0.0
220
0.0
230
1.0
 70
    24
 71
     3
 72
    23
 73
    19
 74
     0
 42
0.000000001
 43
0.00000001
 40
0.0
 40
0.0
 40
0.0
 40
0.0
 40
0.0638624648540214
 40
0.1277249297080432
 40
0.1915873945620652
 40
0.2554498594160867
 40
0.3193123242701081
 40
0.3831747891241299
 40
0.4470372539781516
 40
0.5108997188321733
 40
0.574762183686195
 40
0.6386246485402168
 40
0.7024871133942383
 40
0.7663495782482601
 40
0.8302120431022818
 40
0.8940745079563034
 40
0.9579369728103251
 40
1.0
 40
1.0
 40
1.0
 40
1.0
 10
149.2260178341036
 20
169.7093210254159
 30
0.0
 10
149.2260178341036
 20
169.7425533945687
 30
0.0
 10
149.2260178341036
 20
169.8090181328743
 30
0.0
 10
149.2260178341036
 20
170.1042125482807
 30
0.0
 10
149.2260178341036
 20
170.5301501789596
 30
0.0
 10
149.2260178341036
 20
171.0847736161337
 30
0.0
 10
149.2260178341036
 20
171.7429343870193
 30
0.0
 10
149.2260178341036
 20
172.4803670273566
 30
0.0
 10
149.2260178341036
 20
173.2684578792626
 30
0.0
 10
149.2260178341036
 20
174.0769919085509
 30
0.0
 10
149.2260178341036
 20
174.8748887199025
 30
0.0
 10
149.2260178341036
 20
175.6314502751245
 30
0.0
 10
149.2260178341036
 20
176.3177524688011
 30
0.0
 10
149.2260178341036
 20
176.9068558803078
 30
0.0
 10
149.2260178341036
 20
177.3782323139225
 30
0.0
 10
149.2260178341036
 20
177.7058893778708
 30
0.0
 10
149.2260178341036
 20
177.883793789507
 30
0.0
 10
149.2260178341036
 20
177.8827445550984
 30
0.0
 10
149.2260178341036
 20
177.8823279039731
 30
0.0
  0
SPLINE
  5
1A3
330
1F
100
AcDbEntity
  8
0
  6
Continuous
 62
     8
370
    18
100
AcDbSpline
210
0.0
220
0.0
230
1.0
 70
     8
 71
     3
 72
    10
 73
     6
 74
     0
 42
0.000000001
 43
0.00000001
 40
0.0
 40
0.0
 40
0.0
 40
0.0
 40
0.0001366618878823
 40
0.4999060885768949
 40
1.0
 40
1.0
 40
1.0
 40
1.0
 10
110.6760074936988
 20
166.8000819314667
 30
0.0
 10
110.6760109403141
 20
166.8000808298364
 30
0.0
 10
110.6886185808442
 20
166.7960510911155
 30
0.0
 10
110.6483056872856
 20
166.809217649554
 30
0.0
 10
110.5667892699804
 20
166.8344244446496
 30
0.0
 10
110.5260178341036
 20
166.8470319323665
 30
0.0
  0
SPLINE
  5
1A4
330
1F
100
AcDbEntity
  8
0
  6
Continuous
 62
     8
370
    18
100
AcDbSpline
210
0.0
220
0.0
230
1.0
 70
     8
 71
     3
 72
     9
 73
     5
 74
     0
 42
0.000000001
 43
0.00000001
 40
0.0
 40
0.0
 40
0.0
 40
0.0
 40
0.4976554200565904
 40
1.0
 40
1.0
 40
1.0
 40
1.0
 10
105.7760281745083
 20
166.8000819314667
 30
0.0
 10
105.7824670324979
 20
166.8022213475458
 30
0.0
 10
105.7954054186384
 20
166.8065203383592
 30
0.0
 10
105.8823444023943
 20
166.8334858979142
 30
0.0
 10
105.9260177296698
 20
166.8470319006018
 30
0.0
  0
SPLINE
  5
1A5
330
1F
100
AcDbEntity
  8
0
  6
Continuous
 62
     8
370
    18
100
AcDbSpline
210
0.0
220
0.0
230
1.0
 70
    24
 71
     3
 72
    10
 73
     6
 74
     0
 42
0.000000001
 43
0.00000001
 40
0.0
 40
0.0
 40
0.0
 40
0.0
 40
0.4999999999999999
 40
0.4999999999999999
 40
1.0
 40
1.0
 40
1.0
 40
1.0
 10
105.9260178341036
 20
180.8000786263665
 30
0.0
 10
105.9260178341036
 20
180.8000786259857
 30
0.0
 10
105.9260178341036
 20
180.0625435908559
 30
0.0
 10
105.9260178341036
 20
177.437108595443
 30
0.0
 10
105.9260178341036
 20
175.6565415117448
 30
0.0
 10
105.9260178341036
 20
173.800078623495
 30
0.0
  0
SPLINE
  5
1A6
330
1F
100
AcDbEntity
  8
0
  6
Continuous
 62
     8
370
    18
100
AcDbSpline
210
0.0
220
0.0
230
1.0
 70
    24
 71
     3
 72
    10
 73
     6
 74
     0
 42
0.000000001
 43
0.00000001
 40
0.0
 40
0.0
 40
0.0
 40
0.0
 40
0.5000000000000001
 40
0.5000000000000001
 40
1.0
 40
1.0
 40
1.0
 40
1.0
 10
104.5260178341036
 20
166.8000786263665
 30
0.0
 10
104.5260178341036
 20
166.8000786261524
 30
0.0
 10
104.5260178341036
 20
167.5376136602331
 30
0.0
 10
104.5260178341036
 20
170.1630486532871
 30
0.0
 10
104.5260178341036
 20
171.9436157358543
 30
0.0
 10
104.5260178341036
 20
173.800078623495
 30
0.0
  0
SPLINE
  5
1A7
330
1F
100
AcDbEntity
  8
0
  6
Continuous
 62
     8
370
    18
100
AcDbSpline
210
0.0
220
0.0
230
1.0
 70
    24
 71
     3
 72
    10
 73
     6
 74
     0
 42
0.000000001
 43
0.00000001
 40
0.0
 40
0.0
 40
0.0
 40
0.0
 40
0.5000000000000002
 40
0.5000000000000002
 40
1.0
 40
1.0
 40
1.0
 40
1.0
 10
104.5260178341036
 20
173.800078623495
 30
0.0
 10
104.5260178341036
 20
175.6565415117449
 30
0.0
 10
104.5260178341036
 20
177.437108595443
 30
0.0
 10
104.5260178341036
 20
180.0625435908561
 30
0.0
 10
104.5260178341036
 20
180.8000786259858
 30
0.0
 10
104.5260178341036
 20
180.8000786263665
 30
0.0
  0
SPLINE
  5
1A8
330
1F
100
AcDbEntity
  8
0
  6
Continuous
 62
     8
370
    18
100
AcDbSpline
210
0.0
220
0.0
230
1.0
 70
    24
 71
     3
 72
    10
 73
     6
 74
     0
 42
0.000000001
 43
0.00000001
 40
0.0
 40
0.0
 40
0.0
 40
0.0
 40
0.4999999999999999
 40
0.4999999999999999
 40
1.0
 40
1.0
 40
1.0
 40
1.0
 10
96.92601783410359
 20
179.3000786263665
 30
0.0
 10
96.92601783410359
 20
179.3000786260673
 30
0.0
 10
96.92601783410359
 20
178.720586812751
 30
0.0
 10
96.92601783410359
 20
176.6577450306409
 30
0.0
 10
96.9260178341036
 20
175.2587280363066
 30
0.0
 10
96.9260178341036
 20
173.8000786241103
 30
0.0
  0
SPLINE
  5
1A9
330
1F
100
AcDbEntity
  8
0
  6
Continuous
 62
     8
370
    18
100
AcDbSpline
210
0.0
220
0.0
230
1.0
 70
    24
 71
     3
 72
    10
 73
     6
 74
     0
 42
0.000000001
 43
0.00000001
 40
0.0
 40
0.0
 40
0.0
 40
0.0
 40
0.4999999999999999
 40
0.4999999999999999
 40
1.0
 40
1.0
 40
1.0
 40
1.0
 10
96.92601783410359
 20
173.8000786241103
 30
0.0
 10
96.92601783410359
 20
172.3414292123926
 30
0.0
 10
96.92601783410359
 20
170.9424122189469
 30
0.0
 10
96.92601783410359
 20
168.8795704386902
 30
0.0
 10
96.9260178341036
 20
168.3000786261983
 30
0.0
 10
96.9260178341036
 20
168.3000786263665
 30
0.0
  0
SPLINE
  5
1AA
330
1F
100
AcDbEntity
  8
0
  6
Continuous
 62
     8
370
    18
100
AcDbSpline
210
0.0
220
0.0
230
1.0
 70
    24
 71
     3
 72
    10
 73
     6
 74
     0
 42
0.000000001
 43
0.00000001
 40
0.0
 40
0.0
 40
0.0
 40
0.0
 40
0.4999999999999999
 40
0.4999999999999999
 40
1.0
 40
1.0
 40
1.0
 40
1.0
 10
95.52601783410361
 20
173.8000786241103
 30
0.0
 10
95.52601783410361
 20
175.2587280363066
 30
0.0
 10
95.52601783410361
 20
176.6577450306409
 30
0.0
 10
95.5260178341036
 20
178.7205868127511
 30
0.0
 10
95.5260178341036
 20
179.3000786260673
 30
0.0
 10
95.5260178341036
 20
179.3000786263665
 30
0.0
  0
SPLINE
  5
1AB
330
1F
100
AcDbEntity
  8
0
  6
Continuous
 62
     8
370
    18
100
AcDbSpline
210
0.0
220
0.0
230
1.0
 70
    24
 71
     3
 72
    10
 73
     6
 74
     0
 42
0.000000001
 43
0.00000001
 40
0.0
 40
0.0
 40
0.0
 40
0.0
 40
0.5000000000000001
 40
0.5000000000000001
 40
1.0
 40
1.0
 40
1.0
 40
1.0
 10
95.52601783410361
 20
168.3000786263665
 30
0.0
 10
95.52601783410361
 20
168.3000786261983
 30
0.0
 10
95.52601783410361
 20
168.8795704386903
 30
0.0
 10
95.5260178341036
 20
170.942412218947
 30
0.0
 10
95.5260178341036
 20
172.3414292123927
 30
0.0
 10
95.5260178341036
 20
173.8000786241103
 30
0.0
  0
SPLINE
  5
1AC
330
1F
100
AcDbEntity
  8
0
  6
Continuous
 62
     8
370
    18
100
AcDbSpline
210
0.0
220
0.0
230
1.0
 70
     8
 71
     3
 72
    14
 73
    10
 74
     0
 42
0.000000001
 43
0.00000001
 40
0.0
 40
0.0
 40
0.0
 40
0.0
 40
0.1728443973603821
 40
0.3431175153567836
 40
0.5108856967489176
 40
0.6762183011457927
 40
0.8391877992886092
 40
0.9998698607396175
 40
1.0
 40
1.0
 40
1.0
 40
1.0
 10
110.2443851808948
 20
166.549044218154
 30
0.0
 10
110.258622051826
 20
166.5438791966742
 30
0.0
 10
110.2868840021986
 20
166.533625989952
 30
0.0
 10
110.3197110702623
 20
166.5214994094694
 30
0.0
 10
110.3452765255512
 20
166.5119223233173
 30
0.0
 10
110.3631385781349
 20
166.5051099386206
 30
0.0
 10
110.3736945347466
 20
166.5010060500975
 30
0.0
 10
110.3760171970397
 20
166.5000788499627
 30
0.0
 10
110.3760178335883
 20
166.5000786276985
 30
0.0
 10
110.3760178341035
 20
166.5000786275187
 30
0.0
  0
SPLINE
  5
1AD
330
1F
100
AcDbEntity
  8
0
  6
Continuous
 62
     8
370
    18
100
AcDbSpline
210
0.0
220
0.0
230
1.0
 70
     8
 71
     3
 72
    12
 73
     8
 74
     0
 42
0.000000001
 43
0.00000001
 40
0.0
 40
0.0
 40
0.0
 40
0.0
 40
0.1931171764653701
 40
0.389549884522298
 40
0.5894272634176804
 40
0.792871888956266
 40
1.0
 40
1.0
 40
1.0
 40
1.0
 10
106.0760178341038
 20
166.5000786275187
 30
0.0
 10
106.0769819588728
 20
166.500463270022
 30
0.0
 10
106.0789267609837
 20
166.5012391587622
 30
0.0
 10
106.0947470068148
 20
166.5073679250193
 30
0.0
 10
106.1207320607043
 20
166.517183812304
 30
0.0
 10
106.1572762903481
 20
166.5307548296278
 30
0.0
 10
106.1907589574444
 20
166.5429114007681
 30
0.0
 10
106.2076504871794
 20
166.549044218154
 30
0.0
  0
SPLINE
  5
1AE
330
1F
100
AcDbEntity
  8
0
  6
Continuous
 62
     8
370
    18
100
AcDbSpline
210
0.0
220
0.0
230
1.0
 70
     8
 71
     3
 72
    12
 73
     8
 74
     0
 42
0.000000001
 43
0.00000001
 40
0.0
 40
0.0
 40
0.0
 40
0.0
 40
0.111914585755716
 40
0.3373177585258886
 40
0.5627000531683874
 40
0.7880996733982242
 40
1.0
 40
1.0
 40
1.0
 40
1.0
 10
133.0653750889279
 20
168.849956020466
 30
0.0
 10
133.0905271510685
 20
168.8619174910355
 30
0.0
 10
133.1663370838517
 20
168.897970132556
 30
0.0
 10
133.2927709062874
 20
169.1531403198999
 30
0.0
 10
133.444745049955
 20
169.5941895554523
 30
0.0
 10
133.5936516815751
 20
170.178179197452
 30
0.0
 10
133.6919282018954
 20
170.6644491432134
 30
0.0
 10
133.7395495814634
 20
170.9000786260662
 30
0.0
  0
SPLINE
  5
1AF
330
1F
100
AcDbEntity
  8
0
  6
Continuous
 62
     8
370
    18
100
AcDbSpline
210
0.0
220
0.0
230
1.0
 70
     8
 71
     3
 72
    12
 73
     8
 74
     0
 42
0.000000001
 43
0.00000001
 40
0.0
 40
0.0
 40
0.0
 40
0.0
 40
0.1389069496139664
 40
0.387859996307496
 40
0.6367858573140037
 40
0.8857420738255052
 40
1.0
 40
1.0
 40
1.0
 40
1.0
 10
134.7275214175049
 20
176.7000786265288
 30
0.0
 10
134.7557862614272
 20
176.8462451867549
 30
0.0
 10
134.834708174908
 20
177.2543756774692
 30
0.0
 10
134.9642530598813
 20
177.7995168409264
 30
0.0
 10
135.1162353873075
 20
178.3010153499721
 30
0.0
 10
135.2407615499528
 20
178.605417066491
 30
0.0
 10
135.3146710255459
 20
178.6737909710994
 30
0.0
 10
135.3379210657108
 20
178.6952996615024
 30
0.0
  0
SPLINE
  5
1B0
330
1F
100
AcDbEntity
  8
0
  6
Continuous
 62
     8
370
    18
100
AcDbSpline
210
0.0
220
0.0
230
1.0
 70
     8
 71
     3
 72
    12
 73
     8
 74
     0
 42
0.000000001
 43
0.00000001
 40
0.0
 40
0.0
 40
0.0
 40
0.0
 40
0.0380650181039732
 40
0.2886046770032457
 40
0.5391541269096406
 40
0.7896888435421643
 40
1.0
 40
1.0
 40
1.0
 40
1.0
 10
138.1321963717978
 20
168.8998938364588
 30
0.0
 10
138.1398917161927
 20
168.9051961054803
 30
0.0
 10
138.1982369500617
 20
168.9453973115894
 30
0.0
 10
138.3072407551021
 20
169.1932944591593
 30
0.0
 10
138.4591816475399
 20
169.6440834320301
 30
0.0
 10
138.6030135745803
 20
170.2206617517306
 30
0.0
 10
138.6961743360058
 20
170.6871791967707
 30
0.0
 10
138.7386890868497
 20
170.9000786260662
 30
0.0
  0
SPLINE
  5
1B1
330
1F
100
AcDbEntity
  8
0
  6
Continuous
 62
     8
370
    18
100
AcDbSpline
210
0.0
220
0.0
230
1.0
 70
     8
 71
     3
 72
    12
 73
     8
 74
     0
 42
0.000000001
 43
0.00000001
 40
0.0
 40
0.0
 40
0.0
 40
0.0
 40
0.1623742508357246
 40
0.410590061472371
 40
0.6587654775410069
 40
0.9069810277342809
 40
1.0
 40
1.0
 40
1.0
 40
1.0
 10
139.7273482783192
 20
176.7000786265288
 30
0.0
 10
139.7604893781163
 20
176.8696976849748
 30
0.0
 10
139.8442921124347
 20
177.2986074368337
 30
0.0
 10
139.9786996560362
 20
177.8546556596364
 30
0.0
 10
140.1306937584428
 20
178.3400708716064
 30
0.0
 10
140.2509487926468
 20
178.6243673605582
 30
0.0
 10
140.320594626797
 20
178.6825098117792
 30
0.0
 10
140.3395797630855
 20
178.6983591784219
 30
0.0
  0
SPLINE
  5
1B2
330
1F
100
AcDbEntity
  8
0
  6
Continuous
 62
     8
370
    18
100
AcDbSpline
210
0.0
220
0.0
230
1.0
 70
     8
 71
     3
 72
    12
 73
     8
 74
     0
 42
0.000000001
 43
0.00000001
 40
0.0
 40
0.0
 40
0.0
 40
0.0
 40
0.0681992147384664
 40
0.3173085116995903
 40
0.5664537018995806
 40
0.8155608473932919
 40
1.0
 40
1.0
 40
1.0
 40
1.0
 10
143.1281406546857
 20
168.9015631542177
 30
0.0
 10
143.1420053210035
 20
168.9121171821725
 30
0.0
 10
143.2065130525276
 20
168.9612216024452
 30
0.0
 10
143.3217074129306
 20
169.2279372836772
 30
0.0
 10
143.4736229299379
 20
169.6974487331408
 30
0.0
 10
143.6124542641187
 20
170.2632640426798
 30
0.0
 10
143.7005891230201
 20
170.7100198763125
 30
0.0
 10
143.7380834316143
 20
170.9000786260662
 30
0.0
  0
SPLINE
  5
1B3
330
1F
100
AcDbEntity
  8
0
  6
Continuous
 62
     8
370
    18
100
AcDbSpline
210
0.0
220
0.0
230
1.0
 70
     8
 71
     3
 72
    12
 73
     8
 74
     0
 42
0.000000001
 43
0.00000001
 40
0.0
 40
0.0
 40
0.0
 40
0.0
 40
0.1874992990602099
 40
0.4368947006689532
 40
0.6862631392007507
 40
0.9356549654818219
 40
1.0
 40
1.0
 40
1.0
 40
1.0
 10
144.7269652193858
 20
176.7000786265288
 30
0.0
 10
144.7650515626289
 20
176.8929078049463
 30
0.0
 10
144.8537970758877
 20
177.3422217309568
 30
0.0
 10
144.9931597626964
 20
177.9086045494284
 30
0.0
 10
145.1451383746918
 20
178.3770186828288
 30
0.0
 10
145.2594928306754
 20
178.6402660278289
 30
0.0
 10
145.3232178850532
 20
178.6884961005138
 30
0.0
 10
145.3362874071144
 20
178.6983877201463
 30
0.0
  0
SPLINE
  5
1B4
330
1F
100
AcDbEntity
  8
0
  6
Continuous
 62
     8
370
    18
100
AcDbSpline
210
0.0
220
0.0
230
1.0
 70
     8
 71
     3
 72
    12
 73
     8
 74
     0
 42
0.000000001
 43
0.00000001
 40
0.0
 40
0.0
 40
0.0
 40
0.0
 40
0.0962137245926547
 40
0.3442990293389127
 40
0.5924222208992549
 40
0.8405096689289528
 40
0.9999999999999999
 40
0.9999999999999999
 40
0.9999999999999999
 40
0.9999999999999999
 10
148.1252667757683
 20
168.9017986793557
 30
0.0
 10
148.1449067778845
 20
168.9183911061585
 30
0.0
 10
148.2151881612675
 20
168.9777667977944
 30
0.0
 10
148.336161289066
 20
169.2644421912414
 30
0.0
 10
148.488076888492
 20
169.7521374635783
 30
0.0
 10
148.6219666690132
 20
170.3065483928101
 30
0.0
 10
148.7051656486496
 20
170.7331457097116
 30
0.0
 10
148.7377224598582
 20
170.9000786260662
 30
0.0
  0
SPLINE
  5
1B5
330
1F
100
AcDbEntity
  8
0
  6
Continuous
 62
     8
370
    18
100
AcDbSpline
210
0.0
220
0.0
230
1.0
 70
     8
 71
     3
 72
    10
 73
     6
 74
     0
 42
0.000000001
 43
0.00000001
 40
0.0
 40
0.0
 40
0.0
 40
0.0
 40
0.1492921062411976
 40
0.8789527489945103
 40
1.0
 40
1.0
 40
1.0
 40
1.0
 10
150.1284902333386
 20
178.3000786264198
 30
0.0
 10
150.1388532001974
 20
178.3319896102748
 30
0.0
 10
150.1998648533759
 20
178.5198645601877
 30
0.0
 10
150.2692870789092
 20
178.6571854272025
 30
0.0
 10
150.3283370828853
 20
178.6978324050476
 30
0.0
 10
150.3367393096727
 20
178.7036160647102
 30
0.0
  0
SPLINE
  5
1B6
330
1F
100
AcDbEntity
  8
0
  6
Continuous
 62
     8
370
    18
100
AcDbSpline
210
0.0
220
0.0
230
1.0
 70
     8
 71
     3
 72
    11
 73
     7
 74
     0
 42
0.000000001
 43
0.00000001
 40
0.0
 40
0.0
 40
0.0
 40
0.0
 40
0.1975012937913354
 40
0.4649976097319383
 40
0.7324975943993396
 40
1.0
 40
1.0
 40
1.0
 40
1.0
 10
131.7392007839268
 20
170.5574326411482
 30
0.0
 10
131.7454937743236
 20
170.5293299823069
 30
0.0
 10
131.7603100088729
 20
170.4631650021316
 30
0.0
 10
131.8676151909535
 20
170.3751864055048
 30
0.0
 10
132.032799857405
 20
170.3081745538014
 30
0.0
 10
132.1636734789541
 20
170.2990724142829
 30
0.0
 10
132.2291105858361
 20
170.2945213239297
 30
0.0
  0
SPLINE
  5
1B7
330
1F
100
AcDbEntity
  8
0
  6
Continuous
 62
     8
370
    18
100
AcDbSpline
210
0.0
220
0.0
230
1.0
 70
     8
 71
     3
 72
    15
 73
    11
 74
     0
 42
0.000000001
 43
0.00000001
 40
0.0
 40
0.0
 40
0.0
 40
0.0
 40
0.1267594584007046
 40
0.2534992844194
 40
0.3802576444453801
 40
0.5069974845427984
 40
0.633754707764498
 40
0.7604963585491481
 40
0.8872519560834254
 40
1.0
 40
1.0
 40
1.0
 40
1.0
 10
151.6791105860585
 20
174.2027089901339
 30
0.0
 10
151.6284623679452
 20
174.5823340169362
 30
0.0
 10
151.5271737760655
 20
175.3415252745847
 30
0.0
 10
151.3751865867679
 20
176.4205240652094
 30
0.0
 10
151.2232692930704
 20
177.4049837716498
 30
0.0
 10
151.0712809597765
 20
178.2584216352199
 30
0.0
 10
150.9193603822482
 20
178.9503348614922
 30
0.0
 10
150.7673783197664
 20
179.4508666947501
 30
0.0
 10
150.6210414222629
 20
179.7532120095104
 30
0.0
 10
150.5253244891694
 20
179.777722863956
 30
0.0
 10
150.4802650616358
 20
179.7892615231459
 30
0.0
  0
SPLINE
  5
1B8
330
1F
100
AcDbEntity
  8
0
  6
Continuous
 62
     8
370
    18
100
AcDbSpline
210
0.0
220
0.0
230
1.0
 70
     8
 71
     3
 72
    24
 73
    20
 74
     0
 42
0.000000001
 43
0.00000001
 40
0.0
 40
0.0
 40
0.0
 40
0.0
 40
0.0396441789739565
 40
0.100452711763989
 40
0.1612513507708159
 40
0.222059691243138
 40
0.2828587136362134
 40
0.3436666125000661
 40
0.4044663018529446
 40
0.4652735271371611
 40
0.5260741272002897
 40
0.58688047419822
 40
0.6476821713121345
 40
0.7084874725139011
 40
0.7692903781608031
 40
0.8300945132022062
 40
0.8908986475909718
 40
0.951701553904669
 40
1.0
 40
1.0
 40
1.0
 40
1.0
 10
147.9793646907662
 20
167.8251241500426
 30
0.0
 10
147.9463357001466
 20
167.8253213692194
 30
0.0
 10
147.8626449349339
 20
167.8258210945669
 30
0.0
 10
147.7283495363733
 20
168.0746763998751
 30
0.0
 10
147.576356193658
 20
168.5315682109557
 30
0.0
 10
147.4244424034823
 20
169.1890993822186
 30
0.0
 10
147.272451584177
 20
170.011374833116
 30
0.0
 10
147.1205338831969
 20
170.9725737024586
 30
0.0
 10
146.9685481157005
 20
172.0358745994702
 30
0.0
 10
146.8166243523966
 20
173.1637073414662
 30
0.0
 10
146.6646455773219
 20
174.3145571461169
 30
0.0
 10
146.5127140047227
 20
175.4464934359746
 30
0.0
 10
146.3607437644443
 20
176.5191504890342
 30
0.0
 10
146.2088030771197
 20
177.4920913858612
 30
0.0
 10
146.0568424068639
 20
178.33173583524
 30
0.0
 10
145.9048919106775
 20
179.0067020423796
 30
0.0
 10
145.7529409917496
 20
179.4877370274483
 30
0.0
 10
145.6114004695713
 20
179.7643434639648
 30
0.0
 10
145.5205195952362
 20
179.7766592974102
 30
0.0
 10
145.4802872341037
 20
179.7821114353044
 30
0.0
  0
SPLINE
  5
1B9
330
1F
100
AcDbEntity
  8
0
  6
Continuous
 62
     8
370
    18
100
AcDbSpline
210
0.0
220
0.0
230
1.0
 70
     8
 71
     3
 72
    24
 73
    20
 74
     0
 42
0.000000001
 43
0.00000001
 40
0.0
 40
0.0
 40
0.0
 40
0.0
 40
0.0452061601033315
 40
0.106156314075358
 40
0.1671007751221594
 40
0.2280499594494942
 40
0.2889955864969582
 40
0.3499436556746839
 40
0.4108905163907596
 40
0.4718373771129735
 40
0.5327854463077965
 40
0.5937310733811699
 40
0.6546802577275392
 40
0.7156247187671905
 40
0.7765748727211382
 40
0.8375183191674357
 40
0.8984692549891944
 40
0.9594119045908672
 40
1.0
 40
1.0
 40
1.0
 40
1.0
 10
142.9785439600044
 20
167.8213487531702
 30
0.0
 10
142.9409711900433
 20
167.8259264615087
 30
0.0
 10
142.8527401445497
 20
167.836676161174
 30
0.0
 10
142.7138876004859
 20
168.1095557571683
 30
0.0
 10
142.5619134615342
 20
168.5858623626747
 30
0.0
 10
142.409977316053
 20
169.2607689854361
 30
0.0
 10
142.258011816936
 20
170.0971343540349
 30
0.0
 10
142.1060662237858
 20
171.0699826122289
 30
0.0
 10
141.9541105930995
 20
172.1409087301981
 30
0.0
 10
141.8021549590073
 20
173.2728218534689
 30
0.0
 10
141.6502093760831
 20
174.4236729234937
 30
0.0
 10
141.498243839495
 20
175.5516669917449
 30
0.0
 10
141.3463078337849
 20
176.616525106996
 30
0.0
 10
141.1943331733498
 20
177.5782698210251
 30
0.0
 10
141.0424056627459
 20
178.4031809461217
 30
0.0
 10
140.8904233001368
 20
179.0617972299574
 30
0.0
 10
140.7385023380243
 20
179.5219117139241
 30
0.0
 10
140.6034422601667
 20
179.7730621750582
 30
0.0
 10
140.5190731754181
 20
179.7748195748914
 30
0.0
 10
140.4853456531686
 20
179.775522115901
 30
0.0
  0
SPLINE
  5
1BA
330
1F
100
AcDbEntity
  8
0
  6
Continuous
 62
     8
370
    18
100
AcDbSpline
210
0.0
220
0.0
230
1.0
 70
     8
 71
     3
 72
    24
 73
    20
 74
     0
 42
0.000000001
 43
0.00000001
 40
0.0
 40
0.0
 40
0.0
 40
0.0
 40
0.0519442613431473
 40
0.112693652461161
 40
0.173445437028841
 40
0.234193620679814
 40
0.2949464501217094
 40
0.3556935376853953
 40
0.4164472446401025
 40
0.4771934223022981
 40
0.5379478022544789
 40
0.5986933135492342
 40
0.6594481347220963
 40
0.7201932629652769
 40
0.78094827627974
 40
0.8416933269148279
 40
0.9024482758406497
 40
0.9631935587101402
 40
1.0
 40
1.0
 40
1.0
 40
1.0
 10
137.9813023496669
 20
167.8139631601933
 30
0.0
 10
137.9379940401747
 20
167.824252329161
 30
0.0
 10
137.844036181262
 20
167.8465747956237
 30
0.0
 10
137.6994180788183
 20
168.1459296220609
 30
0.0
 10
137.5474774284449
 20
168.6422149518068
 30
0.0
 10
137.3955071782559
 20
169.3336625211105
 30
0.0
 10
137.2435756083512
 20
170.1843784185634
 30
0.0
 10
137.0915968324122
 20
171.1681184905323
 30
0.0
 10
136.9396730698535
 20
172.2466136479994
 30
0.0
 10
136.7876873002093
 20
173.3820752649838
 30
0.0
 10
136.6357696070844
 20
174.5325382035006
 30
0.0
 10
136.4837787585311
 20
175.6563626486256
 30
0.0
 10
136.3318650775104
 20
176.7128025338061
 30
0.0
 10
136.1798713274696
 20
177.6633817628207
 30
0.0
 10
136.0279593877014
 20
178.472932739887
 30
0.0
 10
135.8759651027728
 20
179.1152259200297
 30
0.0
 10
135.7240523779677
 20
179.5545592664989
 30
0.0
 10
135.5920322230035
 20
179.7856060468079
 30
0.0
 10
135.5107070583467
 20
179.776957685189
 30
0.0
 10
135.4800229271934
 20
179.773694642768
 30
0.0
  0
SPLINE
  5
1BB
330
1F
100
AcDbEntity
  8
0
  6
Continuous
 62
     8
370
    18
100
AcDbSpline
210
0.0
220
0.0
230
1.0
 70
     8
 71
     3
 72
    12
 73
     8
 74
     0
 42
0.000000001
 43
0.00000001
 40
0.0
 40
0.0
 40
0.0
 40
0.0
 40
0.1938115900054728
 40
0.3953435370409047
 40
0.5969049330013158
 40
0.7984368575508138
 40
1.0
 40
1.0
 40
1.0
 40
1.0
 10
132.9830351096966
 20
167.804451793054
 30
0.0
 10
132.9343335342312
 20
167.8220115352894
 30
0.0
 10
132.8349903881201
 20
167.8578305005261
 30
0.0
 10
132.684952508769
 20
168.183585584406
 30
0.0
 10
132.5330344339351
 20
168.7020943042442
 30
0.0
 10
132.3810474501982
 20
169.4020522040459
 30
0.0
 10
132.2797588309543
 20
169.9970163573686
 30
0.0
 10
132.2291105991584
 20
170.2945214726786
 30
0.0
  0
SPLINE
  5
1BC
330
1F
100
AcDbEntity
  8
0
  6
Continuous
 62
     8
370
    18
100
AcDbSpline
210
0.0
220
0.0
230
1.0
 70
     8
 71
     3
 72
    12
 73
     8
 74
     0
 42
0.000000001
 43
0.00000001
 40
0.0
 40
0.0
 40
0.0
 40
0.0
 40
0.0684413282558764
 40
0.3013272610941731
 40
0.5342153421617664
 40
0.7671066173046642
 40
1.0
 40
1.0
 40
1.0
 40
1.0
 10
132.7177768153967
 20
170.6194679021796
 30
0.0
 10
132.7223270703198
 20
170.6085654367283
 30
0.0
 10
132.7423605192344
 20
170.5605650524968
 30
0.0
 10
132.6985311129982
 20
170.471711401437
 30
0.0
 10
132.593174956282
 20
170.3751493200461
 30
0.0
 10
132.4247790768868
 20
170.308184009957
 30
0.0
 10
132.2943336219522
 20
170.2990756655394
 30
0.0
 10
132.2291105993692
 20
170.2945214727243
 30
0.0
  0
SPLINE
  5
1BD
330
1F
100
AcDbEntity
  8
0
  6
Continuous
 62
     8
370
    18
100
AcDbSpline
210
0.0
220
0.0
230
1.0
 70
     8
 71
     3
 72
     9
 73
     5
 74
     0
 42
0.000000001
 43
0.00000001
 40
0.0
 40
0.0
 40
0.0
 40
0.0
 40
0.6417218670309865
 40
1.0
 40
1.0
 40
1.0
 40
1.0
 10
112.7791105991467
 20
167.9952916592825
 30
0.0
 10
112.8297591233916
 20
167.9112364895844
 30
0.0
 10
112.9086850987199
 20
167.7802526880085
 30
0.0
 10
112.9876294137175
 20
167.8187126852604
 30
0.0
 10
113.0159134355034
 20
167.8324920612698
 30
0.0
  0
SPLINE
  5
1BE
330
1F
100
AcDbEntity
  8
0
  6
Continuous
 62
     8
370
    18
100
AcDbSpline
210
0.0
220
0.0
230
1.0
 70
     8
 71
     3
 72
    25
 73
    21
 74
     0
 42
0.000000001
 43
0.00000001
 40
0.0
 40
0.0
 40
0.0
 40
0.0
 40
0.0114086596296138
 40
0.0722238779573823
 40
0.1330465690431279
 40
0.1938609920694035
 40
0.2546842438708569
 40
0.3154981374974896
 40
0.3763217081001392
 40
0.4371353692327006
 40
0.4979590042943226
 40
0.5587727431161472
 40
0.6195961858134754
 40
0.6804103081147007
 40
0.7412333090894268
 40
0.8020480985141164
 40
0.8628704257392912
 40
0.9236861260993505
 40
0.9845075748304256
 40
1.0
 40
1.0
 40
1.0
 40
1.0
 10
115.48576426585
 20
179.783259560549
 30
0.0
 10
115.4952649939557
 20
179.7882191860734
 30
0.0
 10
115.5554104842663
 20
179.8196166858867
 30
0.0
 10
115.6662362986944
 20
179.6638141637677
 30
0.0
 10
115.8181557645051
 20
179.3110287148324
 30
0.0
 10
115.9701446030535
 20
178.7372711978737
 30
0.0
 10
116.1220599467325
 20
177.9901579328042
 30
0.0
 10
116.2740525490391
 20
177.0887119884852
 30
0.0
 10
116.4259650570988
 20
176.0684755117242
 30
0.0
 10
116.5779594001102
 20
174.9654781321196
 30
0.0
 10
116.7298713242539
 20
173.8202513216907
 30
0.0
 10
116.8818650787007
 20
172.6741808286613
 30
0.0
 10
117.0337787577279
 20
171.5692208153591
 30
0.0
 10
117.1857696098485
 20
170.545053998228
 30
0.0
 10
117.337687290711
 20
169.6395209405784
 30
0.0
 10
117.489673105866
 20
168.8855241964576
 30
0.0
 10
117.6415966986337
 20
168.3068092577368
 30
0.0
 10
117.7935761081894
 20
167.9434944199871
 30
0.0
 10
117.9077637571077
 20
167.7833333749188
 30
0.0
 10
117.9713222964791
 20
167.8147435220608
 30
0.0
 10
117.9842252702737
 20
167.8211200736535
 30
0.0
  0
SPLINE
  5
1BF
330
1F
100
AcDbEntity
  8
0
  6
Continuous
 62
     8
370
    18
100
AcDbSpline
210
0.0
220
0.0
230
1.0
 70
     8
 71
     3
 72
    25
 73
    21
 74
     0
 42
0.000000001
 43
0.00000001
 40
0.0
 40
0.0
 40
0.0
 40
0.0
 40
0.017507563074843
 40
0.0783068081750534
 40
0.139115960538639
 40
0.1999154379198974
 40
0.2607242717166713
 40
0.3215242782312617
 40
0.3823325515594111
 40
0.4431333530396618
 40
0.503940846332601
 40
0.5647426600333673
 40
0.6255491859751231
 40
0.6863521629696153
 40
0.747157576382063
 40
0.8079617841622865
 40
0.8687659919432256
 40
0.929571405357753
 40
0.9903743823537212
 40
1.0
 40
1.0
 40
1.0
 40
1.0
 10
120.4849711910924
 20
179.7774130889185
 30
0.0
 10
120.4995537112532
 20
179.7835920934627
 30
0.0
 10
120.5647775578875
 20
179.8112291850149
 30
0.0
 10
120.6806942528983
 20
179.6401270429687
 30
0.0
 10
120.8326059792885
 20
179.2643174370739
 30
0.0
 10
120.9845987740049
 20
178.6739463608395
 30
0.0
 10
121.1365141327801
 20
177.9102136302906
 30
0.0
 10
121.2885027139934
 20
176.9965311516962
 30
0.0
 10
121.440423199502
 20
175.9663728492826
 30
0.0
 10
121.5924056898161
 20
174.8578382930739
 30
0.0
 10
121.7443331662178
 20
173.7106510601557
 30
0.0
 10
121.8963078357067
 20
172.5666210937456
 30
0.0
 10
122.0482438393606
 20
171.4678678339253
 30
0.0
 10
122.2002093751812
 20
170.4531292843145
 30
0.0
 10
122.3521549633156
 20
169.5609282741803
 30
0.0
 10
122.5041105773368
 20
168.8226664313449
 30
0.0
 10
122.6560662830623
 20
168.2617939341369
 30
0.0
 10
122.8080115960798
 20
167.9204984062128
 30
0.0
 10
122.9173402580742
 20
167.7756553778047
 30
0.0
 10
122.9760060383498
 20
167.8102454235859
 30
0.0
 10
122.9840240085042
 20
167.8149729146958
 30
0.0
  0
SPLINE
  5
1C0
330
1F
100
AcDbEntity
  8
0
  6
Continuous
 62
     8
370
    18
100
AcDbSpline
210
0.0
220
0.0
230
1.0
 70
     8
 71
     3
 72
    25
 73
    21
 74
     0
 42
0.000000001
 43
0.00000001
 40
0.0
 40
0.0
 40
0.0
 40
0.0
 40
0.0228401913597686
 40
0.08368089171681
 40
0.1445273417349334
 40
0.205369139963203
 40
0.2662145434289749
 40
0.3270575510169927
 40
0.387901787470966
 40
0.4487460245796209
 40
0.5095890315061362
 40
0.5704344355755417
 40
0.631276233169018
 40
0.6921226837047428
 40
0.7529633835140483
 40
0.8138107129186395
 40
0.8746505014304433
 40
0.9354985048701646
 40
0.9963376259824354
 40
1.0
 40
1.0
 40
1.0
 40
1.0
 10
125.4861346221494
 20
179.7741309469422
 30
0.0
 10
125.5051470392392
 20
179.7801062348883
 30
0.0
 10
125.5748038994075
 20
179.8019982328894
 30
0.0
 10
125.6951382056057
 20
179.6139840383936
 30
0.0
 10
125.8470696494167
 20
179.2160358732388
 30
0.0
 10
125.9990399189213
 20
178.6088949527591
 30
0.0
 10
126.1509806081286
 20
177.8290431644902
 30
0.0
 10
126.3029412519549
 20
176.9031910624886
 30
0.0
 10
126.4548918411195
 20
175.8636418099495
 30
0.0
 10
126.6068424256604
 20
174.7497973598018
 30
0.0
 10
126.7588030723926
 20
173.6010717876134
 30
0.0
 10
126.9107437653721
 20
172.4595399617581
 30
0.0
 10
127.0627140064328
 20
171.3671423402092
 30
0.0
 10
127.214645570253
 20
170.362545458535
 30
0.0
 10
127.3666243797091
 20
169.4834532984846
 30
0.0
 10
127.5185480143046
 20
168.7618549190767
 30
0.0
 10
127.6705342622508
 20
168.2181248852413
 30
0.0
 10
127.8224501699977
 20
167.9003338930804
 30
0.0
 10
127.9268287951591
 20
167.768121707919
 30
0.0
 10
127.9805203252095
 20
167.8044775561638
 30
0.0
 10
127.9835689129086
 20
167.8065418294605
 30
0.0
  0
SPLINE
  5
1C1
330
1F
100
AcDbEntity
  8
0
  6
Continuous
 62
     8
370
    18
100
AcDbSpline
210
0.0
220
0.0
230
1.0
 70
     8
 71
     3
 72
    19
 73
    15
 74
     0
 42
0.000000001
 43
0.00000001
 40
0.0
 40
0.0
 40
0.0
 40
0.0
 40
0.0404043215113513
 40
0.1276413645770142
 40
0.2148749075592338
 40
0.3021135489553549
 40
0.3893454334840529
 40
0.4765854603192093
 40
0.5638158882658681
 40
0.6510570340093323
 40
0.738286215740562
 40
0.8255281438661165
 40
0.9127573158759464
 40
0.9999999999999999
 40
0.9999999999999999
 40
0.9999999999999999
 40
0.9999999999999999
 10
130.4872468821928
 20
179.7725821446094
 30
0.0
 10
130.5107068098627
 20
179.7773282043862
 30
0.0
 10
130.5848191094545
 20
179.7923214903421
 30
0.0
 10
130.7095741350214
 20
179.585415040999
 30
0.0
 10
130.8615398914566
 20
179.1663195990372
 30
0.0
 10
131.0134758363276
 20
178.5419262572857
 30
0.0
 10
131.1654505088863
 20
177.7467937566625
 30
0.0
 10
131.3173779943937
 20
176.8086064898352
 30
0.0
 10
131.4693604696112
 20
175.7603334337302
 30
0.0
 10
131.6212809365195
 20
174.6414838586773
 30
0.0
 10
131.7732692994267
 20
173.491139670376
 30
0.0
 10
131.9251865851588
 20
172.3545177404751
 30
0.0
 10
132.0771737765632
 20
171.2613793889851
 30
0.0
 10
132.1784623680626
 20
170.6168239849562
 30
0.0
 10
132.2291105860007
 20
170.294521323884
 30
0.0
  0
SPLINE
  5
1C2
330
1F
100
AcDbEntity
  8
0
  6
Continuous
 62
     8
370
    18
100
AcDbSpline
210
0.0
220
0.0
230
1.0
 70
     8
 71
     3
 72
    12
 73
     8
 74
     0
 42
0.000000001
 43
0.00000001
 40
0.0
 40
0.0
 40
0.0
 40
0.0
 40
0.1414471800702016
 40
0.3893729045413195
 40
0.6372887759023175
 40
0.8852190037638838
 40
1.0
 40
1.0
 40
1.0
 40
1.0
 10
130.340414331939
 20
178.6984589389861
 30
0.0
 10
130.3115160007455
 20
178.668984718934
 30
0.0
 10
130.23196526564
 20
178.5878486887559
 30
0.0
 10
130.1017719313644
 20
178.261614512562
 30
0.0
 10
129.9498064456038
 20
177.7419690107428
 30
0.0
 10
129.8250661060681
 20
177.209979652802
 30
0.0
 10
129.7509588835734
 20
176.8226501476659
 30
0.0
 10
129.7275074426994
 20
176.7000786265288
 30
0.0
  0
SPLINE
  5
1C3
330
1F
100
AcDbEntity
  8
0
  6
Continuous
 62
     8
370
    18
100
AcDbSpline
210
0.0
220
0.0
230
1.0
 70
     8
 71
     3
 72
    12
 73
     8
 74
     0
 42
0.000000001
 43
0.00000001
 40
0.0
 40
0.0
 40
0.0
 40
0.0
 40
0.0092619266891432
 40
0.2591773523433102
 40
0.5090523696450099
 40
0.7589680581660226
 40
1.0
 40
1.0
 40
1.0
 40
1.0
 10
128.7398210258957
 20
170.9000786260662
 30
0.0
 10
128.7379435811764
 20
170.8899027288873
 30
0.0
 10
128.6854068717133
 20
170.6051496556818
 30
0.0
 10
128.5822574425053
 20
170.1380630371884
 30
0.0
 10
128.4302623056094
 20
169.5456549829625
 30
0.0
 10
128.2801388616039
 20
169.1102347032402
 30
0.0
 10
128.1806153397085
 20
168.9631030468728
 30
0.0
 10
128.1317540228238
 20
168.8908683997397
 30
0.0
  0
SPLINE
  5
1C4
330
1F
100
AcDbEntity
  8
0
  6
Continuous
 62
     8
370
    18
100
AcDbSpline
210
0.0
220
0.0
230
1.0
 70
     8
 71
     3
 72
    12
 73
     8
 74
     0
 42
0.000000001
 43
0.00000001
 40
0.0
 40
0.0
 40
0.0
 40
0.0
 40
0.1599865704913306
 40
0.40932100325314
 40
0.6586193172281558
 40
0.9079555475591204
 40
1.0
 40
1.0
 40
1.0
 40
1.0
 10
125.3367813185644
 20
178.6957630720181
 30
0.0
 10
125.3042751898488
 20
178.6594127285821
 30
0.0
 10
125.2211092017481
 20
178.5664114285472
 30
0.0
 10
125.0873318692264
 20
178.2193639243997
 30
0.0
 10
124.9353411386998
 20
177.6841189773142
 30
0.0
 10
124.815368131207
 20
177.1644963055603
 30
0.0
 10
124.746005669404
 20
176.798704819376
 30
0.0
 10
124.7273038794703
 20
176.7000786265288
 30
0.0
  0
SPLINE
  5
1C5
330
1F
100
AcDbEntity
  8
0
  6
Continuous
 62
     8
370
    18
100
AcDbSpline
210
0.0
220
0.0
230
1.0
 70
     8
 71
     3
 72
    12
 73
     8
 74
     0
 42
0.000000001
 43
0.00000001
 40
0.0
 40
0.0
 40
0.0
 40
0.0
 40
0.0317657638743164
 40
0.2811066590559799
 40
0.5304171483391005
 40
0.7797548692867177
 40
1.0
 40
1.0
 40
1.0
 40
1.0
 10
123.7390968700901
 20
170.9000786260662
 30
0.0
 10
123.7326430373854
 20
170.8653175410275
 30
0.0
 10
123.6755307526975
 20
170.5577042086655
 30
0.0
 10
123.5677986992377
 20
170.0754386644766
 30
0.0
 10
123.4158156717972
 20
169.4980401452767
 30
0.0
 10
123.2697915076725
 20
169.0876912801299
 30
0.0
 10
123.1743872451431
 20
168.9561341604762
 30
0.0
 10
123.129640457229
 20
168.894430853143
 30
0.0
  0
SPLINE
  5
1C6
330
1F
100
AcDbEntity
  8
0
  6
Continuous
 62
     8
370
    18
100
AcDbSpline
210
0.0
220
0.0
230
1.0
 70
     8
 71
     3
 72
    12
 73
     8
 74
     0
 42
0.000000001
 43
0.00000001
 40
0.0
 40
0.0
 40
0.0
 40
0.0
 40
0.1842897364203396
 40
0.4332621881185008
 40
0.6821967787856308
 40
0.9311674355671105
 40
1.0
 40
1.0
 40
1.0
 40
1.0
 10
120.3373074312704
 20
178.6997228438999
 30
0.0
 10
120.2998076783199
 20
178.654268571475
 30
0.0
 10
120.2116463659602
 20
178.5474063125525
 30
0.0
 10
120.0728794529015
 20
178.1757147967188
 30
0.0
 10
119.9208887262958
 20
177.6249803283735
 30
0.0
 10
119.8056086533337
 20
177.1184410391554
 30
0.0
 10
119.7409440631958
 20
176.7745594655831
 30
0.0
 10
119.7269384481798
 20
176.7000786265288
 30
0.0
  0
LINE
  5
1C7
330
1F
100
AcDbEntity
  8
0
  6
Continuous
 62
     8
370
    18
100
AcDbLine
 10
119.2623935843
 20
173.98723116
 30
0.0
 11
119.2260178345
 21
173.7590242265
 31
0.0
  0
SPLINE
  5
1C8
330
1F
100
AcDbEntity
  8
0
  6
Continuous
 62
     8
370
    18
100
AcDbSpline
210
0.0
220
0.0
230
1.0
 70
     8
 71
     3
 72
     9
 73
     5
 74
     0
 42
0.000000001
 43
0.00000001
 40
0.0
 40
0.0
 40
0.0
 40
0.0
 40
0.4125547013718167
 40
1.0
 40
1.0
 40
1.0
 40
1.0
 10
118.333891652176
 20
169.3000786263665
 30
0.0
 10
118.3057352384542
 20
169.2198297131441
 30
0.0
 10
118.2374863162428
 20
169.0253126879943
 30
0.0
 10
118.1692413966897
 20
168.9460114597728
 30
0.0
 10
118.1291512395429
 20
168.8994263260786
 30
0.0
  0
SPLINE
  5
1C9
330
1F
100
AcDbEntity
  8
0
  6
Continuous
 62
     8
370
    18
100
AcDbSpline
210
0.0
220
0.0
230
1.0
 70
     8
 71
     3
 72
     9
 73
     5
 74
     0
 42
0.000000001
 43
0.00000001
 40
0.0
 40
0.0
 40
0.0
 40
0.0
 40
0.6124716577011212
 40
1.0
 40
1.0
 40
1.0
 40
1.0
 10
115.3353541624741
 20
178.7015753259181
 30
0.0
 10
115.2936886580693
 20
178.6522801440663
 30
0.0
 10
115.2256601968647
 20
178.5717944901882
 30
0.0
 10
115.1576395815994
 20
178.3759672371236
 30
0.0
 10
115.1312796653235
 20
178.3000786263665
 30
0.0
  0
SPLINE
  5
1CA
330
1F
100
AcDbEntity
  8
0
  6
Continuous
 62
     8
370
    18
100
AcDbSpline
210
0.0
220
0.0
230
1.0
 70
     8
 71
     3
 72
    10
 73
     6
 74
     0
 42
0.000000001
 43
0.00000001
 40
0.0
 40
0.0
 40
0.0
 40
0.0
 40
0.3171845623342764
 40
0.8015197202569635
 40
0.9999999999999999
 40
0.9999999999999999
 40
0.9999999999999999
 40
0.9999999999999999
 10
113.334496450783
 20
169.3000786263665
 30
0.0
 10
113.3013195119991
 20
169.2114035591537
 30
0.0
 10
113.2174819806346
 20
168.9873232491187
 30
0.0
 10
113.1129182888169
 20
168.8330680479817
 30
0.0
 10
113.0414979187752
 20
168.8291552362471
 30
0.0
 10
113.0207374991314
 20
168.8280178630642
 30
0.0
  0
DIMENSION
  5
1CB
330
1F
100
AcDbEntity
  8
0
  6
Continuous
 62
     7
370
    18
100
AcDbDimension
  2
_D_1
 10
177.2260178352
 20
198.7563888531
 30
0.0
 11
136.2260178352
 21
198.7563888551
 31
0.0
 70
   160
  1
<>
 71
     2
 42
-1.0
  3
SLDDIMSTYLE2
100
AcDbAlignedDimension
 13
95.2260178341
 23
179.0000786238
 33
0.0
 14
177.2260178341
 24
176.3000786264
 34
0.0
 50
-0.0000000028
100
AcDbRotatedDimension
  0
DIMENSION
  5
1D6
330
1F
100
AcDbEntity
  8
0
  6
Continuous
 62
     7
370
    18
100
AcDbDimension
  2
_D_2
 10
104.2260178331
 20
154.6833091793
 30
0.0
 11
99.7260178332
 21
154.6833091794
 31
0.0
 70
   160
  1
<>
 71
     2
 42
-1.0
  3
SLDDIMSTYLE3
100
AcDbAlignedDimension
 13
95.2260178338
 23
173.8000786264
 33
0.0
 14
104.2260178338
 24
173.8000786264
 34
0.0
 50
-0.0000000022
100
AcDbRotatedDimension
  0
DIMENSION
  5
1E3
330
1F
100
AcDbEntity
  8
0
  6
Continuous
 62
     7
370
    18
100
AcDbDimension
  2
_D_3
 10
119.2260178345
 20
188.5806395585
 30
0.0
 11
134.2260178343
 21
188.5806395585
 31
0.0
 70
   160
  1
<>st
 71
     2
 42
-1.0
  3
SLDDIMSTYLE2
100
AcDbAlignedDimension
 13
149.2260178341
 23
177.9001173412
 33
0.0
 14
119.2260178345
 24
178.0000786265
 34
0.0
100
AcDbRotatedDimension
  0
DIMENSION
  5
1EE
330
1F
100
AcDbEntity
  8
0
  6
Continuous
 62
     7
370
    18
100
AcDbDimension
  2
_D_4
 10
87.1432083241
 20
168.3000786264
 30
0.0
 11
87.1432083241
 21
173.8000786264
 31
0.0
 70
   160
  1
%%c<>
 71
     2
 42
-1.0
  3
SLDDIMSTYLE3
100
AcDbAlignedDimension
 13
95.5260178341
 23
179.3000786264
 33
0.0
 14
95.5260178341
 24
168.3000786264
 34
0.0
 50
90.0
100
AcDbRotatedDimension
  0
DIMENSION
  5
1FB
330
1F
100
AcDbEntity
  8
0
  6
Continuous
 62
     7
370
    18
100
AcDbDimension
  2
_D_5
 10
77.6752934179
 20
166.8000786264
 30
0.0
 11
77.6752934179
 21
173.8000786264
 31
0.0
 70
   160
  1
%%c<>
 71
     2
 42
-1.0
  3
SLDDIMSTYLE3
100
AcDbAlignedDimension
 13
104.5260178341
 23
180.8000786264
 33
0.0
 14
104.5260178341
 24
166.8000786264
 34
0.0
 50
90.0
100
AcDbRotatedDimension
  0
DIMENSION
  5
208
330
1F
100
AcDbEntity
  8
0
  6
Continuous
 62
     7
370
    18
100
AcDbDimension
  2
_D_6
 10
175.2260178341
 20
154.6833091802
 30
0.0
 11
164.7260178341
 21
154.6833091802
 31
0.0
 70
   160
  1
<>
 71
     2
 42
-1.0
  3
SLDDIMSTYLE2
100
AcDbAlignedDimension
 13
154.2260178341
 23
166.2172108788
 33
0.0
 14
175.2260178341
 24
168.8113498452
 34
0.0
100
AcDbRotatedDimension
  0
DIMENSION
  5
212
330
1F
100
AcDbEntity
  8
0
  6
Continuous
 62
     7
370
    18
100
AcDbDimension
  2
_D_7
 10
194.1866901301
 20
167.800078626
 30
0.0
 11
194.1866901301
 21
173.8000786264
 31
0.0
 70
   160
  1
%%c<>
 71
     2
 42
-1.0
  3
SLDDIMSTYLE3
100
AcDbAlignedDimension
 13
174.2260178341
 23
179.8000786267
 33
0.0
 14
174.2260178341
 24
167.800078626
 34
0.0
 50
90.0
100
AcDbRotatedDimension
  0
DIMENSION
  5
21F
330
1F
100
AcDbEntity
  8
0
  6
Continuous
 62
     7
370
    18
100
AcDbDimension
  2
_D_8
 10
185.6915643468
 20
170.9000786267
 30
0.0
 11
185.6915643468
 21
185.4468928752
 31
0.0
 70
   160
  1
%%c<>
 71
     2
 42
-1.0
  3
SLDDIMSTYLE3
100
AcDbAlignedDimension
 13
176.7260178341
 23
176.7000786262
 33
0.0
 14
176.7260178341
 24
170.9000786267
 34
0.0
 50
90.0
100
AcDbRotatedDimension
  0
LINE
  5
22C
330
1F
100
AcDbEntity
  8
0
  6
CENTERX2
 62
     7
370
    18
100
AcDbLine
 10
91.0937312513
 20
173.8000786264
 30
0.0
 11
181.1197556854
 21
173.8000786264
 31
0.0
  0
ENDSEC
  0
SECTION
  2
OBJECTS
  0
DICTIONARY
  5
C
330
0
100
AcDbDictionary
281
     1
  3
ACAD_GROUP
350
D
  3
ACAD_LAYOUT
350
1A
  3
ACAD_MLINESTYLE
350
17
  3
ACAD_PLOTSETTINGS
350
19
  3
ACAD_PLOTSTYLENAME
350
E
  3
ACAD_SCALELIST
350
47
  0
DICTIONARY
  5
D
102
{ACAD_REACTORS
330
C
102
}
330
C
100
AcDbDictionary
281
     1
  0
DICTIONARY
  5
1A
102
{ACAD_REACTORS
330
C
102
}
330
C
100
AcDbDictionary
281
     1
  3
Layout1
350
1E
  3
Layout2
350
26
  3
Model
350
22
  0
DICTIONARY
  5
17
102
{ACAD_REACTORS
330
C
102
}
330
C
100
AcDbDictionary
281
     1
  3
Standard
350
18
  0
DICTIONARY
  5
19
102
{ACAD_REACTORS
330
C
102
}
330
C
100
AcDbDictionary
281
     1
  0
ACDBDICTIONARYWDFLT
  5
E
102
{ACAD_REACTORS
330
C
102
}
330
C
100
AcDbDictionary
281
     1
  3
Normal
350
F
100
AcDbDictionaryWithDefault
340
F
  0
DICTIONARY
  5
47
102
{ACAD_REACTORS
330
C
102
}
330
C
100
AcDbDictionary
281
     1
  3
A0
350
48
  3
A1
350
49
  3
A2
350
4A
  3
A3
350
4B
  3
A4
350
4C
  3
A5
350
4D
  3
A6
350
4E
  3
A7
350
4F
  3
A8
350
50
  3
A9
350
51
  3
B0
350
52
  3
B1
350
53
  3
B2
350
54
  3
B3
350
55
  3
B4
350
56
  3
B5
350
57
  3
B6
350
58
  3
B7
350
59
  3
B8
350
5A
  3
B9
350
5B
  3
C0
350
5C
  3
C1
350
5D
  3
C2
350
5E
  3
C3
350
5F
  3
C4
350
60
  3
C5
350
61
  3
C6
350
62
  3
C7
350
63
  3
C8
350
64
  3
C9
350
65
  3
D0
350
66
  3
D1
350
67
  3
D2
350
68
  0
LAYOUT
  5
1E
102
{ACAD_REACTORS
330
1A
102
}
330
1A
100
AcDbPlotSettings
  1

  2
none_device
  4

  6

 40
0.0
 41
0.0
 42
0.0
 43
0.0
 44
0.0
 45
0.0
 46
0.0
 47
0.0
 48
0.0
 49
0.0
140
0.0
141
0.0
142
1.0
143
1.0
 70
   688
 72
     1
 73
     0
 74
     5
  7

 75
    16
147
1.0
148
0.0
149
0.0
100
AcDbLayout
  1
Layout1
 70
     1
 71
     1
 10
0.0
 20
0.0
 11
420.0
 21
297.0
 12
0.0
 22
0.0
 32
0.0
 14
1.0000000000E+20
 24
1.0000000000E+20
 34
1.0000000000E+20
 15
-1.0000000000E+20
 25
-1.0000000000E+20
 35
-1.0000000000E+20
146
0.0
 13
0.0
 23
0.0
 33
0.0
 16
1.0
 26
0.0
 36
0.0
 17
0.0
 27
1.0
 37
0.0
 76
     0
330
1B
  0
LAYOUT
  5
26
102
{ACAD_REACTORS
330
1A
102
}
330
1A
100
AcDbPlotSettings
  1

  2
none_device
  4

  6

 40
0.0
 41
0.0
 42
0.0
 43
0.0
 44
0.0
 45
0.0
 46
0.0
 47
0.0
 48
0.0
 49
0.0
140
0.0
141
0.0
142
1.0
143
1.0
 70
   688
 72
     1
 73
     0
 74
     5
  7

 75
    16
147
1.0
148
0.0
149
0.0
100
AcDbLayout
  1
Layout2
 70
     1
 71
     2
 10
0.0
 20
0.0
 11
0.0
 21
0.0
 12
0.0
 22
0.0
 32
0.0
 14
0.0
 24
0.0
 34
0.0
 15
0.0
 25
0.0
 35
0.0
146
0.0
 13
0.0
 23
0.0
 33
0.0
 16
1.0
 26
0.0
 36
0.0
 17
0.0
 27
1.0
 37
0.0
 76
     0
330
23
  0
LAYOUT
  5
22
102
{ACAD_REACTORS
330
1A
102
}
330
1A
100
AcDbPlotSettings
  1

  2
none_device
  4
Letter_(8.50_x_11.00_Inches)
  6

 40
6.35
 41
6.35
 42
6.35000508
 43
6.35000508
 44
215.9
 45
279.4
 46
0.0
 47
0.0
 48
0.0
 49
0.0
140
0.0
141
0.0
142
1.0
143
1.0
 70
  1712
 72
     1
 73
     0
 74
     0
  7

 75
     0
147
1.0
148
0.0
149
0.0
100
AcDbLayout
  1
Model
 70
     1
 71
     0
 10
0.0
 20
0.0
 11
210.0
 21
297.0
 12
0.0
 22
0.0
 32
0.0
 14
0.0
 24
0.0
 34
0.0
 15
210.0
 25
297.0
 35
0.0
146
0.0
 13
0.0
 23
0.0
 33
0.0
 16
1.0
 26
0.0
 36
0.0
 17
0.0
 27
1.0
 37
0.0
 76
     0
330
1F
331
29
  0
MLINESTYLE
  5
18
102
{ACAD_REACTORS
330
17
102
}
330
17
100
AcDbMlineStyle
  2
Standard
 70
     0
  3

 62
   256
 51
90.0
 52
90.0
 71
     2
 49
0.5
 62
   256
  6
BYLAYER
 49
-0.5
 62
   256
  6
BYLAYER
  0
ACDBPLACEHOLDER
  5
F
102
{ACAD_REACTORS
330
E
102
}
330
E
  0
SCALE
  5
48
102
{ACAD_REACTORS
330
47
102
}
330
47
100
AcDbScale
 70
     0
300
1:1
140
1.0
141
1.0
290
     1
  0
SCALE
  5
49
102
{ACAD_REACTORS
330
47
102
}
330
47
100
AcDbScale
 70
     0
300
1:2
140
1.0
141
2.0
290
     0
  0
SCALE
  5
4A
102
{ACAD_REACTORS
330
47
102
}
330
47
100
AcDbScale
 70
     0
300
1:4
140
1.0
141
4.0
290
     0
  0
SCALE
  5
4B
102
{ACAD_REACTORS
330
47
102
}
330
47
100
AcDbScale
 70
     0
300
1:5
140
1.0
141
5.0
290
     0
  0
SCALE
  5
4C
102
{ACAD_REACTORS
330
47
102
}
330
47
100
AcDbScale
 70
     0
300
1:8
140
1.0
141
8.0
290
     0
  0
SCALE
  5
4D
102
{ACAD_REACTORS
330
47
102
}
330
47
100
AcDbScale
 70
     0
300
1:10
140
1.0
141
10.0
290
     0
  0
SCALE
  5
4E
102
{ACAD_REACTORS
330
47
102
}
330
47
100
AcDbScale
 70
     0
300
1:16
140
1.0
141
16.0
290
     0
  0
SCALE
  5
4F
102
{ACAD_REACTORS
330
47
102
}
330
47
100
AcDbScale
 70
     0
300
1:20
140
1.0
141
20.0
290
     0
  0
SCALE
  5
50
102
{ACAD_REACTORS
330
47
102
}
330
47
100
AcDbScale
 70
     0
300
1:30
140
1.0
141
30.0
290
     0
  0
SCALE
  5
51
102
{ACAD_REACTORS
330
47
102
}
330
47
100
AcDbScale
 70
     0
300
1:40
140
1.0
141
40.0
290
     0
  0
SCALE
  5
52
102
{ACAD_REACTORS
330
47
102
}
330
47
100
AcDbScale
 70
     0
300
1:50
140
1.0
141
50.0
290
     0
  0
SCALE
  5
53
102
{ACAD_REACTORS
330
47
102
}
330
47
100
AcDbScale
 70
     0
300
1:100
140
1.0
141
100.0
290
     0
  0
SCALE
  5
54
102
{ACAD_REACTORS
330
47
102
}
330
47
100
AcDbScale
 70
     0
300
2:1
140
2.0
141
1.0
290
     0
  0
SCALE
  5
55
102
{ACAD_REACTORS
330
47
102
}
330
47
100
AcDbScale
 70
     0
300
4:1
140
4.0
141
1.0
290
     0
  0
SCALE
  5
56
102
{ACAD_REACTORS
330
47
102
}
330
47
100
AcDbScale
 70
     0
300
8:1
140
8.0
141
1.0
290
     0
  0
SCALE
  5
57
102
{ACAD_REACTORS
330
47
102
}
330
47
100
AcDbScale
 70
     0
300
10:1
140
10.0
141
1.0
290
     0
  0
SCALE
  5
58
102
{ACAD_REACTORS
330
47
102
}
330
47
100
AcDbScale
 70
     0
300
100:1
140
100.0
141
1.0
290
     0
  0
SCALE
  5
59
102
{ACAD_REACTORS
330
47
102
}
330
47
100
AcDbScale
 70
     0
300
1/128" = 1'-0"
140
0.0078125
141
12.0
290
     0
  0
SCALE
  5
5A
102
{ACAD_REACTORS
330
47
102
}
330
47
100
AcDbScale
 70
     0
300
1/64" = 1'-0"
140
0.015625
141
12.0
290
     0
  0
SCALE
  5
5B
102
{ACAD_REACTORS
330
47
102
}
330
47
100
AcDbScale
 70
     0
300
1/32" = 1'-0"
140
0.03125
141
12.0
290
     0
  0
SCALE
  5
5C
102
{ACAD_REACTORS
330
47
102
}
330
47
100
AcDbScale
 70
     0
300
1/16" = 1'-0"
140
0.0625
141
12.0
290
     0
  0
SCALE
  5
5D
102
{ACAD_REACTORS
330
47
102
}
330
47
100
AcDbScale
 70
     0
300
3/32" = 1'-0"
140
0.09375
141
12.0
290
     0
  0
SCALE
  5
5E
102
{ACAD_REACTORS
330
47
102
}
330
47
100
AcDbScale
 70
     0
300
1/8" = 1'-0"
140
0.125
141
12.0
290
     0
  0
SCALE
  5
5F
102
{ACAD_REACTORS
330
47
102
}
330
47
100
AcDbScale
 70
     0
300
3/16" = 1'-0"
140
0.1875
141
12.0
290
     0
  0
SCALE
  5
60
102
{ACAD_REACTORS
330
47
102
}
330
47
100
AcDbScale
 70
     0
300
1/4" = 1'-0"
140
0.25
141
12.0
290
     0
  0
SCALE
  5
61
102
{ACAD_REACTORS
330
47
102
}
330
47
100
AcDbScale
 70
     0
300
3/8" = 1'-0"
140
0.375
141
12.0
290
     0
  0
SCALE
  5
62
102
{ACAD_REACTORS
330
47
102
}
330
47
100
AcDbScale
 70
     0
300
1/2" = 1'-0"
140
0.5
141
12.0
290
     0
  0
SCALE
  5
63
102
{ACAD_REACTORS
330
47
102
}
330
47
100
AcDbScale
 70
     0
300
3/4" = 1'-0"
140
0.75
141
12.0
290
     0
  0
SCALE
  5
64
102
{ACAD_REACTORS
330
47
102
}
330
47
100
AcDbScale
 70
     0
300
1" = 1'-0"
140
1.0
141
12.0
290
     0
  0
SCALE
  5
65
102
{ACAD_REACTORS
330
47
102
}
330
47
100
AcDbScale
 70
     0
300
1-1/2" = 1'-0"
140
1.5
141
12.0
290
     0
  0
SCALE
  5
66
102
{ACAD_REACTORS
330
47
102
}
330
47
100
AcDbScale
 70
     0
300
3" = 1'-0"
140
3.0
141
12.0
290
     0
  0
SCALE
  5
67
102
{ACAD_REACTORS
330
47
102
}
330
47
100
AcDbScale
 70
     0
300
6" = 1'-0"
140
6.0
141
12.0
290
     0
  0
SCALE
  5
68
102
{ACAD_REACTORS
330
47
102
}
330
47
100
AcDbScale
 70
     0
300
1'-0" = 1'-0"
140
12.0
141
12.0
290
     0
  0
ENDSEC
  0
EOF
