  0
SECTION
  2
HEADER
  9
$ACADVER
  1
AC1015
  9
$ACADMAINTVER
 70
     6
  9
$DWGCODEPAGE
  3
DOS932
  9
$INSBASE
 10
0.0
 20
0.0
 30
0.0
  9
$EXTMIN
 10
0.0
 20
0.0
 30
0.0
  9
$EXTMAX
 10
210.0
 20
297.0
 30
0.0
  9
$LIMMIN
 10
0.0
 20
0.0
  9
$LIMMAX
 10
210.0
 20
297.0
  9
$ORTHOMODE
 70
     0
  9
$REGENMODE
 70
     1
  9
$FILLMODE
 70
     1
  9
$QTEXTMODE
 70
     0
  9
$MIRRTEXT
 70
     1
  9
$LTSCALE
 40
1.0
  9
$ATTMODE
 70
     1
  9
$TEXTSIZE
 40
3.5
  9
$TRACEWID
 40
1.0
  9
$TEXTSTYLE
  7
Standard
  9
$CLAYER
  8
0
  9
$CELTYPE
  6
ByLayer
  9
$CECOLOR
 62
   256
  9
$CELTSCALE
 40
1.0
  9
$DISPSILH
 70
     0
  9
$DIMSCALE
 40
1.0
  9
$DIMASZ
 40
3.0
  9
$DIMEXO
 40
1.0
  9
$DIMDLI
 40
3.75
  9
$DIMRND
 40
0.0
  9
$DIMDLE
 40
0.0
  9
$DIMEXE
 40
1.0
  9
$DIMTP
 40
0.0
  9
$DIMTM
 40
0.0
  9
$DIMTXT
 40
3.5
  9
$DIMCEN
 40
2.5
  9
$DIMTSZ
 40
0.0
  9
$DIMTOL
 70
     0
  9
$DIMLIM
 70
     0
  9
$DIMTIH
 70
     1
  9
$DIMTOH
 70
     1
  9
$DIMSE1
 70
     0
  9
$DIMSE2
 70
     0
  9
$DIMTAD
 70
     1
  9
$DIMZIN
 70
     0
  9
$DIMBLK
  1

  9
$DIMASO
 70
     1
  9
$DIMSHO
 70
     1
  9
$DIMPOST
  1

  9
$DIMAPOST
  1

  9
$DIMALT
 70
     0
  9
$DIMALTD
 70
     3
  9
$DIMALTF
 40
0.0393700787
  9
$DIMLFAC
 40
1.0
  9
$DIMTOFL
 70
     1
  9
$DIMTVP
 40
0.0
  9
$DIMTIX
 70
     0
  9
$DIMSOXD
 70
     0
  9
$DIMSAH
 70
     0
  9
$DIMBLK1
  1

  9
$DIMBLK2
  1

  9
$DIMSTYLE
  2
ISO-25
  9
$DIMCLRD
 70
     0
  9
$DIMCLRE
 70
     0
  9
$DIMCLRT
 70
     0
  9
$DIMTFAC
 40
1.0
  9
$DIMGAP
 40
1.524
  9
$DIMJUST
 70
     0
  9
$DIMSD1
 70
     0
  9
$DIMSD2
 70
     0
  9
$DIMTOLJ
 70
     0
  9
$DIMTZIN
 70
     0
  9
$DIMALTZ
 70
     0
  9
$DIMALTTZ
 70
     0
  9
$DIMUPT
 70
     0
  9
$DIMDEC
 70
     1
  9
$DIMTDEC
 70
     3
  9
$DIMALTU
 70
     2
  9
$DIMALTTD
 70
     3
  9
$DIMTXSTY
  7
Standard
  9
$DIMAUNIT
 70
     0
  9
$DIMADEC
 70
     2
  9
$DIMALTRND
 40
0.0
  9
$DIMAZIN
 70
     0
  9
$DIMDSEP
 70
    44
  9
$DIMATFIT
 70
     3
  9
$DIMFRAC
 70
     0
  9
$DIMLDRBLK
  1

  9
$DIMLUNIT
 70
     2
  9
$DIMLWD
 70
    -2
  9
$DIMLWE
 70
    -2
  9
$DIMTMOVE
 70
     0
  9
$LUNITS
 70
     2
  9
$LUPREC
 70
     1
  9
$SKETCHINC
 40
1.0
  9
$FILLETRAD
 40
10.0
  9
$AUNITS
 70
     0
  9
$AUPREC
 70
     2
  9
$MENU
  1
.
  9
$ELEVATION
 40
0.0
  9
$PELEVATION
 40
0.0
  9
$THICKNESS
 40
0.0
  9
$LIMCHECK
 70
     0
  9
$CHAMFERA
 40
0.0
  9
$CHAMFERB
 40
0.0
  9
$CHAMFERC
 40
0.0
  9
$CHAMFERD
 40
0.0
  9
$SKPOLY
 70
     0
  9
$TDCREATE
 40
2458675.805961088
  9
$TDUCREATE
 40
2458675.430961088
  9
$TDUPDATE
 40
2458675.80596375
  9
$TDUUPDATE
 40
2458675.43096375
  9
$TDINDWG
 40
0.0000000116
  9
$TDUSRTIMER
 40
0.0000000116
  9
$USRTIMER
 70
     1
  9
$ANGBASE
 50
0.0
  9
$ANGDIR
 70
     0
  9
$PDMODE
 70
     0
  9
$PDSIZE
 40
-1.0
  9
$PLINEWID
 40
0.0
  9
$SPLFRAME
 70
     0
  9
$SPLINETYPE
 70
     6
  9
$SPLINESEGS
 70
     8
  9
$HANDSEED
  5
266
  9
$SURFTAB1
 70
     6
  9
$SURFTAB2
 70
     6
  9
$SURFTYPE
 70
     6
  9
$SURFU
 70
     6
  9
$SURFV
 70
     6
  9
$UCSBASE
  2

  9
$UCSNAME
  2

  9
$UCSORG
 10
0.0
 20
0.0
 30
0.0
  9
$UCSXDIR
 10
1.0
 20
0.0
 30
0.0
  9
$UCSYDIR
 10
0.0
 20
1.0
 30
0.0
  9
$UCSORTHOREF
  2

  9
$UCSORTHOVIEW
 70
     0
  9
$UCSORGTOP
 10
0.0
 20
0.0
 30
0.0
  9
$UCSORGBOTTOM
 10
0.0
 20
0.0
 30
0.0
  9
$UCSORGLEFT
 10
0.0
 20
0.0
 30
0.0
  9
$UCSORGRIGHT
 10
0.0
 20
0.0
 30
0.0
  9
$UCSORGFRONT
 10
0.0
 20
0.0
 30
0.0
  9
$UCSORGBACK
 10
0.0
 20
0.0
 30
0.0
  9
$PUCSBASE
  2

  9
$PUCSNAME
  2

  9
$PUCSORG
 10
0.0
 20
0.0
 30
0.0
  9
$PUCSXDIR
 10
1.0
 20
0.0
 30
0.0
  9
$PUCSYDIR
 10
0.0
 20
1.0
 30
0.0
  9
$PUCSORTHOREF
  2

  9
$PUCSORTHOVIEW
 70
     0
  9
$PUCSORGTOP
 10
0.0
 20
0.0
 30
0.0
  9
$PUCSORGBOTTOM
 10
0.0
 20
0.0
 30
0.0
  9
$PUCSORGLEFT
 10
0.0
 20
0.0
 30
0.0
  9
$PUCSORGRIGHT
 10
0.0
 20
0.0
 30
0.0
  9
$PUCSORGFRONT
 10
0.0
 20
0.0
 30
0.0
  9
$PUCSORGBACK
 10
0.0
 20
0.0
 30
0.0
  9
$USERI1
 70
     0
  9
$USERI2
 70
     0
  9
$USERI3
 70
     0
  9
$USERI4
 70
     0
  9
$USERI5
 70
     0
  9
$USERR1
 40
0.0
  9
$USERR2
 40
0.0
  9
$USERR3
 40
0.0
  9
$USERR4
 40
0.0
  9
$USERR5
 40
0.0
  9
$WORLDVIEW
 70
     1
  9
$SHADEDGE
 70
     3
  9
$SHADEDIF
 70
    70
  9
$TILEMODE
 70
     1
  9
$MAXACTVP
 70
    64
  9
$PINSBASE
 10
0.0
 20
0.0
 30
0.0
  9
$PLIMCHECK
 70
     0
  9
$PEXTMIN
 10
1.0000000000E+20
 20
1.0000000000E+20
 30
1.0000000000E+20
  9
$PEXTMAX
 10
-1.0000000000E+20
 20
-1.0000000000E+20
 30
-1.0000000000E+20
  9
$PLIMMIN
 10
0.0
 20
0.0
  9
$PLIMMAX
 10
420.0
 20
297.0
  9
$UNITMODE
 70
     0
  9
$VISRETAIN
 70
     1
  9
$PLINEGEN
 70
     0
  9
$PSLTSCALE
 70
     1
  9
$TREEDEPTH
 70
  3020
  9
$CMLSTYLE
  2
Standard
  9
$CMLJUST
 70
     0
  9
$CMLSCALE
 40
20.0
  9
$PROXYGRAPHICS
 70
     1
  9
$MEASUREMENT
 70
     1
  9
$CELWEIGHT
370
    -1
  9
$ENDCAPS
280
     0
  9
$JOINSTYLE
280
     0
  9
$LWDISPLAY
290
     1
  9
$INSUNITS
 70
     4
  9
$HYPERLINKBASE
  1

  9
$STYLESHEET
  1

  9
$XEDIT
290
     1
  9
$CEPSNTYPE
380
     0
  9
$PSTYLEMODE
290
     1
  9
$FINGERPRINTGUID
  2
{428CE3B7-1D1C-40C0-B313-F918510DD97F}
  9
$VERSIONGUID
  2
{FAEB1C32-E019-11D5-929B-00C0DF256EC4}
  9
$EXTNAMES
290
     1
  9
$PSVPSCALE
 40
0.0
  9
$OLESTARTUP
290
     0
  0
ENDSEC
  0
SECTION
  2
CLASSES
  0
CLASS
  1
ACDBDICTIONARYWDFLT
  2
AcDbDictionaryWithDefault
  3
ObjectDBX Classes
 90
        0
280
     0
281
     0
  0
CLASS
  1
VISUALSTYLE
  2
AcDbVisualStyle
  3
ObjectDBX Classes
 90
     4095
280
     0
281
     0
  0
CLASS
  1
MATERIAL
  2
AcDbMaterial
  3
ObjectDBX Classes
 90
     1153
280
     0
281
     0
  0
CLASS
  1
SCALE
  2
AcDbScale
  3
ObjectDBX Classes
 90
     1153
280
     0
281
     0
  0
CLASS
  1
TABLESTYLE
  2
AcDbTableStyle
  3
ObjectDBX Classes
 90
     4095
280
     0
281
     0
  0
CLASS
  1
MLEADERSTYLE
  2
AcDbMLeaderStyle
  3
ACDB_MLEADERSTYLE_CLASS
 90
     4095
280
     0
281
     0
  0
CLASS
  1
SUN
  2
AcDbSun
  3
SCENEOE
 90
     1153
280
     0
281
     0
  0
CLASS
  1
ACDBPLACEHOLDER
  2
AcDbPlaceHolder
  3
ObjectDBX Classes
 90
        0
280
     0
281
     0
  0
CLASS
  1
LAYOUT
  2
AcDbLayout
  3
ObjectDBX Classes
 90
        0
280
     0
281
     0
  0
ENDSEC
  0
SECTION
  2
TABLES
  0
TABLE
  2
VPORT
  5
8
330
0
100
AcDbSymbolTable
 70
     1
  0
VPORT
  5
29
330
8
100
AcDbSymbolTableRecord
100
AcDbViewportTableRecord
  2
*Active
 70
     0
 10
0.0
 20
0.0
 11
1.0
 21
1.0
 12
105.0
 22
148.5
 13
0.0
 23
0.0
 14
10.0
 24
10.0
 15
10.0
 25
10.0
 16
0.0
 26
0.0
 36
1.0
 17
0.0
 27
0.0
 37
0.0
 40
297.0
 41
0.7070707071
 42
50.0
 43
0.0
 44
0.0
 50
0.0
 51
0.0
 71
     0
 72
  2000
 73
     1
 74
     3
 75
     0
 76
     0
 77
     0
 78
     0
281
     0
 65
     1
110
0.0
120
0.0
130
0.0
111
1.0
121
0.0
131
0.0
112
0.0
122
1.0
132
0.0
 79
     0
146
0.0
  0
ENDTAB
  0
TABLE
  2
LTYPE
  5
5
330
0
100
AcDbSymbolTable
 70
     6
  0
LTYPE
  5
14
330
5
100
AcDbSymbolTableRecord
100
AcDbLinetypeTableRecord
  2
ByBlock
 70
     0
  3

 72
    65
 73
     0
 40
0.0
  0
LTYPE
  5
15
330
5
100
AcDbSymbolTableRecord
100
AcDbLinetypeTableRecord
  2
ByLayer
 70
     0
  3

 72
    65
 73
     0
 40
0.0
  0
LTYPE
  5
16
330
5
100
AcDbSymbolTableRecord
100
AcDbLinetypeTableRecord
  2
Continuous
 70
     0
  3
Solid line
 72
    65
 73
     0
 40
0.0
  0
LTYPE
  5
6E
330
5
100
AcDbSymbolTableRecord
100
AcDbLinetypeTableRecord
  2
HIDDEN
 70
     0
  3
Hidden __ __ __ __ __ __ __ __ __ __ __ __ __ __
 72
    65
 73
     2
 40
1.905
 49
1.27
 74
     0
 49
-0.635
 74
     0
  0
LTYPE
  5
6F
330
5
100
AcDbSymbolTableRecord
100
AcDbLinetypeTableRecord
  2
PHANTOM
 70
     0
  3
Phantom ______  __  __  ______  __  __  ______
 72
    65
 73
     6
 40
12.7
 49
6.35
 74
     0
 49
-1.27
 74
     0
 49
1.27
 74
     0
 49
-1.27
 74
     0
 49
1.27
 74
     0
 49
-1.27
 74
     0
  0
LTYPE
  5
70
330
5
100
AcDbSymbolTableRecord
100
AcDbLinetypeTableRecord
  2
CENTER
 70
     0
  3
Center ____ _ ____ _ ____ _ ____ _ ____ _ ____
 72
    65
 73
     4
 40
10.16
 49
6.35
 74
     0
 49
-1.27
 74
     0
 49
1.27
 74
     0
 49
-1.27
 74
     0
  0
LTYPE
  5
71
330
5
100
AcDbSymbolTableRecord
100
AcDbLinetypeTableRecord
  2
CENTERX2
 70
     0
  3
Center (2x) ________  __  ________  __  _____
 72
    65
 73
     4
 40
20.32
 49
12.7
 74
     0
 49
-2.54
 74
     0
 49
2.54
 74
     0
 49
-2.54
 74
     0
  0
LTYPE
  5
72
330
5
100
AcDbSymbolTableRecord
100
AcDbLinetypeTableRecord
  2
DOT2
 70
     0
  3
Dot (.5x) ........................................
 72
    65
 73
     2
 40
0.635
 49
0.0
 74
     0
 49
-0.635
 74
     0
  0
ENDTAB
  0
TABLE
  2
LAYER
  5
2
330
0
100
AcDbSymbolTable
 70
     1
  0
LAYER
  5
10
330
2
100
AcDbSymbolTableRecord
100
AcDbLayerTableRecord
  2
0
 70
     0
 62
     7
  6
Continuous
370
    -3
390
F
  0
ENDTAB
  0
TABLE
  2
STYLE
  5
3
330
0
100
AcDbSymbolTable
 70
     2
  0
STYLE
  5
11
330
3
100
AcDbSymbolTableRecord
100
AcDbTextStyleTableRecord
  2
Standard
 70
     0
 40
0.0
 41
1.0
 50
0.0
 71
     0
 42
3.5
  3
txt
  4
bigfont
  0
STYLE
  5
7B
330
3
100
AcDbSymbolTableRecord
100
AcDbTextStyleTableRecord
  2
SLDTEXTSTYLE0
 70
     0
 40
0.0
 41
0.7
 50
0.0
 71
     0
 42
3.5
  3
TXT
  4
bigfont
  0
ENDTAB
  0
TABLE
  2
VIEW
  5
6
330
0
100
AcDbSymbolTable
 70
     0
  0
ENDTAB
  0
TABLE
  2
UCS
  5
7
330
0
100
AcDbSymbolTable
 70
     0
  0
ENDTAB
  0
TABLE
  2
APPID
  5
9
330
0
100
AcDbSymbolTable
 70
     1
  0
APPID
  5
12
330
9
100
AcDbSymbolTableRecord
100
AcDbRegAppTableRecord
  2
ACAD
 70
     0
  0
ENDTAB
  0
TABLE
  2
DIMSTYLE
  5
A
330
0
100
AcDbSymbolTable
 70
     4
100
AcDbDimStyleTable
  0
DIMSTYLE
105
27
330
A
100
AcDbSymbolTableRecord
100
AcDbDimStyleTableRecord
  2
ISO-25
 70
     0
 41
2.5
 42
0.625
 43
3.75
 44
1.25
 73
     0
 74
     0
 77
     1
 78
     8
140
2.5
141
2.5
143
0.0393700787
147
0.625
171
     3
172
     1
178
     0
271
     2
272
     2
274
     3
278
    44
283
     0
284
     8
340
11
  0
DIMSTYLE
105
AA
330
A
100
AcDbSymbolTableRecord
100
AcDbDimStyleTableRecord
  2
SLDDIMSTYLE0
 70
     0
 41
3.0
 44
0.0
 45
0.000000001
146
3.0
147
0.0
173
     1
178
     0
271
     0
272
     0
276
     2
340
11
  0
DIMSTYLE
105
1DD
102
{ACAD_REACTORS
330
1DC
330
1E9
330
214
330
220
330
22D
330
244
330
251
102
}
330
A
100
AcDbSymbolTableRecord
100
AcDbDimStyleTableRecord
  2
SLDDIMSTYLE1
 70
     0
 41
3.0
 44
0.0
 45
0.000000001
 73
     0
 74
     0
 77
     3
 78
    12
 79
     3
140
3.5
147
0.875
172
     1
173
     1
178
     0
271
     1
272
     3
276
     2
284
    12
289
     0
340
7B
  0
DIMSTYLE
105
1F6
102
{ACAD_REACTORS
330
1F5
330
200
330
20A
330
23A
102
}
330
A
100
AcDbSymbolTableRecord
100
AcDbDimStyleTableRecord
  2
SLDDIMSTYLE2
 70
     0
 41
3.0
 44
0.0
 45
0.000000001
 73
     0
 74
     0
 77
     3
 78
    12
 79
     3
140
3.5
147
0.875
173
     1
178
     0
271
     1
272
     3
276
     2
284
    12
340
7B
  0
ENDTAB
  0
TABLE
  2
BLOCK_RECORD
  5
1
330
0
100
AcDbSymbolTable
 70
    16
  0
BLOCK_RECORD
  5
1F
330
1
100
AcDbSymbolTableRecord
100
AcDbBlockTableRecord
  2
*Model_Space
340
22
  0
BLOCK_RECORD
  5
1B
330
1
100
AcDbSymbolTableRecord
100
AcDbBlockTableRecord
  2
*Paper_Space
340
1E
  0
BLOCK_RECORD
  5
23
330
1
100
AcDbSymbolTableRecord
100
AcDbBlockTableRecord
  2
*Paper_Space0
340
26
  0
BLOCK_RECORD
  5
A4
330
1
100
AcDbSymbolTableRecord
100
AcDbBlockTableRecord
  2
SW_NOTE_0
340
0
102
{BLKREFS
331
A9
102
}
  0
BLOCK_RECORD
  5
AC
330
1
100
AcDbSymbolTableRecord
100
AcDbBlockTableRecord
  2
SW_NOTE_1
340
0
102
{BLKREFS
331
B1
102
}
  0
BLOCK_RECORD
  5
B3
330
1
100
AcDbSymbolTableRecord
100
AcDbBlockTableRecord
  2
SW_CENTERMARKSYMBOL_0
340
0
102
{BLKREFS
331
BE
102
}
  0
BLOCK_RECORD
  5
1DE
330
1
100
AcDbSymbolTableRecord
100
AcDbBlockTableRecord
  2
_D
340
0
  0
BLOCK_RECORD
  5
1EA
330
1
100
AcDbSymbolTableRecord
100
AcDbBlockTableRecord
  2
_D_1
340
0
  0
BLOCK_RECORD
  5
1F7
330
1
100
AcDbSymbolTableRecord
100
AcDbBlockTableRecord
  2
_D_2
340
0
  0
BLOCK_RECORD
  5
201
330
1
100
AcDbSymbolTableRecord
100
AcDbBlockTableRecord
  2
_D_3
340
0
  0
BLOCK_RECORD
  5
20B
330
1
100
AcDbSymbolTableRecord
100
AcDbBlockTableRecord
  2
_D_4
340
0
  0
BLOCK_RECORD
  5
215
330
1
100
AcDbSymbolTableRecord
100
AcDbBlockTableRecord
  2
_D_5
340
0
  0
BLOCK_RECORD
  5
221
330
1
100
AcDbSymbolTableRecord
100
AcDbBlockTableRecord
  2
_D_6
340
0
  0
BLOCK_RECORD
  5
22E
330
1
100
AcDbSymbolTableRecord
100
AcDbBlockTableRecord
  2
_D_7
340
0
  0
BLOCK_RECORD
  5
23B
330
1
100
AcDbSymbolTableRecord
100
AcDbBlockTableRecord
  2
_D_8
340
0
  0
BLOCK_RECORD
  5
245
330
1
100
AcDbSymbolTableRecord
100
AcDbBlockTableRecord
  2
_D_9
340
0
  0
BLOCK_RECORD
  5
252
330
1
100
AcDbSymbolTableRecord
100
AcDbBlockTableRecord
  2
_D_10
340
0
  0
BLOCK_RECORD
  5
25E
330
1
100
AcDbSymbolTableRecord
100
AcDbBlockTableRecord
  2
SW_NOTE_2
340
0
102
{BLKREFS
331
263
102
}
  0
ENDTAB
  0
ENDSEC
  0
SECTION
  2
BLOCKS
  0
BLOCK
  5
20
330
1F
100
AcDbEntity
  8
0
100
AcDbBlockBegin
  2
*Model_Space
 70
     0
 10
0.0
 20
0.0
 30
0.0
  3
*Model_Space
  1

  0
ENDBLK
  5
21
330
1F
100
AcDbEntity
  8
0
100
AcDbBlockEnd
  0
BLOCK
  5
1C
330
1B
100
AcDbEntity
 67
     1
  8
0
100
AcDbBlockBegin
  2
*Paper_Space
 70
     0
 10
0.0
 20
0.0
 30
0.0
  3
*Paper_Space
  1

  0
ENDBLK
  5
1D
330
1B
100
AcDbEntity
 67
     1
  8
0
100
AcDbBlockEnd
  0
BLOCK
  5
24
330
23
100
AcDbEntity
  8
0
100
AcDbBlockBegin
  2
*Paper_Space0
 70
     0
 10
0.0
 20
0.0
 30
0.0
  3
*Paper_Space0
  1

  0
ENDBLK
  5
25
330
23
100
AcDbEntity
  8
0
100
AcDbBlockEnd
  0
BLOCK
  5
A5
330
A4
100
AcDbEntity
  8
0
100
AcDbBlockBegin
  2
SW_NOTE_0
 70
     0
 10
0.0
 20
0.0
 30
0.0
  3
SW_NOTE_0
  1

  0
LINE
  5
A7
330
A4
100
AcDbEntity
  8
0
  6
Continuous
 62
     0
370
     0
100
AcDbLine
 10
3.9558253648
 20
0.0
 30
0.0
 11
0.0
 21
0.0
 31
0.0
  0
MTEXT
  5
A8
330
A4
100
AcDbEntity
  8
0
  6
Continuous
 62
     0
370
     0
100
AcDbMText
 10
0.3823171389
 20
4.5914887596
 30
0.0
 40
3.5
 41
0.0
 71
     1
 72
     1
  1
M5
  7
SLDTEXTSTYLE0
 73
     1
 44
1.0
  0
ENDBLK
  5
A6
330
A4
100
AcDbEntity
  8
0
100
AcDbBlockEnd
  0
BLOCK
  5
AD
330
AC
100
AcDbEntity
  8
0
100
AcDbBlockBegin
  2
SW_NOTE_1
 70
     0
 10
0.0
 20
0.0
 30
0.0
  3
SW_NOTE_1
  1

  0
LINE
  5
AF
330
AC
100
AcDbEntity
  8
0
  6
Continuous
 62
     0
370
     0
100
AcDbLine
 10
-34.7434797858
 20
0.0
 30
0.0
 11
0.0
 21
0.0
 31
0.0
  0
MTEXT
  5
B0
330
AC
100
AcDbEntity
  8
0
  6
Continuous
 62
     0
370
     0
100
AcDbMText
 10
-35.2193968637
 20
4.622076975
 30
0.0
 40
3.5
 41
0.0
 71
     1
 72
     1
  1
外径φ6配管用継手
  7
SLDTEXTSTYLE0
 73
     1
 44
1.0
  0
ENDBLK
  5
AE
330
AC
100
AcDbEntity
  8
0
100
AcDbBlockEnd
  0
BLOCK
  5
B4
330
B3
100
AcDbEntity
  8
0
100
AcDbBlockBegin
  2
SW_CENTERMARKSYMBOL_0
 70
     0
 10
0.0
 20
0.0
 30
0.0
  3
SW_CENTERMARKSYMBOL_0
  1

  0
LINE
  5
B6
330
B3
100
AcDbEntity
  8
0
  6
Continuous
 62
     0
370
    18
100
AcDbLine
 10
0.0
 20
0.0
 30
0.0
 11
0.0
 21
2.5
 31
0.0
  0
LINE
  5
B7
330
B3
100
AcDbEntity
  8
0
  6
Continuous
 62
     0
370
    18
100
AcDbLine
 10
0.0
 20
0.0
 30
0.0
 11
-2.5
 21
0.0
 31
0.0
  0
LINE
  5
B8
330
B3
100
AcDbEntity
  8
0
  6
Continuous
 62
     0
370
    18
100
AcDbLine
 10
0.0
 20
0.0
 30
0.0
 11
0.0
 21
-2.5
 31
0.0
  0
LINE
  5
B9
330
B3
100
AcDbEntity
  8
0
  6
Continuous
 62
     0
370
    18
100
AcDbLine
 10
0.0
 20
0.0
 30
0.0
 11
2.5
 21
0.0
 31
0.0
  0
LINE
  5
BA
330
B3
100
AcDbEntity
  8
0
  6
Continuous
 62
     0
370
    18
100
AcDbLine
 10
0.0
 20
5.0
 30
0.0
 11
0.0
 21
9.5000000003
 31
0.0
  0
LINE
  5
BB
330
B3
100
AcDbEntity
  8
0
  6
Continuous
 62
     0
370
    18
100
AcDbLine
 10
-5.0
 20
0.0
 30
0.0
 11
-9.5000000003
 21
0.0
 31
0.0
  0
LINE
  5
BC
330
B3
100
AcDbEntity
  8
0
  6
Continuous
 62
     0
370
    18
100
AcDbLine
 10
0.0
 20
-5.0
 30
0.0
 11
0.0
 21
-16.9428809967
 31
0.0
  0
LINE
  5
BD
330
B3
100
AcDbEntity
  8
0
  6
Continuous
 62
     0
370
    18
100
AcDbLine
 10
5.0
 20
0.0
 30
0.0
 11
9.5000000003
 21
0.0
 31
0.0
  0
ENDBLK
  5
B5
330
B3
100
AcDbEntity
  8
0
100
AcDbBlockEnd
  0
BLOCK
  5
1DF
330
1DE
100
AcDbEntity
  8
0
100
AcDbBlockBegin
  2
_D
 70
     0
 10
0.0
 20
0.0
 30
0.0
  3
_D
  1

  0
SOLID
  5
1E1
330
1DE
100
AcDbEntity
  8
0
  6
Continuous
 62
     7
370
    18
100
AcDbTrace
 10
122.2876678451
 20
176.0161720902
 30
0.0
 11
125.2876678451
 21
175.2661720901
 31
0.0
 12
125.2876678451
 22
176.7661720901
 32
0.0
 13
125.2876678451
 23
176.7661720901
 33
0.0
  0
SOLID
  5
1E2
330
1DE
100
AcDbEntity
  8
0
  6
Continuous
 62
     7
370
    18
100
AcDbTrace
 10
113.2876678451
 20
176.0161720905
 30
0.0
 11
110.2876678452
 21
176.7661720907
 31
0.0
 12
110.2876678451
 22
175.2661720907
 32
0.0
 13
110.2876678451
 23
175.2661720907
 33
0.0
  0
LINE
  5
1E3
330
1DE
100
AcDbEntity
  8
0
  6
Continuous
 62
     7
370
    18
100
AcDbLine
 10
122.2876678447
 20
166.7366219221
 30
0.0
 11
122.2876678451
 21
177.0161720902
 31
0.0
  0
LINE
  5
1E4
330
1DE
100
AcDbEntity
  8
0
  6
Continuous
 62
     7
370
    18
100
AcDbLine
 10
113.2876678447
 20
165.2366219228
 30
0.0
 11
113.2876678452
 21
177.0161720905
 31
0.0
  0
LINE
  5
1E5
330
1DE
100
AcDbEntity
  8
0
  6
Continuous
 62
     7
370
    18
100
AcDbLine
 10
122.2876678451
 20
176.0161720902
 30
0.0
 11
127.2876678451
 21
176.01617209
 31
0.0
  0
LINE
  5
1E6
330
1DE
100
AcDbEntity
  8
0
  6
Continuous
 62
     7
370
    18
100
AcDbLine
 10
122.2876678451
 20
176.0161720902
 30
0.0
 11
113.2876678451
 21
176.0161720905
 31
0.0
  0
LINE
  5
1E7
330
1DE
100
AcDbEntity
  8
0
  6
Continuous
 62
     7
370
    18
100
AcDbLine
 10
113.2876678451
 20
176.0161720905
 30
0.0
 11
108.2876678451
 21
176.0161720907
 31
0.0
  0
MTEXT
  5
1E8
330
1DE
100
AcDbEntity
  8
0
  6
Continuous
 62
     7
370
    18
100
AcDbMText
 10
116.7692650965
 20
180.5279089468
 30
0.0
 40
3.5
 41
0.0
 71
     1
 72
     1
  1
9
  7
SLDTEXTSTYLE0
 73
     1
 44
1.0
  0
ENDBLK
  5
1E0
330
1DE
100
AcDbEntity
  8
0
100
AcDbBlockEnd
  0
BLOCK
  5
1EB
330
1EA
100
AcDbEntity
  8
0
100
AcDbBlockBegin
  2
_D_1
 70
     0
 10
0.0
 20
0.0
 30
0.0
  3
_D_1
  1

  0
SOLID
  5
1ED
330
1EA
100
AcDbEntity
  8
0
  6
Continuous
 62
     7
370
    18
100
AcDbTrace
 10
143.2876678447
 20
176.0161720898
 30
0.0
 11
140.2876678447
 21
176.7661720898
 31
0.0
 12
140.2876678447
 22
175.2661720898
 32
0.0
 13
140.2876678447
 23
175.2661720898
 33
0.0
  0
SOLID
  5
1EE
330
1EA
100
AcDbEntity
  8
0
  6
Continuous
 62
     7
370
    18
100
AcDbTrace
 10
149.2876678447
 20
176.0161720898
 30
0.0
 11
152.2876678447
 21
175.2661720898
 31
0.0
 12
152.2876678447
 22
176.7661720898
 32
0.0
 13
152.2876678447
 23
176.7661720898
 33
0.0
  0
LINE
  5
1EF
330
1EA
100
AcDbEntity
  8
0
  6
Continuous
 62
     7
370
    18
100
AcDbLine
 10
143.2876678447
 20
164.0366587559
 30
0.0
 11
143.2876678447
 21
177.0161720898
 31
0.0
  0
LINE
  5
1F0
330
1EA
100
AcDbEntity
  8
0
  6
Continuous
 62
     7
370
    18
100
AcDbLine
 10
149.2876678447
 20
169.8515765004
 30
0.0
 11
149.2876678447
 21
177.0161720898
 31
0.0
  0
LINE
  5
1F1
330
1EA
100
AcDbEntity
  8
0
  6
Continuous
 62
     7
370
    18
100
AcDbLine
 10
143.2876678447
 20
176.0161720898
 30
0.0
 11
138.2876678447
 21
176.0161720898
 31
0.0
  0
LINE
  5
1F2
330
1EA
100
AcDbEntity
  8
0
  6
Continuous
 62
     7
370
    18
100
AcDbLine
 10
143.2876678447
 20
176.0161720898
 30
0.0
 11
149.2876678447
 21
176.0161720898
 31
0.0
  0
LINE
  5
1F3
330
1EA
100
AcDbEntity
  8
0
  6
Continuous
 62
     7
370
    18
100
AcDbLine
 10
149.2876678447
 20
176.0161720898
 30
0.0
 11
154.2876678447
 21
176.0161720898
 31
0.0
  0
MTEXT
  5
1F4
330
1EA
100
AcDbEntity
  8
0
  6
Continuous
 62
     7
370
    18
100
AcDbMText
 10
145.2692650959
 20
180.5279089462
 30
0.0
 40
3.5
 41
0.0
 71
     1
 72
     1
  1
6
  7
SLDTEXTSTYLE0
 73
     1
 44
1.0
  0
ENDBLK
  5
1EC
330
1EA
100
AcDbEntity
  8
0
100
AcDbBlockEnd
  0
BLOCK
  5
1F8
330
1F7
100
AcDbEntity
  8
0
100
AcDbBlockBegin
  2
_D_2
 70
     0
 10
0.0
 20
0.0
 30
0.0
  3
_D_2
  1

  0
SOLID
  5
1FA
330
1F7
100
AcDbEntity
  8
0
  6
Continuous
 62
     7
370
    18
100
AcDbTrace
 10
149.2876678447
 20
176.0161720898
 30
0.0
 11
152.2876678447
 21
175.2661720898
 31
0.0
 12
152.2876678447
 22
176.7661720898
 32
0.0
 13
152.2876678447
 23
176.7661720898
 33
0.0
  0
SOLID
  5
1FB
330
1F7
100
AcDbEntity
  8
0
  6
Continuous
 62
     7
370
    18
100
AcDbTrace
 10
169.2876678447
 20
176.0161720898
 30
0.0
 11
166.2876678447
 21
176.7661720898
 31
0.0
 12
166.2876678447
 22
175.2661720898
 32
0.0
 13
166.2876678447
 23
175.2661720898
 33
0.0
  0
LINE
  5
1FC
330
1F7
100
AcDbEntity
  8
0
  6
Continuous
 62
     7
370
    18
100
AcDbLine
 10
149.2876678447
 20
169.8515765004
 30
0.0
 11
149.2876678447
 21
177.0161720898
 31
0.0
  0
LINE
  5
1FD
330
1F7
100
AcDbEntity
  8
0
  6
Continuous
 62
     7
370
    18
100
AcDbLine
 10
169.2876678447
 20
165.036667964
 30
0.0
 11
169.2876678447
 21
177.0161720898
 31
0.0
  0
LINE
  5
1FE
330
1F7
100
AcDbEntity
  8
0
  6
Continuous
 62
     7
370
    18
100
AcDbLine
 10
149.2876678447
 20
176.0161720898
 30
0.0
 11
169.2876678447
 21
176.0161720898
 31
0.0
  0
MTEXT
  5
1FF
330
1F7
100
AcDbEntity
  8
0
  6
Continuous
 62
     7
370
    18
100
AcDbMText
 10
157.2508623472
 20
180.5279089462
 30
0.0
 40
3.5
 41
0.0
 71
     1
 72
     1
  1
20
  7
SLDTEXTSTYLE0
 73
     1
 44
1.0
  0
ENDBLK
  5
1F9
330
1F7
100
AcDbEntity
  8
0
100
AcDbBlockEnd
  0
BLOCK
  5
202
330
201
100
AcDbEntity
  8
0
100
AcDbBlockBegin
  2
_D_3
 70
     0
 10
0.0
 20
0.0
 30
0.0
  3
_D_3
  1

  0
SOLID
  5
204
330
201
100
AcDbEntity
  8
0
  6
Continuous
 62
     7
370
    18
100
AcDbTrace
 10
171.2876678447
 20
184.7189211644
 30
0.0
 11
168.2876678447
 21
185.4689211644
 31
0.0
 12
168.2876678447
 22
183.9689211644
 32
0.0
 13
168.2876678447
 23
183.9689211644
 33
0.0
  0
SOLID
  5
205
330
201
100
AcDbEntity
  8
0
  6
Continuous
 62
     7
370
    18
100
AcDbTrace
 10
149.2876678447
 20
184.7189211644
 30
0.0
 11
152.2876678447
 21
183.9689211644
 31
0.0
 12
152.2876678447
 22
185.4689211644
 32
0.0
 13
152.2876678447
 23
185.4689211644
 33
0.0
  0
LINE
  5
206
330
201
100
AcDbEntity
  8
0
  6
Continuous
 62
     7
370
    18
100
AcDbLine
 10
171.2876678447
 20
162.5366219254
 30
0.0
 11
171.2876678447
 21
185.7189211644
 31
0.0
  0
LINE
  5
207
330
201
100
AcDbEntity
  8
0
  6
Continuous
 62
     7
370
    18
100
AcDbLine
 10
149.2876678447
 20
169.8515765004
 30
0.0
 11
149.2876678447
 21
185.7189211644
 31
0.0
  0
LINE
  5
208
330
201
100
AcDbEntity
  8
0
  6
Continuous
 62
     7
370
    18
100
AcDbLine
 10
171.2876678447
 20
184.7189211644
 30
0.0
 11
149.2876678447
 21
184.7189211644
 31
0.0
  0
MTEXT
  5
209
330
201
100
AcDbEntity
  8
0
  6
Continuous
 62
     7
370
    18
100
AcDbMText
 10
158.2508623472
 20
189.2306580207
 30
0.0
 40
3.5
 41
0.0
 71
     1
 72
     1
  1
22
  7
SLDTEXTSTYLE0
 73
     1
 44
1.0
  0
ENDBLK
  5
203
330
201
100
AcDbEntity
  8
0
100
AcDbBlockEnd
  0
BLOCK
  5
20C
330
20B
100
AcDbEntity
  8
0
100
AcDbBlockBegin
  2
_D_4
 70
     0
 10
0.0
 20
0.0
 30
0.0
  3
_D_4
  1

  0
SOLID
  5
20E
330
20B
100
AcDbEntity
  8
0
  6
Continuous
 62
     7
370
    18
100
AcDbTrace
 10
171.2876678463
 20
194.4416219243
 30
0.0
 11
168.2876678464
 21
195.1916219245
 31
0.0
 12
168.2876678463
 22
193.6916219245
 32
0.0
 13
168.2876678463
 23
193.6916219245
 33
0.0
  0
SOLID
  5
20F
330
20B
100
AcDbEntity
  8
0
  6
Continuous
 62
     7
370
    18
100
AcDbTrace
 10
113.2876678462
 20
194.4416219272
 30
0.0
 11
116.2876678461
 21
193.6916219271
 31
0.0
 12
116.2876678462
 22
195.1916219271
 32
0.0
 13
116.2876678462
 23
195.1916219271
 33
0.0
  0
LINE
  5
210
330
20B
100
AcDbEntity
  8
0
  6
Continuous
 62
     7
370
    18
100
AcDbLine
 10
171.2876678447
 20
162.5366219254
 30
0.0
 11
171.2876678464
 21
195.4416219243
 31
0.0
  0
LINE
  5
211
330
20B
100
AcDbEntity
  8
0
  6
Continuous
 62
     7
370
    18
100
AcDbLine
 10
113.2876678447
 20
165.2366219228
 30
0.0
 11
113.2876678462
 21
195.4416219272
 31
0.0
  0
LINE
  5
212
330
20B
100
AcDbEntity
  8
0
  6
Continuous
 62
     7
370
    18
100
AcDbLine
 10
171.2876678463
 20
194.4416219243
 30
0.0
 11
113.2876678462
 21
194.4416219272
 31
0.0
  0
MTEXT
  5
213
330
20B
100
AcDbEntity
  8
0
  6
Continuous
 62
     7
370
    18
100
AcDbMText
 10
140.2508623489
 20
198.9533587822
 30
0.0
 40
3.5
 41
0.0
 71
     1
 72
     1
  1
58
  7
SLDTEXTSTYLE0
 73
     1
 44
1.0
  0
ENDBLK
  5
20D
330
20B
100
AcDbEntity
  8
0
100
AcDbBlockEnd
  0
BLOCK
  5
216
330
215
100
AcDbEntity
  8
0
100
AcDbBlockBegin
  2
_D_5
 70
     0
 10
0.0
 20
0.0
 30
0.0
  3
_D_5
  1

  0
SOLID
  5
218
330
215
100
AcDbEntity
  8
0
  6
Continuous
 62
     7
370
    18
100
AcDbTrace
 10
149.2876678447
 20
142.6546107918
 30
0.0
 11
152.2876678447
 21
141.9046107918
 31
0.0
 12
152.2876678447
 22
143.4046107918
 32
0.0
 13
152.2876678447
 23
143.4046107918
 33
0.0
  0
SOLID
  5
219
330
215
100
AcDbEntity
  8
0
  6
Continuous
 62
     7
370
    18
100
AcDbTrace
 10
146.2876678447
 20
142.6546107918
 30
0.0
 11
143.2876678447
 21
143.4046107918
 31
0.0
 12
143.2876678447
 22
141.9046107918
 32
0.0
 13
143.2876678447
 23
141.9046107918
 33
0.0
  0
LINE
  5
21A
330
215
100
AcDbEntity
  8
0
  6
Continuous
 62
     7
370
    18
100
AcDbLine
 10
149.2876678447
 20
148.2216673501
 30
0.0
 11
149.2876678447
 21
141.6546107918
 31
0.0
  0
LINE
  5
21B
330
215
100
AcDbEntity
  8
0
  6
Continuous
 62
     7
370
    18
100
AcDbLine
 10
146.2876678447
 20
148.2216673501
 30
0.0
 11
146.2876678447
 21
141.6546107918
 31
0.0
  0
LINE
  5
21C
330
215
100
AcDbEntity
  8
0
  6
Continuous
 62
     7
370
    18
100
AcDbLine
 10
149.2876678447
 20
142.6546107918
 30
0.0
 11
155.0425997493
 21
142.6546107918
 31
0.0
  0
LINE
  5
21D
330
215
100
AcDbEntity
  8
0
  6
Continuous
 62
     7
370
    18
100
AcDbLine
 10
149.2876678447
 20
142.6546107918
 30
0.0
 11
146.2876678447
 21
142.6546107918
 31
0.0
  0
LINE
  5
21E
330
215
100
AcDbEntity
  8
0
  6
Continuous
 62
     7
370
    18
100
AcDbLine
 10
146.2876678447
 20
142.6546107918
 30
0.0
 11
141.2876678447
 21
142.6546107918
 31
0.0
  0
MTEXT
  5
21F
330
215
100
AcDbEntity
  8
0
  6
Continuous
 62
     7
370
    18
100
AcDbMText
 10
153.0057942518
 20
147.1663476482
 30
0.0
 40
3.5
 41
0.0
 71
     1
 72
     1
  1
3
  7
SLDTEXTSTYLE0
 73
     1
 44
1.0
  0
ENDBLK
  5
217
330
215
100
AcDbEntity
  8
0
100
AcDbBlockEnd
  0
BLOCK
  5
222
330
221
100
AcDbEntity
  8
0
100
AcDbBlockBegin
  2
_D_6
 70
     0
 10
0.0
 20
0.0
 30
0.0
  3
_D_6
  1

  0
SOLID
  5
224
330
221
100
AcDbEntity
  8
0
  6
Continuous
 62
     7
370
    18
100
AcDbTrace
 10
143.2876678447
 20
136.2918409567
 30
0.0
 11
146.2876678447
 21
135.5418409567
 31
0.0
 12
146.2876678447
 22
137.0418409567
 32
0.0
 13
146.2876678447
 23
137.0418409567
 33
0.0
  0
SOLID
  5
225
330
221
100
AcDbEntity
  8
0
  6
Continuous
 62
     7
370
    18
100
AcDbTrace
 10
133.2876678449
 20
136.2918409567
 30
0.0
 11
130.2876678449
 21
137.0418409567
 31
0.0
 12
130.2876678449
 22
135.5418409567
 32
0.0
 13
130.2876678449
 23
135.5418409567
 33
0.0
  0
LINE
  5
226
330
221
100
AcDbEntity
  8
0
  6
Continuous
 62
     7
370
    18
100
AcDbLine
 10
143.2876678447
 20
154.0365850939
 30
0.0
 11
143.2876678447
 21
135.2918409567
 31
0.0
  0
LINE
  5
227
330
221
100
AcDbEntity
  8
0
  6
Continuous
 62
     7
370
    18
100
AcDbLine
 10
133.2876678449
 20
158.0366219254
 30
0.0
 11
133.2876678449
 21
135.2918409567
 31
0.0
  0
LINE
  5
228
330
221
100
AcDbEntity
  8
0
  6
Continuous
 62
     7
370
    18
100
AcDbLine
 10
143.2876678447
 20
136.2918409567
 30
0.0
 11
148.2876678447
 21
136.2918409567
 31
0.0
  0
LINE
  5
229
330
221
100
AcDbEntity
  8
0
  6
Continuous
 62
     7
370
    18
100
AcDbLine
 10
143.2876678447
 20
136.2918409567
 30
0.0
 11
133.2876678449
 21
136.2918409567
 31
0.0
  0
LINE
  5
22A
330
221
100
AcDbEntity
  8
0
  6
Continuous
 62
     7
370
    18
100
AcDbLine
 10
133.2876678449
 20
136.2918409567
 30
0.0
 11
128.2876678449
 21
136.2918409567
 31
0.0
  0
MTEXT
  5
22B
330
221
100
AcDbEntity
  8
0
  6
Continuous
 62
     7
370
    18
100
AcDbMText
 10
134.2140568499
 20
140.8035778131
 30
0.0
 40
3.5
 41
0.0
 71
     1
 72
     1
  1
10
  7
SLDTEXTSTYLE0
 73
     1
 44
1.0
  0
MTEXT
  5
22C
330
221
100
AcDbEntity
  8
0
  6
Continuous
 62
     7
370
    18
100
AcDbMText
 10
138.2876678449
 20
140.8035778131
 30
0.0
 40
3.5
 41
0.0
 71
     1
 72
     1
  1
st
  7
SLDTEXTSTYLE0
 73
     1
 44
1.0
  0
ENDBLK
  5
223
330
221
100
AcDbEntity
  8
0
100
AcDbBlockEnd
  0
BLOCK
  5
22F
330
22E
100
AcDbEntity
  8
0
100
AcDbBlockBegin
  2
_D_7
 70
     0
 10
0.0
 20
0.0
 30
0.0
  3
_D_7
  1

  0
SOLID
  5
231
330
22E
100
AcDbEntity
  8
0
  6
Continuous
 62
     7
370
    18
100
AcDbTrace
 10
179.1929278248
 20
156.1366219257
 30
0.0
 11
178.4429278248
 21
153.1366219257
 31
0.0
 12
179.9429278248
 22
153.1366219257
 32
0.0
 13
179.9429278248
 23
153.1366219257
 33
0.0
  0
SOLID
  5
232
330
22E
100
AcDbEntity
  8
0
  6
Continuous
 62
     7
370
    18
100
AcDbTrace
 10
179.1929278248
 20
161.9366219252
 30
0.0
 11
179.9429278248
 21
164.9366219252
 31
0.0
 12
178.4429278248
 22
164.9366219252
 32
0.0
 13
178.4429278248
 23
164.9366219252
 33
0.0
  0
LINE
  5
233
330
22E
100
AcDbEntity
  8
0
  6
Continuous
 62
     7
370
    18
100
AcDbLine
 10
171.7876678447
 20
156.1366219257
 30
0.0
 11
180.1929278248
 21
156.1366219257
 31
0.0
  0
LINE
  5
234
330
22E
100
AcDbEntity
  8
0
  6
Continuous
 62
     7
370
    18
100
AcDbLine
 10
171.7876678447
 20
161.9366219252
 30
0.0
 11
180.1929278248
 21
161.9366219252
 31
0.0
  0
LINE
  5
235
330
22E
100
AcDbEntity
  8
0
  6
Continuous
 62
     7
370
    18
100
AcDbLine
 10
179.1929278248
 20
156.1366219257
 30
0.0
 11
179.1929278248
 21
151.1366219257
 31
0.0
  0
LINE
  5
236
330
22E
100
AcDbEntity
  8
0
  6
Continuous
 62
     7
370
    18
100
AcDbLine
 10
179.1929278248
 20
156.1366219257
 30
0.0
 11
179.1929278248
 21
161.9366219252
 31
0.0
  0
LINE
  5
237
330
22E
100
AcDbEntity
  8
0
  6
Continuous
 62
     7
370
    18
100
AcDbLine
 10
179.1929278248
 20
161.9366219252
 30
0.0
 11
179.1929278248
 21
179.0735764322
 31
0.0
  0
MTEXT
  5
238
330
22E
100
AcDbEntity
  8
0
  6
Continuous
 62
     7
370
    18
100
AcDbMText
 10
174.6811905028
 20
169.0932294246
 30
0.0
 40
3.5
 41
0.0
 71
     1
 72
     1
  1
%%c
  7
SLDTEXTSTYLE0
 11
6.123233995736766E-17
 21
1.0
 31
0.0
 73
     1
 44
1.0
  0
MTEXT
  5
239
330
22E
100
AcDbEntity
  8
0
  6
Continuous
 62
     7
370
    18
100
AcDbMText
 10
174.6811905028
 20
172.9631599397
 30
0.0
 40
3.5
 41
0.0
 71
     1
 72
     1
  1
5.8
  7
SLDTEXTSTYLE0
 11
6.123233995736766E-17
 21
1.0
 31
0.0
 73
     1
 44
1.0
  0
ENDBLK
  5
230
330
22E
100
AcDbEntity
  8
0
100
AcDbBlockEnd
  0
BLOCK
  5
23C
330
23B
100
AcDbEntity
  8
0
100
AcDbBlockBegin
  2
_D_8
 70
     0
 10
0.0
 20
0.0
 30
0.0
  3
_D_8
  1

  0
SOLID
  5
23E
330
23B
100
AcDbEntity
  8
0
  6
Continuous
 62
     7
370
    18
100
AcDbTrace
 10
188.3882480841
 20
168.8515765014
 30
0.0
 11
187.6382480841
 21
165.8515765014
 31
0.0
 12
189.1382480841
 22
165.8515765014
 32
0.0
 13
189.1382480841
 23
165.8515765014
 33
0.0
  0
SOLID
  5
23F
330
23B
100
AcDbEntity
  8
0
  6
Continuous
 62
     7
370
    18
100
AcDbTrace
 10
188.3882480841
 20
149.2216673494
 30
0.0
 11
189.1382480841
 21
152.2216673494
 31
0.0
 12
187.6382480841
 22
152.2216673494
 32
0.0
 13
187.6382480841
 23
152.2216673494
 33
0.0
  0
LINE
  5
240
330
23B
100
AcDbEntity
  8
0
  6
Continuous
 62
     7
370
    18
100
AcDbLine
 10
168.0167543707
 20
168.8515765014
 30
0.0
 11
189.3882480841
 21
168.8515765014
 31
0.0
  0
LINE
  5
241
330
23B
100
AcDbEntity
  8
0
  6
Continuous
 62
     7
370
    18
100
AcDbLine
 10
168.0167543707
 20
149.2216673494
 30
0.0
 11
189.3882480841
 21
149.2216673494
 31
0.0
  0
LINE
  5
242
330
23B
100
AcDbEntity
  8
0
  6
Continuous
 62
     7
370
    18
100
AcDbLine
 10
188.3882480841
 20
168.8515765014
 30
0.0
 11
188.3882480841
 21
149.2216673494
 31
0.0
  0
MTEXT
  5
243
330
23B
100
AcDbEntity
  8
0
  6
Continuous
 62
     7
370
    18
100
AcDbMText
 10
183.8765112277
 20
154.9630109304
 30
0.0
 40
3.5
 41
0.0
 71
     1
 72
     1
  1
19.6
  7
SLDTEXTSTYLE0
 11
-7.044195017643634E-15
 21
1.0
 31
0.0
 73
     1
 44
1.0
  0
ENDBLK
  5
23D
330
23B
100
AcDbEntity
  8
0
100
AcDbBlockEnd
  0
BLOCK
  5
246
330
245
100
AcDbEntity
  8
0
100
AcDbBlockBegin
  2
_D_9
 70
     0
 10
0.0
 20
0.0
 30
0.0
  3
_D_9
  1

  0
SOLID
  5
248
330
245
100
AcDbEntity
  8
0
  6
Continuous
 62
     7
370
    18
100
AcDbTrace
 10
104.7675173099
 20
164.5366219254
 30
0.0
 11
105.5175173099
 21
167.5366219254
 31
0.0
 12
104.0175173099
 22
167.5366219254
 32
0.0
 13
104.0175173099
 23
167.5366219254
 33
0.0
  0
SOLID
  5
249
330
245
100
AcDbEntity
  8
0
  6
Continuous
 62
     7
370
    18
100
AcDbTrace
 10
104.7675173099
 20
153.5366219254
 30
0.0
 11
104.0175173099
 21
150.5366219254
 31
0.0
 12
105.5175173099
 22
150.5366219254
 32
0.0
 13
105.5175173099
 23
150.5366219254
 33
0.0
  0
LINE
  5
24A
330
245
100
AcDbEntity
  8
0
  6
Continuous
 62
     7
370
    18
100
AcDbLine
 10
112.5876678447
 20
164.5366219254
 30
0.0
 11
103.7675173099
 21
164.5366219254
 31
0.0
  0
LINE
  5
24B
330
245
100
AcDbEntity
  8
0
  6
Continuous
 62
     7
370
    18
100
AcDbLine
 10
112.5876678447
 20
153.5366219254
 30
0.0
 11
103.7675173099
 21
153.5366219254
 31
0.0
  0
LINE
  5
24C
330
245
100
AcDbEntity
  8
0
  6
Continuous
 62
     7
370
    18
100
AcDbLine
 10
104.7675173099
 20
164.5366219254
 30
0.0
 11
104.7675173099
 21
169.5366219254
 31
0.0
  0
LINE
  5
24D
330
245
100
AcDbEntity
  8
0
  6
Continuous
 62
     7
370
    18
100
AcDbLine
 10
104.7675173099
 20
164.5366219254
 30
0.0
 11
104.7675173099
 21
153.5366219254
 31
0.0
  0
LINE
  5
24E
330
245
100
AcDbEntity
  8
0
  6
Continuous
 62
     7
370
    18
100
AcDbLine
 10
104.7675173099
 20
153.5366219254
 30
0.0
 11
104.7675173099
 21
148.5366219254
 31
0.0
  0
MTEXT
  5
24F
330
245
100
AcDbEntity
  8
0
  6
Continuous
 62
     7
370
    18
100
AcDbMText
 10
100.2557799878
 20
155.064851054
 30
0.0
 40
3.5
 41
0.0
 71
     1
 72
     1
  1
%%c
  7
SLDTEXTSTYLE0
 11
-7.044195017643634E-15
 21
1.0
 31
0.0
 73
     1
 44
1.0
  0
MTEXT
  5
250
330
245
100
AcDbEntity
  8
0
  6
Continuous
 62
     7
370
    18
100
AcDbMText
 10
100.2557799878
 20
158.934781569
 30
0.0
 40
3.5
 41
0.0
 71
     1
 72
     1
  1
11
  7
SLDTEXTSTYLE0
 11
-7.044195017643634E-15
 21
1.0
 31
0.0
 73
     1
 44
1.0
  0
ENDBLK
  5
247
330
245
100
AcDbEntity
  8
0
100
AcDbBlockEnd
  0
BLOCK
  5
253
330
252
100
AcDbEntity
  8
0
100
AcDbBlockBegin
  2
_D_10
 70
     0
 10
0.0
 20
0.0
 30
0.0
  3
_D_10
  1

  0
SOLID
  5
255
330
252
100
AcDbEntity
  8
0
  6
Continuous
 62
     7
370
    18
100
AcDbTrace
 10
93.9186648064
 20
166.0366219254
 30
0.0
 11
94.6686648064
 21
169.0366219254
 31
0.0
 12
93.1686648064
 22
169.0366219254
 32
0.0
 13
93.1686648064
 23
169.0366219254
 33
0.0
  0
SOLID
  5
256
330
252
100
AcDbEntity
  8
0
  6
Continuous
 62
     7
370
    18
100
AcDbTrace
 10
93.9186648064
 20
152.0366219254
 30
0.0
 11
93.1686648064
 21
149.0366219254
 31
0.0
 12
94.6686648064
 22
149.0366219254
 32
0.0
 13
94.6686648064
 23
149.0366219254
 33
0.0
  0
LINE
  5
257
330
252
100
AcDbEntity
  8
0
  6
Continuous
 62
     7
370
    18
100
AcDbLine
 10
121.5876678447
 20
166.0366219254
 30
0.0
 11
92.9186648064
 21
166.0366219254
 31
0.0
  0
LINE
  5
258
330
252
100
AcDbEntity
  8
0
  6
Continuous
 62
     7
370
    18
100
AcDbLine
 10
121.5876678447
 20
152.0366219254
 30
0.0
 11
92.9186648064
 21
152.0366219254
 31
0.0
  0
LINE
  5
259
330
252
100
AcDbEntity
  8
0
  6
Continuous
 62
     7
370
    18
100
AcDbLine
 10
93.9186648064
 20
166.0366219254
 30
0.0
 11
93.9186648064
 21
171.0366219254
 31
0.0
  0
LINE
  5
25A
330
252
100
AcDbEntity
  8
0
  6
Continuous
 62
     7
370
    18
100
AcDbLine
 10
93.9186648064
 20
166.0366219254
 30
0.0
 11
93.9186648064
 21
152.0366219254
 31
0.0
  0
LINE
  5
25B
330
252
100
AcDbEntity
  8
0
  6
Continuous
 62
     7
370
    18
100
AcDbLine
 10
93.9186648064
 20
152.0366219254
 30
0.0
 11
93.9186648064
 21
147.0366219254
 31
0.0
  0
MTEXT
  5
25C
330
252
100
AcDbEntity
  8
0
  6
Continuous
 62
     7
370
    18
100
AcDbMText
 10
89.4069274843
 20
155.064851054
 30
0.0
 40
3.5
 41
0.0
 71
     1
 72
     1
  1
%%c
  7
SLDTEXTSTYLE0
 11
-7.044195017643634E-15
 21
1.0
 31
0.0
 73
     1
 44
1.0
  0
MTEXT
  5
25D
330
252
100
AcDbEntity
  8
0
  6
Continuous
 62
     7
370
    18
100
AcDbMText
 10
89.4069274843
 20
158.934781569
 30
0.0
 40
3.5
 41
0.0
 71
     1
 72
     1
  1
14
  7
SLDTEXTSTYLE0
 11
-7.044195017643634E-15
 21
1.0
 31
0.0
 73
     1
 44
1.0
  0
ENDBLK
  5
254
330
252
100
AcDbEntity
  8
0
100
AcDbBlockEnd
  0
BLOCK
  5
25F
330
25E
100
AcDbEntity
  8
0
100
AcDbBlockBegin
  2
SW_NOTE_2
 70
     0
 10
0.0
 20
0.0
 30
0.0
  3
SW_NOTE_2
  1

  0
LINE
  5
261
330
25E
100
AcDbEntity
  8
0
  6
Continuous
 62
     0
370
     0
100
AcDbLine
 10
18.2134645457
 20
0.0
 30
0.0
 11
0.0
 21
0.0
 31
0.0
  0
MTEXT
  5
262
330
25E
100
AcDbEntity
  8
0
  6
Continuous
 62
     0
370
     0
100
AcDbMText
 10
0.410888334
 20
4.5650668502
 30
0.0
 40
3.5
 41
0.0
 71
     1
 72
     1
  1
M12 P=1.0
  7
SLDTEXTSTYLE0
 73
     1
 44
1.0
  0
ENDBLK
  5
260
330
25E
100
AcDbEntity
  8
0
100
AcDbBlockEnd
  0
ENDSEC
  0
SECTION
  2
ENTITIES
  0
LINE
  5
73
330
1F
100
AcDbEntity
  8
0
  6
Continuous
 62
     7
370
    18
100
AcDbLine
 10
20.2604743903
 20
285.0
 30
0.0
 11
196.7604743903
 21
285.0
 31
0.0
  0
LINE
  5
74
330
1F
100
AcDbEntity
  8
0
  6
Continuous
 62
     7
370
    18
100
AcDbLine
 10
20.2604743903
 20
285.0
 30
0.0
 11
20.2604743903
 21
10.0
 31
0.0
  0
LINE
  5
75
330
1F
100
AcDbEntity
  8
0
  6
Continuous
 62
     7
370
    18
100
AcDbLine
 10
20.2604743903
 20
10.0
 30
0.0
 11
196.7604743903
 21
10.0
 31
0.0
  0
LINE
  5
76
330
1F
100
AcDbEntity
  8
0
  6
Continuous
 62
     7
370
    18
100
AcDbLine
 10
196.7604743903
 20
285.0
 30
0.0
 11
196.7604743903
 21
10.0
 31
0.0
  0
LINE
  5
77
330
1F
100
AcDbEntity
  8
0
  6
Continuous
 62
     7
370
    18
100
AcDbLine
 10
127.0104743903
 20
50.75
 30
0.0
 11
196.7604743903
 21
50.75
 31
0.0
  0
LINE
  5
78
330
1F
100
AcDbEntity
  8
0
  6
Continuous
 62
     7
370
    18
100
AcDbLine
 10
127.0104743903
 20
50.75
 30
0.0
 11
127.0104743903
 21
10.0
 31
0.0
  0
LINE
  5
79
330
1F
100
AcDbEntity
  8
0
  6
Continuous
 62
     7
370
    18
100
AcDbLine
 10
127.0104743903
 20
22.75
 30
0.0
 11
196.7604743903
 21
22.75
 31
0.0
  0
LINE
  5
7A
330
1F
100
AcDbEntity
  8
0
  6
Continuous
 62
     7
370
    18
100
AcDbLine
 10
127.0104743903
 20
36.75
 30
0.0
 11
196.7604743903
 21
36.75
 31
0.0
  0
MTEXT
  5
7C
330
1F
100
AcDbEntity
  8
0
  6
Continuous
 62
     7
370
     0
100
AcDbMText
 10
162.5679978349
 20
30.4171582345
 30
0.0
 40
4.2333333333
 41
0.0
 71
     2
 72
     1
  1
VFILP-S-10
  7
SLDTEXTSTYLE0
 73
     1
 44
1.0
  0
MTEXT
  5
7D
330
1F
100
AcDbEntity
  8
0
  6
Continuous
 62
     7
370
     0
100
AcDbMText
 10
160.2799415598
 20
43.9409718514
 30
0.0
 40
4.2333333333
 41
0.0
 71
     2
 72
     1
  1
吸着樹脂具・スモール用
  7
SLDTEXTSTYLE0
 73
     1
 44
1.0
  0
MTEXT
  5
7E
330
1F
100
AcDbEntity
  8
0
  6
Continuous
 62
     7
370
     0
100
AcDbMText
 10
163.0474355676
 20
16.8228189052
 30
0.0
 40
4.2333333333
 41
0.0
 71
     2
 72
     1
  1
211098
  7
SLDTEXTSTYLE0
 73
     1
 44
1.0
  0
LWPOLYLINE
  5
7F
330
1F
100
AcDbEntity
  8
0
  6
Continuous
 62
     7
370
    18
100
AcDbPolyline
 90
        3
 70
   128
 43
0.0
 10
64.8810461017
 20
149.7366214846
 10
65.0770459643
 20
148.3366220002
 10
65.2310459728
 20
147.2366220061
  0
LWPOLYLINE
  5
80
330
1F
100
AcDbEntity
  8
0
  6
Continuous
 62
     7
370
    18
100
AcDbPolyline
 90
        3
 70
   128
 43
0.0
 10
69.2310461628
 20
147.2366220061
 10
69.4270460254
 20
148.6366214905
 10
69.5810460339
 20
149.7366214846
  0
LWPOLYLINE
  5
81
330
1F
100
AcDbEntity
  8
0
  6
Continuous
 62
     7
370
    18
100
AcDbPolyline
 90
        3
 70
   128
 43
0.0
 10
64.8810461017
 20
147.2366220061
 10
65.0770459643
 20
145.8366215904
 10
65.2310459728
 20
144.7366215963
  0
LWPOLYLINE
  5
82
330
1F
100
AcDbEntity
  8
0
  6
Continuous
 62
     7
370
    18
100
AcDbPolyline
 90
        3
 70
   128
 43
0.0
 10
69.2310461628
 20
144.7366215963
 10
69.4270460254
 20
146.1366220121
 10
69.5810460339
 20
147.2366220061
  0
LINE
  5
83
330
1F
100
AcDbEntity
  8
0
  6
Continuous
 62
     7
370
    18
100
AcDbLine
 10
66.4392543577
 20
152.0766989071
 30
0.0
 11
66.1485416668
 21
152.1432391111
 31
0.0
  0
LINE
  5
84
330
1F
100
AcDbEntity
  8
0
  6
Continuous
 62
     7
370
    18
100
AcDbLine
 10
65.0810459948
 20
152.40906046
 30
0.0
 11
65.0810459948
 21
149.7366214846
 31
0.0
  0
LINE
  5
85
330
1F
100
AcDbEntity
  8
0
  6
Continuous
 62
     7
370
    18
100
AcDbLine
 10
69.3810461408
 20
149.7366214846
 30
0.0
 11
69.3810461408
 21
152.40906046
 31
0.0
  0
SPLINE
  5
86
330
1F
100
AcDbEntity
  8
0
  6
Continuous
 62
     7
370
    18
100
AcDbSpline
210
0.0
220
0.0
230
1.0
 70
     8
 71
     3
 72
    33
 73
    29
 74
     0
 42
0.000000001
 43
0.00000001
 40
0.0
 40
0.0
 40
0.0
 40
0.0
 40
0.0125326068134496
 40
0.0250361823974898
 40
0.0375300658794424
 40
0.0500336413586776
 40
0.0625662479630028
 40
0.0938388078910985
 40
0.1251113679925473
 40
0.1563839283128946
 40
0.1876564884698982
 40
0.2501259056882397
 40
0.312595322906581
 40
0.375064740736413
 40
0.4375341581404723
 40
0.5000035755502352
 40
0.5624729929599983
 40
0.6249424103640574
 40
0.6874118281938895
 40
0.7498812454122309
 40
0.8123506626305722
 40
0.843623222787576
 40
0.8748957831079233
 40
0.9061683432093721
 40
0.9374409031374676
 40
0.9583088818550776
 40
0.9791320209916652
 40
1.0
 40
1.0
 40
1.0
 40
1.0
 10
62.0310460703863
 20
159.0366219253949
 30
0.0
 10
62.03181290788155
 20
158.968448343572
 30
0.0
 10
62.03334480652692
 20
158.8322591010133
 30
0.0
 10
62.04578796150292
 20
158.6284195630167
 30
0.0
 10
62.06566592745415
 20
158.4253691615891
 30
0.0
 10
62.09370434328052
 20
158.2231031006735
 30
0.0
 10
62.14758478813999
 20
157.9215428166154
 30
0.0
 10
62.24684673840517
 20
157.5246586514211
 30
0.0
 10
62.41919488656287
 20
157.0435014911876
 30
0.0
 10
62.63760868697919
 20
156.5813438435204
 30
0.0
 10
62.98776210373583
 20
155.9973792141568
 30
0.0
 10
63.530427626641
 20
155.3358408611782
 30
0.0
 10
64.32344753248819
 20
154.6851419980012
 30
0.0
 10
65.22826738774906
 20
154.2014708099031
 30
0.0
 10
66.21003622644926
 20
153.9036648810464
 30
0.0
 10
67.23104606562815
 20
153.8031004519641
 30
0.0
 10
68.25205591788077
 20
153.9036648789355
 30
0.0
 10
69.2338247173597
 20
154.2014708183468
 30
0.0
 10
70.13864471643191
 20
154.6851419663372
 30
0.0
 10
70.93166408625505
 20
155.3358409793904
 30
0.0
 10
71.47433127646823
 20
155.9973788660919
 30
0.0
 10
71.82448129007552
 20
156.5813444471894
 30
0.0
 10
72.04290548794113
 20
157.0434991870753
 30
0.0
 10
72.21521460020962
 20
157.524667264201
 30
0.0
 10
72.32562651589186
 20
157.965578554033
 30
0.0
 10
72.39003885327911
 20
158.3573876690528
 30
0.0
 10
72.42466463407689
 20
158.6962806081298
 30
0.0
 10
72.42891739685892
 20
158.9230935052682
 30
0.0
 10
72.43104606522789
 20
159.0366219253949
 30
0.0
  0
SPLINE
  5
87
330
1F
100
AcDbEntity
  8
0
  6
Continuous
 62
     7
370
    18
100
AcDbSpline
210
0.0
220
0.0
230
1.0
 70
     8
 71
     3
 72
    33
 73
    29
 74
     0
 42
0.000000001
 43
0.00000001
 40
0.0
 40
0.0
 40
0.0
 40
0.0
 40
0.0125326068134496
 40
0.0250361823974899
 40
0.0375300658794425
 40
0.0500336413586776
 40
0.0625662479630028
 40
0.0938388078910984
 40
0.1251113679925473
 40
0.1563839283128946
 40
0.1876564884698982
 40
0.2501259056882397
 40
0.312595322906581
 40
0.3750647407364131
 40
0.4375341581404723
 40
0.5000035755502353
 40
0.5624729929599982
 40
0.6249424103640574
 40
0.6874118281938894
 40
0.7498812454122308
 40
0.8123506626305722
 40
0.8436232227875758
 40
0.8748957831079233
 40
0.9061683432093721
 40
0.9374409031374676
 40
0.9583088818550778
 40
0.9791320209916652
 40
1.0
 40
1.0
 40
1.0
 40
1.0
 10
72.43104606522789
 20
159.0366219253949
 30
0.0
 10
72.43027922773264
 20
159.1047955072178
 30
0.0
 10
72.42874732908727
 20
159.2409847497763
 30
0.0
 10
72.41630417411127
 20
159.444824287773
 30
0.0
 10
72.39642620816005
 20
159.6478746892006
 30
0.0
 10
72.36838779233366
 20
159.8501407501163
 30
0.0
 10
72.3145073474742
 20
160.1517010341744
 30
0.0
 10
72.21524539720902
 20
160.5485851993686
 30
0.0
 10
72.04289724905134
 20
161.0297423596022
 30
0.0
 10
71.824483448635
 20
161.4919000072693
 30
0.0
 10
71.47433003187838
 20
162.0758646366329
 30
0.0
 10
70.93166450897318
 20
162.7374029896114
 30
0.0
 10
70.13864460312601
 20
163.3881018527885
 30
0.0
 10
69.23382474786513
 20
163.8717730408867
 30
0.0
 10
68.25205590916492
 20
164.1695789697433
 30
0.0
 10
67.23104606998606
 20
164.2701433988256
 30
0.0
 10
66.21003621773342
 20
164.1695789718542
 30
0.0
 10
65.22826741825449
 20
163.8717730324429
 30
0.0
 10
64.32344741918227
 20
163.3881018844525
 30
0.0
 10
63.53042804935914
 20
162.7374028713993
 30
0.0
 10
62.98776085914595
 20
162.0758649846978
 30
0.0
 10
62.63761084553866
 20
161.4918994036003
 30
0.0
 10
62.41918664767307
 20
161.0297446637144
 30
0.0
 10
62.24687753540458
 20
160.5485765865887
 30
0.0
 10
62.13646561972232
 20
160.1076652967567
 30
0.0
 10
62.07205328233509
 20
159.7158561817369
 30
0.0
 10
62.0374275015373
 20
159.37696324266
 30
0.0
 10
62.03317473875529
 20
159.1501503455215
 30
0.0
 10
62.0310460703863
 20
159.0366219253949
 30
0.0
  0
SPLINE
  5
88
330
1F
100
AcDbEntity
  8
0
  6
Continuous
 62
     7
370
    18
100
AcDbSpline
210
0.0
220
0.0
230
1.0
 70
     8
 71
     3
 72
    14
 73
    10
 74
     0
 42
0.000000001
 43
0.00000001
 40
0.0
 40
0.0
 40
0.0
 40
0.0
 40
0.25
 40
0.25
 40
0.4999999999999999
 40
0.4999999999999999
 40
0.75
 40
0.75
 40
1.0
 40
1.0
 40
1.0
 40
1.0
 10
65.13104606780709
 20
159.0366219250177
 30
0.0
 10
65.1310460679071
 20
158.4796830587255
 30
0.0
 10
65.35230657828883
 20
157.9455129339043
 30
0.0
 10
66.13993707643729
 20
157.1578824358065
 30
0.0
 10
66.67410720127272
 20
156.9366219254591
 30
0.0
 10
67.78798493385717
 20
156.9366219253307
 30
0.0
 10
68.32215505874362
 20
157.1578824355549
 30
0.0
 10
69.10978555707372
 20
157.945512933471
 30
0.0
 10
69.33104606757863
 20
158.4796830582412
 30
0.0
 10
69.3310460678071
 20
159.0366219245334
 30
0.0
  0
SPLINE
  5
89
330
1F
100
AcDbEntity
  8
0
  6
Continuous
 62
     7
370
    18
100
AcDbSpline
210
0.0
220
0.0
230
1.0
 70
     8
 71
     3
 72
    12
 73
     8
 74
     0
 42
0.000000001
 43
0.00000001
 40
0.0
 40
0.0
 40
0.0
 40
0.0
 40
0.3333333333333334
 40
0.3333333333333334
 40
0.6666666666666666
 40
0.6666666666666666
 40
0.9999999999999999
 40
0.9999999999999999
 40
0.9999999999999999
 40
0.9999999999999999
 10
69.3310460678071
 20
159.0366219245334
 30
0.0
 10
69.33104606811482
 20
159.7867701287259
 30
0.0
 10
68.93069346963581
 20
160.4802011707811
 30
0.0
 10
67.63139866697307
 20
161.2303493753289
 30
0.0
 10
66.830693469541
 20
161.2303493754931
 30
0.0
 10
65.53139866657054
 20
160.4802011714783
 30
0.0
 10
65.13104606780709
 20
159.7867701295873
 30
0.0
 10
65.13104606780709
 20
159.0366219253949
 30
0.0
  0
SPLINE
  5
8A
330
1F
100
AcDbEntity
  8
0
  6
Continuous
 62
     7
370
    18
100
AcDbSpline
210
0.0
220
0.0
230
1.0
 70
    24
 71
     3
 72
    10
 73
     6
 74
     0
 42
0.000000001
 43
0.00000001
 40
0.0
 40
0.0
 40
0.0
 40
0.0
 40
0.5
 40
0.5
 40
1.0
 40
1.0
 40
1.0
 40
1.0
 10
72.43104606799966
 20
159.0366219253949
 30
0.0
 10
72.5017567462147
 20
159.0366219253949
 30
0.0
 10
72.58459945868417
 20
159.0366219253949
 30
0.0
 10
72.701756746195
 20
159.0366219253949
 30
0.0
 10
72.73104606809571
 20
159.0366219253949
 30
0.0
 10
72.73104606819295
 20
159.0366219253949
 30
0.0
  0
SPLINE
  5
8B
330
1F
100
AcDbEntity
  8
0
  6
Continuous
 62
     7
370
    18
100
AcDbSpline
210
0.0
220
0.0
230
1.0
 70
     8
 71
     3
 72
    12
 73
     8
 74
     0
 42
0.000000001
 43
0.00000001
 40
0.0
 40
0.0
 40
0.0
 40
0.0
 40
0.3333333333333332
 40
0.3333333333333332
 40
0.6666666666666665
 40
0.6666666666666665
 40
0.9999999999999999
 40
0.9999999999999999
 40
0.9999999999999999
 40
0.9999999999999999
 10
72.7310460678071
 20
159.0366219231387
 30
0.0
 10
72.73104606861303
 20
161.0012957912618
 30
0.0
 10
71.6825035487871
 20
162.8174247109304
 30
0.0
 10
68.27958858943225
 20
164.7820985799841
 30
0.0
 10
66.18250354853878
 20
164.7820985804142
 30
0.0
 10
62.77958858837801
 20
162.8174247127564
 30
0.0
 10
61.73104606780709
 20
161.001295793518
 30
0.0
 10
61.7310460678071
 20
159.0366219253949
 30
0.0
  0
SPLINE
  5
8C
330
1F
100
AcDbEntity
  8
0
  6
Continuous
 62
     7
370
    18
100
AcDbSpline
210
0.0
220
0.0
230
1.0
 70
    24
 71
     3
 72
    10
 73
     6
 74
     0
 42
0.000000001
 43
0.00000001
 40
0.0
 40
0.0
 40
0.0
 40
0.0
 40
0.5
 40
0.5
 40
1.0
 40
1.0
 40
1.0
 40
1.0
 10
61.73104606742123
 20
159.0366219253949
 30
0.0
 10
61.73104606751848
 20
159.0366219253949
 30
0.0
 10
61.76033538941919
 20
159.0366219253949
 30
0.0
 10
61.87749267693002
 20
159.0366219253949
 30
0.0
 10
61.96033538939948
 20
159.0366219253949
 30
0.0
 10
62.03104606761453
 20
159.0366219253949
 30
0.0
  0
SPLINE
  5
8D
330
1F
100
AcDbEntity
  8
0
  6
Continuous
 62
     7
370
    18
100
AcDbSpline
210
0.0
220
0.0
230
1.0
 70
     8
 71
     3
 72
    14
 73
    10
 74
     0
 42
0.000000001
 43
0.00000001
 40
0.0
 40
0.0
 40
0.0
 40
0.0
 40
0.25
 40
0.25
 40
0.5
 40
0.5
 40
0.75
 40
0.75
 40
1.0
 40
1.0
 40
1.0
 40
1.0
 10
61.7310460678071
 20
159.0366219244071
 30
0.0
 10
61.73104606806905
 20
157.5779725126894
 30
0.0
 10
62.31053788097356
 20
156.1789555191101
 30
0.0
 10
64.3733796618386
 20
154.1161137383776
 30
0.0
 10
65.77239665545517
 20
153.5366219255631
 30
0.0
 10
68.68969547889061
 20
153.5366219252267
 30
0.0
 10
70.08871247264082
 20
154.1161137377186
 30
0.0
 10
72.1515542539816
 20
156.1789555179753
 30
0.0
 10
72.73104606720875
 20
157.577972511421
 30
0.0
 10
72.7310460678071
 20
159.0366219231387
 30
0.0
  0
SPLINE
  5
8E
330
1F
100
AcDbEntity
  8
0
  6
Continuous
 62
     7
370
    18
100
AcDbSpline
210
0.0
220
0.0
230
1.0
 70
     8
 71
     3
 72
    33
 73
    29
 74
     0
 42
0.000000001
 43
0.00000001
 40
0.0
 40
0.0
 40
0.0
 40
0.0
 40
0.0125326068134496
 40
0.0250361823974899
 40
0.0375300658794424
 40
0.0500336413586776
 40
0.0625662479630028
 40
0.0938388078910985
 40
0.1251113679925474
 40
0.1563839283128947
 40
0.1876564884698983
 40
0.2501259056882397
 40
0.3125953229065811
 40
0.3750647407364131
 40
0.4375341581404723
 40
0.5000035755502353
 40
0.5624729929599983
 40
0.6249424103640575
 40
0.6874118281938896
 40
0.749881245412231
 40
0.8123506626305723
 40
0.8436232227875761
 40
0.8748957831079234
 40
0.9061683432093723
 40
0.9374409031374679
 40
0.9583088818550778
 40
0.9791320209916653
 40
1.0
 40
1.0
 40
1.0
 40
1.0
 10
60.53104607113029
 20
159.0366219253949
 30
0.0
 10
60.53203411174918
 20
158.9487828872769
 30
0.0
 10
60.53400790423457
 20
158.7733082862879
 30
0.0
 10
60.55004043083824
 20
158.5106688815615
 30
0.0
 10
60.57565242542926
 20
158.2490462489528
 30
0.0
 10
60.61177884582093
 20
157.9884342089269
 30
0.0
 10
60.68120172669755
 20
157.5998853813905
 30
0.0
 10
60.80909693184692
 20
157.0885153993133
 30
0.0
 10
61.03116089197319
 20
156.468562904397
 30
0.0
 10
61.31257867327884
 20
155.873090550672
 30
0.0
 10
61.76373788333064
 20
155.120674585915
 30
0.0
 10
62.4629415378431
 20
154.268307861885
 30
0.0
 10
63.48471718576157
 20
153.4299074035607
 30
0.0
 10
64.65054276850155
 20
152.8067156804343
 30
0.0
 10
65.91551415682682
 20
152.4230041951767
 30
0.0
 10
67.23104606499959
 20
152.2934307961667
 30
0.0
 10
68.54657799001741
 20
152.4230041924569
 30
0.0
 10
69.81154932780755
 20
152.8067156913137
 30
0.0
 10
70.97737509584292
 20
153.4299073627629
 30
0.0
 10
71.99915005311505
 20
154.2683080141968
 30
0.0
 10
72.69835585588973
 20
155.1206741374468
 30
0.0
 10
73.14951068111449
 20
155.8730913284763
 30
0.0
 10
73.43094185913363
 20
156.468559935637
 30
0.0
 10
73.65295552301804
 20
157.0885264965489
 30
0.0
 10
73.79521702976248
 20
157.6566237353709
 30
0.0
 10
73.87820984908832
 20
158.1614547104926
 30
0.0
 10
73.92282383588547
 20
158.5981052281494
 30
0.0
 10
73.92830335716232
 20
158.8903449225394
 30
0.0
 10
73.9310460644839
 20
159.0366219253949
 30
0.0
  0
SPLINE
  5
8F
330
1F
100
AcDbEntity
  8
0
  6
Continuous
 62
     7
370
    18
100
AcDbSpline
210
0.0
220
0.0
230
1.0
 70
     8
 71
     3
 72
    33
 73
    29
 74
     0
 42
0.000000001
 43
0.00000001
 40
0.0
 40
0.0
 40
0.0
 40
0.0
 40
0.0125326068134496
 40
0.0250361823974899
 40
0.0375300658794425
 40
0.0500336413586776
 40
0.0625662479630028
 40
0.0938388078910984
 40
0.1251113679925473
 40
0.1563839283128945
 40
0.1876564884698983
 40
0.2501259056882397
 40
0.3125953229065811
 40
0.3750647407364131
 40
0.4375341581404723
 40
0.5000035755502352
 40
0.5624729929599982
 40
0.6249424103640574
 40
0.6874118281938895
 40
0.7498812454122309
 40
0.8123506626305722
 40
0.843623222787576
 40
0.8748957831079233
 40
0.9061683432093721
 40
0.9374409031374678
 40
0.9583088818550778
 40
0.9791320209916653
 40
1.0
 40
1.0
 40
1.0
 40
1.0
 10
73.9310460644839
 20
159.0366219253949
 30
0.0
 10
73.93005802386502
 20
159.1244609635128
 30
0.0
 10
73.92808423137963
 20
159.2999355645018
 30
0.0
 10
73.91205170477593
 20
159.5625749692282
 30
0.0
 10
73.88643971018493
 20
159.8241976018369
 30
0.0
 10
73.85031328979325
 20
160.0848096418628
 30
0.0
 10
73.78089040891663
 20
160.4733584693992
 30
0.0
 10
73.65299520376726
 20
160.9847284514764
 30
0.0
 10
73.430931243641
 20
161.6046809463927
 30
0.0
 10
73.14951346233536
 20
162.2001533001177
 30
0.0
 10
72.69835425228355
 20
162.9525692648747
 30
0.0
 10
71.99915059777109
 20
163.8049359889047
 30
0.0
 10
70.97737494985262
 20
164.643336447229
 30
0.0
 10
69.81154936711265
 20
165.2665281703554
 30
0.0
 10
68.54657797878738
 20
165.650239655613
 30
0.0
 10
67.2310460706146
 20
165.779813054623
 30
0.0
 10
65.91551414559679
 20
165.6502396583329
 30
0.0
 10
64.65054280780662
 20
165.266528159476
 30
0.0
 10
63.48471703977128
 20
164.6433364880268
 30
0.0
 10
62.46294208249915
 20
163.8049358365929
 30
0.0
 10
61.76373627972447
 20
162.9525697133429
 30
0.0
 10
61.31258145449969
 20
162.2001525223135
 30
0.0
 10
61.03115027648056
 20
161.6046839151527
 30
0.0
 10
60.80913661259616
 20
160.9847173542408
 30
0.0
 10
60.66687510585172
 20
160.4166201154188
 30
0.0
 10
60.58388228652586
 20
159.9117891402971
 30
0.0
 10
60.53926829972871
 20
159.4751386226403
 30
0.0
 10
60.53378877845188
 20
159.1828989282503
 30
0.0
 10
60.53104607113029
 20
159.0366219253949
 30
0.0
  0
SPLINE
  5
90
330
1F
100
AcDbEntity
  8
0
  6
Continuous
 62
     7
370
    18
100
AcDbSpline
210
0.0
220
0.0
230
1.0
 70
    24
 71
     3
 72
    10
 73
     6
 74
     0
 42
0.000000001
 43
0.00000001
 40
0.0
 40
0.0
 40
0.0
 40
0.0
 40
0.5
 40
0.5
 40
1.0
 40
1.0
 40
1.0
 40
1.0
 10
73.93104606799966
 20
159.0366219253949
 30
0.0
 10
74.00175674621471
 20
159.0366219253949
 30
0.0
 10
74.08459945868418
 20
159.0366219253949
 30
0.0
 10
74.201756746195
 20
159.0366219253949
 30
0.0
 10
74.23104606809572
 20
159.0366219253949
 30
0.0
 10
74.23104606819297
 20
159.0366219253949
 30
0.0
  0
SPLINE
  5
91
330
1F
100
AcDbEntity
  8
0
  6
Continuous
 62
     7
370
    18
100
AcDbSpline
210
0.0
220
0.0
230
1.0
 70
     8
 71
     3
 72
    12
 73
     8
 74
     0
 42
0.000000001
 43
0.00000001
 40
0.0
 40
0.0
 40
0.0
 40
0.0
 40
0.3333333333333332
 40
0.3333333333333332
 40
0.6666666666666665
 40
0.6666666666666665
 40
0.9999999999999999
 40
0.9999999999999999
 40
0.9999999999999999
 40
0.9999999999999999
 10
74.2310460678071
 20
159.0366219225234
 30
0.0
 10
74.23104606883281
 20
161.5371159364983
 30
0.0
 10
72.89653740723618
 20
163.8485527433491
 30
0.0
 10
68.56555473169367
 20
166.3490467585084
 30
0.0
 10
65.89653740692015
 20
166.3490467590559
 30
0.0
 10
61.56555473035189
 20
163.8485527456732
 30
0.0
 10
60.2310460678071
 20
161.5371159393697
 30
0.0
 10
60.2310460678071
 20
159.0366219253949
 30
0.0
  0
SPLINE
  5
92
330
1F
100
AcDbEntity
  8
0
  6
Continuous
 62
     7
370
    18
100
AcDbSpline
210
0.0
220
0.0
230
1.0
 70
    24
 71
     3
 72
    10
 73
     6
 74
     0
 42
0.000000001
 43
0.00000001
 40
0.0
 40
0.0
 40
0.0
 40
0.0
 40
0.5
 40
0.5
 40
1.0
 40
1.0
 40
1.0
 40
1.0
 10
60.23104606742123
 20
159.0366219253949
 30
0.0
 10
60.23104606751848
 20
159.0366219253949
 30
0.0
 10
60.26033538941919
 20
159.0366219253949
 30
0.0
 10
60.37749267693002
 20
159.0366219253949
 30
0.0
 10
60.46033538939949
 20
159.0366219253949
 30
0.0
 10
60.53104606761453
 20
159.0366219253949
 30
0.0
  0
SPLINE
  5
93
330
1F
100
AcDbEntity
  8
0
  6
Continuous
 62
     7
370
    18
100
AcDbSpline
210
0.0
220
0.0
230
1.0
 70
     8
 71
     3
 72
    14
 73
    10
 74
     0
 42
0.000000001
 43
0.00000001
 40
0.0
 40
0.0
 40
0.0
 40
0.0
 40
0.25
 40
0.25
 40
0.5
 40
0.5
 40
0.75
 40
0.75
 40
1.0
 40
1.0
 40
1.0
 40
1.0
 10
60.2310460678071
 20
159.0366219241378
 30
0.0
 10
60.23104606814049
 20
157.180159036497
 30
0.0
 10
60.96858110274622
 20
155.3995919537597
 30
0.0
 10
63.59401609657446
 20
152.7741569601002
 30
0.0
 10
65.37458317935918
 20
152.0366219256089
 30
0.0
 10
69.08750895464067
 20
152.0366219251808
 30
0.0
 10
70.86807603759549
 20
152.7741569592614
 30
0.0
 10
73.49351103202919
 20
155.3995919523155
 30
0.0
 10
74.23104606704555
 20
157.1801590348827
 30
0.0
 10
74.2310460678071
 20
159.0366219225234
 30
0.0
  0
SPLINE
  5
94
330
1F
100
AcDbEntity
  8
0
  6
Continuous
 62
     7
370
    18
100
AcDbSpline
210
0.0
220
0.0
230
1.0
 70
     8
 71
     3
 72
    10
 73
     6
 74
     0
 42
0.000000001
 43
0.00000001
 40
0.0
 40
0.0
 40
0.0
 40
0.0
 40
0.5
 40
0.5
 40
1.0
 40
1.0
 40
1.0
 40
1.0
 10
67.97178421814917
 20
151.7855874944197
 30
0.0
 10
67.96471787030478
 20
151.8544652963428
 30
0.0
 10
67.96611672570958
 20
151.9345067117523
 30
0.0
 10
67.99271666304627
 20
152.0499350883117
 30
0.0
 10
68.01688286335204
 20
152.0808312604602
 30
0.0
 10
68.0404541137703
 20
152.0835752103202
 30
0.0
  0
SPLINE
  5
95
330
1F
100
AcDbEntity
  8
0
  6
Continuous
 62
     7
370
    18
100
AcDbSpline
210
0.0
220
0.0
230
1.0
 70
     8
 71
     3
 72
    10
 73
     6
 74
     0
 42
0.000000001
 43
0.00000001
 40
0.0
 40
0.0
 40
0.0
 40
0.0
 40
0.5
 40
0.5
 40
1.0
 40
1.0
 40
1.0
 40
1.0
 10
66.4903077518071
 20
151.7855875163949
 30
0.0
 10
66.49737410373733
 20
151.8544653210953
 30
0.0
 10
66.49597524998303
 20
151.9345067412017
 30
0.0
 10
66.46937530620329
 20
152.0499351195208
 30
0.0
 10
66.4452090982879
 20
152.0808312876513
 30
0.0
 10
66.4216378408071
 20
152.0835752313949
 30
0.0
  0
SPLINE
  5
96
330
1F
100
AcDbEntity
  8
0
  6
Continuous
 62
     7
370
    18
100
AcDbSpline
210
0.0
220
0.0
230
1.0
 70
     8
 71
     3
 72
    16
 73
    12
 74
     0
 42
0.000000001
 43
0.00000001
 40
0.0
 40
0.0
 40
0.0
 40
0.0
 40
0.0864429162688004
 40
0.1715998848054072
 40
0.2555040849425256
 40
0.3381902047989416
 40
0.4196944884322912
 40
0.5000547796939434
 40
0.6618863547864201
 40
0.8284401449971457
 40
0.9999999999999999
 40
0.9999999999999999
 40
0.9999999999999999
 40
0.9999999999999999
 10
66.49030775258133
 20
151.7855875171824
 30
0.0
 10
66.53129633297412
 20
151.7804225002032
 30
0.0
 10
66.61266373677469
 20
151.7701693024063
 30
0.0
 10
66.73707892854034
 20
151.758042655985
 30
0.0
 10
66.86139631942352
 20
151.7484658149038
 30
0.0
 10
66.98538837087816
 20
151.7416525342389
 30
0.0
 10
67.10852304425359
 20
151.737551918627
 30
0.0
 10
67.27212452439112
 20
151.7356823975955
 30
0.0
 10
67.47869674343012
 20
151.740511062989
 30
0.0
 10
67.72831228638212
 20
151.7564747589465
 30
0.0
 10
67.88982988215935
 20
151.7757879482828
 30
0.0
 10
67.97178438386081
 20
151.7855875171824
 30
0.0
  0
SPLINE
  5
97
330
1F
100
AcDbEntity
  8
0
  6
Continuous
 62
     7
370
    18
100
AcDbSpline
210
0.0
220
0.0
230
1.0
 70
    24
 71
     3
 72
    12
 73
     8
 74
     0
 42
0.000000001
 43
0.00000001
 40
0.0
 40
0.0
 40
0.0
 40
0.0
 40
0.3333333333333333
 40
0.3333333333333333
 40
0.6666666666666665
 40
0.6666666666666665
 40
0.9999999999999999
 40
0.9999999999999999
 40
0.9999999999999999
 40
0.9999999999999999
 10
64.88104606780709
 20
149.7366219253949
 30
0.0
 10
64.88104606780709
 20
149.7366219253949
 30
0.0
 10
65.32905969023285
 20
149.7366219253948
 30
0.0
 10
66.7830324459379
 20
149.7366219253948
 30
0.0
 10
67.6790596906833
 20
149.7366219253948
 30
0.0
 10
69.133032446044
 20
149.7366219253948
 30
0.0
 10
69.58104606815144
 20
149.7366219253947
 30
0.0
 10
69.5810460678071
 20
149.7366219253947
 30
0.0
  0
SPLINE
  5
98
330
1F
100
AcDbEntity
  8
0
  6
Continuous
 62
     7
370
    18
100
AcDbSpline
210
0.0
220
0.0
230
1.0
 70
    24
 71
     3
 72
    12
 73
     8
 74
     0
 42
0.000000001
 43
0.00000001
 40
0.0
 40
0.0
 40
0.0
 40
0.0
 40
0.3333333333333333
 40
0.3333333333333333
 40
0.6666666666666665
 40
0.6666666666666665
 40
0.9999999999999999
 40
0.9999999999999999
 40
0.9999999999999999
 40
0.9999999999999999
 10
64.88104606780709
 20
147.2366219253948
 30
0.0
 10
64.88104606780709
 20
147.2366219253948
 30
0.0
 10
65.32905969023285
 20
147.2366219253948
 30
0.0
 10
66.7830324459379
 20
147.2366219253948
 30
0.0
 10
67.6790596906833
 20
147.2366219253948
 30
0.0
 10
69.133032446044
 20
147.2366219253948
 30
0.0
 10
69.58104606815144
 20
147.2366219253948
 30
0.0
 10
69.5810460678071
 20
147.2366219253948
 30
0.0
  0
SPLINE
  5
99
330
1F
100
AcDbEntity
  8
0
  6
Continuous
 62
     7
370
    18
100
AcDbSpline
210
0.0
220
0.0
230
1.0
 70
    24
 71
     3
 72
    12
 73
     8
 74
     0
 42
0.000000001
 43
0.00000001
 40
0.0
 40
0.0
 40
0.0
 40
0.0
 40
0.3333333333333332
 40
0.3333333333333332
 40
0.6666666666666665
 40
0.6666666666666665
 40
0.9999999999999999
 40
0.9999999999999999
 40
0.9999999999999999
 40
0.9999999999999999
 10
69.2310460678071
 20
144.7366219253948
 30
0.0
 10
69.23104606810016
 20
144.7366219253948
 30
0.0
 10
68.84975787907254
 20
144.7366219253948
 30
0.0
 10
67.61233425748897
 20
144.7366219253949
 30
0.0
 10
66.84975787898225
 20
144.7366219253949
 30
0.0
 10
65.61233425710562
 20
144.7366219253949
 30
0.0
 10
65.2310460678071
 20
144.7366219253949
 30
0.0
 10
65.2310460678071
 20
144.7366219253949
 30
0.0
  0
LINE
  5
9A
330
1F
100
AcDbEntity
  8
0
  6
Continuous
 62
     7
370
    18
100
AcDbLine
 10
68.0404540936
 20
152.0835753274
 30
0.0
 11
68.2221729395
 21
152.1284636785
 31
0.0
  0
LINE
  5
9B
330
1F
100
AcDbEntity
  8
0
  6
Continuous
 62
     7
370
    18
100
AcDbLine
 10
69.3810461408
 20
150.4629702051
 30
0.0
 11
75.7310465297
 21
154.1291448031
 31
0.0
  0
LINE
  5
9C
330
1F
100
AcDbEntity
  8
0
  6
Continuous
 62
     7
370
    18
100
AcDbLine
 10
58.7310465372
 20
154.1291448031
 30
0.0
 11
65.0810459948
 21
150.4629702051
 31
0.0
  0
LINE
  5
9D
330
1F
100
AcDbEntity
  8
0
  6
Continuous
 62
     7
370
    18
100
AcDbLine
 10
58.7310456059
 20
163.9440991659
 30
0.0
 11
58.7310465372
 21
154.1291448031
 31
0.0
  0
LINE
  5
9E
330
1F
100
AcDbEntity
  8
0
  6
Continuous
 62
     7
370
    18
100
AcDbLine
 10
67.2310460657
 20
168.851576813
 30
0.0
 11
58.7310456059
 21
163.9440991659
 31
0.0
  0
LINE
  5
9F
330
1F
100
AcDbEntity
  8
0
  6
Continuous
 62
     7
370
    18
100
AcDbLine
 10
75.7310455984
 20
163.9440991659
 30
0.0
 11
67.2310460657
 21
168.851576813
 31
0.0
  0
LINE
  5
A0
330
1F
100
AcDbEntity
  8
0
  6
Continuous
 62
     7
370
    18
100
AcDbLine
 10
75.7310465297
 20
154.1291448031
 30
0.0
 11
75.7310455984
 21
163.9440991659
 31
0.0
  0
SPLINE
  5
A1
330
1F
100
AcDbEntity
  8
0
  6
Continuous
 62
     8
370
    18
100
AcDbSpline
210
0.0
220
0.0
230
1.0
 70
     8
 71
     3
 72
    11
 73
     7
 74
     0
 42
0.000000001
 43
0.00000001
 40
0.0
 40
0.0
 40
0.0
 40
0.0
 40
0.3386679565311906
 40
0.6830979415508188
 40
0.8609607222684013
 40
0.9999999999999999
 40
0.9999999999999999
 40
0.9999999999999999
 40
0.9999999999999999
 10
67.97178424594479
 20
151.7855874937486
 30
0.0
 10
68.07086968861431
 20
151.8027073371776
 30
0.0
 10
68.27072639374362
 20
151.8372382976081
 30
0.0
 10
68.4833678168592
 20
151.9521807972319
 30
0.0
 10
68.61656732589937
 20
152.0809876225845
 30
0.0
 10
68.66220276910617
 20
152.1616742625924
 30
0.0
 10
68.68222510374638
 20
152.1970751438748
 30
0.0
  0
LINE
  5
A2
330
1F
100
AcDbEntity
  8
0
  6
Continuous
 62
     8
370
    18
100
AcDbLine
 10
66.2008236714
 20
152.1380898286
 30
0.0
 11
66.421637751
 21
152.0835753274
 31
0.0
  0
SPLINE
  5
A3
330
1F
100
AcDbEntity
  8
0
  6
Continuous
 62
     8
370
    18
100
AcDbSpline
210
0.0
220
0.0
230
1.0
 70
     8
 71
     3
 72
    11
 73
     7
 74
     0
 42
0.000000001
 43
0.00000001
 40
0.0
 40
0.0
 40
0.0
 40
0.0
 40
0.1394358981503701
 40
0.3174492096156306
 40
0.6619685099982178
 40
1.0
 40
1.0
 40
1.0
 40
1.0
 10
65.77985748581143
 20
152.1970784035038
 30
0.0
 10
65.79994608912762
 20
152.1615836520514
 30
0.0
 10
65.84568116402295
 20
152.0807738968627
 30
0.0
 10
65.97907440200211
 20
151.9519199326995
 30
0.0
 10
66.19170348515627
 20
151.8371598206689
 30
0.0
 10
66.39140571107237
 20
151.802668988153
 30
0.0
 10
66.49030771504643
 20
151.7855874937486
 30
0.0
  0
INSERT
  5
A9
330
1F
100
AcDbEntity
  8
0
  6
Continuous
 62
     7
370
     0
100
AcDbBlockReference
  2
SW_NOTE_0
 10
78.8875147232
 20
176.5365137391
 30
0.0
  0
LEADER
  5
AB
330
1F
100
AcDbEntity
  8
0
  6
Continuous
 62
     7
370
     0
100
AcDbLeader
  3
SLDDIMSTYLE0
 76
     2
 10
68.1830368334
 20
160.9084428522
 30
0.0
 10
78.8875147232
 20
176.5365137391
 30
0.0
  0
INSERT
  5
B1
330
1F
100
AcDbEntity
  8
0
  6
Continuous
 62
     7
370
     0
100
AcDbBlockReference
  2
SW_NOTE_1
 10
59.5073195974
 20
132.8380449523
 30
0.0
  0
LEADER
  5
B2
330
1F
100
AcDbEntity
  8
0
  6
Continuous
 62
     7
370
     0
100
AcDbLeader
  3
SLDDIMSTYLE0
 76
     2
 10
67.7491623747
 20
145.9285604445
 30
0.0
 10
59.5073195974
 20
132.8380449523
 30
0.0
  0
INSERT
  5
BE
330
1F
100
AcDbEntity
  8
0
  6
Continuous
 62
     7
370
    18
100
AcDbBlockReference
  2
SW_CENTERMARKSYMBOL_0
 10
67.2310460678
 20
159.0366219254
 30
0.0
  0
LINE
  5
BF
330
1F
100
AcDbEntity
  8
0
  6
Continuous
 62
     7
370
    18
100
AcDbLine
 10
129.9876675273
 20
166.0366217349
 30
0.0
 11
128.5876680429
 21
166.0366217349
 31
0.0
  0
LINE
  5
C0
330
1F
100
AcDbEntity
  8
0
  6
Continuous
 62
     7
370
    18
100
AcDbLine
 10
128.7376575435
 20
152.0366217684
 30
0.0
 11
129.9876675273
 21
152.0366217684
 31
0.0
  0
LINE
  5
C1
330
1F
100
AcDbEntity
  8
0
  6
Continuous
 62
     7
370
    18
100
AcDbLine
 10
123.9876679408
 20
166.0366217349
 30
0.0
 11
122.5876679907
 21
166.0366217349
 31
0.0
  0
LINE
  5
C2
330
1F
100
AcDbEntity
  8
0
  6
Continuous
 62
     7
370
    18
100
AcDbLine
 10
122.5876679907
 20
152.0366217684
 30
0.0
 11
123.8376779745
 21
152.0366217684
 31
0.0
  0
SPLINE
  5
C3
330
1F
100
AcDbEntity
  8
0
  6
Continuous
 62
     7
370
    18
100
AcDbSpline
210
0.0
220
0.0
230
1.0
 70
     8
 71
     3
 72
    13
 73
     9
 74
     0
 42
0.000000001
 43
0.00000001
 40
0.0
 40
0.0
 40
0.0
 40
0.0
 40
0.2394573254594161
 40
0.3683609142556412
 40
0.4999999916447646
 40
0.6316384436415126
 40
0.7605424886985238
 40
1.0
 40
1.0
 40
1.0
 40
1.0
 10
128.5876680428767
 20
166.0366217349183
 30
0.0
 10
128.5499290549444
 20
166.032614408212
 30
0.0
 10
128.4918745850252
 20
166.0264498754445
 30
0.0
 10
128.4220294018419
 20
165.9890409911865
 30
0.0
 10
128.3739681712582
 20
165.9503217554656
 30
0.0
 10
128.3352493868635
 20
165.9022601716918
 30
0.0
 10
128.2978397298313
 20
165.8324154164069
 30
0.0
 10
128.2916750437004
 20
165.7743608154782
 30
0.0
 10
128.2876676211738
 20
165.7366217788767
 30
0.0
  0
SPLINE
  5
C4
330
1F
100
AcDbEntity
  8
0
  6
Continuous
 62
     7
370
    18
100
AcDbSpline
210
0.0
220
0.0
230
1.0
 70
     8
 71
     3
 72
    13
 73
     9
 74
     0
 42
0.000000001
 43
0.00000001
 40
0.0
 40
0.0
 40
0.0
 40
0.0
 40
0.2394576695113924
 40
0.3683613434744008
 40
0.4999998824448602
 40
0.6316398166760369
 40
0.7605434906390452
 40
1.0
 40
1.0
 40
1.0
 40
1.0
 10
124.2876678968453
 20
165.7366217788767
 30
0.0
 10
124.2836603833607
 20
165.7743607700404
 30
0.0
 10
124.2774955649435
 20
165.8324152291638
 30
0.0
 10
124.2400866645886
 20
165.9022602747803
 30
0.0
 10
124.2013677636342
 20
165.9503219087952
 30
0.0
 10
124.153306163604
 20
165.9890408535646
 30
0.0
 10
124.0834611003196
 20
166.0264498416279
 30
0.0
 10
124.0254067786382
 20
166.0326143983475
 30
0.0
 10
123.9876679408037
 20
166.0366217349183
 30
0.0
  0
SPLINE
  5
C5
330
1F
100
AcDbEntity
  8
0
  6
Continuous
 62
     7
370
    18
100
AcDbSpline
210
0.0
220
0.0
230
1.0
 70
     8
 71
     3
 72
    13
 73
     9
 74
     0
 42
0.000000001
 43
0.00000001
 40
0.0
 40
0.0
 40
0.0
 40
0.0
 40
0.2394576655088826
 40
0.3683613373172795
 40
0.4999998740874145
 40
0.6316391807291228
 40
0.7605433087985998
 40
1.0
 40
1.0
 40
1.0
 40
1.0
 10
129.9876675272965
 20
152.0366217684459
 30
0.0
 10
130.0254065255046
 20
152.0406292765888
 30
0.0
 10
130.0834609954646
 20
152.046794086789
 30
0.0
 10
130.1533059879085
 20
152.0842030274634
 30
0.0
 10
130.2013677188106
 20
152.1229217350926
 30
0.0
 10
130.240086018925
 20
152.1709837851982
 30
0.0
 10
130.2774958200826
 20
152.2408283674131
 30
0.0
 10
130.2836605219494
 20
152.2988828309398
 30
0.0
 10
130.2876679489993
 20
152.3366217244875
 30
0.0
  0
SPLINE
  5
C6
330
1F
100
AcDbEntity
  8
0
  6
Continuous
 62
     7
370
    18
100
AcDbSpline
210
0.0
220
0.0
230
1.0
 70
     8
 71
     3
 72
    13
 73
     9
 74
     0
 42
0.000000001
 43
0.00000001
 40
0.0
 40
0.0
 40
0.0
 40
0.0
 40
0.2394575113014762
 40
0.3683615563584874
 40
0.5000000083552355
 40
0.6316390857443589
 40
0.7605426745405839
 40
1.0
 40
1.0
 40
1.0
 40
1.0
 10
130.2876679489993
 20
165.7366217788767
 30
0.0
 10
130.2836605264728
 20
165.7743608154782
 30
0.0
 10
130.2774958403418
 20
165.8324154164069
 30
0.0
 10
130.2400861833097
 20
165.9022601716918
 30
0.0
 10
130.201367398915
 20
165.9503217554656
 30
0.0
 10
130.1533061683313
 20
165.9890409911865
 30
0.0
 10
130.083460985148
 20
166.0264498754445
 30
0.0
 10
130.0254065152288
 20
166.032614408212
 30
0.0
 10
129.9876675272965
 20
166.0366217349183
 30
0.0
  0
SPLINE
  5
C7
330
1F
100
AcDbEntity
  8
0
  6
Continuous
 62
     7
370
    18
100
AcDbSpline
210
0.0
220
0.0
230
1.0
 70
     8
 71
     3
 72
    13
 73
     9
 74
     0
 42
0.000000001
 43
0.00000001
 40
0.0
 40
0.0
 40
0.0
 40
0.0
 40
0.2394573294608609
 40
0.3683609204111256
 40
0.5
 40
0.6316390795888743
 40
0.7605426705391392
 40
0.9999999999999999
 40
0.9999999999999999
 40
0.9999999999999999
 40
0.9999999999999999
 10
122.5876679907226
 20
166.0366217349183
 30
0.0
 10
122.5499290098347
 20
166.0326144028704
 30
0.0
 10
122.491874550752
 20
166.0264498618857
 30
0.0
 10
122.4220293143962
 20
165.9890410179476
 30
0.0
 10
122.3739681807003
 20
165.950321588899
 30
0.0
 10
122.3352487516517
 20
165.9022604552031
 30
0.0
 10
122.2978399077136
 20
165.8324152188472
 30
0.0
 10
122.2916753667289
 20
165.7743607597646
 30
0.0
 10
122.287668034681
 20
165.7366217788767
 30
0.0
  0
SPLINE
  5
C8
330
1F
100
AcDbEntity
  8
0
  6
Continuous
 62
     7
370
    18
100
AcDbSpline
210
0.0
220
0.0
230
1.0
 70
     8
 71
     3
 72
    13
 73
     9
 74
     0
 42
0.000000001
 43
0.00000001
 40
0.0
 40
0.0
 40
0.0
 40
0.0
 40
0.2394565093609548
 40
0.3683601833239631
 40
0.5000001175551397
 40
0.6316386565255991
 40
0.7605423304886075
 40
1.0
 40
1.0
 40
1.0
 40
1.0
 10
122.287668034681
 20
152.3366217244875
 30
0.0
 10
122.2916753712518
 20
152.2988828866529
 30
0.0
 10
122.2978399279714
 20
152.2408285649715
 30
0.0
 10
122.3352489160347
 20
152.1709835016872
 30
0.0
 10
122.3739678608041
 20
152.122921901657
 30
0.0
 10
122.422029494819
 20
152.0842030007026
 30
0.0
 10
122.4918745404355
 20
152.0467941003477
 30
0.0
 10
122.5499289995589
 20
152.0406292819304
 30
0.0
 10
122.5876679907226
 20
152.0366217684459
 30
0.0
  0
SPLINE
  5
C9
330
1F
100
AcDbEntity
  8
0
  6
Continuous
 62
     7
370
    18
100
AcDbSpline
210
0.0
220
0.0
230
1.0
 70
     8
 71
     3
 72
    13
 73
     9
 74
     0
 42
0.000000001
 43
0.00000001
 40
0.0
 40
0.0
 40
0.0
 40
0.0
 40
0.2394565664368951
 40
0.3683607273860878
 40
0.500000067605177
 40
0.6316394078242663
 40
0.7605433406421088
 40
1.0
 40
1.0
 40
1.0
 40
1.0
 10
114.9876678625726
 20
153.536622014315
 30
0.0
 10
115.0254067698037
 20
153.5406292345443
 30
0.0
 10
115.0834612701468
 20
153.546793619929
 30
0.0
 10
115.1533057748896
 20
153.5842035094855
 30
0.0
 10
115.2013680430703
 20
153.6229217801501
 30
0.0
 10
115.2400863691267
 20
153.6709840003088
 30
0.0
 10
115.2774958415424
 20
153.740828677955
 30
0.0
 10
115.2836604502111
 20
153.7988830912288
 30
0.0
 10
115.2876678186142
 20
153.8366219703566
 30
0.0
  0
SPLINE
  5
CA
330
1F
100
AcDbEntity
  8
0
  6
Continuous
 62
     7
370
    18
100
AcDbSpline
210
0.0
220
0.0
230
1.0
 70
     8
 71
     3
 72
    13
 73
     9
 74
     0
 42
0.000000001
 43
0.00000001
 40
0.0
 40
0.0
 40
0.0
 40
0.0
 40
0.2394567241113507
 40
0.3683606917871737
 40
0.5000000676039478
 40
0.6316394434207218
 40
0.7605431829666371
 40
1.0
 40
1.0
 40
1.0
 40
1.0
 10
115.2876678186142
 20
164.2366219986688
 30
0.0
 10
115.2836604492577
 20
164.2743608758537
 30
0.0
 10
115.2774958391225
 20
164.3324152861388
 30
0.0
 10
115.2400863739029
 20
164.4022599784502
 30
0.0
 10
115.2013680243619
 20
164.4503221507491
 30
0.0
 10
115.1533059000844
 20
164.4890405556824
 30
0.0
 10
115.0834610348702
 20
164.5264496037604
 30
0.0
 10
115.0254067116542
 20
164.5326144371797
 30
0.0
 10
114.9876678625726
 20
164.5366219547104
 30
0.0
  0
SPLINE
  5
CB
330
1F
100
AcDbEntity
  8
0
  6
Continuous
 62
     7
370
    18
100
AcDbSpline
210
0.0
220
0.0
230
1.0
 70
     8
 71
     3
 72
    13
 73
     9
 74
     0
 42
0.000000001
 43
0.00000001
 40
0.0
 40
0.0
 40
0.0
 40
0.0
 40
0.2394567846563175
 40
0.3683605067731103
 40
0.4999998647908752
 40
0.6316392228086402
 40
0.7605434011866908
 40
0.9999999999999999
 40
0.9999999999999999
 40
0.9999999999999999
 40
0.9999999999999999
 10
113.5876679124915
 20
164.5366219547104
 30
0.0
 10
113.5499290624385
 20
164.5326144376563
 30
0.0
 10
113.4918747377281
 20
164.5264496049703
 30
0.0
 10
113.4220298798464
 20
164.4890405532943
 30
0.0
 10
113.3739677316391
 20
164.4503221601033
 30
0.0
 10
113.3352494492323
 20
164.4022599158526
 30
0.0
 10
113.2978395632739
 20
164.3324154037772
 30
0.0
 10
113.2916751771558
 20
164.2743609049284
 30
0.0
 10
113.2876679564499
 20
164.2366219986688
 30
0.0
  0
SPLINE
  5
CC
330
1F
100
AcDbEntity
  8
0
  6
Continuous
 62
     7
370
    18
100
AcDbSpline
210
0.0
220
0.0
230
1.0
 70
     8
 71
     3
 72
    13
 73
     9
 74
     0
 42
0.000000001
 43
0.00000001
 40
0.0
 40
0.0
 40
0.0
 40
0.0
 40
0.2394565340598923
 40
0.3683606775799101
 40
0.4999999999999999
 40
0.6316393224200898
 40
0.7605434659401077
 40
1.0
 40
1.0
 40
1.0
 40
1.0
 10
113.2876679564499
 20
153.8366219703566
 30
0.0
 10
113.2916751762025
 20
153.7988830621541
 30
0.0
 10
113.297839560854
 20
153.7408285603166
 30
0.0
 10
113.3352494540085
 20
153.6709840629064
 30
0.0
 10
113.3739677129308
 20
153.6229217707959
 30
0.0
 10
113.4220300050413
 20
153.5842035118736
 30
0.0
 10
113.4918745024515
 20
153.5467936187191
 30
0.0
 10
113.549929004289
 20
153.5406292340676
 30
0.0
 10
113.5876679124915
 20
153.536622014315
 30
0.0
  0
LINE
  5
CD
330
1F
100
AcDbEntity
  8
0
  6
Continuous
 62
     7
370
    18
100
AcDbLine
 10
114.9876678626
 20
164.5366219547
 30
0.0
 11
113.5876679125
 21
164.5366219547
 31
0.0
  0
LINE
  5
CE
330
1F
100
AcDbEntity
  8
0
  6
Continuous
 62
     7
370
    18
100
AcDbLine
 10
113.5876679125
 20
153.5366220143
 30
0.0
 11
114.9876678626
 21
153.5366220143
 31
0.0
  0
SPLINE
  5
CF
330
1F
100
AcDbEntity
  8
0
  6
Continuous
 62
     7
370
    18
100
AcDbSpline
210
0.0
220
0.0
230
1.0
 70
     8
 71
     3
 72
    13
 73
     9
 74
     0
 42
0.000000001
 43
0.00000001
 40
0.0
 40
0.0
 40
0.0
 40
0.0
 40
0.2394564416741789
 40
0.3683606355019675
 40
0.5000000092972938
 40
0.6316401529675573
 40
0.7605443467953459
 40
0.9999999999999999
 40
0.9999999999999999
 40
0.9999999999999999
 40
0.9999999999999999
 10
133.2876675094151
 20
163.2366218347561
 30
0.0
 10
133.2836604960066
 20
163.2743607556702
 30
0.0
 10
133.277496427104
 20
163.3324152928292
 30
0.0
 10
133.2400864491488
 20
163.4022597201011
 30
0.0
 10
133.2013682079325
 20
163.4503222063562
 30
0.0
 10
133.1533054985188
 20
163.4890401508395
 30
0.0
 10
133.0834611356686
 20
163.5264501549945
 30
0.0
 10
133.0254067790814
 20
163.5326145621329
 30
0.0
 10
132.9876680190348
 20
163.5366217907976
 30
0.0
  0
LINE
  5
D0
330
1F
100
AcDbEntity
  8
0
  6
Continuous
 62
     7
370
    18
100
AcDbLine
 10
132.987668019
 20
163.5366217908
 30
0.0
 11
132.6708125214
 21
163.5366217908
 31
0.0
  0
LINE
  5
D1
330
1F
100
AcDbEntity
  8
0
  6
Continuous
 62
     7
370
    18
100
AcDbLine
 10
131.6623829568
 20
163.5366217908
 30
0.0
 11
130.287667949
 21
163.5366217908
 31
0.0
  0
LINE
  5
D2
330
1F
100
AcDbEntity
  8
0
  6
Continuous
 62
     7
370
    18
100
AcDbLine
 10
130.287667949
 20
154.5366217126
 30
0.0
 11
132.8840518634
 21
154.5366217126
 31
0.0
  0
LINE
  5
D3
330
1F
100
AcDbEntity
  8
0
  6
Continuous
 62
     7
370
    18
100
AcDbLine
 10
128.2876676212
 20
163.5366217908
 30
0.0
 11
124.2876678968
 21
163.5366217908
 31
0.0
  0
LINE
  5
D4
330
1F
100
AcDbEntity
  8
0
  6
Continuous
 62
     7
370
    18
100
AcDbLine
 10
122.2876680347
 20
162.9366218787
 30
0.0
 11
115.2876678186
 21
162.9366218787
 31
0.0
  0
LINE
  5
D5
330
1F
100
AcDbEntity
  8
0
  6
Continuous
 62
     7
370
    18
100
AcDbLine
 10
115.2876678186
 20
155.1366218575
 30
0.0
 11
122.2876680347
 21
155.1366218575
 31
0.0
  0
SPLINE
  5
D6
330
1F
100
AcDbEntity
  8
0
  6
Continuous
 62
     7
370
    18
100
AcDbSpline
210
0.0
220
0.0
230
1.0
 70
     8
 71
     3
 72
    10
 73
     6
 74
     0
 42
0.000000001
 43
0.00000001
 40
0.0
 40
0.0
 40
0.0
 40
0.0
 40
0.2072289355766343
 40
0.484652675726366
 40
0.9999999999999999
 40
0.9999999999999999
 40
0.9999999999999999
 40
0.9999999999999999
 10
169.2102628091955
 20
156.1373712704044
 30
0.0
 10
169.2201799398404
 20
156.1487443121287
 30
0.0
 10
169.2433734378392
 20
156.1753427940805
 30
0.0
 10
169.2771312617716
 20
156.2411566563178
 30
0.0
 10
169.2835162664343
 20
156.2990123481118
 30
0.0
 10
169.2876668910169
 20
156.3366219144773
 30
0.0
  0
SPLINE
  5
D7
330
1F
100
AcDbEntity
  8
0
  6
Continuous
 62
     7
370
    18
100
AcDbSpline
210
0.0
220
0.0
230
1.0
 70
     8
 71
     3
 72
    10
 73
     6
 74
     0
 42
0.000000001
 43
0.00000001
 40
0.0
 40
0.0
 40
0.0
 40
0.0
 40
0.5153473242736338
 40
0.7927710644233655
 40
0.9999999999999999
 40
0.9999999999999999
 40
0.9999999999999999
 40
0.9999999999999999
 10
169.9876675645494
 20
156.3366219144773
 30
0.0
 10
169.991818189132
 20
156.2990123481118
 30
0.0
 10
169.9982031937947
 20
156.2411566563178
 30
0.0
 10
170.0319610177271
 20
156.1753427940805
 30
0.0
 10
170.0551545157259
 20
156.1487443121287
 30
0.0
 10
170.0650716463708
 20
156.1373712704044
 30
0.0
  0
SPLINE
  5
D8
330
1F
100
AcDbEntity
  8
0
  6
Continuous
 62
     7
370
    18
100
AcDbSpline
210
0.0
220
0.0
230
1.0
 70
     8
 71
     3
 72
    10
 73
     6
 74
     0
 42
0.000000001
 43
0.00000001
 40
0.0
 40
0.0
 40
0.0
 40
0.0
 40
0.515399919002422
 40
0.7928514076948864
 40
0.9999999999999999
 40
0.9999999999999999
 40
0.9999999999999999
 40
0.9999999999999999
 10
169.2876668910169
 20
161.7366218217175
 30
0.0
 10
169.2835162614165
 20
161.7742314581252
 30
0.0
 10
169.2771312535805
 20
161.8320872164778
 30
0.0
 10
169.2433769280056
 20
161.8978945714086
 30
0.0
 10
169.2201894841077
 20
161.9244884864399
 30
0.0
 10
169.2102777103566
 20
161.935856400476
 30
0.0
  0
SPLINE
  5
D9
330
1F
100
AcDbEntity
  8
0
  6
Continuous
 62
     7
370
    18
100
AcDbSpline
210
0.0
220
0.0
230
1.0
 70
     8
 71
     3
 72
    10
 73
     6
 74
     0
 42
0.000000001
 43
0.00000001
 40
0.0
 40
0.0
 40
0.0
 40
0.0
 40
0.2072287183113373
 40
0.4846521676013437
 40
1.0
 40
1.0
 40
1.0
 40
1.0
 10
170.0650716463708
 20
161.9358726986211
 30
0.0
 10
170.0551545157672
 20
161.9244996569051
 30
0.0
 10
170.0319610178648
 20
161.897901174973
 30
0.0
 10
169.9982031573422
 20
161.8320872434901
 30
0.0
 10
169.9918181765619
 20
161.774231468767
 30
0.0
 10
169.9876675645494
 20
161.7366218217175
 30
0.0
  0
LWPOLYLINE
  5
DA
330
1F
100
AcDbEntity
  8
0
  6
Continuous
 62
     7
370
    18
100
AcDbPolyline
 90
        3
 70
   128
 43
0.0
 10
170.8876529972
 20
156.1366082844
 10
171.067666475
 20
156.316621995
 10
171.2876672188
 20
156.5366220404
  0
LWPOLYLINE
  5
DB
330
1F
100
AcDbEntity
  8
0
  6
Continuous
 62
     7
370
    18
100
AcDbPolyline
 90
        3
 70
   128
 43
0.0
 10
171.2876672188
 20
161.5366219286
 10
171.0076669494
 20
161.8166219652
 10
170.8876529972
 20
161.9366356846
  0
LWPOLYLINE
  5
DC
330
1F
100
AcDbEntity
  8
0
  6
Continuous
 62
     7
370
    18
100
AcDbPolyline
 90
        3
 70
   128
 43
0.0
 10
123.9376680257
 20
149.7366214846
 10
124.1336676555
 20
148.3366220002
 10
124.2876678968
 20
147.2366220061
  0
LWPOLYLINE
  5
DD
330
1F
100
AcDbEntity
  8
0
  6
Continuous
 62
     7
370
    18
100
AcDbPolyline
 90
        3
 70
   128
 43
0.0
 10
128.2876676212
 20
147.2366220061
 10
128.4836681823
 20
148.6366214905
 10
128.6376679579
 20
149.7366214846
  0
LWPOLYLINE
  5
DE
330
1F
100
AcDbEntity
  8
0
  6
Continuous
 62
     7
370
    18
100
AcDbPolyline
 90
        3
 70
   128
 43
0.0
 10
123.9376680257
 20
147.2366220061
 10
124.1336676555
 20
145.8366215904
 10
124.2876678968
 20
144.7366215963
  0
LWPOLYLINE
  5
DF
330
1F
100
AcDbEntity
  8
0
  6
Continuous
 62
     7
370
    18
100
AcDbPolyline
 90
        3
 70
   128
 43
0.0
 10
128.2876676212
 20
144.7366215963
 10
128.4836681823
 20
146.1366220121
 10
128.6376679579
 20
147.2366220061
  0
LINE
  5
E0
330
1F
100
AcDbEntity
  8
0
  6
Continuous
 62
     7
370
    18
100
AcDbLine
 10
124.137667686
 20
151.7366255377
 30
0.0
 11
124.137667686
 21
149.7366214846
 31
0.0
  0
LINE
  5
E1
330
1F
100
AcDbEntity
  8
0
  6
Continuous
 62
     7
370
    18
100
AcDbLine
 10
128.4376682977
 20
149.7366214846
 30
0.0
 11
128.4376682977
 21
151.7366255377
 31
0.0
  0
LINE
  5
E2
330
1F
100
AcDbEntity
  8
0
  6
Continuous
 62
     7
370
    18
100
AcDbLine
 10
169.3876685838
 20
161.0366218467
 30
0.0
 11
169.287666891
 21
161.0366218467
 31
0.0
  0
LINE
  5
E3
330
1F
100
AcDbEntity
  8
0
  6
Continuous
 62
     7
370
    18
100
AcDbLine
 10
169.287666891
 20
157.0366218895
 30
0.0
 11
169.3876685838
 21
157.0366218895
 31
0.0
  0
SPLINE
  5
E4
330
1F
100
AcDbEntity
  8
0
  6
Continuous
 62
     7
370
    18
100
AcDbSpline
210
0.0
220
0.0
230
1.0
 70
     8
 71
     3
 72
    13
 73
     9
 74
     0
 42
0.000000001
 43
0.00000001
 40
0.0
 40
0.0
 40
0.0
 40
0.0
 40
0.2394563437675043
 40
0.3683604848901767
 40
0.4999998048620618
 40
0.631638354962309
 40
0.760542496085021
 40
1.0
 40
1.0
 40
1.0
 40
1.0
 10
128.4376682976865
 20
151.7366218124043
 30
0.0
 10
128.4416753174092
 20
151.7743607254676
 30
0.0
 10
128.4478393960249
 20
151.8324152505493
 30
0.0
 10
128.4852493263193
 20
151.9022597370819
 30
0.0
 10
128.5239675710652
 20
151.9503218412426
 30
0.0
 10
128.5720294543796
 20
151.9890404129509
 30
0.0
 10
128.6418740837448
 20
152.0264501956103
 30
0.0
 10
128.6999287313634
 20
152.0326145576722
 30
0.0
 10
128.7376677880668
 20
152.0366217684459
 30
0.0
  0
SPLINE
  5
E5
330
1F
100
AcDbEntity
  8
0
  6
Continuous
 62
     7
370
    18
100
AcDbSpline
210
0.0
220
0.0
230
1.0
 70
     8
 71
     3
 72
    13
 73
     9
 74
     0
 42
0.000000001
 43
0.00000001
 40
0.0
 40
0.0
 40
0.0
 40
0.0
 40
0.2394565340599815
 40
0.3683606775800135
 40
0.5000000000001001
 40
0.6316393224201732
 40
0.7605434659401655
 40
1.0
 40
1.0
 40
1.0
 40
1.0
 10
123.8376677299523
 20
152.0366217684459
 30
0.0
 10
123.8754066381547
 20
152.0326145486933
 30
0.0
 10
123.9334611399923
 20
152.0264501640418
 30
0.0
 10
124.0033056374025
 20
151.9890402708873
 30
0.0
 10
124.051367929513
 20
151.950322011965
 30
0.0
 10
124.0900861884353
 20
151.9022597198545
 30
0.0
 10
124.1274960815898
 20
151.8324152224443
 30
0.0
 10
124.1336604662413
 20
151.7743607206068
 30
0.0
 10
124.1376676859938
 20
151.7366218124043
 30
0.0
  0
LINE
  5
E6
330
1F
100
AcDbEntity
  8
0
  6
Continuous
 62
     7
370
    18
100
AcDbLine
 10
169.3876685838
 20
154.5366217126
 30
0.0
 11
169.9876675645
 21
154.5366217126
 31
0.0
  0
LINE
  5
E7
330
1F
100
AcDbEntity
  8
0
  6
Continuous
 62
     7
370
    18
100
AcDbLine
 10
169.9876675645
 20
163.1399840791
 30
0.0
 11
169.3876685838
 21
163.1399840791
 31
0.0
  0
SPLINE
  5
E8
330
1F
100
AcDbEntity
  8
0
  6
Continuous
 62
     7
370
    18
100
AcDbSpline
210
0.0
220
0.0
230
1.0
 70
     8
 71
     3
 72
    15
 73
    11
 74
     0
 42
0.000000001
 43
0.00000001
 40
0.0
 40
0.0
 40
0.0
 40
0.0
 40
0.0608768738523152
 40
0.169510708253903
 40
0.2985262012537767
 40
0.4223153414636966
 40
0.5539460314233291
 40
0.6929341997699986
 40
0.9018661666131694
 40
0.9999999999999999
 40
0.9999999999999999
 40
0.9999999999999999
 40
0.9999999999999999
 10
133.7588832045578
 20
153.0880481679451
 30
0.0
 10
133.828249650183
 20
153.0958007242067
 30
0.0
 10
134.0213994389765
 20
153.11738759652
 30
0.0
 10
134.2236060823694
 20
153.2859766642491
 30
0.0
 10
134.3775804668998
 20
153.5303696793212
 30
0.0
 10
134.4988781244654
 20
153.8618083583305
 30
0.0
 10
134.6002165320616
 20
154.2572782834216
 30
0.0
 10
134.7114894827743
 20
154.8175126922214
 30
0.0
 10
134.8150053134979
 20
155.4432853645762
 30
0.0
 10
134.8850419547147
 20
155.9687053247423
 30
0.0
 10
134.9074246625089
 20
156.1366220213931
 30
0.0
  0
SPLINE
  5
E9
330
1F
100
AcDbEntity
  8
0
  6
Continuous
 62
     7
370
    18
100
AcDbSpline
210
0.0
220
0.0
230
1.0
 70
     8
 71
     3
 72
    10
 73
     6
 74
     0
 42
0.000000001
 43
0.00000001
 40
0.0
 40
0.0
 40
0.0
 40
0.0
 40
0.2990384477822573
 40
0.8027192692029261
 40
1.0
 40
1.0
 40
1.0
 40
1.0
 10
135.6175134221696
 20
161.9366219476323
 30
0.0
 10
135.6327682104537
 20
162.0485499354483
 30
0.0
 10
135.6737171673322
 20
162.3490021122482
 30
0.0
 10
135.725021627593
 20
162.6928913095518
 30
0.0
 10
135.7595754449385
 20
162.8966563126306
 30
0.0
 10
135.7693003753805
 20
162.9540045489084
 30
0.0
  0
SPLINE
  5
EA
330
1F
100
AcDbEntity
  8
0
  6
Continuous
 62
     7
370
    18
100
AcDbSpline
210
0.0
220
0.0
230
1.0
 70
     8
 71
     3
 72
    15
 73
    11
 74
     0
 42
0.000000001
 43
0.00000001
 40
0.0
 40
0.0
 40
0.0
 40
0.0
 40
0.0736016194603927
 40
0.1404992101957598
 40
0.2545533759711274
 40
0.3490537041621525
 40
0.4418179780076942
 40
0.6310143155411265
 40
0.8256716224449647
 40
0.9999999999999999
 40
0.9999999999999999
 40
0.9999999999999999
 40
0.9999999999999999
 10
137.7580819914722
 20
153.0881403688799
 30
0.0
 10
137.832441104973
 20
153.0959758005506
 30
0.0
 10
137.9743863066453
 20
153.1109329709138
 30
0.0
 10
138.1868991288659
 20
153.2456226079086
 30
0.0
 10
138.3453781471214
 20
153.4637944484117
 30
0.0
 10
138.43250017367
 20
153.6752179258685
 30
0.0
 10
138.5375843830084
 20
153.9940747803562
 30
0.0
 10
138.6555640360232
 20
154.5083350421021
 30
0.0
 10
138.7849450176503
 20
155.248026187909
 30
0.0
 10
138.8694974016812
 20
155.8515061357868
 30
0.0
 10
138.9094444255018
 20
156.1366220213931
 30
0.0
  0
SPLINE
  5
EB
330
1F
100
AcDbEntity
  8
0
  6
Continuous
 62
     7
370
    18
100
AcDbSpline
210
0.0
220
0.0
230
1.0
 70
     8
 71
     3
 72
     9
 73
     5
 74
     0
 42
0.000000001
 43
0.00000001
 40
0.0
 40
0.0
 40
0.0
 40
0.0
 40
0.7734949002126307
 40
1.0
 40
1.0
 40
1.0
 40
1.0
 10
139.6178512165927
 20
161.9366219476323
 30
0.0
 10
139.6572984162786
 20
162.2223783198731
 30
0.0
 10
139.7082970714411
 20
162.5918136867544
 30
0.0
 10
139.7581900147369
 20
162.8876571351255
 30
0.0
 10
139.7694910208368
 20
162.9546671849202
 30
0.0
  0
SPLINE
  5
EC
330
1F
100
AcDbEntity
  8
0
  6
Continuous
 62
     7
370
    18
100
AcDbSpline
210
0.0
220
0.0
230
1.0
 70
     8
 71
     3
 72
    19
 73
    15
 74
     0
 42
0.000000001
 43
0.00000001
 40
0.0
 40
0.0
 40
0.0
 40
0.0
 40
0.1002497860962733
 40
0.1845413524924099
 40
0.2810449013560797
 40
0.34327774202945
 40
0.3890727894268443
 40
0.4391272713508244
 40
0.5387616702447813
 40
0.6520354077113978
 40
0.7790135234798695
 40
0.8833538785184004
 40
0.9905416966423877
 40
1.0
 40
1.0
 40
1.0
 40
1.0
 10
141.7581869552516
 20
153.0881012533318
 30
0.0
 10
141.8345161499626
 20
153.0973575475188
 30
0.0
 10
141.9750241088833
 20
153.1143966766268
 30
0.0
 10
142.1693921511729
 20
153.2542984762116
 30
0.0
 10
142.3116331010062
 20
153.4343979237904
 30
0.0
 10
142.4027269909951
 20
153.6180409718808
 30
0.0
 10
142.4533212816945
 20
153.7521809988325
 30
0.0
 10
142.5132812139144
 20
153.9342431220236
 30
0.0
 10
142.5844947691254
 20
154.2030587280331
 30
0.0
 10
142.6695802587083
 20
154.6014761802433
 30
0.0
 10
142.751436487323
 20
155.062169810767
 30
0.0
 10
142.8299130233
 20
155.5686946405248
 30
0.0
 10
142.8806397121449
 20
155.9183672225698
 30
0.0
 10
142.9073931159836
 20
156.1202520954436
 30
0.0
 10
142.9095624277973
 20
156.1366220213931
 30
0.0
  0
SPLINE
  5
ED
330
1F
100
AcDbEntity
  8
0
  6
Continuous
 62
     7
370
    18
100
AcDbSpline
210
0.0
220
0.0
230
1.0
 70
     8
 71
     3
 72
     9
 73
     5
 74
     0
 42
0.000000001
 43
0.00000001
 40
0.0
 40
0.0
 40
0.0
 40
0.0
 40
0.4581580873299443
 40
1.0
 40
1.0
 40
1.0
 40
1.0
 10
145.6599889586353
 20
153.1774556007694
 30
0.0
 10
145.6908451040358
 20
153.1531338284133
 30
0.0
 10
145.7581933540262
 20
153.1000478455861
 30
0.0
 10
145.8252372330448
 20
153.0979934974855
 30
0.0
 10
145.861564416685
 20
153.0968803655814
 30
0.0
  0
LWPOLYLINE
  5
EE
330
1F
100
AcDbEntity
  8
0
  6
Continuous
 62
     7
370
    18
100
AcDbPolyline
 90
       32
 70
   128
 43
0.0
 10
145.9862349818
 20
154.0623829443
 10
146.0013745616
 20
154.0766023774
 10
145.994900007
 20
154.1209663939
 10
145.9795760254
 20
154.1799540375
 10
145.9576992581
 20
154.2647942644
 10
145.9132230173
 20
154.4529698533
 10
145.8555816005
 20
154.7305952501
 10
145.7856318245
 20
155.1166065712
 10
145.7041261981
 20
155.6277645961
 10
145.6117538999
 20
156.2759215687
 10
145.5209220091
 20
156.9728311826
 10
145.4409959058
 20
157.6233547623
 10
145.3721227388
 20
158.2033545221
 10
145.314417992
 20
158.6979172809
 10
145.2679822485
 20
159.0986945759
 10
145.2328844259
 20
159.4018425187
 10
145.2030597518
 20
159.6588742197
 10
145.1466011147
 20
160.1418391312
 10
145.0697073976
 20
160.786112023
 10
144.9722016493
 20
161.5676508029
 10
144.8938327173
 20
162.1559777506
 10
144.8198708038
 20
162.6698321872
 10
144.750250716
 20
163.1110301916
 10
144.6849053989
 20
163.483624414
 10
144.6042975674
 20
163.8828134839
 10
144.5193367342
 20
164.2247760412
 10
144.4026606421
 20
164.5624750037
 10
144.2803630869
 20
164.7907924582
 10
144.1311111937
 20
164.9560216558
 10
143.9554674814
 20
165.0551488366
 10
143.7584666798
 20
165.0873595592
 10
143.7584666798
 20
165.0873595592
  0
SPLINE
  5
EF
330
1F
100
AcDbEntity
  8
0
  6
Continuous
 62
     7
370
    18
100
AcDbSpline
210
0.0
220
0.0
230
1.0
 70
     8
 71
     3
 72
    32
 73
    28
 74
     0
 42
0.000000001
 43
0.00000001
 40
0.0
 40
0.0
 40
0.0
 40
0.0
 40
0.0158581651914897
 40
0.0524094482895663
 40
0.0893694476774799
 40
0.1266703593360613
 40
0.1642413170053267
 40
0.2019944030628907
 40
0.2393020088181273
 40
0.2848474848560402
 40
0.3252215195906394
 40
0.3603740838843808
 40
0.3902737761300984
 40
0.4187819451106478
 40
0.454045529534539
 40
0.4851149660202124
 40
0.5201596238669192
 40
0.5579489302435618
 40
0.595351550520063
 40
0.6684797881962425
 40
0.739551036040918
 40
0.80847035521777
 40
0.8754849193498646
 40
0.908510002921742
 40
0.9403125432462124
 40
0.9706986437958027
 40
1.0
 40
1.0
 40
1.0
 40
1.0
 10
142.0244613925599
 20
154.010583714069
 30
0.0
 10
142.0239724063596
 20
154.0157509988311
 30
0.0
 10
142.0223563620902
 20
154.0328282924691
 30
0.0
 10
141.9870450349484
 20
154.1363448516575
 30
0.0
 10
141.9405135359607
 20
154.3246231754344
 30
0.0
 10
141.8813502896154
 20
154.5940825871602
 30
0.0
 10
141.8163656913476
 20
154.935578532146
 30
0.0
 10
141.7474266691447
 20
155.342877832122
 30
0.0
 10
141.6715040094607
 20
155.8414157469546
 30
0.0
 10
141.5939237885945
 20
156.4025313723134
 30
0.0
 10
141.517392590954
 20
156.9974666857334
 30
0.0
 10
141.4506008327405
 20
157.5418159436093
 30
0.0
 10
141.3912412243505
 20
158.0399276278522
 30
0.0
 10
141.3317709203231
 20
158.5478402903128
 30
0.0
 10
141.271541122088
 20
159.0679367272618
 30
0.0
 10
141.2071498484434
 20
159.624382715732
 30
0.0
 10
141.1411442983081
 20
160.1900962635322
 30
0.0
 10
141.0710934501945
 20
160.7782486495693
 30
0.0
 10
140.9767611385613
 20
161.5430603026737
 30
0.0
 10
140.8605983853459
 20
162.4178445820743
 30
0.0
 10
140.7236719942765
 20
163.2972788421198
 30
0.0
 10
140.587823167705
 20
163.9934247267714
 30
0.0
 10
140.4549428364826
 20
164.4508283041274
 30
0.0
 10
140.3331697877371
 20
164.7205461006672
 30
0.0
 10
140.2119850708698
 20
164.894519166785
 30
0.0
 10
140.0324256229745
 20
165.04889609584
 30
0.0
 10
139.8490400348815
 20
165.0749270661169
 30
0.0
 10
139.7590136418723
 20
165.087706011207
 30
0.0
  0
LWPOLYLINE
  5
F0
330
1F
100
AcDbEntity
  8
0
  6
Continuous
 62
     7
370
    18
100
AcDbPolyline
 90
       30
 70
   128
 43
0.0
 10
138.0056871364
 20
154.0358947333
 10
138.0150208513
 20
154.0417997841
 10
137.995684732
 20
154.1282716882
 10
137.9520206044
 20
154.2973318812
 10
137.8928220163
 20
154.5548290689
 10
137.8249677161
 20
154.897612587
 10
137.7556251625
 20
155.3000754886
 10
137.6858579258
 20
155.7522321329
 10
137.6158355067
 20
156.247457324
 10
137.5457031916
 20
156.7789775528
 10
137.4755932281
 20
157.3391160438
 10
137.3852456252
 20
158.0920867947
 10
137.3068189512
 20
158.7634467089
 10
137.2409576813
 20
159.3321535713
 10
137.1876897554
 20
159.7909384383
 10
137.1341014544
 20
160.2478440129
 10
137.069650207
 20
160.7865719799
 10
136.9942000399
 20
161.3954464648
 10
136.9075740019
 20
162.0553525374
 10
136.8096696476
 20
162.7364485268
 10
136.7088390777
 20
163.3496070955
 10
136.6085374991
 20
163.8556495984
 10
136.5052258859
 20
164.2616103147
 10
136.4230925481
 20
164.5059986715
 10
136.3315137366
 20
164.7074269806
 10
136.256607462
 20
164.8224523034
 10
136.1417139212
 20
164.9439191189
 10
135.9763706366
 20
165.0453564454
 10
135.7584374289
 20
165.0873628188
 10
135.7584374289
 20
165.0873628188
  0
SPLINE
  5
F1
330
1F
100
AcDbEntity
  8
0
  6
Continuous
 62
     7
370
    18
100
AcDbSpline
210
0.0
220
0.0
230
1.0
 70
     8
 71
     3
 72
    30
 73
    26
 74
     0
 42
0.000000001
 43
0.00000001
 40
0.0
 40
0.0
 40
0.0
 40
0.0
 40
0.0098232482649588
 40
0.0422887238976555
 40
0.0753626453729176
 40
0.1096006111781721
 40
0.144971149767244
 40
0.1814260350315162
 40
0.2179844804540927
 40
0.2639788219787789
 40
0.3067340084673238
 40
0.3462042891611051
 40
0.4025953744596429
 40
0.4607195214190059
 40
0.5207797081299961
 40
0.5835667567341638
 40
0.6492973439213404
 40
0.7178993192269342
 40
0.7849742552986492
 40
0.8485979166091319
 40
0.8792093648870225
 40
0.9102961492262097
 40
0.9496544244698628
 40
0.9734376971808517
 40
1.0
 40
1.0
 40
1.0
 40
1.0
 10
134.0261010716342
 20
154.0144803677212
 30
0.0
 10
134.0311745124124
 20
154.0114015936994
 30
0.0
 10
134.0530154890924
 20
153.9981475843292
 30
0.0
 10
133.9977331094277
 20
154.1114485262628
 30
0.0
 10
133.9571338419001
 20
154.2760327429444
 30
0.0
 10
133.8981837494095
 20
154.51985478303
 30
0.0
 10
133.83657129027
 20
154.8288974393526
 30
0.0
 10
133.7701552736995
 20
155.2045433766143
 30
0.0
 10
133.6961791638367
 20
155.6739828038277
 30
0.0
 10
133.6180488337548
 20
156.2232762410304
 30
0.0
 10
133.5377588875577
 20
156.8355784275638
 30
0.0
 10
133.4507326436504
 20
157.5374719383326
 30
0.0
 10
133.3538417052733
 20
158.3558406016303
 30
0.0
 10
133.2440016345484
 20
159.3066791226443
 30
0.0
 10
133.1301015015808
 20
160.2877522311044
 30
0.0
 10
133.011302860633
 20
161.2732349870703
 30
0.0
 10
132.8865497536345
 20
162.2280933747563
 30
0.0
 10
132.7589934576174
 20
163.0854748104558
 30
0.0
 10
132.6292979753794
 20
163.7945717829622
 30
0.0
 10
132.5169207470338
 20
164.2524635513508
 30
0.0
 10
132.4191514068067
 20
164.5338625966523
 30
0.0
 10
132.3373064424781
 20
164.7246878641839
 30
0.0
 10
132.1823038935464
 20
164.9333229664304
 30
0.0
 10
131.9730700908763
 20
165.0649350516737
 30
0.0
 10
131.8323737833394
 20
165.0798206901367
 30
0.0
 10
131.7581424752855
 20
165.0876743462395
 30
0.0
  0
SPLINE
  5
F2
330
1F
100
AcDbEntity
  8
0
  6
Continuous
 62
     7
370
    18
100
AcDbSpline
210
0.0
220
0.0
230
1.0
 70
     8
 71
     3
 72
    28
 73
    24
 74
     0
 42
0.000000001
 43
0.00000001
 40
0.0
 40
0.0
 40
0.0
 40
0.0
 40
0.0074888760922012
 40
0.0367069584721405
 40
0.0662808224950375
 40
0.1284454724618914
 40
0.1945569800016637
 40
0.2615267040094605
 40
0.3260801240877881
 40
0.3881587434176433
 40
0.4478930112995756
 40
0.5056864270001769
 40
0.5621728917625078
 40
0.6028587657519935
 40
0.6470458798292367
 40
0.694763094740311
 40
0.7692629788183233
 40
0.840016003610992
 40
0.8740166148442395
 40
0.9082177700249048
 40
0.9493661145383768
 40
0.9734808923155253
 40
1.0
 40
1.0
 40
1.0
 40
1.0
 10
131.5082025046133
 20
164.1666633751701
 30
0.0
 10
131.5040537190713
 20
164.169341240263
 30
0.0
 10
131.483718318041
 20
164.1824668790835
 30
0.0
 10
131.5333453441535
 20
164.0862338085954
 30
0.0
 10
131.5809789110378
 20
163.901597993086
 30
0.0
 10
131.6749964788006
 20
163.5098640332997
 30
0.0
 10
131.7928235714546
 20
162.8362800782764
 30
0.0
 10
131.9168254890372
 20
161.9899268812429
 30
0.0
 10
132.0379668573007
 20
161.0502863754554
 30
0.0
 10
132.1551563745178
 20
160.0728098270268
 30
0.0
 10
132.2681411475745
 20
159.0976454413666
 30
0.0
 10
132.3776087718347
 20
158.1511938464841
 30
0.0
 10
132.4751149595418
 20
157.3308992162516
 30
0.0
 10
132.56415859679
 20
156.6179625246175
 30
0.0
 10
132.6479308832622
 20
155.9866054936478
 30
0.0
 10
132.7534306595952
 20
155.2589645934252
 30
0.0
 10
132.8769859871406
 20
154.5344127718638
 30
0.0
 10
132.9991248092075
 20
153.999686546083
 30
0.0
 10
133.1060739225277
 20
153.674734292941
 30
0.0
 10
133.1934357756801
 20
153.4632070199054
 30
0.0
 10
133.3518334200983
 20
153.2454103122657
 30
0.0
 10
133.5641919452097
 20
153.1108504321653
 30
0.0
 10
133.7060557186803
 20
153.095902899914
 30
0.0
 10
133.7803557778382
 20
153.0880742449772
 30
0.0
  0
SPLINE
  5
F3
330
1F
100
AcDbEntity
  8
0
  6
Continuous
 62
     7
370
    18
100
AcDbSpline
210
0.0
220
0.0
230
1.0
 70
     8
 71
     3
 72
    33
 73
    29
 74
     0
 42
0.000000001
 43
0.00000001
 40
0.0
 40
0.0
 40
0.0
 40
0.0
 40
0.0163350729103467
 40
0.0489206818117848
 40
0.0830364917882736
 40
0.1186504965525216
 40
0.155725591873086
 40
0.1942191699287014
 40
0.2336783280055875
 40
0.2823443225938033
 40
0.3253201972273427
 40
0.3625440424846448
 40
0.3939730598399268
 40
0.42140299378507
 40
0.4546686536498264
 40
0.4844283082875928
 40
0.5183192376650203
 40
0.5561818882813724
 40
0.5943612601503684
 40
0.6314085205103618
 40
0.6673307039742962
 40
0.7357334149401513
 40
0.8007587418089746
 40
0.8644670916535308
 40
0.8962542423608502
 40
0.9290909811409459
 40
0.963607031666112
 40
1.0
 40
1.0
 40
1.0
 40
1.0
 10
135.5213580916309
 20
164.1482124779832
 30
0.0
 10
135.5215324375699
 20
164.1416369750834
 30
0.0
 10
135.5220545731156
 20
164.1219444957859
 30
0.0
 10
135.557115727879
 20
164.0154686887692
 30
0.0
 10
135.6008276778672
 20
163.8363746491438
 30
0.0
 10
135.6576817941677
 20
163.5787650638383
 30
0.0
 10
135.7214988750966
 20
163.2440827606699
 30
0.0
 10
135.7911668392086
 20
162.8325998684662
 30
0.0
 10
135.8700076843421
 20
162.3144488751786
 30
0.0
 10
135.9518596214719
 20
161.7193162073127
 30
0.0
 10
136.0325478945804
 20
161.086925225148
 30
0.0
 10
136.1026011545558
 20
160.5117617202376
 30
0.0
 10
136.1629971971138
 20
160.0019504834697
 30
0.0
 10
136.2209365315665
 20
159.5052724704137
 30
0.0
 10
136.2778412160401
 20
159.0134658034368
 30
0.0
 10
136.3388114123964
 20
158.4868763259314
 30
0.0
 10
136.4027063874269
 20
157.9400561672136
 30
0.0
 10
136.4719119540354
 20
157.3601857637853
 30
0.0
 10
136.5431528293743
 20
156.7840290988759
 30
0.0
 10
136.6133021174855
 20
156.2442653799898
 30
0.0
 10
136.7027334350577
 20
155.5987207611469
 30
0.0
 10
136.8103745734539
 20
154.9063572320557
 30
0.0
 10
136.9379601032535
 20
154.2448533022634
 30
0.0
 10
137.0529994385269
 20
153.8161009965122
 30
0.0
 10
137.1603774871436
 20
153.5381367863446
 30
0.0
 10
137.2865166580561
 20
153.3247871182776
 30
0.0
 10
137.4836839678161
 20
153.1348417480643
 30
0.0
 10
137.679215764697
 20
153.1039616383895
 30
0.0
 10
137.7795694659137
 20
153.088112894864
 30
0.0
  0
SPLINE
  5
F4
330
1F
100
AcDbEntity
  8
0
  6
Continuous
 62
     7
370
    18
100
AcDbSpline
210
0.0
220
0.0
230
1.0
 70
     8
 71
     3
 72
    32
 73
    28
 74
     0
 42
0.000000001
 43
0.00000001
 40
0.0
 40
0.0
 40
0.0
 40
0.0
 40
0.0212851991579782
 40
0.0540139822018722
 40
0.0875261332480815
 40
0.1217560244122289
 40
0.1566162664519501
 40
0.1920186258960473
 40
0.2641641386267749
 40
0.3009958634853082
 40
0.3382841414021937
 40
0.3884097399092947
 40
0.4336439062120844
 40
0.4718745138908133
 40
0.5030742382536684
 40
0.5305272776241569
 40
0.5627825264830191
 40
0.6003049717245441
 40
0.6431359510056645
 40
0.6913096119225617
 40
0.7672173034126265
 40
0.8418694563773261
 40
0.8789528566307415
 40
0.9159849767317948
 40
0.9554274691376939
 40
0.9770250824381588
 40
1.0
 40
1.0
 40
1.0
 40
1.0
 10
139.5288540313625
 20
164.1445235092651
 30
0.0
 10
139.5261795862542
 20
164.140347527564
 30
0.0
 10
139.5193928313168
 20
164.1297504267521
 30
0.0
 10
139.5502906779136
 20
164.0305688054902
 30
0.0
 10
139.5923054970259
 20
163.8618799556807
 30
0.0
 10
139.6480637387049
 20
163.6173038839417
 30
0.0
 10
139.7103314866783
 20
163.3019916861749
 30
0.0
 10
139.7992494584343
 20
162.791122262292
 30
0.0
 10
139.8898472849949
 20
162.1782147713293
 30
0.0
 10
139.9820992996262
 20
161.484736593788
 30
0.0
 10
140.0606702983937
 20
160.8601521900305
 30
0.0
 10
140.1447676776998
 20
160.1589640222298
 30
0.0
 10
140.2294623076362
 20
159.4321248618004
 30
0.0
 10
140.3021668666706
 20
158.8030078018712
 30
0.0
 10
140.3635837647012
 20
158.274216497623
 30
0.0
 10
140.4212102086433
 20
157.7841658832609
 30
0.0
 10
140.4829482205786
 20
157.2698075297919
 30
0.0
 10
140.5545651302475
 20
156.6937356916632
 30
0.0
 10
140.6365803209329
 20
156.0698500417323
 30
0.0
 10
140.7430944432527
 20
155.3247471063039
 30
0.0
 10
140.8726928528475
 20
154.5547455520705
 30
0.0
 10
141.0056480621993
 20
153.9764175665346
 30
0.0
 10
141.1325978040427
 20
153.6160239323793
 30
0.0
 10
141.2274055121698
 20
153.4099139417172
 30
0.0
 10
141.3757378127464
 20
153.2264216809215
 30
0.0
 10
141.5766227616838
 20
153.1079810839147
 30
0.0
 10
141.7106202868697
 20
153.0948620594367
 30
0.0
 10
141.7796893308544
 20
153.088099856348
 30
0.0
  0
LWPOLYLINE
  5
F5
330
1F
100
AcDbEntity
  8
0
  6
Continuous
 62
     7
370
    18
100
AcDbPolyline
 90
       30
 70
   128
 43
0.0
 10
143.5289403687
 20
164.1415232536
 10
143.5191000144
 20
164.136724614
 10
143.5385031889
 20
164.0524804336
 10
143.5793882499
 20
163.9013072219
 10
143.6295660476
 20
163.6932432395
 10
143.6849070976
 20
163.4283415717
 10
143.7453927735
 20
163.0986487236
 10
143.8109187673
 20
162.6988556911
 10
143.8813900838
 20
162.2247757134
 10
143.956719179
 20
161.6740979463
 10
144.0322103242
 20
161.0848920629
 10
144.1163664947
 20
160.3944111359
 10
144.1808363686
 20
159.8486447567
 10
144.2254690717
 20
159.4655711762
 10
144.2699434499
 20
159.0817502531
 10
144.3340631465
 20
158.5285864514
 10
144.4179939369
 20
157.8134056855
 10
144.4940829913
 20
157.1830883133
 10
144.581565846
 20
156.491255688
 10
144.6771400313
 20
155.7903362647
 10
144.7663849483
 20
155.2010304969
 10
144.8738223205
 20
154.5911147934
 10
144.9694263081
 20
154.1508655739
 10
145.0549459348
 20
153.8417405192
 10
145.1165138076
 20
153.6677350034
 10
145.2195441614
 20
153.4556663339
 10
145.3285461555
 20
153.3029047516
 10
145.4792117963
 20
153.1712869857
 10
145.6751862804
 20
153.0972170387
 10
145.6751862804
 20
153.0972170387
  0
SPLINE
  5
F6
330
1F
100
AcDbEntity
  8
0
  6
Continuous
 62
     7
370
    18
100
AcDbSpline
210
0.0
220
0.0
230
1.0
 70
     8
 71
     3
 72
    25
 73
    21
 74
     0
 42
0.000000001
 43
0.00000001
 40
0.0
 40
0.0
 40
0.0
 40
0.0
 40
0.0172027612273053
 40
0.0320760635572396
 40
0.0447834160521547
 40
0.0556061450728859
 40
0.0650308767713301
 40
0.0737921110399403
 40
0.0827927235529599
 40
0.1111036653139736
 40
0.1465611147644635
 40
0.2139845744410778
 40
0.2964884458114797
 40
0.3932524144462897
 40
0.5038054016098986
 40
0.6169552172526929
 40
0.7260836536223297
 40
0.8313347235026368
 40
0.932833892115138
 40
0.9999999999999999
 40
0.9999999999999999
 40
0.9999999999999999
 40
0.9999999999999999
 10
143.7799485663556
 20
165.0873614218544
 30
0.0
 10
143.7454599589188
 20
165.0857084523177
 30
0.0
 10
143.6811529125368
 20
165.0826263450202
 30
0.0
 10
143.5918199589241
 20
165.0535187410016
 30
0.0
 10
143.51880231296
 20
165.016446244622
 30
0.0
 10
143.4609080878643
 20
164.9759306508935
 30
0.0
 10
143.416345178282
 20
164.936954781007
 30
0.0
 10
143.3833555146068
 20
164.9037816186415
 30
0.0
 10
143.3451481196279
 20
164.8645734993729
 30
0.0
 10
143.3320848448552
 20
164.8663145420909
 30
0.0
 10
143.296737285075
 20
164.8442022704951
 30
0.0
 10
143.2478099326393
 20
164.7914311353609
 30
0.0
 10
143.1781858451876
 20
164.6709783343152
 30
0.0
 10
143.0957662888196
 20
164.4671466495965
 30
0.0
 10
143.0040542004859
 20
164.164771801883
 30
0.0
 10
142.9120957540216
 20
163.7750973289083
 30
0.0
 10
142.8249643739824
 20
163.325014280016
 30
0.0
 10
142.7433684869872
 20
162.834043318615
 30
0.0
 10
142.6740500270148
 20
162.3715040269246
 30
0.0
 10
142.6321401607217
 20
162.0604788156716
 30
0.0
 10
142.6154507587337
 20
161.9366219476323
 30
0.0
  0
SPLINE
  5
F7
330
1F
100
AcDbEntity
  8
0
  6
Continuous
 62
     7
370
    18
100
AcDbSpline
210
0.0
220
0.0
230
1.0
 70
     8
 71
     3
 72
    10
 73
     6
 74
     0
 42
0.000000001
 43
0.00000001
 40
0.0
 40
0.0
 40
0.0
 40
0.0
 40
0.0486541816127835
 40
0.6453644794303462
 40
1.0
 40
1.0
 40
1.0
 40
1.0
 10
141.907334540286
 20
156.1366220213931
 30
0.0
 10
141.905069166041
 20
156.1196897287042
 30
0.0
 10
141.8750205243432
 20
155.8950944340251
 30
0.0
 10
141.8282772950109
 20
155.5787510718733
 30
0.0
 10
141.7852496210824
 20
155.3187334016908
 30
0.0
 10
141.7692100892448
 20
155.2218059752595
 30
0.0
  0
SPLINE
  5
F8
330
1F
100
AcDbEntity
  8
0
  6
Continuous
 62
     7
370
    18
100
AcDbSpline
210
0.0
220
0.0
230
1.0
 70
     8
 71
     3
 72
    17
 73
    13
 74
     0
 42
0.000000001
 43
0.00000001
 40
0.0
 40
0.0
 40
0.0
 40
0.0
 40
0.0719856217556854
 40
0.1364305202521139
 40
0.2430413568771561
 40
0.3273033573592719
 40
0.411065780870587
 40
0.587806160369982
 40
0.777436794274201
 40
0.8763171107993456
 40
0.9728422437935322
 40
1.0
 40
1.0
 40
1.0
 40
1.0
 10
139.7805122921848
 20
165.087686453433
 30
0.0
 10
139.7062785918484
 20
165.079834262646
 30
0.0
 10
139.5655874078298
 20
165.0649524230779
 30
0.0
 10
139.3563705372193
 20
164.9334712122947
 30
0.0
 10
139.2013258758468
 20
164.7249884045774
 30
0.0
 10
139.1192247920816
 20
164.5337521260576
 30
0.0
 10
139.0201739008549
 20
164.2482354405408
 30
0.0
 10
138.9049019876114
 20
163.7751859061194
 30
0.0
 10
138.7931529732143
 20
163.1590928501587
 30
0.0
 10
138.7029890936738
 20
162.5681091340918
 30
0.0
 10
138.650895951126
 20
162.2106263650665
 30
0.0
 10
138.6220380531477
 20
161.9859544411926
 30
0.0
 10
138.6157015601777
 20
161.9366219476323
 30
0.0
  0
SPLINE
  5
F9
330
1F
100
AcDbEntity
  8
0
  6
Continuous
 62
     7
370
    18
100
AcDbSpline
210
0.0
220
0.0
230
1.0
 70
     8
 71
     3
 72
     9
 73
     5
 74
     0
 42
0.000000001
 43
0.00000001
 40
0.0
 40
0.0
 40
0.0
 40
0.0
 40
0.5963549267971876
 40
1.0
 40
1.0
 40
1.0
 40
1.0
 10
137.9056798557424
 20
156.1366220213931
 30
0.0
 10
137.8779795357992
 20
155.9327479974878
 30
0.0
 10
137.8315301502093
 20
155.5908810743783
 30
0.0
 10
137.7861622372018
 20
155.3331557344126
 30
0.0
 10
137.7678497026347
 20
155.2291261706959
 30
0.0
  0
SPLINE
  5
FA
330
1F
100
AcDbEntity
  8
0
  6
Continuous
 62
     7
370
    18
100
AcDbSpline
210
0.0
220
0.0
230
1.0
 70
     8
 71
     3
 72
    18
 73
    14
 74
     0
 42
0.000000001
 43
0.00000001
 40
0.0
 40
0.0
 40
0.0
 40
0.0
 40
0.0917005988520415
 40
0.1696272342134185
 40
0.2609072144929339
 40
0.3252054175080441
 40
0.3860415661563006
 40
0.4503167161359413
 40
0.5730848425571008
 40
0.7069449282119799
 40
0.8521351447326057
 40
0.962931742052603
 40
1.0
 40
1.0
 40
1.0
 40
1.0
 10
135.7799453924083
 20
165.0873628188383
 30
0.0
 10
135.7006860383161
 20
165.0777925839257
 30
0.0
 10
135.5540725462722
 20
165.060089619067
 30
0.0
 10
135.3592876788752
 20
164.921426881703
 30
0.0
 10
135.2198240248559
 20
164.7395629267201
 30
0.0
 10
135.1383984476833
 20
164.5674799194785
 30
0.0
 10
135.0782947673429
 20
164.408131641341
 30
0.0
 10
135.0048026106946
 20
164.1730159503985
 30
0.0
 10
134.91913416644
 20
163.8241820034427
 30
0.0
 10
134.819609847331
 20
163.3107601475968
 30
0.0
 10
134.727162441902
 20
162.7351321575402
 30
0.0
 10
134.6586111155089
 20
162.2631829767298
 30
0.0
 10
134.6240621123264
 20
162.0020783077818
 30
0.0
 10
134.6154010186576
 20
161.9366219476323
 30
0.0
  0
SPLINE
  5
FB
330
1F
100
AcDbEntity
  8
0
  6
Continuous
 62
     7
370
    18
100
AcDbSpline
210
0.0
220
0.0
230
1.0
 70
     8
 71
     3
 72
    10
 73
     6
 74
     0
 42
0.000000001
 43
0.00000001
 40
0.0
 40
0.0
 40
0.0
 40
0.0
 40
0.0438069191320546
 40
0.5476077576182627
 40
1.0
 40
1.0
 40
1.0
 40
1.0
 10
133.9072428906941
 20
156.1366220213931
 30
0.0
 10
133.9052085569392
 20
156.1214672000345
 30
0.0
 10
133.8797783973248
 20
155.9320245753145
 30
0.0
 10
133.8336181930699
 20
155.6173972619224
 30
0.0
 10
133.7898690870963
 20
155.346627819823
 30
0.0
 10
133.769170593717
 20
155.2185218990307
 30
0.0
  0
SPLINE
  5
FC
330
1F
100
AcDbEntity
  8
0
  6
Continuous
 62
     7
370
    18
100
AcDbSpline
210
0.0
220
0.0
230
1.0
 70
     8
 71
     3
 72
    15
 73
    11
 74
     0
 42
0.000000001
 43
0.00000001
 40
0.0
 40
0.0
 40
0.0
 40
0.0
 40
0.0931467323599671
 40
0.1799934339921175
 40
0.2985826249354478
 40
0.4054009536352355
 40
0.5222895406116861
 40
0.6744972095713225
 40
0.8392581748834537
 40
1.0
 40
1.0
 40
1.0
 40
1.0
 10
131.7796495075011
 20
165.0876934383523
 30
0.0
 10
131.7130990107944
 20
165.0814186164886
 30
0.0
 10
131.58449919701
 20
165.0692933738063
 30
0.0
 10
131.4083980389628
 20
164.9702223759388
 30
0.0
 10
131.2706841297033
 20
164.8276251446939
 30
0.0
 10
131.1767816496503
 20
164.6646765133433
 30
0.0
 10
131.1055407369394
 20
164.4954917518096
 30
0.0
 10
131.0263489536628
 20
164.2507836059288
 30
0.0
 10
130.9457936128138
 20
163.9359986363148
 30
0.0
 10
130.8930954158026
 20
163.668647032837
 30
0.0
 10
130.8670716623449
 20
163.5366217907976
 30
0.0
  0
LINE
  5
FD
330
1F
100
AcDbEntity
  8
0
  6
Continuous
 62
     7
370
    18
100
AcDbLine
 10
168.2876685897
 20
165.0366220367
 30
0.0
 11
167.573869441
 21
165.0366220367
 31
0.0
  0
LINE
  5
FE
330
1F
100
AcDbEntity
  8
0
  6
Continuous
 62
     7
370
    18
100
AcDbLine
 10
161.5738721828
 20
165.0366220367
 30
0.0
 11
150.7876666526
 21
165.0366220367
 31
0.0
  0
LINE
  5
FF
330
1F
100
AcDbEntity
  8
0
  6
Continuous
 62
     7
370
    18
100
AcDbLine
 10
150.7876666526
 20
153.0366219324
 30
0.0
 11
161.5738721828
 21
153.0366219324
 31
0.0
  0
LINE
  5
100
330
1F
100
AcDbEntity
  8
0
  6
Continuous
 62
     7
370
    18
100
AcDbLine
 10
167.573869441
 20
153.0366219324
 30
0.0
 11
168.2876685897
 21
153.0366219324
 31
0.0
  0
LWPOLYLINE
  5
101
330
1F
100
AcDbEntity
  8
0
  6
Continuous
 62
     7
370
    18
100
AcDbPolyline
 90
        3
 70
   128
 43
0.0
 10
168.2876685897
 20
153.0366219324
 10
168.8476691286
 20
153.5966220055
 10
169.287666891
 20
154.0366220963
  0
LWPOLYLINE
  5
102
330
1F
100
AcDbEntity
  8
0
  6
Continuous
 62
     7
370
    18
100
AcDbPolyline
 90
        3
 70
   128
 43
0.0
 10
169.287666891
 20
164.0366218728
 10
168.7276663522
 20
164.5966219459
 10
168.2876685897
 20
165.0366220367
  0
LINE
  5
103
330
1F
100
AcDbEntity
  8
0
  6
Continuous
 62
     7
370
    18
100
AcDbLine
 10
150.7876666526
 20
164.5366219547
 30
0.0
 11
149.2876673381
 21
164.5366219547
 31
0.0
  0
LINE
  5
104
330
1F
100
AcDbEntity
  8
0
  6
Continuous
 62
     7
370
    18
100
AcDbLine
 10
149.2876673381
 20
153.5366220143
 30
0.0
 11
150.7876666526
 21
153.5366220143
 31
0.0
  0
LINE
  5
105
330
1F
100
AcDbEntity
  8
0
  6
Continuous
 62
     7
370
    18
100
AcDbLine
 10
146.287668709
 20
163.5366217908
 30
0.0
 11
144.6742026399
 21
163.5366217908
 31
0.0
  0
LINE
  5
106
330
1F
100
AcDbEntity
  8
0
  6
Continuous
 62
     7
370
    18
100
AcDbLine
 10
143.7876673679
 20
154.5366217126
 30
0.0
 11
144.8856557051
 21
154.5366217126
 31
0.0
  0
LINE
  5
107
330
1F
100
AcDbEntity
  8
0
  6
Continuous
 62
     7
370
    18
100
AcDbLine
 10
145.8958538512
 20
154.5366217126
 30
0.0
 11
146.287668709
 21
154.5366217126
 31
0.0
  0
LWPOLYLINE
  5
108
330
1F
100
AcDbEntity
  8
0
  6
Continuous
 62
     7
370
    18
100
AcDbPolyline
 90
        3
 70
   128
 43
0.0
 10
143.6839534233
 20
163.4329078462
 10
143.5076670984
 20
163.256621987
 10
143.2876682172
 20
163.0366217088
  0
LWPOLYLINE
  5
109
330
1F
100
AcDbEntity
  8
0
  6
Continuous
 62
     7
370
    18
100
AcDbPolyline
 90
        3
 70
   128
 43
0.0
 10
143.2876682172
 20
155.0366217945
 10
143.5676684866
 20
154.7566219908
 10
143.7876673679
 20
154.5366217126
  0
LWPOLYLINE
  5
10A
330
1F
100
AcDbEntity
  8
0
  6
Continuous
 62
     7
370
    18
100
AcDbPolyline
 90
        3
 70
   128
 43
0.0
 10
162.1343309323
 20
168.8573659141
 10
161.8204714994
 20
168.313749202
 10
161.5738721828
 20
167.8866223176
  0
LWPOLYLINE
  5
10B
330
1F
100
AcDbEntity
  8
0
  6
Continuous
 62
     7
370
    18
100
AcDbPolyline
 90
        3
 70
   128
 43
0.0
 10
164.0134120623
 20
149.2158780549
 10
164.32726777
 20
149.759494767
 10
164.5738708119
 20
150.1866216515
  0
LWPOLYLINE
  5
10C
330
1F
100
AcDbEntity
  8
0
  6
Continuous
 62
     7
370
    18
100
AcDbPolyline
 90
        3
 70
   128
 43
0.0
 10
161.5738721828
 20
150.1866216515
 10
161.8877278904
 20
149.6430049394
 10
162.1343309323
 20
149.2158780549
  0
LWPOLYLINE
  5
10D
330
1F
100
AcDbEntity
  8
0
  6
Continuous
 62
     7
370
    18
100
AcDbPolyline
 90
        3
 70
   128
 43
0.0
 10
164.5738708119
 20
167.8866223176
 10
164.2600151042
 20
168.4302390296
 10
164.0134120623
 20
168.8573659141
  0
LWPOLYLINE
  5
10E
330
1F
100
AcDbEntity
  8
0
  6
Continuous
 62
     7
370
    18
100
AcDbPolyline
 90
        3
 70
   128
 43
0.0
 10
167.0134106914
 20
149.2158780549
 10
167.3272701244
 20
149.759494767
 10
167.573869441
 20
150.1866216515
  0
LWPOLYLINE
  5
10F
330
1F
100
AcDbEntity
  8
0
  6
Continuous
 62
     7
370
    18
100
AcDbPolyline
 90
        3
 70
   128
 43
0.0
 10
165.1343295614
 20
168.8573659141
 10
164.8204738537
 20
168.313749202
 10
164.5738708119
 20
167.8866223176
  0
LWPOLYLINE
  5
110
330
1F
100
AcDbEntity
  8
0
  6
Continuous
 62
     7
370
    18
100
AcDbPolyline
 90
        3
 70
   128
 43
0.0
 10
167.573869441
 20
167.8866223176
 10
167.2600137333
 20
168.4302390296
 10
167.0134106914
 20
168.8573659141
  0
LWPOLYLINE
  5
111
330
1F
100
AcDbEntity
  8
0
  6
Continuous
 62
     7
370
    18
100
AcDbPolyline
 90
        3
 70
   128
 43
0.0
 10
164.5738708119
 20
150.1866216515
 10
164.8877302448
 20
149.6430049394
 10
165.1343295614
 20
149.2158780549
  0
SPLINE
  5
112
330
1F
100
AcDbEntity
  8
0
  6
Continuous
 62
     7
370
    18
100
AcDbSpline
210
0.0
220
0.0
230
1.0
 70
    24
 71
     3
 72
    14
 73
    10
 74
     0
 42
0.000000001
 43
0.00000001
 40
0.0
 40
0.0
 40
0.0
 40
0.0
 40
0.2500000000000001
 40
0.2500000000000001
 40
0.5000000000000002
 40
0.5000000000000002
 40
0.7500000000000001
 40
0.7500000000000001
 40
1.0
 40
1.0
 40
1.0
 40
1.0
 10
124.2876678450771
 20
152.5730702691853
 30
0.0
 10
124.2876678450771
 20
152.7563999583934
 30
0.0
 10
124.2876678450771
 20
153.0559151660799
 30
0.0
 10
124.2876678450771
 20
153.8852144778925
 30
0.0
 10
124.2876678450771
 20
154.4147589797408
 30
0.0
 10
124.2876678450771
 20
155.6232602156535
 30
0.0
 10
124.2876678450771
 20
156.3001306725795
 30
0.0
 10
124.2876678450771
 20
157.6778675610426
 30
0.0
 10
124.2876678450771
 20
158.3769249672154
 30
0.0
 10
124.2876678450771
 20
159.0366219253949
 30
0.0
  0
SPLINE
  5
113
330
1F
100
AcDbEntity
  8
0
  6
Continuous
 62
     7
370
    18
100
AcDbSpline
210
0.0
220
0.0
230
1.0
 70
    24
 71
     3
 72
    10
 73
     6
 74
     0
 42
0.000000001
 43
0.00000001
 40
0.0
 40
0.0
 40
0.0
 40
0.0
 40
0.5
 40
0.5
 40
1.0
 40
1.0
 40
1.0
 40
1.0
 10
123.9876678448838
 20
159.0366219253949
 30
0.0
 10
124.0583785230988
 20
159.0366219253949
 30
0.0
 10
124.1412212355683
 20
159.0366219253949
 30
0.0
 10
124.2583785230791
 20
159.0366219253949
 30
0.0
 10
124.2876678449798
 20
159.0366219253949
 30
0.0
 10
124.2876678450771
 20
159.0366219253949
 30
0.0
  0
SPLINE
  5
114
330
1F
100
AcDbEntity
  8
0
  6
Continuous
 62
     7
370
    18
100
AcDbSpline
210
0.0
220
0.0
230
1.0
 70
    24
 71
     3
 72
    10
 73
     6
 74
     0
 42
0.000000001
 43
0.00000001
 40
0.0
 40
0.0
 40
0.0
 40
0.0
 40
0.4999999999999999
 40
0.4999999999999999
 40
1.0
 40
1.0
 40
1.0
 40
1.0
 10
123.9876678446912
 20
159.0366219225234
 30
0.0
 10
123.9876678446912
 20
157.3203320679033
 30
0.0
 10
123.9876678446912
 20
155.6636772793053
 30
0.0
 10
123.9876678446912
 20
153.0999862969435
 30
0.0
 10
123.9876678446912
 20
152.2820293923912
 30
0.0
 10
123.9876678446912
 20
152.0835752316718
 30
0.0
  0
SPLINE
  5
115
330
1F
100
AcDbEntity
  8
0
  6
Continuous
 62
     7
370
    18
100
AcDbSpline
210
0.0
220
0.0
230
1.0
 70
     8
 71
     3
 72
    14
 73
    10
 74
     0
 42
0.000000001
 43
0.00000001
 40
0.0
 40
0.0
 40
0.0
 40
0.0
 40
0.25
 40
0.25
 40
0.5
 40
0.5
 40
0.75
 40
0.75
 40
1.0
 40
1.0
 40
1.0
 40
1.0
 10
123.9876678446912
 20
152.0835752313949
 30
0.0
 10
124.0088567086912
 20
152.0964648683948
 30
0.0
 10
124.0340129726912
 20
152.1136120253949
 30
0.0
 10
124.0909806046912
 20
152.1615703933949
 30
0.0
 10
124.1228916326912
 20
152.1925225278949
 30
0.0
 10
124.1865801006912
 20
152.2721059418949
 30
0.0
 10
124.2186827023579
 20
152.3210652077282
 30
0.0
 10
124.2697199316912
 20
152.4386924583949
 30
0.0
 10
124.2876678446912
 20
152.5060390423949
 30
0.0
 10
124.2876678446912
 20
152.5730702703949
 30
0.0
  0
SPLINE
  5
116
330
1F
100
AcDbEntity
  8
0
  6
Continuous
 62
     7
370
    18
100
AcDbSpline
210
0.0
220
0.0
230
1.0
 70
    27
 71
     3
 72
    12
 73
     8
 74
     0
 42
0.000000001
 43
0.00000001
 40
0.0
 40
0.0
 40
0.0
 40
0.0
 40
0.3333333333333333
 40
0.3333333333333333
 40
0.6666666666666665
 40
0.6666666666666665
 40
0.9999999999999999
 40
0.9999999999999999
 40
0.9999999999999999
 40
0.9999999999999999
 10
129.9876678446912
 20
159.0366219253949
 30
0.0
 10
129.9876678446912
 20
161.5371159393697
 30
0.0
 10
129.9876678446912
 20
163.8485527456732
 30
0.0
 10
129.9876678446912
 20
166.3490467590559
 30
0.0
 10
129.9876678446912
 20
166.3490467585084
 30
0.0
 10
129.9876678446912
 20
163.8485527433491
 30
0.0
 10
129.9876678446912
 20
161.5371159364983
 30
0.0
 10
129.9876678446912
 20
159.0366219225234
 30
0.0
  0
SPLINE
  5
117
330
1F
100
AcDbEntity
  8
0
  6
Continuous
 62
     7
370
    18
100
AcDbSpline
210
0.0
220
0.0
230
1.0
 70
    27
 71
     3
 72
    14
 73
    10
 74
     0
 42
0.000000001
 43
0.00000001
 40
0.0
 40
0.0
 40
0.0
 40
0.0
 40
0.25
 40
0.25
 40
0.5000000000000001
 40
0.5000000000000001
 40
0.75
 40
0.75
 40
1.0
 40
1.0
 40
1.0
 40
1.0
 10
129.9876678446912
 20
159.0366219225234
 30
0.0
 10
129.9876678446912
 20
157.1801590348827
 30
0.0
 10
129.9876678446912
 20
155.3995919523154
 30
0.0
 10
129.9876678446912
 20
152.7741569592614
 30
0.0
 10
129.9876678446912
 20
152.0366219251808
 30
0.0
 10
129.9876678446912
 20
152.0366219256089
 30
0.0
 10
129.9876678446912
 20
152.7741569601002
 30
0.0
 10
129.9876678446912
 20
155.3995919537597
 30
0.0
 10
129.9876678446912
 20
157.180159036497
 30
0.0
 10
129.9876678446912
 20
159.0366219241378
 30
0.0
  0
SPLINE
  5
118
330
1F
100
AcDbEntity
  8
0
  6
Continuous
 62
     7
370
    18
100
AcDbSpline
210
0.0
220
0.0
230
1.0
 70
    24
 71
     3
 72
    10
 73
     6
 74
     0
 42
0.000000001
 43
0.00000001
 40
0.0
 40
0.0
 40
0.0
 40
0.0
 40
0.5000000000000002
 40
0.5000000000000002
 40
1.0
 40
1.0
 40
1.0
 40
1.0
 10
128.5876678446912
 20
152.0835752316718
 30
0.0
 10
128.5876678446912
 20
152.2820293923911
 30
0.0
 10
128.5876678446912
 20
153.0999862969435
 30
0.0
 10
128.5876678446912
 20
155.6636772793053
 30
0.0
 10
128.5876678446912
 20
157.3203320679033
 30
0.0
 10
128.5876678446912
 20
159.0366219225234
 30
0.0
  0
SPLINE
  5
119
330
1F
100
AcDbEntity
  8
0
  6
Continuous
 62
     7
370
    18
100
AcDbSpline
210
0.0
220
0.0
230
1.0
 70
    27
 71
     3
 72
    12
 73
     8
 74
     0
 42
0.000000001
 43
0.00000001
 40
0.0
 40
0.0
 40
0.0
 40
0.0
 40
0.3333333333333332
 40
0.3333333333333332
 40
0.6666666666666665
 40
0.6666666666666665
 40
0.9999999999999999
 40
0.9999999999999999
 40
0.9999999999999999
 40
0.9999999999999999
 10
128.5876678446912
 20
159.0366219225234
 30
0.0
 10
128.5876678446912
 20
161.5371159364983
 30
0.0
 10
128.5876678446912
 20
163.8485527433491
 30
0.0
 10
128.5876678446912
 20
166.3490467585084
 30
0.0
 10
128.5876678446912
 20
166.3490467590559
 30
0.0
 10
128.5876678446912
 20
163.8485527456732
 30
0.0
 10
128.5876678446912
 20
161.5371159393697
 30
0.0
 10
128.5876678446912
 20
159.0366219253949
 30
0.0
  0
SPLINE
  5
11A
330
1F
100
AcDbEntity
  8
0
  6
Continuous
 62
     7
370
    18
100
AcDbSpline
210
0.0
220
0.0
230
1.0
 70
     8
 71
     3
 72
    14
 73
    10
 74
     0
 42
0.000000001
 43
0.00000001
 40
0.0
 40
0.0
 40
0.0
 40
0.0
 40
0.25
 40
0.25
 40
0.5
 40
0.5
 40
0.75
 40
0.75
 40
1.0
 40
1.0
 40
1.0
 40
1.0
 10
128.2876678446912
 20
152.5730702703949
 30
0.0
 10
128.2876678446912
 20
152.5059420943949
 30
0.0
 10
128.3056402116912
 20
152.4386076113948
 30
0.0
 10
128.3567132703579
 20
152.3209548060615
 30
0.0
 10
128.3888444471912
 20
152.2719666888948
 30
0.0
 10
128.4526513731912
 20
152.1922918188949
 30
0.0
 10
128.4844568376912
 20
152.1614691107282
 30
0.0
 10
128.5415396296912
 20
152.1134451253949
 30
0.0
 10
128.5666014706912
 20
152.0963903543949
 30
0.0
 10
128.5876678446912
 20
152.0835752313949
 30
0.0
  0
SPLINE
  5
11B
330
1F
100
AcDbEntity
  8
0
  6
Continuous
 62
     7
370
    18
100
AcDbSpline
210
0.0
220
0.0
230
1.0
 70
    24
 71
     3
 72
    10
 73
     6
 74
     0
 42
0.000000001
 43
0.00000001
 40
0.0
 40
0.0
 40
0.0
 40
0.0
 40
0.5
 40
0.5
 40
1.0
 40
1.0
 40
1.0
 40
1.0
 10
128.5876678444987
 20
159.0366219253949
 30
0.0
 10
128.5169571662836
 20
159.0366219253949
 30
0.0
 10
128.4341144538141
 20
159.0366219253949
 30
0.0
 10
128.3169571663033
 20
159.0366219253949
 30
0.0
 10
128.2876678444026
 20
159.0366219253949
 30
0.0
 10
128.2876678443054
 20
159.0366219253949
 30
0.0
  0
SPLINE
  5
11C
330
1F
100
AcDbEntity
  8
0
  6
Continuous
 62
     7
370
    18
100
AcDbSpline
210
0.0
220
0.0
230
1.0
 70
    24
 71
     3
 72
    14
 73
    10
 74
     0
 42
0.000000001
 43
0.00000001
 40
0.0
 40
0.0
 40
0.0
 40
0.0
 40
0.2500000000000001
 40
0.2500000000000001
 40
0.5000000000000001
 40
0.5000000000000001
 40
0.7500000000000002
 40
0.7500000000000002
 40
1.0
 40
1.0
 40
1.0
 40
1.0
 10
128.2876678443054
 20
159.0366219253949
 30
0.0
 10
128.2876678443054
 20
158.3769249672154
 30
0.0
 10
128.2876678443054
 20
157.6778675610426
 30
0.0
 10
128.2876678443054
 20
156.3001306725795
 30
0.0
 10
128.2876678443053
 20
155.6232602156535
 30
0.0
 10
128.2876678443054
 20
154.4147589797408
 30
0.0
 10
128.2876678443054
 20
153.8852144778926
 30
0.0
 10
128.2876678443054
 20
153.0559151660799
 30
0.0
 10
128.2876678443054
 20
152.7563999583934
 30
0.0
 10
128.2876678443054
 20
152.5730702691853
 30
0.0
  0
SPLINE
  5
11D
330
1F
100
AcDbEntity
  8
0
  6
Continuous
 62
     7
370
    18
100
AcDbSpline
210
0.0
220
0.0
230
1.0
 70
    24
 71
     3
 72
    20
 73
    16
 74
     0
 42
0.000000001
 43
0.00000001
 40
0.0
 40
0.0
 40
0.0
 40
0.0
 40
0.1249999999999999
 40
0.1249999999999999
 40
0.2499999999999998
 40
0.2499999999999998
 40
0.3749999999999997
 40
0.3749999999999997
 40
0.4999999999999997
 40
0.4999999999999997
 40
0.6249999999999998
 40
0.6249999999999998
 40
0.7499999999999998
 40
0.7499999999999998
 40
1.0
 40
1.0
 40
1.0
 40
1.0
 10
128.2876678443054
 20
165.7366219255217
 30
0.0
 10
128.2876678443054
 20
165.7366219255206
 30
0.0
 10
128.2876678443054
 20
165.6657895783782
 30
0.0
 10
128.2876678443054
 20
165.3951465803439
 30
0.0
 10
128.2876678443054
 20
165.1956761354265
 30
0.0
 10
128.2876678443054
 20
164.7010971273427
 30
0.0
 10
128.2876678443054
 20
164.4064286434499
 30
0.0
 10
128.2876678443054
 20
163.7627056184801
 30
0.0
 10
128.2876678443054
 20
163.4139552588065
 30
0.0
 10
128.2876678443054
 20
162.6992885921268
 30
0.0
 10
128.2876678443054
 20
162.3334741747487
 30
0.0
 10
128.2876678443054
 20
161.6116797885052
 30
0.0
 10
128.2876678443054
 20
161.2556619254344
 30
0.0
 10
128.2876678443054
 20
160.2265419254161
 30
0.0
 10
128.2876678443054
 20
159.5949552587382
 30
0.0
 10
128.2876678443054
 20
159.0366219253949
 30
0.0
  0
SPLINE
  5
11E
330
1F
100
AcDbEntity
  8
0
  6
Continuous
 62
     7
370
    18
100
AcDbSpline
210
0.0
220
0.0
230
1.0
 70
    24
 71
     3
 72
    20
 73
    16
 74
     0
 42
0.000000001
 43
0.00000001
 40
0.0
 40
0.0
 40
0.0
 40
0.0
 40
0.2499999999999998
 40
0.2499999999999998
 40
0.3749999999999999
 40
0.3749999999999999
 40
0.4999999999999999
 40
0.4999999999999999
 40
0.6249999999999999
 40
0.6249999999999999
 40
0.75
 40
0.75
 40
0.875
 40
0.875
 40
1.0
 40
1.0
 40
1.0
 40
1.0
 10
124.2876678450771
 20
159.0366219253949
 30
0.0
 10
124.2876678450771
 20
159.5949552587393
 30
0.0
 10
124.2876678450771
 20
160.2265419254187
 30
0.0
 10
124.2876678450771
 20
161.2556619254393
 30
0.0
 10
124.2876678450771
 20
161.6116797885109
 30
0.0
 10
124.2876678450771
 20
162.333474174756
 30
0.0
 10
124.2876678450771
 20
162.6992885921348
 30
0.0
 10
124.2876678450771
 20
163.4139552588156
 30
0.0
 10
124.2876678450771
 20
163.7627056184896
 30
0.0
 10
124.2876678450771
 20
164.4064286434597
 30
0.0
 10
124.2876678450771
 20
164.7010971273523
 30
0.0
 10
124.2876678450771
 20
165.1956761354348
 30
0.0
 10
124.2876678450771
 20
165.3951465803511
 30
0.0
 10
124.2876678450771
 20
165.6657895783823
 30
0.0
 10
124.2876678450771
 20
165.7366219255228
 30
0.0
 10
124.2876678450771
 20
165.7366219255217
 30
0.0
  0
SPLINE
  5
11F
330
1F
100
AcDbEntity
  8
0
  6
Continuous
 62
     7
370
    18
100
AcDbSpline
210
0.0
220
0.0
230
1.0
 70
    24
 71
     3
 72
    25
 73
    21
 74
     0
 42
0.000000001
 43
0.00000001
 40
0.0
 40
0.0
 40
0.0
 40
0.0
 40
0.0250529547012751
 40
0.0500478753409906
 40
0.0750234212569811
 40
0.1000183416871891
 40
0.1250712959704197
 40
0.1875858261821789
 40
0.2501003567404747
 40
0.3126148877363534
 40
0.3751294184057044
 40
0.5000071476030015
 40
0.6248848768002989
 40
0.6873994074696499
 40
0.7499139384655285
 40
0.8124284690238243
 40
0.8749429992355833
 40
0.916658544395097
 40
0.9582844542529622
 40
1.0
 40
1.0
 40
1.0
 40
1.0
 10
130.2876678446912
 20
159.0366219253949
 30
0.0
 10
130.2876678446912
 20
158.9487828872689
 30
0.0
 10
130.2876678446912
 20
158.773308286264
 30
0.0
 10
130.2876678446912
 20
158.5106688816568
 30
0.0
 10
130.2876678446912
 20
158.2490462485954
 30
0.0
 10
130.2876678446912
 20
157.9884342102635
 30
0.0
 10
130.2876678446912
 20
157.5998853732278
 30
0.0
 10
130.2876678446912
 20
157.0885154832056
 30
0.0
 10
130.2876678446912
 20
156.4685625999682
 30
0.0
 10
130.2876678446912
 20
155.8730916844948
 30
0.0
 10
130.2876678446912
 20
155.1206685711531
 30
0.0
 10
130.2876678446912
 20
154.2683562649641
 30
0.0
 10
130.2876678446912
 20
153.5693322275428
 30
0.0
 10
130.2876678446912
 20
153.1181535252235
 30
0.0
 10
130.2876678446912
 20
152.8367271497228
 30
0.0
 10
130.2876678446912
 20
152.61471219443
 30
0.0
 10
130.2876678446912
 20
152.4724510105323
 30
0.0
 10
130.2876678446912
 20
152.3894581337692
 30
0.0
 10
130.2876678446912
 20
152.3448441599087
 30
0.0
 10
130.2876678446912
 20
152.3393646369045
 30
0.0
 10
130.2876678446912
 20
152.336621928718
 30
0.0
  0
SPLINE
  5
120
330
1F
100
AcDbEntity
  8
0
  6
Continuous
 62
     7
370
    18
100
AcDbSpline
210
0.0
220
0.0
230
1.0
 70
    24
 71
     3
 72
    10
 73
     6
 74
     0
 42
0.000000001
 43
0.00000001
 40
0.0
 40
0.0
 40
0.0
 40
0.0
 40
0.5
 40
0.5
 40
1.0
 40
1.0
 40
1.0
 40
1.0
 10
129.9876678448838
 20
159.0366219253949
 30
0.0
 10
130.0583785230988
 20
159.0366219253949
 30
0.0
 10
130.1412212355683
 20
159.0366219253949
 30
0.0
 10
130.2583785230791
 20
159.0366219253949
 30
0.0
 10
130.2876678449798
 20
159.0366219253949
 30
0.0
 10
130.2876678450771
 20
159.0366219253949
 30
0.0
  0
SPLINE
  5
121
330
1F
100
AcDbEntity
  8
0
  6
Continuous
 62
     7
370
    18
100
AcDbSpline
210
0.0
220
0.0
230
1.0
 70
    24
 71
     3
 72
    10
 73
     6
 74
     0
 42
0.000000001
 43
0.00000001
 40
0.0
 40
0.0
 40
0.0
 40
0.0
 40
0.5
 40
0.5
 40
1.0
 40
1.0
 40
1.0
 40
1.0
 10
130.2876678450771
 20
159.0366219253949
 30
0.0
 10
130.2876678449798
 20
159.0366219253949
 30
0.0
 10
130.2583785230791
 20
159.0366219253949
 30
0.0
 10
130.1412212355683
 20
159.0366219253949
 30
0.0
 10
130.0583785230988
 20
159.0366219253949
 30
0.0
 10
129.9876678448838
 20
159.0366219253949
 30
0.0
  0
SPLINE
  5
122
330
1F
100
AcDbEntity
  8
0
  6
Continuous
 62
     7
370
    18
100
AcDbSpline
210
0.0
220
0.0
230
1.0
 70
    24
 71
     3
 72
    25
 73
    21
 74
     0
 42
0.000000001
 43
0.00000001
 40
0.0
 40
0.0
 40
0.0
 40
0.0
 40
0.0250529546961805
 40
0.0500478753371753
 40
0.0750234212544377
 40
0.1000183416859154
 40
0.1250712959704197
 40
0.1875858261821788
 40
0.2501003567404746
 40
0.3126148877363533
 40
0.3751294184057042
 40
0.5000071476030015
 40
0.6248848768002986
 40
0.6873994074696498
 40
0.7499139384655285
 40
0.8124284690238244
 40
0.8749429992355832
 40
0.9166585443972171
 40
0.9582844542572012
 40
1.0
 40
1.0
 40
1.0
 40
1.0
 10
130.2876678446912
 20
165.7366219220717
 30
0.0
 10
130.2876678446912
 20
165.7356338814265
 30
0.0
 10
130.2876678446912
 20
165.7336600888885
 30
0.0
 10
130.2876678446912
 20
165.7176275626852
 30
0.0
 10
130.2876678446912
 20
165.6920155665834
 30
0.0
 10
130.2876678446912
 20
165.6558891518439
 30
0.0
 10
130.2876678446912
 20
165.5864662392647
 30
0.0
 10
130.2876678446912
 20
165.4585713413233
 30
0.0
 10
130.2876678446912
 20
165.2365060852783
 30
0.0
 10
130.2876678446912
 20
164.9550931037569
 30
0.0
 10
130.2876678446912
 20
164.5039100371937
 30
0.0
 10
130.2876678446912
 20
163.804887987836
 30
0.0
 10
130.2876678446912
 20
162.9525756591714
 30
0.0
 10
130.2876678446912
 20
162.2001514015676
 30
0.0
 10
130.2876678446912
 20
161.604684215742
 30
0.0
 10
130.2876678446912
 20
160.9847172726297
 30
0.0
 10
130.2876678446912
 20
160.4166201293556
 30
0.0
 10
130.2876678446912
 20
159.9117891372346
 30
0.0
 10
130.2876678446912
 20
159.4751386234071
 30
0.0
 10
130.2876678446912
 20
159.1828989285061
 30
0.0
 10
130.2876678446912
 20
159.0366219253949
 30
0.0
  0
SPLINE
  5
123
330
1F
100
AcDbEntity
  8
0
  6
Continuous
 62
     7
370
    18
100
AcDbSpline
210
0.0
220
0.0
230
1.0
 70
    24
 71
     3
 72
    10
 73
     6
 74
     0
 42
0.000000001
 43
0.00000001
 40
0.0
 40
0.0
 40
0.0
 40
0.0
 40
0.5
 40
0.5
 40
1.0
 40
1.0
 40
1.0
 40
1.0
 10
122.2876678443054
 20
159.0366219253949
 30
0.0
 10
122.2876678444026
 20
159.0366219253949
 30
0.0
 10
122.3169571663033
 20
159.0366219253949
 30
0.0
 10
122.4341144538141
 20
159.0366219253949
 30
0.0
 10
122.5169571662836
 20
159.0366219253949
 30
0.0
 10
122.5876678444987
 20
159.0366219253949
 30
0.0
  0
SPLINE
  5
124
330
1F
100
AcDbEntity
  8
0
  6
Continuous
 62
     7
370
    18
100
AcDbSpline
210
0.0
220
0.0
230
1.0
 70
    24
 71
     3
 72
    25
 73
    21
 74
     0
 42
0.000000001
 43
0.00000001
 40
0.0
 40
0.0
 40
0.0
 40
0.0
 40
0.0250529547012752
 40
0.0500478753409906
 40
0.0750234212569812
 40
0.1000183416871888
 40
0.1250712959704198
 40
0.1875858261821786
 40
0.2501003567404746
 40
0.312614887736353
 40
0.3751294184057042
 40
0.5000071476030015
 40
0.6248848768002988
 40
0.68739940746965
 40
0.7499139384655285
 40
0.8124284690238244
 40
0.8749429992355832
 40
0.9166585443950973
 40
0.958284454252962
 40
1.0
 40
1.0
 40
1.0
 40
1.0
 10
122.2876678446912
 20
159.0366219253949
 30
0.0
 10
122.2876678446912
 20
159.1244609635208
 30
0.0
 10
122.2876678446912
 20
159.2999355645257
 30
0.0
 10
122.2876678446912
 20
159.5625749691329
 30
0.0
 10
122.2876678446912
 20
159.8241976021943
 30
0.0
 10
122.2876678446912
 20
160.0848096405262
 30
0.0
 10
122.2876678446912
 20
160.4733584775619
 30
0.0
 10
122.2876678446912
 20
160.9847283675842
 30
0.0
 10
122.2876678446912
 20
161.6046812508215
 30
0.0
 10
122.2876678446912
 20
162.2001521662949
 30
0.0
 10
122.2876678446912
 20
162.9525752796366
 30
0.0
 10
122.2876678446912
 20
163.8048875858256
 30
0.0
 10
122.2876678446912
 20
164.5039116232469
 30
0.0
 10
122.2876678446912
 20
164.9550903255662
 30
0.0
 10
122.2876678446912
 20
165.2365167010669
 30
0.0
 10
122.2876678446912
 20
165.4585316563597
 30
0.0
 10
122.2876678446912
 20
165.6007928402574
 30
0.0
 10
122.2876678446912
 20
165.6837857170205
 30
0.0
 10
122.2876678446912
 20
165.728399690881
 30
0.0
 10
122.2876678446912
 20
165.7338792138852
 30
0.0
 10
122.2876678446912
 20
165.7366219220717
 30
0.0
  0
SPLINE
  5
125
330
1F
100
AcDbEntity
  8
0
  6
Continuous
 62
     7
370
    18
100
AcDbSpline
210
0.0
220
0.0
230
1.0
 70
    24
 71
     3
 72
    25
 73
    21
 74
     0
 42
0.000000001
 43
0.00000001
 40
0.0
 40
0.0
 40
0.0
 40
0.0
 40
0.0250529546961802
 40
0.0500478753371751
 40
0.0750234212544376
 40
0.1000183416859151
 40
0.1250712959704197
 40
0.1875858261821788
 40
0.2501003567404745
 40
0.3126148877363533
 40
0.3751294184057042
 40
0.5000071476030015
 40
0.6248848768002986
 40
0.6873994074696497
 40
0.7499139384655282
 40
0.8124284690238243
 40
0.8749429992355832
 40
0.9166585443972167
 40
0.958284454257201
 40
1.0
 40
1.0
 40
1.0
 40
1.0
 10
122.2876678446912
 20
152.336621928718
 30
0.0
 10
122.2876678446912
 20
152.3376099693632
 30
0.0
 10
122.2876678446912
 20
152.3395837619012
 30
0.0
 10
122.2876678446912
 20
152.3556162881045
 30
0.0
 10
122.2876678446912
 20
152.3812282842063
 30
0.0
 10
122.2876678446912
 20
152.4173546989458
 30
0.0
 10
122.2876678446912
 20
152.486777611525
 30
0.0
 10
122.2876678446912
 20
152.6146725094665
 30
0.0
 10
122.2876678446912
 20
152.8367377655115
 30
0.0
 10
122.2876678446912
 20
153.1181507470328
 30
0.0
 10
122.2876678446912
 20
153.569333813596
 30
0.0
 10
122.2876678446912
 20
154.2683558629537
 30
0.0
 10
122.2876678446912
 20
155.1206681916183
 30
0.0
 10
122.2876678446912
 20
155.8730924492222
 30
0.0
 10
122.2876678446912
 20
156.4685596350477
 30
0.0
 10
122.2876678446912
 20
157.08852657816
 30
0.0
 10
122.2876678446912
 20
157.656623721434
 30
0.0
 10
122.2876678446912
 20
158.1614547135551
 30
0.0
 10
122.2876678446912
 20
158.5981052273826
 30
0.0
 10
122.2876678446912
 20
158.8903449222836
 30
0.0
 10
122.2876678446912
 20
159.0366219253949
 30
0.0
  0
SPLINE
  5
126
330
1F
100
AcDbEntity
  8
0
  6
Continuous
 62
     7
370
    18
100
AcDbSpline
210
0.0
220
0.0
230
1.0
 70
    24
 71
     3
 72
    20
 73
    16
 74
     0
 42
0.000000001
 43
0.00000001
 40
0.0
 40
0.0
 40
0.0
 40
0.0
 40
0.1249999999999999
 40
0.1249999999999999
 40
0.2499999999999998
 40
0.2499999999999998
 40
0.3749999999999997
 40
0.3749999999999997
 40
0.4999999999999997
 40
0.4999999999999997
 40
0.6249999999999997
 40
0.6249999999999997
 40
0.7499999999999998
 40
0.7499999999999998
 40
1.0
 40
1.0
 40
1.0
 40
1.0
 10
115.2876678450771
 20
153.8366219252681
 30
0.0
 10
115.2876678450771
 20
153.8366219252689
 30
0.0
 10
115.2876678450771
 20
153.8915962842454
 30
0.0
 10
115.2876678450771
 20
154.1016475663029
 30
0.0
 10
115.2876678450771
 20
154.2564604489262
 30
0.0
 10
115.2876678450771
 20
154.6403128134113
 30
0.0
 10
115.2876678450771
 20
154.86901074121
 30
0.0
 10
115.2876678450771
 20
155.36861667104
 30
0.0
 10
115.2876678450771
 20
155.6392885919822
 30
0.0
 10
115.2876678450771
 20
156.193955258662
 30
0.0
 10
115.2876678450771
 20
156.4778709258824
 30
0.0
 10
115.2876678450771
 20
157.0380695540148
 30
0.0
 10
115.2876678450771
 20
157.3143819253548
 30
0.0
 10
115.2876678450771
 20
158.1131019253733
 30
0.0
 10
115.2876678450771
 20
158.6032885920514
 30
0.0
 10
115.2876678450771
 20
159.0366219253949
 30
0.0
  0
SPLINE
  5
127
330
1F
100
AcDbEntity
  8
0
  6
Continuous
 62
     7
370
    18
100
AcDbSpline
210
0.0
220
0.0
230
1.0
 70
    24
 71
     3
 72
    10
 73
     6
 74
     0
 42
0.000000001
 43
0.00000001
 40
0.0
 40
0.0
 40
0.0
 40
0.0
 40
0.5
 40
0.5
 40
1.0
 40
1.0
 40
1.0
 40
1.0
 10
114.9876678448838
 20
159.0366219253949
 30
0.0
 10
115.0583785230988
 20
159.0366219253949
 30
0.0
 10
115.1412212355683
 20
159.0366219253949
 30
0.0
 10
115.2583785230791
 20
159.0366219253949
 30
0.0
 10
115.2876678449799
 20
159.0366219253949
 30
0.0
 10
115.2876678450771
 20
159.0366219253949
 30
0.0
  0
SPLINE
  5
128
330
1F
100
AcDbEntity
  8
0
  6
Continuous
 62
     7
370
    18
100
AcDbSpline
210
0.0
220
0.0
230
1.0
 70
    24
 71
     3
 72
    20
 73
    16
 74
     0
 42
0.000000001
 43
0.00000001
 40
0.0
 40
0.0
 40
0.0
 40
0.0
 40
0.2499999999999998
 40
0.2499999999999998
 40
0.3749999999999999
 40
0.3749999999999999
 40
0.4999999999999999
 40
0.4999999999999999
 40
0.6249999999999999
 40
0.6249999999999999
 40
0.75
 40
0.75
 40
0.875
 40
0.875
 40
1.0
 40
1.0
 40
1.0
 40
1.0
 10
115.2876678450771
 20
159.0366219253949
 30
0.0
 10
115.2876678450771
 20
159.4699552587392
 30
0.0
 10
115.2876678450771
 20
159.9601419254184
 30
0.0
 10
115.2876678450771
 20
160.7588619254388
 30
0.0
 10
115.2876678450771
 20
161.0351742967794
 30
0.0
 10
115.2876678450771
 20
161.595372924913
 30
0.0
 10
115.2876678450771
 20
161.8792885921339
 30
0.0
 10
115.2876678450771
 20
162.4339552588146
 30
0.0
 10
115.2876678450771
 20
162.7046271797571
 30
0.0
 10
115.2876678450771
 20
163.2042331095873
 30
0.0
 10
115.2876678450771
 20
163.4329310373858
 30
0.0
 10
115.2876678450771
 20
163.8167834018699
 30
0.0
 10
115.2876678450771
 20
163.9715962844923
 30
0.0
 10
115.2876678450771
 20
164.1816475665476
 30
0.0
 10
115.2876678450771
 20
164.2366219255225
 30
0.0
 10
115.2876678450771
 20
164.2366219255217
 30
0.0
  0
SPLINE
  5
129
330
1F
100
AcDbEntity
  8
0
  6
Continuous
 62
     7
370
    18
100
AcDbSpline
210
0.0
220
0.0
230
1.0
 70
    24
 71
     3
 72
    10
 73
     6
 74
     0
 42
0.000000001
 43
0.00000001
 40
0.0
 40
0.0
 40
0.0
 40
0.0
 40
0.5
 40
0.5
 40
1.0
 40
1.0
 40
1.0
 40
1.0
 10
113.2876678443054
 20
159.0366219253949
 30
0.0
 10
113.2876678444026
 20
159.0366219253949
 30
0.0
 10
113.3169571663033
 20
159.0366219253949
 30
0.0
 10
113.4341144538142
 20
159.0366219253949
 30
0.0
 10
113.5169571662836
 20
159.0366219253949
 30
0.0
 10
113.5876678444987
 20
159.0366219253949
 30
0.0
  0
SPLINE
  5
12A
330
1F
100
AcDbEntity
  8
0
  6
Continuous
 62
     7
370
    18
100
AcDbSpline
210
0.0
220
0.0
230
1.0
 70
    24
 71
     3
 72
    25
 73
    21
 74
     0
 42
0.000000001
 43
0.00000001
 40
0.0
 40
0.0
 40
0.0
 40
0.0
 40
0.0250529547012752
 40
0.0500478753409905
 40
0.0750234212569812
 40
0.1000183416871888
 40
0.1250712959704198
 40
0.1875858261821786
 40
0.2501003567404745
 40
0.312614887736353
 40
0.3751294184057041
 40
0.5000071476030015
 40
0.6248848768002987
 40
0.6873994074696499
 40
0.7499139384655283
 40
0.8124284690238244
 40
0.8749429992355832
 40
0.9166585443950973
 40
0.958284454252962
 40
1.0
 40
1.0
 40
1.0
 40
1.0
 10
113.2876678446912
 20
159.0366219253949
 30
0.0
 10
113.2876678446912
 20
159.1047955072239
 30
0.0
 10
113.2876678446912
 20
159.2409847497949
 30
0.0
 10
113.2876678446912
 20
159.444824287699
 30
0.0
 10
113.2876678446912
 20
159.647874689478
 30
0.0
 10
113.2876678446912
 20
159.8501407490789
 30
0.0
 10
113.2876678446912
 20
160.1517010405096
 30
0.0
 10
113.2876678446912
 20
160.5485851342582
 30
0.0
 10
113.2876678446912
 20
161.0297425958752
 30
0.0
 10
113.2876678446912
 20
161.4918991272874
 30
0.0
 10
113.2876678446912
 20
162.0758693048064
 30
0.0
 10
113.2876678446912
 20
162.7373654230426
 30
0.0
 10
113.2876678446912
 20
163.2798915416382
 30
0.0
 10
113.2876678446912
 20
163.6300600867218
 30
0.0
 10
113.2876678446912
 20
163.8484805572598
 30
0.0
 10
113.2876678446912
 20
164.0207906718153
 30
0.0
 10
113.2876678446912
 20
164.1312023369299
 30
0.0
 10
113.2876678446912
 20
164.1956147188953
 30
0.0
 10
113.2876678446912
 20
164.2302404896527
 30
0.0
 10
113.2876678446912
 20
164.2344932537754
 30
0.0
 10
113.2876678446912
 20
164.2366219228157
 30
0.0
  0
SPLINE
  5
12B
330
1F
100
AcDbEntity
  8
0
  6
Continuous
 62
     7
370
    18
100
AcDbSpline
210
0.0
220
0.0
230
1.0
 70
    24
 71
     3
 72
    25
 73
    21
 74
     0
 42
0.000000001
 43
0.00000001
 40
0.0
 40
0.0
 40
0.0
 40
0.0
 40
0.0250529546961802
 40
0.0500478753371752
 40
0.0750234212544375
 40
0.1000183416859151
 40
0.1250712959704198
 40
0.1875858261821789
 40
0.2501003567404746
 40
0.3126148877363534
 40
0.3751294184057042
 40
0.5000071476030015
 40
0.6248848768002988
 40
0.6873994074696499
 40
0.7499139384655283
 40
0.8124284690238244
 40
0.8749429992355833
 40
0.9166585443972167
 40
0.958284454257201
 40
1.0
 40
1.0
 40
1.0
 40
1.0
 10
113.2876678446912
 20
153.8366219279741
 30
0.0
 10
113.2876678446912
 20
153.8373887654897
 30
0.0
 10
113.2876678446912
 20
153.8389206641759
 30
0.0
 10
113.2876678446912
 20
153.8513638188412
 30
0.0
 10
113.2876678446912
 20
153.8712417859649
 30
0.0
 10
113.2876678446912
 20
153.8992801974046
 30
0.0
 10
113.2876678446912
 20
153.953160666869
 30
0.0
 10
113.2876678446912
 20
154.0524223787041
 30
0.0
 10
113.2876678446912
 20
154.2247715326495
 30
0.0
 10
113.2876678446912
 20
154.4431816078601
 30
0.0
 10
113.2876678446912
 20
154.7933535401181
 30
0.0
 10
113.2876678446912
 20
155.335878115739
 30
0.0
 10
113.2876678446912
 20
155.997374251419
 30
0.0
 10
113.2876678446912
 20
156.581345317022
 30
0.0
 10
113.2876678446912
 20
157.0434989537822
 30
0.0
 10
113.2876678446912
 20
157.524667327541
 30
0.0
 10
113.2876678446912
 20
157.9655785432163
 30
0.0
 10
113.2876678446912
 20
158.3573876714297
 30
0.0
 10
113.2876678446912
 20
158.6962806075346
 30
0.0
 10
113.2876678446912
 20
158.9230935050697
 30
0.0
 10
113.2876678446912
 20
159.0366219253949
 30
0.0
  0
LINE
  5
12C
330
1F
100
AcDbEntity
  8
0
  6
Continuous
 62
     7
370
    18
100
AcDbLine
 10
133.2876675094
 20
158.9297142947
 30
0.0
 11
133.2876675094
 21
159.0366219263
 31
0.0
  0
SPLINE
  5
12D
330
1F
100
AcDbEntity
  8
0
  6
Continuous
 62
     7
370
    18
100
AcDbSpline
210
0.0
220
0.0
230
1.0
 70
    24
 71
     3
 72
    23
 73
    19
 74
     0
 42
0.000000001
 43
0.00000001
 40
0.0
 40
0.0
 40
0.0
 40
0.0
 40
0.0313055084021313
 40
0.0625354171742862
 40
0.0937653257826732
 40
0.1250708337010743
 40
0.1875873933451743
 40
0.2501039533358223
 40
0.3126205137640673
 40
0.375137073865774
 40
0.5000188570150315
 40
0.624900640164289
 40
0.6874172002659958
 40
0.7499337606942408
 40
0.8124503206848889
 40
0.8749668803289885
 40
0.9374834398372707
 40
1.0
 40
1.0
 40
1.0
 40
1.0
 10
133.2876678446912
 20
163.2366219233116
 30
0.0
 10
133.2876678446912
 20
163.235654479551
 30
0.0
 10
133.2876678446912
 20
163.2337219283082
 30
0.0
 10
133.2876678446912
 20
163.2180112517632
 30
0.0
 10
133.2876678446912
 20
163.1929043023519
 30
0.0
 10
133.2876678446912
 20
163.145809930562
 30
0.0
 10
133.2876678446912
 20
163.0623297371733
 30
0.0
 10
133.2876678446912
 20
162.9231142863439
 30
0.0
 10
133.2876678446912
 20
162.7467089059488
 30
0.0
 10
133.2876678446912
 20
162.4638768448974
 30
0.0
 10
133.2876678446912
 20
162.0256842187732
 30
0.0
 10
133.2876678446912
 20
161.4913992508756
 30
0.0
 10
133.2876678446912
 20
161.0197293127717
 30
0.0
 10
133.2876678446912
 20
160.6464544793343
 30
0.0
 10
133.2876678446912
 20
160.257806820192
 30
0.0
 10
133.2876678446912
 20
159.8573088699952
 30
0.0
 10
133.2876678446912
 20
159.4489653673567
 30
0.0
 10
133.2876678446912
 20
159.1740697398617
 30
0.0
 10
133.2876678446912
 20
159.0366219253949
 30
0.0
  0
LINE
  5
12E
330
1F
100
AcDbEntity
  8
0
  6
Continuous
 62
     7
370
    18
100
AcDbLine
 10
128.2876676212
 20
160.3632717835
 30
0.0
 11
124.2876678968
 21
160.3632717835
 31
0.0
  0
LINE
  5
12F
330
1F
100
AcDbEntity
  8
0
  6
Continuous
 62
     7
370
    18
100
AcDbLine
 10
124.2876678968
 20
157.7099719527
 30
0.0
 11
128.2876676212
 21
157.7099719527
 31
0.0
  0
SPLINE
  5
130
330
1F
100
AcDbEntity
  8
0
  6
Continuous
 62
     7
370
    18
100
AcDbSpline
210
0.0
220
0.0
230
1.0
 70
     8
 71
     3
 72
    14
 73
    10
 74
     0
 42
0.000000001
 43
0.00000001
 40
0.0
 40
0.0
 40
0.0
 40
0.0
 40
0.0836762611521473
 40
0.1667049001914257
 40
0.2508158839822997
 40
0.4999698398158449
 40
0.7492796192960632
 40
0.8740091570941635
 40
0.9999999999999999
 40
0.9999999999999999
 40
0.9999999999999999
 40
0.9999999999999999
 10
124.5876678446912
 20
154.7815030397318
 30
0.0
 10
124.5740740280801
 20
154.7816794762764
 30
0.0
 10
124.5469916057757
 20
154.7820309838144
 30
0.0
 10
124.5070690970711
 20
154.7849803759364
 30
0.0
 10
124.4436447270212
 20
154.7927455240141
 30
0.0
 10
124.3651000819657
 20
154.8121227043622
 30
0.0
 10
124.3126762481122
 20
154.8437725734044
 30
0.0
 10
124.2906771757443
 20
154.873090210948
 30
0.0
 10
124.2886743136579
 20
154.8889205623063
 30
0.0
 10
124.2876678446912
 20
154.8968755570519
 30
0.0
  0
SPLINE
  5
131
330
1F
100
AcDbEntity
  8
0
  6
Continuous
 62
     7
370
    18
100
AcDbSpline
210
0.0
220
0.0
230
1.0
 70
     8
 71
     3
 72
    11
 73
     7
 74
     0
 42
0.000000001
 43
0.00000001
 40
0.0
 40
0.0
 40
0.0
 40
0.0
 40
0.2516029273659005
 40
0.5007650754588964
 40
0.7508242773942502
 40
1.0
 40
1.0
 40
1.0
 40
1.0
 10
124.7958311086912
 20
154.8113317767537
 30
0.0
 10
124.7814619294608
 20
154.8068070683045
 30
0.0
 10
124.752862965224
 20
154.79780154523
 30
0.0
 10
124.7011997536435
 20
154.788639854539
 30
0.0
 10
124.6457408971137
 20
154.7825801290948
 30
0.0
 10
124.6070026775887
 20
154.7818616456941
 30
0.0
 10
124.5876678446912
 20
154.7815030397318
 30
0.0
  0
SPLINE
  5
132
330
1F
100
AcDbEntity
  8
0
  6
Continuous
 62
     7
370
    18
100
AcDbSpline
210
0.0
220
0.0
230
1.0
 70
     8
 71
     3
 72
    17
 73
    13
 74
     0
 42
0.000000001
 43
0.00000001
 40
0.0
 40
0.0
 40
0.0
 40
0.0
 40
0.0810181026343132
 40
0.1497488613456423
 40
0.2061913765211308
 40
0.2503453966508025
 40
0.3826540905712419
 40
0.5004634122027888
 40
0.6287002617002321
 40
0.7498493337919072
 40
0.87606658488559
 40
0.9999999999999999
 40
0.9999999999999999
 40
0.9999999999999999
 40
0.9999999999999999
 10
124.7958311094252
 20
154.8113317788554
 30
0.0
 10
124.827945597406
 20
154.8224639862077
 30
0.0
 10
124.8873040352299
 20
154.8430400713178
 30
0.0
 10
124.9744538036013
 20
154.8710840835504
 30
0.0
 10
125.0484573939578
 20
154.8938619294491
 30
0.0
 10
125.1532022766003
 20
154.9245485301105
 30
0.0
 10
125.2919020254434
 20
154.961148553576
 30
0.0
 10
125.4801682503671
 20
155.0032608884065
 30
0.0
 10
125.6713211957812
 20
155.0372815600431
 30
0.0
 10
125.8737142560941
 20
155.0634437933642
 30
0.0
 10
126.0786624220593
 20
155.0802305120443
 30
0.0
 10
126.2184247069132
 20
155.0823891624508
 30
0.0
 10
126.2876678455732
 20
155.0834586335858
 30
0.0
  0
SPLINE
  5
133
330
1F
100
AcDbEntity
  8
0
  6
Continuous
 62
     7
370
    18
100
AcDbSpline
210
0.0
220
0.0
230
1.0
 70
     8
 71
     3
 72
    16
 73
    12
 74
     0
 42
0.000000001
 43
0.00000001
 40
0.0
 40
0.0
 40
0.0
 40
0.0
 40
0.0822020591374433
 40
0.1653634907306057
 40
0.2495806439942109
 40
0.3711383407280542
 40
0.4998281576374592
 40
0.6176064639588397
 40
0.7498855198296901
 40
0.8503988625841689
 40
1.0
 40
1.0
 40
1.0
 40
1.0
 10
126.2876678455732
 20
155.0834586335858
 30
0.0
 10
126.3335827299498
 20
155.0829888012391
 30
0.0
 10
126.4259483669749
 20
155.0820436531766
 30
0.0
 10
126.564613064691
 20
155.0744936691841
 30
0.0
 10
126.7234134292419
 20
155.060751611002
 30
0.0
 10
126.9036845990895
 20
155.0372994259338
 30
0.0
 10
127.0952491119323
 20
155.0032569870627
 30
0.0
 10
127.2837541663923
 20
154.9610796856817
 30
0.0
 10
127.4487542587357
 20
154.9174646906114
 30
0.0
 10
127.6188237704366
 20
154.8662159795541
 30
0.0
 10
127.7193667447636
 20
154.8318732300508
 30
0.0
 10
127.7795045796792
 20
154.8113317788554
 30
0.0
  0
SPLINE
  5
134
330
1F
100
AcDbEntity
  8
0
  6
Continuous
 62
     7
370
    18
100
AcDbSpline
210
0.0
220
0.0
230
1.0
 70
     8
 71
     3
 72
    12
 73
     8
 74
     0
 42
0.000000001
 43
0.00000001
 40
0.0
 40
0.0
 40
0.0
 40
0.0
 40
0.1667610443292102
 40
0.3323554049059663
 40
0.4999001905056929
 40
0.7487321180604073
 40
0.9999999999999999
 40
0.9999999999999999
 40
0.9999999999999999
 40
0.9999999999999999
 10
127.9876678446912
 20
154.7815030397318
 30
0.0
 10
127.974743214968
 20
154.7816638077604
 30
0.0
 10
127.9489843780513
 20
154.7819842190618
 30
0.0
 10
127.9109325619603
 20
154.7846430873352
 30
0.0
 10
127.8684256527853
 20
154.7896160631525
 30
0.0
 10
127.8224235019942
 20
154.7978245118895
 30
0.0
 10
127.7938572692269
 20
154.8068147581596
 30
0.0
 10
127.7795045806912
 20
154.8113317767537
 30
0.0
  0
SPLINE
  5
135
330
1F
100
AcDbEntity
  8
0
  6
Continuous
 62
     7
370
    18
100
AcDbSpline
210
0.0
220
0.0
230
1.0
 70
     8
 71
     3
 72
    13
 73
     9
 74
     0
 42
0.000000001
 43
0.00000001
 40
0.0
 40
0.0
 40
0.0
 40
0.0
 40
0.1260238509681709
 40
0.2507860845933101
 40
0.500494016442946
 40
0.7497201447862532
 40
0.8751047801654462
 40
1.0
 40
1.0
 40
1.0
 40
1.0
 10
128.2876678446912
 20
154.8968755570519
 30
0.0
 10
128.2866612006555
 20
154.8889202847442
 30
0.0
 10
128.2846579900382
 20
154.873089379891
 30
0.0
 10
128.2626485614115
 20
154.843759532386
 30
0.0
 10
128.2101451912771
 20
154.8120424671772
 30
0.0
 10
128.1260506922212
 20
154.7914857165662
 30
0.0
 10
128.0486884361102
 20
154.7827099017732
 30
0.0
 10
128.0079815080622
 20
154.7819048022955
 30
0.0
 10
127.9876678446912
 20
154.7815030397318
 30
0.0
  0
SPLINE
  5
136
330
1F
100
AcDbEntity
  8
0
  6
Continuous
 62
     7
370
    18
100
AcDbSpline
210
0.0
220
0.0
230
1.0
 70
    24
 71
     3
 72
    10
 73
     6
 74
     0
 42
0.000000001
 43
0.00000001
 40
0.0
 40
0.0
 40
0.0
 40
0.0
 40
0.5
 40
0.5
 40
1.0
 40
1.0
 40
1.0
 40
1.0
 10
170.2876678444986
 20
159.0366219253949
 30
0.0
 10
170.2169571662836
 20
159.0366219253949
 30
0.0
 10
170.1341144538142
 20
159.0366219253949
 30
0.0
 10
170.0169571663033
 20
159.0366219253949
 30
0.0
 10
169.9876678444026
 20
159.0366219253949
 30
0.0
 10
169.9876678443053
 20
159.0366219253949
 30
0.0
  0
SPLINE
  5
137
330
1F
100
AcDbEntity
  8
0
  6
Continuous
 62
     7
370
    18
100
AcDbSpline
210
0.0
220
0.0
230
1.0
 70
    24
 71
     3
 72
    13
 73
     9
 74
     0
 42
0.000000001
 43
0.00000001
 40
0.0
 40
0.0
 40
0.0
 40
0.0
 40
0.3773377710075815
 40
0.7462468141683193
 40
0.8727438546408329
 40
0.9430031960937638
 40
0.972277380046894
 40
1.0
 40
1.0
 40
1.0
 40
1.0
 10
170.0641514996671
 20
156.1366220213931
 30
0.0
 10
170.0670795082026
 20
156.1366220213931
 30
0.0
 10
170.0728701213066
 20
156.1366220213931
 30
0.0
 10
170.1157509611903
 20
156.1366220213931
 30
0.0
 10
170.1859151518893
 20
156.1366220213931
 30
0.0
 10
170.2310746713153
 20
156.1366220213931
 30
0.0
 10
170.2638101483197
 20
156.1366220213931
 30
0.0
 10
170.2798616454939
 20
156.1366220213931
 30
0.0
 10
170.2876689175748
 20
156.1366220213931
 30
0.0
  0
SPLINE
  5
138
330
1F
100
AcDbEntity
  8
0
  6
Continuous
 62
     7
370
    18
100
AcDbSpline
210
0.0
220
0.0
230
1.0
 70
    24
 71
     3
 72
    10
 73
     6
 74
     0
 42
0.000000001
 43
0.00000001
 40
0.0
 40
0.0
 40
0.0
 40
0.0
 40
0.5000000000000002
 40
0.5000000000000002
 40
1.0
 40
1.0
 40
1.0
 40
1.0
 10
170.2876678446912
 20
156.1366219256855
 30
0.0
 10
170.2876678446912
 20
156.3060820069163
 30
0.0
 10
170.2876678446912
 20
156.6824104708738
 30
0.0
 10
170.2876678446912
 20
157.7314191437531
 30
0.0
 10
170.2876678446912
 20
158.3747672222055
 30
0.0
 10
170.2876678446912
 20
159.0366219241642
 30
0.0
  0
SPLINE
  5
139
330
1F
100
AcDbEntity
  8
0
  6
Continuous
 62
     7
370
    18
100
AcDbSpline
210
0.0
220
0.0
230
1.0
 70
    24
 71
     3
 72
    10
 73
     6
 74
     0
 42
0.000000001
 43
0.00000001
 40
0.0
 40
0.0
 40
0.0
 40
0.0
 40
0.5
 40
0.5
 40
1.0
 40
1.0
 40
1.0
 40
1.0
 10
169.9876678443053
 20
159.0366219253949
 30
0.0
 10
169.9876678444026
 20
159.0366219253949
 30
0.0
 10
170.0169571663033
 20
159.0366219253949
 30
0.0
 10
170.1341144538142
 20
159.0366219253949
 30
0.0
 10
170.2169571662836
 20
159.0366219253949
 30
0.0
 10
170.2876678444986
 20
159.0366219253949
 30
0.0
  0
SPLINE
  5
13A
330
1F
100
AcDbEntity
  8
0
  6
Continuous
 62
     7
370
    18
100
AcDbSpline
210
0.0
220
0.0
230
1.0
 70
    24
 71
     3
 72
     9
 73
     5
 74
     0
 42
0.000000001
 43
0.00000001
 40
0.0
 40
0.0
 40
0.0
 40
0.0
 40
0.164912343592709
 40
1.0
 40
1.0
 40
1.0
 40
1.0
 10
169.2876668910169
 20
161.6057966113549
 30
0.0
 10
169.2876668910169
 20
161.6225742203103
 30
0.0
 10
169.2876668910169
 20
161.7243107464549
 30
0.0
 10
169.2876668910169
 20
161.731019458826
 30
0.0
 10
169.2876668910169
 20
161.7366218217175
 30
0.0
  0
SPLINE
  5
13B
330
1F
100
AcDbEntity
  8
0
  6
Continuous
 62
     7
370
    18
100
AcDbSpline
210
0.0
220
0.0
230
1.0
 70
    24
 71
     3
 72
    17
 73
    13
 74
     0
 42
0.000000001
 43
0.00000001
 40
0.0
 40
0.0
 40
0.0
 40
0.0
 40
0.0274705305960876
 40
0.0564587063357019
 40
0.1258928033738113
 40
0.1837239146904596
 40
0.2511991439148137
 40
0.3656260715153215
 40
0.5003375962351222
 40
0.749060602304738
 40
0.9980067036169389
 40
1.0
 40
1.0
 40
1.0
 40
1.0
 10
170.2876689175748
 20
161.9366219476323
 30
0.0
 10
170.279922158752
 20
161.9366219476323
 30
0.0
 10
170.2640006613532
 20
161.9366219476323
 30
0.0
 10
170.2315341790196
 20
161.9366219476323
 30
0.0
 10
170.2000746839314
 20
161.9366219476323
 30
0.0
 10
170.1707957124156
 20
161.9366219476323
 30
0.0
 10
170.142705326486
 20
161.9366219476323
 30
0.0
 10
170.1159535996247
 20
161.9366219476323
 30
0.0
 10
170.0872768927609
 20
161.9366219476323
 30
0.0
 10
170.0703392050638
 20
161.9366219476323
 30
0.0
 10
170.0603463645905
 20
161.9366219476323
 30
0.0
 10
170.0641215123932
 20
161.9366219476323
 30
0.0
 10
170.0641514996671
 20
161.9366219476323
 30
0.0
  0
SPLINE
  5
13C
330
1F
100
AcDbEntity
  8
0
  6
Continuous
 62
     7
370
    18
100
AcDbSpline
210
0.0
220
0.0
230
1.0
 70
    24
 71
     3
 72
    10
 73
     6
 74
     0
 42
0.000000001
 43
0.00000001
 40
0.0
 40
0.0
 40
0.0
 40
0.0
 40
0.4999999999999999
 40
0.4999999999999999
 40
1.0
 40
1.0
 40
1.0
 40
1.0
 10
170.2876678446912
 20
159.0366219241642
 30
0.0
 10
170.2876678446912
 20
159.6984766266365
 30
0.0
 10
170.2876678446912
 20
160.3418247057385
 30
0.0
 10
170.2876678446912
 20
161.3908333796905
 30
0.0
 10
170.2876678446912
 20
161.7671618439948
 30
0.0
 10
170.2876678446912
 20
161.9366219252421
 30
0.0
  0
LINE
  5
13D
330
1F
100
AcDbEntity
  8
0
  6
Continuous
 62
     7
370
    18
100
AcDbLine
 10
133.2876675094
 20
161.9366219476
 30
0.0
 11
135.9205788265
 21
161.9366219476
 31
0.0
  0
LINE
  5
13E
330
1F
100
AcDbEntity
  8
0
  6
Continuous
 62
     7
370
    18
100
AcDbLine
 10
136.9231606166
 20
161.9366219476
 30
0.0
 11
139.9212183694
 21
161.9366219476
 31
0.0
  0
LINE
  5
13F
330
1F
100
AcDbEntity
  8
0
  6
Continuous
 62
     7
370
    18
100
AcDbLine
 10
140.9215053807
 20
161.9366219476
 30
0.0
 11
143.2876682172
 21
161.9366219476
 31
0.0
  0
LINE
  5
140
330
1F
100
AcDbEntity
  8
0
  6
Continuous
 62
     7
370
    18
100
AcDbLine
 10
143.2876682172
 20
156.1366220214
 30
0.0
 11
141.6319797079
 21
156.1366220214
 31
0.0
  0
LINE
  5
141
330
1F
100
AcDbEntity
  8
0
  6
Continuous
 62
     7
370
    18
100
AcDbLine
 10
140.6288260857
 20
156.1366220214
 30
0.0
 11
137.631507803
 21
156.1366220214
 31
0.0
  0
LINE
  5
142
330
1F
100
AcDbEntity
  8
0
  6
Continuous
 62
     7
370
    18
100
AcDbLine
 10
136.6289763043
 20
156.1366220214
 30
0.0
 11
133.6316915492
 21
156.1366220214
 31
0.0
  0
LINE
  5
143
330
1F
100
AcDbEntity
  8
0
  6
Continuous
 62
     7
370
    18
100
AcDbLine
 10
170.2876689176
 20
161.9366219476
 30
0.0
 11
170.7876662056
 21
161.9366219476
 31
0.0
  0
LINE
  5
144
330
1F
100
AcDbEntity
  8
0
  6
Continuous
 62
     7
370
    18
100
AcDbLine
 10
170.7876662056
 20
156.1366220214
 30
0.0
 11
170.2876689176
 21
156.1366220214
 31
0.0
  0
SPLINE
  5
145
330
1F
100
AcDbEntity
  8
0
  6
Continuous
 62
     7
370
    18
100
AcDbSpline
210
0.0
220
0.0
230
1.0
 70
    24
 71
     3
 72
    10
 73
     6
 74
     0
 42
0.000000001
 43
0.00000001
 40
0.0
 40
0.0
 40
0.0
 40
0.0
 40
0.4999999999999998
 40
0.4999999999999998
 40
1.0
 40
1.0
 40
1.0
 40
1.0
 10
170.7876678446912
 20
159.0366219241642
 30
0.0
 10
170.7876678446912
 20
158.3747672222055
 30
0.0
 10
170.7876678446912
 20
157.7314191437531
 30
0.0
 10
170.7876678446912
 20
156.6824104708738
 30
0.0
 10
170.7876678446912
 20
156.3060820069163
 30
0.0
 10
170.7876678446912
 20
156.1366219256855
 30
0.0
  0
SPLINE
  5
146
330
1F
100
AcDbEntity
  8
0
  6
Continuous
 62
     7
370
    18
100
AcDbSpline
210
0.0
220
0.0
230
1.0
 70
    24
 71
     3
 72
    10
 73
     6
 74
     0
 42
0.000000001
 43
0.00000001
 40
0.0
 40
0.0
 40
0.0
 40
0.0
 40
0.5000000000000001
 40
0.5000000000000001
 40
1.0
 40
1.0
 40
1.0
 40
1.0
 10
170.7876678446912
 20
161.9366219252421
 30
0.0
 10
170.7876678446912
 20
161.7671618439948
 30
0.0
 10
170.7876678446912
 20
161.3908333796905
 30
0.0
 10
170.7876678446912
 20
160.3418247057385
 30
0.0
 10
170.7876678446912
 20
159.6984766266365
 30
0.0
 10
170.7876678446912
 20
159.0366219241642
 30
0.0
  0
SPLINE
  5
147
330
1F
100
AcDbEntity
  8
0
  6
Continuous
 62
     7
370
    18
100
AcDbSpline
210
0.0
220
0.0
230
1.0
 70
    24
 71
     3
 72
     9
 73
     5
 74
     0
 42
0.000000001
 43
0.00000001
 40
0.0
 40
0.0
 40
0.0
 40
0.0
 40
0.0002745252703481
 40
1.0
 40
1.0
 40
1.0
 40
1.0
 10
170.8876418213033
 20
156.1366220213931
 30
0.0
 10
170.8876505160969
 20
156.1366220213931
 30
0.0
 10
170.9193226225795
 20
156.1366220213937
 30
0.0
 10
170.8534853770777
 20
156.1366220213934
 30
0.0
 10
170.7876662055635
 20
156.1366220213931
 30
0.0
  0
SPLINE
  5
148
330
1F
100
AcDbEntity
  8
0
  6
Continuous
 62
     7
370
    18
100
AcDbSpline
210
0.0
220
0.0
230
1.0
 70
    24
 71
     3
 72
     9
 73
     5
 74
     0
 42
0.000000001
 43
0.00000001
 40
0.0
 40
0.0
 40
0.0
 40
0.0
 40
0.9997254740797238
 40
1.0
 40
1.0
 40
1.0
 40
1.0
 10
170.7876662055635
 20
161.9366219476323
 30
0.0
 10
170.8534853396055
 20
161.9366219476325
 30
0.0
 10
170.9193225476677
 20
161.9366219476328
 30
0.0
 10
170.8876505160969
 20
161.9366219476323
 30
0.0
 10
170.8876418213033
 20
161.9366219476323
 30
0.0
  0
SPLINE
  5
149
330
1F
100
AcDbEntity
  8
0
  6
Continuous
 62
     7
370
    18
100
AcDbSpline
210
0.0
220
0.0
230
1.0
 70
    24
 71
     3
 72
    10
 73
     6
 74
     0
 42
0.000000001
 43
0.00000001
 40
0.0
 40
0.0
 40
0.0
 40
0.0
 40
0.5
 40
0.5
 40
1.0
 40
1.0
 40
1.0
 40
1.0
 10
171.2876678446912
 20
159.0366219249459
 30
0.0
 10
171.2876678446912
 20
158.3735994650742
 30
0.0
 10
171.2876678446912
 20
157.7376826498108
 30
0.0
 10
171.2876678446912
 20
156.8000272949324
 30
0.0
 10
171.2876678446913
 20
156.5366219254713
 30
0.0
 10
171.2876678446913
 20
156.5366219253949
 30
0.0
  0
SPLINE
  5
14A
330
1F
100
AcDbEntity
  8
0
  6
Continuous
 62
     7
370
    18
100
AcDbSpline
210
0.0
220
0.0
230
1.0
 70
    24
 71
     3
 72
    10
 73
     6
 74
     0
 42
0.000000001
 43
0.00000001
 40
0.0
 40
0.0
 40
0.0
 40
0.0
 40
0.5000000000000002
 40
0.5000000000000002
 40
1.0
 40
1.0
 40
1.0
 40
1.0
 10
171.2876678446912
 20
161.5366219253949
 30
0.0
 10
171.2876678446912
 20
161.5366219255308
 30
0.0
 10
171.2876678446912
 20
161.2732165561025
 30
0.0
 10
171.2876678446912
 20
160.3355612009825
 30
0.0
 10
171.2876678446913
 20
159.6996443854841
 30
0.0
 10
171.2876678446913
 20
159.0366219253949
 30
0.0
  0
SPLINE
  5
14B
330
1F
100
AcDbEntity
  8
0
  6
Continuous
 62
     7
370
    18
100
AcDbSpline
210
0.0
220
0.0
230
1.0
 70
    24
 71
     3
 72
    10
 73
     6
 74
     0
 42
0.000000001
 43
0.00000001
 40
0.0
 40
0.0
 40
0.0
 40
0.0
 40
0.4999999999999999
 40
0.4999999999999999
 40
1.0
 40
1.0
 40
1.0
 40
1.0
 10
126.2876678456552
 20
149.7366219253949
 30
0.0
 10
126.9109089579346
 20
149.7366219253949
 30
0.0
 10
127.5086707642251
 20
149.7366219253949
 30
0.0
 10
128.3900667976075
 20
149.7366219253948
 30
0.0
 10
128.6376678447631
 20
149.7366219253948
 30
0.0
 10
128.6376678446912
 20
149.7366219253948
 30
0.0
  0
SPLINE
  5
14C
330
1F
100
AcDbEntity
  8
0
  6
Continuous
 62
     7
370
    18
100
AcDbSpline
210
0.0
220
0.0
230
1.0
 70
    24
 71
     3
 72
    10
 73
     6
 74
     0
 42
0.000000001
 43
0.00000001
 40
0.0
 40
0.0
 40
0.0
 40
0.0
 40
0.4999999999999999
 40
0.4999999999999999
 40
1.0
 40
1.0
 40
1.0
 40
1.0
 10
123.9376678446912
 20
149.7366219253949
 30
0.0
 10
123.9376678448191
 20
149.7366219253949
 30
0.0
 10
124.1852688923269
 20
149.7366219253949
 30
0.0
 10
125.0666649265013
 20
149.7366219253948
 30
0.0
 10
125.6644267331714
 20
149.7366219253948
 30
0.0
 10
126.2876678456552
 20
149.7366219253948
 30
0.0
  0
SPLINE
  5
14D
330
1F
100
AcDbEntity
  8
0
  6
Continuous
 62
     7
370
    18
100
AcDbSpline
210
0.0
220
0.0
230
1.0
 70
    24
 71
     3
 72
    10
 73
     6
 74
     0
 42
0.000000001
 43
0.00000001
 40
0.0
 40
0.0
 40
0.0
 40
0.0
 40
0.4999999999999999
 40
0.4999999999999999
 40
1.0
 40
1.0
 40
1.0
 40
1.0
 10
126.2876678456552
 20
147.2366219253948
 30
0.0
 10
126.9109089579346
 20
147.2366219253948
 30
0.0
 10
127.5086707642251
 20
147.2366219253948
 30
0.0
 10
128.3900667976075
 20
147.2366219253948
 30
0.0
 10
128.6376678447631
 20
147.2366219253948
 30
0.0
 10
128.6376678446912
 20
147.2366219253948
 30
0.0
  0
SPLINE
  5
14E
330
1F
100
AcDbEntity
  8
0
  6
Continuous
 62
     7
370
    18
100
AcDbSpline
210
0.0
220
0.0
230
1.0
 70
    24
 71
     3
 72
    10
 73
     6
 74
     0
 42
0.000000001
 43
0.00000001
 40
0.0
 40
0.0
 40
0.0
 40
0.0
 40
0.4999999999999999
 40
0.4999999999999999
 40
1.0
 40
1.0
 40
1.0
 40
1.0
 10
123.9376678446912
 20
147.2366219253948
 30
0.0
 10
123.9376678448191
 20
147.2366219253948
 30
0.0
 10
124.1852688923269
 20
147.2366219253948
 30
0.0
 10
125.0666649265013
 20
147.2366219253948
 30
0.0
 10
125.6644267331714
 20
147.2366219253948
 30
0.0
 10
126.2876678456552
 20
147.2366219253948
 30
0.0
  0
SPLINE
  5
14F
330
1F
100
AcDbEntity
  8
0
  6
Continuous
 62
     7
370
    18
100
AcDbSpline
210
0.0
220
0.0
230
1.0
 70
    24
 71
     3
 72
    10
 73
     6
 74
     0
 42
0.000000001
 43
0.00000001
 40
0.0
 40
0.0
 40
0.0
 40
0.0
 40
0.5000000000000001
 40
0.5000000000000001
 40
1.0
 40
1.0
 40
1.0
 40
1.0
 10
128.2876678446912
 20
144.7366219253948
 30
0.0
 10
128.2876678447524
 20
144.7366219253948
 30
0.0
 10
128.0769435493008
 20
144.7366219253948
 30
0.0
 10
127.326819265571
 20
144.7366219253949
 30
0.0
 10
126.818085813409
 20
144.7366219253949
 30
0.0
 10
126.2876678455116
 20
144.7366219253949
 30
0.0
  0
SPLINE
  5
150
330
1F
100
AcDbEntity
  8
0
  6
Continuous
 62
     7
370
    18
100
AcDbSpline
210
0.0
220
0.0
230
1.0
 70
    24
 71
     3
 72
    10
 73
     6
 74
     0
 42
0.000000001
 43
0.00000001
 40
0.0
 40
0.0
 40
0.0
 40
0.0
 40
0.5000000000000002
 40
0.5000000000000002
 40
1.0
 40
1.0
 40
1.0
 40
1.0
 10
126.2876678455116
 20
144.7366219253948
 30
0.0
 10
125.7572498774402
 20
144.7366219253948
 30
0.0
 10
125.248516424955
 20
144.7366219253948
 30
0.0
 10
124.4983921405513
 20
144.7366219253949
 30
0.0
 10
124.2876678448
 20
144.7366219253949
 30
0.0
 10
124.2876678446912
 20
144.7366219253949
 30
0.0
  0
SPLINE
  5
151
330
1F
100
AcDbEntity
  8
0
  6
Continuous
 62
     7
370
    18
100
AcDbSpline
210
0.0
220
0.0
230
1.0
 70
     8
 71
     3
 72
    14
 73
    10
 74
     0
 42
0.000000001
 43
0.00000001
 40
0.0
 40
0.0
 40
0.0
 40
0.0
 40
0.2500000000000002
 40
0.2500000000000002
 40
0.5000000000000001
 40
0.5000000000000001
 40
0.75
 40
0.75
 40
1.0
 40
1.0
 40
1.0
 40
1.0
 10
128.3060351916912
 20
151.7855875163949
 30
0.0
 10
128.2690660626912
 20
151.7989502093949
 30
0.0
 10
128.2250754656912
 20
151.8187489783949
 30
0.0
 10
128.1248893443579
 20
151.8826450343949
 30
0.0
 10
128.0690674976912
 20
151.9266139253949
 30
0.0
 10
127.9570798496912
 20
152.0494825533949
 30
0.0
 10
127.9006863396912
 20
152.1285823993949
 30
0.0
 10
127.8110479236912
 20
152.3287965913949
 30
0.0
 10
127.7795047156912
 20
152.4475453903949
 30
0.0
 10
127.7795045796912
 20
152.5730702703949
 30
0.0
  0
LINE
  5
152
330
1F
100
AcDbEntity
  8
0
  6
Continuous
 62
     7
370
    18
100
AcDbLine
 10
127.7795044969
 20
154.8113316041
 30
0.0
 11
127.7795044969
 21
152.5730700907
 31
0.0
  0
LINE
  5
153
330
1F
100
AcDbEntity
  8
0
  6
Continuous
 62
     7
370
    18
100
AcDbLine
 10
124.7958310212
 20
152.5730700907
 30
0.0
 11
124.7958310212
 21
154.8113316041
 31
0.0
  0
SPLINE
  5
154
330
1F
100
AcDbEntity
  8
0
  6
Continuous
 62
     7
370
    18
100
AcDbSpline
210
0.0
220
0.0
230
1.0
 70
     8
 71
     3
 72
    18
 73
    14
 74
     0
 42
0.000000001
 43
0.00000001
 40
0.0
 40
0.0
 40
0.0
 40
0.0
 40
0.0884096293516578
 40
0.1712958459353656
 40
0.2489654135437476
 40
0.3779336499071831
 40
0.4985113658609219
 40
0.626538449220377
 40
0.7488730468569605
 40
0.8122711756634338
 40
0.8742355429967251
 40
0.9380760258737799
 40
1.0
 40
1.0
 40
1.0
 40
1.0
 10
124.269300497767
 20
151.7855875171824
 30
0.0
 10
124.2836574176043
 20
151.7911234531934
 30
0.0
 10
124.3114743052734
 20
151.8018494662873
 30
0.0
 10
124.3584976426995
 20
151.8252341802372
 30
0.0
 10
124.4175410310611
 20
151.860315291255
 30
0.0
 10
124.490205837105
 20
151.9143688378659
 30
0.0
 10
124.5772398303068
 20
152.0002145188504
 30
0.0
 10
124.6599610396366
 20
152.1093549640532
 30
0.0
 10
124.7198138367688
 20
152.2231730968998
 30
0.0
 10
124.7569412452125
 20
152.3229993856209
 30
0.0
 10
124.7784988286676
 20
152.4038532491502
 30
0.0
 10
124.79301657839
 20
152.4874596701086
 30
0.0
 10
124.7949025122498
 20
152.5448247972257
 30
0.0
 10
124.7958311094252
 20
152.5730702708037
 30
0.0
  0
SPLINE
  5
155
330
1F
100
AcDbEntity
  8
0
  6
Continuous
 62
     7
370
    18
100
AcDbSpline
210
0.0
220
0.0
230
1.0
 70
     8
 71
     3
 72
    12
 73
     8
 74
     0
 42
0.000000001
 43
0.00000001
 40
0.0
 40
0.0
 40
0.0
 40
0.0
 40
0.4999999999999996
 40
0.4999999999999996
 40
0.7499999999999998
 40
0.7499999999999998
 40
1.0
 40
1.0
 40
1.0
 40
1.0
 10
124.2876678446912
 20
152.573070180369
 30
0.0
 10
124.2876678489906
 20
152.573070195531
 30
0.0
 10
124.307753650149
 20
152.5730702093009
 30
0.0
 10
124.3889620587749
 20
152.5730702114691
 30
0.0
 10
124.4240256027189
 20
152.5730702090225
 30
0.0
 10
124.5027634510285
 20
152.5730701974829
 30
0.0
 10
124.5461304623803
 20
152.5730701884303
 30
0.0
 10
124.5876678504874
 20
152.5730701775802
 30
0.0
  0
LINE
  5
156
330
1F
100
AcDbEntity
  8
0
  6
Continuous
 62
     7
370
    18
100
AcDbLine
 10
124.5876678529
 20
152.5730700907
 30
0.0
 11
124.5876678529
 21
154.7815032047
 31
0.0
  0
SPLINE
  5
157
330
1F
100
AcDbEntity
  8
0
  6
Continuous
 62
     7
370
    18
100
AcDbSpline
210
0.0
220
0.0
230
1.0
 70
     8
 71
     3
 72
    10
 73
     6
 74
     0
 42
0.000000001
 43
0.00000001
 40
0.0
 40
0.0
 40
0.0
 40
0.0
 40
0.5
 40
0.5
 40
1.0
 40
1.0
 40
1.0
 40
1.0
 10
128.5876678312851
 20
152.0835752395501
 30
0.0
 10
128.5225703860286
 20
152.0808312981731
 30
0.0
 10
128.4469220387382
 20
152.0499351315972
 30
0.0
 10
128.3378289446975
 20
151.9345067525971
 30
0.0
 10
128.3086285114742
 20
151.8544653306733
 30
0.0
 10
128.3060351681649
 20
151.7855875248986
 30
0.0
  0
SPLINE
  5
158
330
1F
100
AcDbEntity
  8
0
  6
Continuous
 62
     7
370
    18
100
AcDbSpline
210
0.0
220
0.0
230
1.0
 70
    24
 71
     3
 72
    12
 73
     8
 74
     0
 42
0.000000001
 43
0.00000001
 40
0.0
 40
0.0
 40
0.0
 40
0.0
 40
0.2500000000000002
 40
0.2500000000000002
 40
0.5000000000000004
 40
0.5000000000000004
 40
1.0
 40
1.0
 40
1.0
 40
1.0
 10
127.9876678450615
 20
152.5730702703949
 30
0.0
 10
128.029205234652
 20
152.5730702703949
 30
0.0
 10
128.0725722475083
 20
152.5730702703949
 30
0.0
 10
128.1513100975559
 20
152.5730702703949
 30
0.0
 10
128.1863736416819
 20
152.5730702703949
 30
0.0
 10
128.2675820482618
 20
152.5730702703949
 30
0.0
 10
128.2876678446912
 20
152.5730702703949
 30
0.0
 10
128.2876678446912
 20
152.5730702703949
 30
0.0
  0
SPLINE
  5
159
330
1F
100
AcDbEntity
  8
0
  6
Continuous
 62
     7
370
    18
100
AcDbSpline
210
0.0
220
0.0
230
1.0
 70
    24
 71
     3
 72
    10
 73
     6
 74
     0
 42
0.000000001
 43
0.00000001
 40
0.0
 40
0.0
 40
0.0
 40
0.0
 40
0.5
 40
0.5
 40
1.0
 40
1.0
 40
1.0
 40
1.0
 10
127.7795045796912
 20
152.5730702703949
 30
0.0
 10
127.8024341689677
 20
152.5730702703949
 30
0.0
 10
127.8315182661997
 20
152.5730702703949
 30
0.0
 10
127.9021022896761
 20
152.5730702703949
 30
0.0
 10
127.9437161056205
 20
152.5730702703949
 30
0.0
 10
127.9876678450615
 20
152.5730702703949
 30
0.0
  0
LINE
  5
15A
330
1F
100
AcDbEntity
  8
0
  6
Continuous
 62
     7
370
    18
100
AcDbLine
 10
127.9876681308
 20
154.7815032047
 30
0.0
 11
127.9876681308
 21
152.5730700907
 31
0.0
  0
SPLINE
  5
15B
330
1F
100
AcDbEntity
  8
0
  6
Continuous
 62
     7
370
    18
100
AcDbSpline
210
0.0
220
0.0
230
1.0
 70
     8
 71
     3
 72
    10
 73
     6
 74
     0
 42
0.000000001
 43
0.00000001
 40
0.0
 40
0.0
 40
0.0
 40
0.0
 40
0.5
 40
0.5
 40
1.0
 40
1.0
 40
1.0
 40
1.0
 10
124.269300436895
 20
151.7855874944197
 30
0.0
 10
124.2667070965777
 20
151.8544652963428
 30
0.0
 10
124.2375066698959
 20
151.9345067117523
 30
0.0
 10
124.1284135926697
 20
152.0499350883117
 30
0.0
 10
124.0527652536711
 20
152.0808312604602
 30
0.0
 10
123.9876678100474
 20
152.0835752103202
 30
0.0
  0
SPLINE
  5
15C
330
1F
100
AcDbEntity
  8
0
  6
Continuous
 62
     7
370
    18
100
AcDbSpline
210
0.0
220
0.0
230
1.0
 70
     8
 71
     3
 72
    10
 73
     6
 74
     0
 42
0.000000001
 43
0.00000001
 40
0.0
 40
0.0
 40
0.0
 40
0.0
 40
0.5
 40
0.5
 40
1.0
 40
1.0
 40
1.0
 40
1.0
 10
124.5876678504874
 20
152.5730701775802
 30
0.0
 10
124.6316195883588
 20
152.5730701660994
 30
0.0
 10
124.6732334028061
 20
152.5730701527386
 30
0.0
 10
124.7438174241736
 20
152.5730701264746
 30
0.0
 10
124.7729015207648
 20
152.5730701136069
 30
0.0
 10
124.795831109691
 20
152.5730701020513
 30
0.0
  0
SPLINE
  5
15D
330
1F
100
AcDbEntity
  8
0
  6
Continuous
 62
     7
370
    18
100
AcDbSpline
210
0.0
220
0.0
230
1.0
 70
    24
 71
     3
 72
    29
 73
    25
 74
     0
 42
0.000000001
 43
0.00000001
 40
0.0
 40
0.0
 40
0.0
 40
0.0
 40
0.0156493635554998
 40
0.0312741728689718
 40
0.0468989821725297
 40
0.0625483456983329
 40
0.0938163891113026
 40
0.1250844327917052
 40
0.1875713826077511
 40
0.2500583318326192
 40
0.3125452810295433
 40
0.3750322306557448
 40
0.4375191800091247
 40
0.500006129388047
 40
0.5624930786803258
 40
0.6249800282348199
 40
0.6874669779011829
 40
0.7499539273679084
 40
0.8124408768380921
 40
0.8749278262207546
 40
0.90619586963734
 40
0.9374639128731478
 40
0.968731956515574
 40
0.9999999999999999
 40
0.9999999999999999
 40
0.9999999999999999
 40
0.9999999999999999
 10
169.9876678446912
 20
154.6056869039764
 30
0.0
 10
169.9876678446912
 20
154.6167226442635
 30
0.0
 10
169.9876678446912
 20
154.6387768094857
 30
0.0
 10
169.9876678446912
 20
154.6805945512117
 30
0.0
 10
169.9876678446912
 20
154.7287609695266
 30
0.0
 10
169.9876678446912
 20
154.8021630073019
 30
0.0
 10
169.9876678446912
 20
154.9104981411573
 30
0.0
 10
169.9876678446912
 20
155.1182581735947
 30
0.0
 10
169.9876678446912
 20
155.4403996466468
 30
0.0
 10
169.9876678446912
 20
155.9167834940451
 30
0.0
 10
169.9876678446912
 20
156.471237110664
 30
0.0
 10
169.9876678446912
 20
157.0898601950889
 30
0.0
 10
169.9876678446912
 20
157.7571852951263
 30
0.0
 10
169.9876678446912
 20
158.4565164228314
 30
0.0
 10
169.9876678446912
 20
159.1703595231103
 30
0.0
 10
169.9876678446912
 20
159.8808574157864
 30
0.0
 10
169.9876678446912
 20
160.5702343268549
 30
0.0
 10
169.9876678446912
 20
161.2212520588048
 30
0.0
 10
169.9876678446912
 20
161.8175974464341
 30
0.0
 10
169.9876678446912
 20
162.2567136166419
 30
0.0
 10
169.9876678446912
 20
162.5665380800258
 30
0.0
 10
169.9876678446912
 20
162.7763921676409
 30
0.0
 10
169.9876678446912
 20
162.9647327782953
 30
0.0
 10
169.9876678446912
 20
163.0692682190251
 30
0.0
 10
169.9876678446912
 20
163.1215359392579
 30
0.0
  0
SPLINE
  5
15E
330
1F
100
AcDbEntity
  8
0
  6
Continuous
 62
     7
370
    18
100
AcDbSpline
210
0.0
220
0.0
230
1.0
 70
    24
 71
     3
 72
    14
 73
    10
 74
     0
 42
0.000000001
 43
0.00000001
 40
0.0
 40
0.0
 40
0.0
 40
0.0
 40
0.25
 40
0.25
 40
0.5
 40
0.5
 40
0.75
 40
0.75
 40
1.0
 40
1.0
 40
1.0
 40
1.0
 10
169.3876678446912
 20
154.6056869015359
 30
0.0
 10
169.3876678446912
 20
154.7728802699279
 30
0.0
 10
169.3876678446912
 20
155.2367748029351
 30
0.0
 10
169.3876678446912
 20
156.6228154401933
 30
0.0
 10
169.3876678446912
 20
157.508886673687
 30
0.0
 10
169.3876678446912
 20
159.4089835030032
 30
0.0
 10
169.3876678446912
 20
160.3735547425092
 30
0.0
 10
169.3876678446912
 20
162.0507252586447
 30
0.0
 10
169.3876678446912
 20
162.7196723450127
 30
0.0
 10
169.3876678446912
 20
163.1215359360754
 30
0.0
  0
LINE
  5
15F
330
1F
100
AcDbEntity
  8
0
  6
Continuous
 62
     7
370
    18
100
AcDbLine
 10
169.9876675645
 20
163.1215359759
 30
0.0
 11
169.3876685838
 21
163.1215359759
 31
0.0
  0
LINE
  5
160
330
1F
100
AcDbEntity
  8
0
  6
Continuous
 62
     7
370
    18
100
AcDbLine
 10
137.766435955
 20
153.106941909
 30
0.0
 11
137.7701929102
 21
153.1083859247
 31
0.0
  0
LINE
  5
161
330
1F
100
AcDbEntity
  8
0
  6
Continuous
 62
     7
370
    18
100
AcDbLine
 10
139.7677121947
 20
165.062878814
 30
0.0
 11
139.7715362052
 21
165.0625910353
 31
0.0
  0
LINE
  5
162
330
1F
100
AcDbEntity
  8
0
  6
Continuous
 62
     7
370
    18
100
AcDbLine
 10
141.7676566432
 20
153.1115445052
 30
0.0
 11
141.7733023206
 21
153.1102229584
 31
0.0
  0
LINE
  5
163
330
1F
100
AcDbEntity
  8
0
  6
Continuous
 62
     7
370
    18
100
AcDbLine
 10
145.6614641736
 20
153.1806556251
 30
0.0
 11
145.7692461352
 21
153.0879806471
 31
0.0
  0
SPLINE
  5
164
330
1F
100
AcDbEntity
  8
0
  6
Continuous
 62
     7
370
    18
100
AcDbSpline
210
0.0
220
0.0
230
1.0
 70
     8
 71
     3
 72
    14
 73
    10
 74
     0
 42
0.000000001
 43
0.00000001
 40
0.0
 40
0.0
 40
0.0
 40
0.0
 40
0.081063327724924
 40
0.2347366255375311
 40
0.388408695456308
 40
0.5420790425425543
 40
0.6957490298712068
 40
0.849421405540688
 40
1.0
 40
1.0
 40
1.0
 40
1.0
 10
145.8595490346336
 20
153.1062154774081
 30
0.0
 10
145.8937479104682
 20
153.1111171194675
 30
0.0
 10
145.9927782480563
 20
153.1253108979482
 30
0.0
 10
146.1319294114251
 20
153.2272279120021
 30
0.0
 10
146.2422832135135
 20
153.3913771819007
 30
0.0
 10
146.2828319291075
 20
153.5883667496253
 30
0.0
 10
146.24182689445
 20
153.7829527831046
 30
0.0
 10
146.1344795701762
 20
153.9531626630506
 30
0.0
 10
146.0201961646138
 20
154.0160587540489
 30
0.0
 10
145.9636355082177
 20
154.0471870195579
 30
0.0
  0
LINE
  5
165
330
1F
100
AcDbEntity
  8
0
  6
Continuous
 62
     7
370
    18
100
AcDbLine
 10
145.6768719743
 20
153.1066317786
 30
0.0
 11
145.7692461352
 21
153.0879806471
 31
0.0
  0
LINE
  5
166
330
1F
100
AcDbEntity
  8
0
  6
Continuous
 62
     7
370
    18
100
AcDbLine
 10
149.2876673381
 20
163.9440991659
 30
0.0
 11
149.2876673381
 21
154.1291448031
 31
0.0
  0
LINE
  5
167
330
1F
100
AcDbEntity
  8
0
  6
Continuous
 62
     7
370
    18
100
AcDbLine
 10
149.2876673381
 20
154.1291448031
 30
0.0
 11
146.287668709
 21
154.1291448031
 31
0.0
  0
LINE
  5
168
330
1F
100
AcDbEntity
  8
0
  6
Continuous
 62
     7
370
    18
100
AcDbLine
 10
146.287668709
 20
154.1291448031
 30
0.0
 11
146.287668709
 21
163.9440991659
 31
0.0
  0
LINE
  5
169
330
1F
100
AcDbEntity
  8
0
  6
Continuous
 62
     7
370
    18
100
AcDbLine
 10
149.2876673381
 20
163.9440991659
 30
0.0
 11
146.287668709
 21
163.9440991659
 31
0.0
  0
LINE
  5
16A
330
1F
100
AcDbEntity
  8
0
  6
Continuous
 62
     7
370
    18
100
AcDbLine
 10
149.2876673381
 20
149.221667156
 30
0.0
 11
146.287668709
 21
149.221667156
 31
0.0
  0
LINE
  5
16B
330
1F
100
AcDbEntity
  8
0
  6
Continuous
 62
     7
370
    18
100
AcDbLine
 10
146.287668709
 20
149.221667156
 30
0.0
 11
146.287668709
 21
154.1291448031
 31
0.0
  0
LINE
  5
16C
330
1F
100
AcDbEntity
  8
0
  6
Continuous
 62
     7
370
    18
100
AcDbLine
 10
149.2876673381
 20
154.1291448031
 30
0.0
 11
149.2876673381
 21
149.221667156
 31
0.0
  0
LINE
  5
16D
330
1F
100
AcDbEntity
  8
0
  6
Continuous
 62
     7
370
    18
100
AcDbLine
 10
146.287668709
 20
168.851576813
 30
0.0
 11
149.2876673381
 21
168.851576813
 31
0.0
  0
LINE
  5
16E
330
1F
100
AcDbEntity
  8
0
  6
Continuous
 62
     7
370
    18
100
AcDbLine
 10
146.287668709
 20
163.9440991659
 30
0.0
 11
146.287668709
 21
168.851576813
 31
0.0
  0
LINE
  5
16F
330
1F
100
AcDbEntity
  8
0
  6
Continuous
 62
     7
370
    18
100
AcDbLine
 10
149.2876673381
 20
168.851576813
 30
0.0
 11
149.2876673381
 21
163.9440991659
 31
0.0
  0
SPLINE
  5
170
330
1F
100
AcDbEntity
  8
0
  6
Continuous
 62
     7
370
    18
100
AcDbSpline
210
0.0
220
0.0
230
1.0
 70
    24
 71
     3
 72
    13
 73
     9
 74
     0
 42
0.000000001
 43
0.00000001
 40
0.0
 40
0.0
 40
0.0
 40
0.0
 40
0.1875083618281192
 40
0.3750167336693112
 40
0.5625251091029141
 40
0.7500334942630547
 40
0.9375418806926815
 40
0.9999999999999999
 40
0.9999999999999999
 40
0.9999999999999999
 40
0.9999999999999999
 10
168.2876685897493
 20
162.0366220105898
 30
0.0
 10
168.2876685897493
 20
162.3656011407043
 30
0.0
 10
168.2876685897493
 20
163.0235594185011
 30
0.0
 10
168.2876685897493
 20
163.8253212975559
 30
0.0
 10
168.2876685897492
 20
164.4556077396512
 30
0.0
 10
168.2876685897493
 20
164.8593976294254
 30
0.0
 10
168.2876685897493
 20
165.0464063778204
 30
0.0
 10
168.2876685897493
 20
165.0180435533394
 30
0.0
 10
168.2876685897493
 20
165.0109566491555
 30
0.0
  0
SPLINE
  5
171
330
1F
100
AcDbEntity
  8
0
  6
Continuous
 62
     7
370
    18
100
AcDbSpline
210
0.0
220
0.0
230
1.0
 70
    24
 71
     3
 72
    18
 73
    14
 74
     0
 42
0.000000001
 43
0.00000001
 40
0.0
 40
0.0
 40
0.0
 40
0.0
 40
0.0625209355266704
 40
0.1562688439938535
 40
0.2500167584625494
 40
0.3437646532723573
 40
0.4375125530883659
 40
0.5312604547004595
 40
0.6250083655652128
 40
0.7187562689178021
 40
0.8125041725459512
 40
0.9062520855313041
 40
0.9999999999999999
 40
0.9999999999999999
 40
0.9999999999999999
 40
0.9999999999999999
 10
168.2876685897493
 20
153.0622873198699
 30
0.0
 10
168.2876685897493
 20
153.0620558597943
 30
0.0
 10
168.2876685897493
 20
153.0614773336071
 30
0.0
 10
168.2876685897493
 20
153.324022342829
 30
0.0
 10
168.2876685897493
 20
153.8054717885952
 30
0.0
 10
168.2876685897493
 20
154.4969086158674
 30
0.0
 10
168.2876685897493
 20
155.3603930724964
 30
0.0
 10
168.2876685897493
 20
156.3658390491555
 30
0.0
 10
168.2876685897493
 20
157.4735896739629
 30
0.0
 10
168.2876685897493
 20
158.6420476727596
 30
0.0
 10
168.2876685897493
 20
159.8234384611402
 30
0.0
 10
168.2876685897493
 20
160.9828730850287
 30
0.0
 10
168.2876685897493
 20
161.6853723668835
 30
0.0
 10
168.2876685897493
 20
162.0366220105898
 30
0.0
  0
SPLINE
  5
172
330
1F
100
AcDbEntity
  8
0
  6
Continuous
 62
     7
370
    18
100
AcDbSpline
210
0.0
220
0.0
230
1.0
 70
    24
 71
     3
 72
    18
 73
    14
 74
     0
 42
0.000000001
 43
0.00000001
 40
0.0
 40
0.0
 40
0.0
 40
0.0
 40
0.0625209355266704
 40
0.1562688439938535
 40
0.2500167584625494
 40
0.3437646532723573
 40
0.4375125530883659
 40
0.5312604547004595
 40
0.6250083655652128
 40
0.7187562689178021
 40
0.8125041725459512
 40
0.9062520855313041
 40
0.9999999999999999
 40
0.9999999999999999
 40
0.9999999999999999
 40
0.9999999999999999
 10
150.7876666525983
 20
153.0622873198699
 30
0.0
 10
150.7876666525983
 20
153.0620558597943
 30
0.0
 10
150.7876666525983
 20
153.0614773336071
 30
0.0
 10
150.7876666525983
 20
153.324022342829
 30
0.0
 10
150.7876666525983
 20
153.8054717885952
 30
0.0
 10
150.7876666525983
 20
154.4969086158674
 30
0.0
 10
150.7876666525983
 20
155.3603930724964
 30
0.0
 10
150.7876666525983
 20
156.3658390491555
 30
0.0
 10
150.7876666525983
 20
157.4735896739629
 30
0.0
 10
150.7876666525983
 20
158.6420476727596
 30
0.0
 10
150.7876666525983
 20
159.8234384611402
 30
0.0
 10
150.7876666525983
 20
160.9828730850287
 30
0.0
 10
150.7876666525983
 20
161.6853723668835
 30
0.0
 10
150.7876666525983
 20
162.0366220105898
 30
0.0
  0
SPLINE
  5
173
330
1F
100
AcDbEntity
  8
0
  6
Continuous
 62
     7
370
    18
100
AcDbSpline
210
0.0
220
0.0
230
1.0
 70
    24
 71
     3
 72
    13
 73
     9
 74
     0
 42
0.000000001
 43
0.00000001
 40
0.0
 40
0.0
 40
0.0
 40
0.0
 40
0.1875083618281192
 40
0.3750167336693112
 40
0.5625251091029141
 40
0.7500334942630547
 40
0.9375418806926815
 40
0.9999999999999999
 40
0.9999999999999999
 40
0.9999999999999999
 40
0.9999999999999999
 10
150.7876666525983
 20
162.0366220105898
 30
0.0
 10
150.7876666525983
 20
162.3656011407043
 30
0.0
 10
150.7876666525983
 20
163.0235594185011
 30
0.0
 10
150.7876666525983
 20
163.8253212975559
 30
0.0
 10
150.7876666525983
 20
164.4556077396512
 30
0.0
 10
150.7876666525983
 20
164.8593976294254
 30
0.0
 10
150.7876666525983
 20
165.0464063778204
 30
0.0
 10
150.7876666525983
 20
165.0180435533394
 30
0.0
 10
150.7876666525983
 20
165.0109566491555
 30
0.0
  0
SPLINE
  5
174
330
1F
100
AcDbEntity
  8
0
  6
Continuous
 62
     7
370
    18
100
AcDbSpline
210
0.0
220
0.0
230
1.0
 70
    24
 71
     3
 72
    18
 73
    14
 74
     0
 42
0.000000001
 43
0.00000001
 40
0.0
 40
0.0
 40
0.0
 40
0.0
 40
0.0625375288341603
 40
0.1562837708708596
 40
0.2500300139100275
 40
0.3437762726033539
 40
0.4375225274224068
 40
0.531268755502598
 40
0.6250150121393253
 40
0.7187612604141123
 40
0.8125075102040312
 40
0.9062537468190226
 40
1.0
 40
1.0
 40
1.0
 40
1.0
 10
169.2876668910169
 20
154.0580038656007
 30
0.0
 10
169.2876668910169
 20
154.0578097626892
 30
0.0
 10
169.2876668910169
 20
154.0573246917963
 30
0.0
 10
169.2876668910169
 20
154.2761206246285
 30
0.0
 10
169.2876668910169
 20
154.67733050705
 30
0.0
 10
169.2876668910169
 20
155.253527232136
 30
0.0
 10
169.2876668910169
 20
155.9730980431949
 30
0.0
 10
169.2876668910169
 20
156.8109693889812
 30
0.0
 10
169.2876668910169
 20
157.7340951413917
 30
0.0
 10
169.2876668910169
 20
158.7078100421103
 30
0.0
 10
169.2876668910169
 20
159.692302340626
 30
0.0
 10
169.2876668910169
 20
160.6584978238519
 30
0.0
 10
169.2876668910169
 20
161.2439138764646
 30
0.0
 10
169.2876668910169
 20
161.5366219286334
 30
0.0
  0
SPLINE
  5
175
330
1F
100
AcDbEntity
  8
0
  6
Continuous
 62
     7
370
    18
100
AcDbSpline
210
0.0
220
0.0
230
1.0
 70
    24
 71
     3
 72
    13
 73
     9
 74
     0
 42
0.000000001
 43
0.00000001
 40
0.0
 40
0.0
 40
0.0
 40
0.0
 40
0.1875187513922455
 40
0.3750375616912629
 40
0.5625563258818785
 40
0.7500750571422917
 40
0.9375938129143521
 40
1.0
 40
1.0
 40
1.0
 40
1.0
 10
169.2876668910169
 20
161.5366219286334
 30
0.0
 10
169.2876668910169
 20
161.8107712253356
 30
0.0
 10
169.2876668910169
 20
162.3590699048609
 30
0.0
 10
169.2876668910169
 20
163.0272045169631
 30
0.0
 10
169.2876668910169
 20
163.5524448826615
 30
0.0
 10
169.2876668910169
 20
163.8889306440075
 30
0.0
 10
169.2876668910169
 20
164.044767120388
 30
0.0
 10
169.2876668910169
 20
164.0211424392169
 30
0.0
 10
169.2876668910169
 20
164.0152433630537
 30
0.0
  0
SPLINE
  5
176
330
1F
100
AcDbEntity
  8
0
  6
Continuous
 62
     7
370
    18
100
AcDbSpline
210
0.0
220
0.0
230
1.0
 70
    24
 71
     3
 72
    18
 73
    14
 74
     0
 42
0.000000001
 43
0.00000001
 40
0.0
 40
0.0
 40
0.0
 40
0.0
 40
0.0937478970326369
 40
0.1874958009569229
 40
0.2812437099644279
 40
0.3749916226236646
 40
0.4687395350125633
 40
0.5624874356390844
 40
0.656235342957285
 40
0.7499832652231297
 40
0.8437311509868882
 40
0.9374790609354008
 40
1.0
 40
1.0
 40
1.0
 40
1.0
 10
143.7876673678541
 20
161.2866218876552
 30
0.0
 10
143.7876673678541
 20
161.023184637464
 30
0.0
 10
143.7876673678541
 20
160.4963101177158
 30
0.0
 10
143.7876673678541
 20
159.6267343109934
 30
0.0
 10
143.7876673678541
 20
158.7406912130771
 30
0.0
 10
143.7876673678541
 20
157.8643477820388
 30
0.0
 10
143.7876673678541
 20
157.0335346847553
 30
0.0
 10
143.7876673678541
 20
156.2794503635071
 30
0.0
 10
143.7876673678541
 20
155.6318369662115
 30
0.0
 10
143.7876673678541
 20
155.1132590362574
 30
0.0
 10
143.7876673678541
 20
154.752172592608
 30
0.0
 10
143.7876673678541
 20
154.555263707209
 30
0.0
 10
143.7876673678541
 20
154.5556976175276
 30
0.0
 10
143.7876673678541
 20
154.5558712188613
 30
0.0
  0
SPLINE
  5
177
330
1F
100
AcDbEntity
  8
0
  6
Continuous
 62
     7
370
    18
100
AcDbSpline
210
0.0
220
0.0
230
1.0
 70
    24
 71
     3
 72
    10
 73
     6
 74
     0
 42
0.000000001
 43
0.00000001
 40
0.0
 40
0.0
 40
0.0
 40
0.0
 40
0.2007455109467206
 40
0.6003727236140608
 40
1.0
 40
1.0
 40
1.0
 40
1.0
 10
143.7876673678541
 20
162.8407168411177
 30
0.0
 10
143.7876673678541
 20
162.766034081807
 30
0.0
 10
143.7876673678541
 20
162.5426791913148
 30
0.0
 10
143.7876673678541
 20
162.0223193087868
 30
0.0
 10
143.7876673678541
 20
161.5318543743994
 30
0.0
 10
143.7876673678541
 20
161.2866218876552
 30
0.0
  0
SPLINE
  5
178
330
1F
100
AcDbEntity
  8
0
  6
Continuous
 62
     7
370
    18
100
AcDbSpline
210
0.0
220
0.0
230
1.0
 70
    24
 71
     3
 72
    18
 73
    14
 74
     0
 42
0.000000001
 43
0.00000001
 40
0.0
 40
0.0
 40
0.0
 40
0.0
 40
0.0625472822559592
 40
0.1562925569713553
 40
0.250037842614427
 40
0.3437830985725331
 40
0.4375283784852378
 40
0.5312736417502795
 40
0.6250189137042399
 40
0.7187641860170578
 40
0.8125094590957258
 40
0.9062547270340582
 40
1.0
 40
1.0
 40
1.0
 40
1.0
 10
143.2876682172202
 20
155.0537246022832
 30
0.0
 10
143.2876682172202
 20
155.0535686297426
 30
0.0
 10
143.2876682172202
 20
155.0531788870343
 30
0.0
 10
143.2876682172202
 20
155.228220276093
 30
0.0
 10
143.2876682172202
 20
155.5491889503888
 30
0.0
 10
143.2876682172202
 20
156.0101461068766
 30
0.0
 10
143.2876682172203
 20
156.5858027331126
 30
0.0
 10
143.2876682172202
 20
157.2560999844923
 30
0.0
 10
143.2876682172203
 20
157.9946005601612
 30
0.0
 10
143.2876682172202
 20
158.773572403749
 30
0.0
 10
143.2876682172203
 20
159.5611663062855
 30
0.0
 10
143.2876682172202
 20
160.3341225876759
 30
0.0
 10
143.2876682172202
 20
160.8024554228238
 30
0.0
 10
143.2876682172202
 20
161.036621846677
 30
0.0
  0
SPLINE
  5
179
330
1F
100
AcDbEntity
  8
0
  6
Continuous
 62
     7
370
    18
100
AcDbSpline
210
0.0
220
0.0
230
1.0
 70
    24
 71
     3
 72
    13
 73
     9
 74
     0
 42
0.000000001
 43
0.00000001
 40
0.0
 40
0.0
 40
0.0
 40
0.0
 40
0.1875189232751509
 40
0.37503781114618
 40
0.5625567331811375
 40
0.7500756628071747
 40
0.9375945747685352
 40
1.0
 40
1.0
 40
1.0
 40
1.0
 10
143.2876682172202
 20
161.036621846677
 30
0.0
 10
143.2876682172202
 20
161.255941401066
 30
0.0
 10
143.2876682172202
 20
161.6945804684359
 30
0.0
 10
143.2876682172202
 20
162.2290877277903
 30
0.0
 10
143.2876682172203
 20
162.6492800271937
 30
0.0
 10
143.2876682172202
 20
162.9184693941304
 30
0.0
 10
143.2876682172203
 20
163.043138351869
 30
0.0
 10
143.2876682172202
 20
163.0242385865788
 30
0.0
 10
143.2876682172202
 20
163.0195193667423
 30
0.0
  0
SPLINE
  5
17A
330
1F
100
AcDbEntity
  8
0
  6
Continuous
 62
     7
370
    18
100
AcDbSpline
210
0.0
220
0.0
230
1.0
 70
    24
 71
     3
 72
     8
 73
     4
 74
     0
 42
0.000000001
 43
0.00000001
 40
0.0
 40
0.0
 40
0.0
 40
0.0
 40
1.0
 40
1.0
 40
1.0
 40
1.0
 10
161.5738711556828
 20
161.5008662282812
 30
0.0
 10
161.5738711556828
 20
162.8755943429761
 30
0.0
 10
161.5738711556828
 20
164.1331981464105
 30
0.0
 10
161.5738711556828
 20
165.1657157041782
 30
0.0
  0
SPLINE
  5
17B
330
1F
100
AcDbEntity
  8
0
  6
Continuous
 62
     7
370
    18
100
AcDbSpline
210
0.0
220
0.0
230
1.0
 70
     8
 71
     3
 72
    12
 73
     8
 74
     0
 42
0.000000001
 43
0.00000001
 40
0.0
 40
0.0
 40
0.0
 40
0.0
 40
0.1687587900168168
 40
0.3347821315282855
 40
0.4984190143124485
 40
0.7514131734724139
 40
1.0
 40
1.0
 40
1.0
 40
1.0
 10
162.1309879398238
 20
163.9440992117096
 30
0.0
 10
162.0925165278794
 20
163.808394239851
 30
0.0
 10
162.0161972956047
 20
163.5391839679993
 30
0.0
 10
161.9114100429271
 20
163.1359563905082
 30
0.0
 10
161.7974897967254
 20
162.6624772467599
 30
0.0
 10
161.6798367595403
 20
162.1189029889235
 30
0.0
 10
161.6089855031062
 20
161.7056681332733
 30
0.0
 10
161.5738711556828
 20
161.5008662282812
 30
0.0
  0
SPLINE
  5
17C
330
1F
100
AcDbEntity
  8
0
  6
Continuous
 62
     7
370
    18
100
AcDbSpline
210
0.0
220
0.0
230
1.0
 70
     8
 71
     3
 72
    12
 73
     8
 74
     0
 42
0.000000001
 43
0.00000001
 40
0.0
 40
0.0
 40
0.0
 40
0.0
 40
0.1644443311829411
 40
0.3305519270949978
 40
0.4988651060836748
 40
0.7465204752797884
 40
1.0
 40
1.0
 40
1.0
 40
1.0
 10
161.5738711556828
 20
165.1657157041782
 30
0.0
 10
161.5966226757847
 20
165.0979332973994
 30
0.0
 10
161.6423558352067
 20
164.9616829017629
 30
0.0
 10
161.7233164786604
 20
164.7571426872313
 30
0.0
 10
161.8274961740444
 20
164.5195499652941
 30
0.0
 10
161.9603938014419
 20
164.2477087247239
 30
0.0
 10
162.0736843420537
 20
164.0460834743459
 30
0.0
 10
162.1309879398238
 20
163.9440992117096
 30
0.0
  0
SPLINE
  5
17D
330
1F
100
AcDbEntity
  8
0
  6
Continuous
 62
     7
370
    18
100
AcDbSpline
210
0.0
220
0.0
230
1.0
 70
     8
 71
     3
 72
    12
 73
     8
 74
     0
 42
0.000000001
 43
0.00000001
 40
0.0
 40
0.0
 40
0.0
 40
0.0
 40
0.1644443311832601
 40
0.3305519270955149
 40
0.4988651060842619
 40
0.746520475280232
 40
1.0
 40
1.0
 40
1.0
 40
1.0
 10
164.5738711556912
 20
152.9075281466014
 30
0.0
 10
164.5511196355896
 20
152.9753105533807
 30
0.0
 10
164.5053864761683
 20
153.1115609490182
 30
0.0
 10
164.4244258327159
 20
153.3161011635516
 30
0.0
 10
164.3202461373334
 20
153.5536938854908
 30
0.0
 10
164.187348509938
 20
153.8255351260632
 30
0.0
 10
164.0740579693279
 20
154.0271603764429
 30
0.0
 10
164.0167543715586
 20
154.1291446390801
 30
0.0
  0
SPLINE
  5
17E
330
1F
100
AcDbEntity
  8
0
  6
Continuous
 62
     7
370
    18
100
AcDbSpline
210
0.0
220
0.0
230
1.0
 70
     8
 71
     3
 72
    12
 73
     8
 74
     0
 42
0.000000001
 43
0.00000001
 40
0.0
 40
0.0
 40
0.0
 40
0.0
 40
0.1687587900164882
 40
0.3347821315277622
 40
0.4984190143118625
 40
0.751413173471978
 40
0.9999999999999999
 40
0.9999999999999999
 40
0.9999999999999999
 40
0.9999999999999999
 10
164.0167543715586
 20
154.1291446390801
 30
0.0
 10
164.0552257835025
 20
154.2648496109382
 30
0.0
 10
164.131545015776
 20
154.5340598827891
 30
0.0
 10
164.236332268452
 20
154.9372874602791
 30
0.0
 10
164.350252514652
 20
155.4107666040265
 30
0.0
 10
164.4679055518353
 20
155.9543408618625
 30
0.0
 10
164.5387568082683
 20
156.3675757175123
 30
0.0
 10
164.5738711556912
 20
156.5723776225044
 30
0.0
  0
SPLINE
  5
17F
330
1F
100
AcDbEntity
  8
0
  6
Continuous
 62
   144
370
    18
100
AcDbSpline
210
0.0
220
0.0
230
1.0
 70
    24
 71
     3
 72
     8
 73
     4
 74
     0
 42
0.000000001
 43
0.00000001
 40
0.0
 40
0.0
 40
0.0
 40
0.0
 40
1.0
 40
1.0
 40
1.0
 40
1.0
 10
164.5738711556912
 20
156.5723776225044
 30
0.0
 10
164.5738711556912
 20
155.1976495078072
 30
0.0
 10
164.5738711556912
 20
153.9400457043708
 30
0.0
 10
164.5738711556912
 20
152.9075281466014
 30
0.0
  0
SPLINE
  5
180
330
1F
100
AcDbEntity
  8
0
  6
Continuous
 62
     7
370
    18
100
AcDbSpline
210
0.0
220
0.0
230
1.0
 70
    24
 71
     3
 72
     8
 73
     4
 74
     0
 42
0.000000001
 43
0.00000001
 40
0.0
 40
0.0
 40
0.0
 40
0.0
 40
1.0
 40
1.0
 40
1.0
 40
1.0
 10
161.5738711556912
 20
152.907528145129
 30
0.0
 10
161.5738711556912
 20
153.9400457026699
 30
0.0
 10
161.5738711556912
 20
155.1976495059389
 30
0.0
 10
161.5738711556912
 20
156.5723776205441
 30
0.0
  0
SPLINE
  5
181
330
1F
100
AcDbEntity
  8
0
  6
Continuous
 62
     7
370
    18
100
AcDbSpline
210
0.0
220
0.0
230
1.0
 70
     8
 71
     3
 72
    12
 73
     8
 74
     0
 42
0.000000001
 43
0.00000001
 40
0.0
 40
0.0
 40
0.0
 40
0.0
 40
0.1689572582006941
 40
0.335172794546687
 40
0.4989969118046793
 40
0.7516965879704236
 40
1.0
 40
1.0
 40
1.0
 40
1.0
 10
162.1309879398239
 20
154.1291446371198
 30
0.0
 10
162.0924720372595
 20
154.0612137013356
 30
0.0
 10
162.0160652416329
 20
153.9264541661404
 30
0.0
 10
161.9111697831236
 20
153.7246073513764
 30
0.0
 10
161.7972595948525
 20
153.4878159738307
 30
0.0
 10
161.6797078480482
 20
153.2162207679617
 30
0.0
 10
161.6089430679491
 20
153.0098219748165
 30
0.0
 10
161.5738711556912
 20
152.907528145129
 30
0.0
  0
SPLINE
  5
182
330
1F
100
AcDbEntity
  8
0
  6
Continuous
 62
     7
370
    18
100
AcDbSpline
210
0.0
220
0.0
230
1.0
 70
     8
 71
     3
 72
    12
 73
     8
 74
     0
 42
0.000000001
 43
0.00000001
 40
0.0
 40
0.0
 40
0.0
 40
0.0
 40
0.1650881909416597
 40
0.3318533786677288
 40
0.5008439397044391
 40
0.7475316019264288
 40
1.0
 40
1.0
 40
1.0
 40
1.0
 10
161.5738711556912
 20
156.5723776205442
 30
0.0
 10
161.5967154139238
 20
156.4362933638817
 30
0.0
 10
161.6426359866456
 20
156.1627424811727
 30
0.0
 10
161.7239740561207
 20
155.7520508934959
 30
0.0
 10
161.8283176738913
 20
155.2765371934928
 30
0.0
 10
161.9610528484753
 20
154.7339746046815
 30
0.0
 10
162.0739072530374
 20
154.3323052066262
 30
0.0
 10
162.1309879398239
 20
154.1291446371198
 30
0.0
  0
SPLINE
  5
183
330
1F
100
AcDbEntity
  8
0
  6
Continuous
 62
     7
370
    18
100
AcDbSpline
210
0.0
220
0.0
230
1.0
 70
     8
 71
     3
 72
    12
 73
     8
 74
     0
 42
0.000000001
 43
0.00000001
 40
0.0
 40
0.0
 40
0.0
 40
0.0
 40
0.1650881909416597
 40
0.3318533786677296
 40
0.5008439397044392
 40
0.7475316019264284
 40
1.0
 40
1.0
 40
1.0
 40
1.0
 10
164.5738711556912
 20
161.5008662302456
 30
0.0
 10
164.5510268974587
 20
161.636950486908
 30
0.0
 10
164.5051063247369
 20
161.910501369617
 30
0.0
 10
164.4237682552617
 20
162.3211929572938
 30
0.0
 10
164.3194246374911
 20
162.796706657297
 30
0.0
 10
164.1866894629072
 20
163.3392692461082
 30
0.0
 10
164.0738350583451
 20
163.7409386441635
 30
0.0
 10
164.0167543715586
 20
163.9440992136699
 30
0.0
  0
SPLINE
  5
184
330
1F
100
AcDbEntity
  8
0
  6
Continuous
 62
     7
370
    18
100
AcDbSpline
210
0.0
220
0.0
230
1.0
 70
     8
 71
     3
 72
    12
 73
     8
 74
     0
 42
0.000000001
 43
0.00000001
 40
0.0
 40
0.0
 40
0.0
 40
0.0
 40
0.1689572582006937
 40
0.3351727945466866
 40
0.4989969118046788
 40
0.7516965879704233
 40
1.0
 40
1.0
 40
1.0
 40
1.0
 10
164.0167543715586
 20
163.9440992136699
 30
0.0
 10
164.0552702741229
 20
164.0120301494541
 30
0.0
 10
164.1316770697496
 20
164.1467896846493
 30
0.0
 10
164.2365725282588
 20
164.3486364994133
 30
0.0
 10
164.35048271653
 20
164.5854278769591
 30
0.0
 10
164.4680344633342
 20
164.857023082828
 30
0.0
 10
164.5387992434333
 20
165.0634218759732
 30
0.0
 10
164.5738711556912
 20
165.1657157056606
 30
0.0
  0
SPLINE
  5
185
330
1F
100
AcDbEntity
  8
0
  6
Continuous
 62
   144
370
    18
100
AcDbSpline
210
0.0
220
0.0
230
1.0
 70
    24
 71
     3
 72
     8
 73
     4
 74
     0
 42
0.000000001
 43
0.00000001
 40
0.0
 40
0.0
 40
0.0
 40
0.0
 40
0.9999999999999999
 40
0.9999999999999999
 40
0.9999999999999999
 40
0.9999999999999999
 10
164.5738711556912
 20
165.1657157056606
 30
0.0
 10
164.5738711556912
 20
164.1331981481198
 30
0.0
 10
164.5738711556912
 20
162.8755943448509
 30
0.0
 10
164.5738711556912
 20
161.5008662302456
 30
0.0
  0
LINE
  5
186
330
1F
100
AcDbEntity
  8
0
  6
Continuous
 62
     7
370
    18
100
AcDbLine
 10
164.0167536477
 20
163.9440991659
 30
0.0
 11
162.1309893469
 21
163.9440991659
 31
0.0
  0
LINE
  5
187
330
1F
100
AcDbEntity
  8
0
  6
Continuous
 62
     7
370
    18
100
AcDbLine
 10
161.5738721828
 20
156.5723776095
 30
0.0
 11
161.5738721828
 21
161.5008661267
 31
0.0
  0
LINE
  5
188
330
1F
100
AcDbEntity
  8
0
  6
Continuous
 62
     7
370
    18
100
AcDbLine
 10
162.1309893469
 20
154.1291448031
 30
0.0
 11
164.0167536477
 21
154.1291448031
 31
0.0
  0
LINE
  5
189
330
1F
100
AcDbEntity
  8
0
  6
Continuous
 62
   144
370
    18
100
AcDbLine
 10
164.5738708119
 20
156.5723776095
 30
0.0
 11
164.5738708119
 21
161.5008661267
 31
0.0
  0
LINE
  5
18A
330
1F
100
AcDbEntity
  8
0
  6
Continuous
 62
     7
370
    18
100
AcDbLine
 10
161.5738721828
 20
165.1657159184
 30
0.0
 11
161.5738721828
 21
167.6299600605
 31
0.0
  0
SPLINE
  5
18B
330
1F
100
AcDbEntity
  8
0
  6
Continuous
 62
     7
370
    18
100
AcDbSpline
210
0.0
220
0.0
230
1.0
 70
    24
 71
     3
 72
     8
 73
     4
 74
     0
 42
0.000000001
 43
0.00000001
 40
0.0
 40
0.0
 40
0.0
 40
0.0
 40
1.0
 40
1.0
 40
1.0
 40
1.0
 10
161.5738711556912
 20
167.6299600115061
 30
0.0
 10
161.5738711556912
 20
167.8004423078068
 30
0.0
 10
161.5738711556912
 20
167.8866219254557
 30
0.0
 10
161.5738711556912
 20
167.8866219253948
 30
0.0
  0
SPLINE
  5
18C
330
1F
100
AcDbEntity
  8
0
  6
Continuous
 62
     7
370
    18
100
AcDbSpline
210
0.0
220
0.0
230
1.0
 70
    24
 71
     3
 72
     8
 73
     4
 74
     0
 42
0.000000001
 43
0.00000001
 40
0.0
 40
0.0
 40
0.0
 40
0.0
 40
1.0
 40
1.0
 40
1.0
 40
1.0
 10
161.5738711556912
 20
150.1866219253949
 30
0.0
 10
161.5738711556912
 20
150.1866219255229
 30
0.0
 10
161.5738711556912
 20
150.272801543721
 30
0.0
 10
161.5738711556912
 20
150.4432838409115
 30
0.0
  0
LINE
  5
18D
330
1F
100
AcDbEntity
  8
0
  6
Continuous
 62
     7
370
    18
100
AcDbLine
 10
161.5738721828
 20
150.4432839085
 30
0.0
 11
161.5738721828
 21
152.9075280507
 31
0.0
  0
SPLINE
  5
18E
330
1F
100
AcDbEntity
  8
0
  6
Continuous
 62
     7
370
    18
100
AcDbSpline
210
0.0
220
0.0
230
1.0
 70
     8
 71
     3
 72
    12
 73
     8
 74
     0
 42
0.000000001
 43
0.00000001
 40
0.0
 40
0.0
 40
0.0
 40
0.0
 40
0.1644443311832609
 40
0.3305519270955155
 40
0.4988651060842584
 40
0.746520475280232
 40
1.0
 40
1.0
 40
1.0
 40
1.0
 10
161.5738711556912
 20
150.4432838409115
 30
0.0
 10
161.5966226757928
 20
150.3755121810438
 30
0.0
 10
161.6423558352141
 20
150.2392833879285
 30
0.0
 10
161.7233164786666
 20
150.0347439942343
 30
0.0
 10
161.827496174049
 20
149.7971016105238
 30
0.0
 10
161.9603938014445
 20
149.5252988173274
 30
0.0
 10
162.0736843420546
 20
149.323658986647
 30
0.0
 10
162.1309879398239
 20
149.221667349134
 30
0.0
  0
LINE
  5
18F
330
1F
100
AcDbEntity
  8
0
  6
Continuous
 62
     7
370
    18
100
AcDbLine
 10
162.1309893469
 20
149.221667156
 30
0.0
 11
164.0167536477
 21
149.221667156
 31
0.0
  0
SPLINE
  5
190
330
1F
100
AcDbEntity
  8
0
  6
Continuous
 62
     7
370
    18
100
AcDbSpline
210
0.0
220
0.0
230
1.0
 70
     8
 71
     3
 72
    12
 73
     8
 74
     0
 42
0.000000001
 43
0.00000001
 40
0.0
 40
0.0
 40
0.0
 40
0.0
 40
0.1689572569418494
 40
0.3351727927402764
 40
0.4989969101701262
 40
0.7516965888233992
 40
1.0
 40
1.0
 40
1.0
 40
1.0
 10
164.0167543715586
 20
149.221667349134
 30
0.0
 10
164.0552702741574
 20
149.2896012107602
 30
0.0
 10
164.13167707001
 20
149.4243665504386
 30
0.0
 10
164.2365725284345
 20
149.626218397995
 30
0.0
 10
164.3504827171953
 20
149.8629817273612
 30
0.0
 10
164.4680344622801
 20
150.134648160382
 30
0.0
 10
164.5387992432411
 20
150.3410088799991
 30
0.0
 10
164.5738711556912
 20
150.4432838392836
 30
0.0
  0
LINE
  5
191
330
1F
100
AcDbEntity
  8
0
  6
Continuous
 62
   144
370
    18
100
AcDbLine
 10
164.5738708119
 20
150.4432839085
 30
0.0
 11
164.5738708119
 21
152.9075280507
 31
0.0
  0
SPLINE
  5
192
330
1F
100
AcDbEntity
  8
0
  6
Continuous
 62
     7
370
    18
100
AcDbSpline
210
0.0
220
0.0
230
1.0
 70
     8
 71
     3
 72
    12
 73
     8
 74
     0
 42
0.000000001
 43
0.00000001
 40
0.0
 40
0.0
 40
0.0
 40
0.0
 40
0.1644443311832604
 40
0.3305519270955151
 40
0.4988651060842587
 40
0.7465204752802324
 40
1.0
 40
1.0
 40
1.0
 40
1.0
 10
164.5738711556912
 20
167.6299600098782
 30
0.0
 10
164.5511196355896
 20
167.6977316697459
 30
0.0
 10
164.5053864761683
 20
167.8339604628613
 30
0.0
 10
164.4244258327159
 20
168.0384998565554
 30
0.0
 10
164.3202461373334
 20
168.2761422402659
 30
0.0
 10
164.187348509938
 20
168.5479450334624
 30
0.0
 10
164.0740579693279
 20
168.7495848641427
 30
0.0
 10
164.0167543715586
 20
168.8515765016558
 30
0.0
  0
LINE
  5
193
330
1F
100
AcDbEntity
  8
0
  6
Continuous
 62
     7
370
    18
100
AcDbLine
 10
162.1309893469
 20
168.851576813
 30
0.0
 11
164.0167536477
 21
168.851576813
 31
0.0
  0
SPLINE
  5
194
330
1F
100
AcDbEntity
  8
0
  6
Continuous
 62
     7
370
    18
100
AcDbSpline
210
0.0
220
0.0
230
1.0
 70
     8
 71
     3
 72
    12
 73
     8
 74
     0
 42
0.000000001
 43
0.00000001
 40
0.0
 40
0.0
 40
0.0
 40
0.0
 40
0.1689572569418497
 40
0.3351727927402766
 40
0.4989969101701263
 40
0.7516965888233991
 40
1.0
 40
1.0
 40
1.0
 40
1.0
 10
162.1309879398239
 20
168.8515765016558
 30
0.0
 10
162.092472037225
 20
168.7836426400295
 30
0.0
 10
162.0160652413725
 20
168.6488773003511
 30
0.0
 10
161.911169782948
 20
168.4470254527947
 30
0.0
 10
161.7972595941872
 20
168.2102621234285
 30
0.0
 10
161.6797078491023
 20
167.9385956904077
 30
0.0
 10
161.6089430681414
 20
167.7322349707906
 30
0.0
 10
161.5738711556912
 20
167.6299600115061
 30
0.0
  0
LINE
  5
195
330
1F
100
AcDbEntity
  8
0
  6
Continuous
 62
   144
370
    18
100
AcDbLine
 10
164.5738708119
 20
165.1657159184
 30
0.0
 11
164.5738708119
 21
167.6299600605
 31
0.0
  0
SPLINE
  5
196
330
1F
100
AcDbEntity
  8
0
  6
Continuous
 62
   144
370
    18
100
AcDbSpline
210
0.0
220
0.0
230
1.0
 70
    24
 71
     3
 72
     8
 73
     4
 74
     0
 42
0.000000001
 43
0.00000001
 40
0.0
 40
0.0
 40
0.0
 40
0.0
 40
1.0
 40
1.0
 40
1.0
 40
1.0
 10
164.5738711556912
 20
150.4432838392836
 30
0.0
 10
164.5738711556912
 20
150.2728015429829
 30
0.0
 10
164.5738711556912
 20
150.186621925334
 30
0.0
 10
164.5738711556912
 20
150.1866219253949
 30
0.0
  0
SPLINE
  5
197
330
1F
100
AcDbEntity
  8
0
  6
Continuous
 62
   144
370
    18
100
AcDbSpline
210
0.0
220
0.0
230
1.0
 70
    24
 71
     3
 72
     8
 73
     4
 74
     0
 42
0.000000001
 43
0.00000001
 40
0.0
 40
0.0
 40
0.0
 40
0.0
 40
1.0
 40
1.0
 40
1.0
 40
1.0
 10
164.5738711556912
 20
167.8866219253948
 30
0.0
 10
164.5738711556912
 20
167.8866219252668
 30
0.0
 10
164.5738711556912
 20
167.8004423070687
 30
0.0
 10
164.5738711556912
 20
167.6299600098782
 30
0.0
  0
SPLINE
  5
198
330
1F
100
AcDbEntity
  8
0
  6
Continuous
 62
     7
370
    18
100
AcDbSpline
210
0.0
220
0.0
230
1.0
 70
     8
 71
     3
 72
    12
 73
     8
 74
     0
 42
0.000000001
 43
0.00000001
 40
0.0
 40
0.0
 40
0.0
 40
0.0
 40
0.16444433118326
 40
0.3305519270955146
 40
0.4988651060842615
 40
0.7465204752802314
 40
1.0
 40
1.0
 40
1.0
 40
1.0
 10
167.5738711556912
 20
152.9075281466014
 30
0.0
 10
167.5511196355896
 20
152.9753105533807
 30
0.0
 10
167.5053864761683
 20
153.1115609490182
 30
0.0
 10
167.4244258327159
 20
153.3161011635516
 30
0.0
 10
167.3202461373334
 20
153.5536938854908
 30
0.0
 10
167.187348509938
 20
153.8255351260632
 30
0.0
 10
167.0740579693278
 20
154.0271603764429
 30
0.0
 10
167.0167543715586
 20
154.1291446390801
 30
0.0
  0
SPLINE
  5
199
330
1F
100
AcDbEntity
  8
0
  6
Continuous
 62
     7
370
    18
100
AcDbSpline
210
0.0
220
0.0
230
1.0
 70
    24
 71
     3
 72
    17
 73
    13
 74
     0
 42
0.000000001
 43
0.00000001
 40
0.0
 40
0.0
 40
0.0
 40
0.0
 40
0.0625338373402157
 40
0.1250106772911918
 40
0.1874875174435965
 40
0.2500213553875465
 40
0.3750177961085818
 40
0.5000142374440406
 40
0.6250106770718453
 40
0.7500071163002331
 40
0.8750035586022229
 40
1.0
 40
1.0
 40
1.0
 40
1.0
 10
167.5738711556912
 20
152.9075281538512
 30
0.0
 10
167.5738711556912
 20
152.9723129151454
 30
0.0
 10
167.5738711556912
 20
153.1018233887066
 30
0.0
 10
167.5738711556912
 20
153.3029574008928
 30
0.0
 10
167.5738711556912
 20
153.5089238900746
 30
0.0
 10
167.5738711556912
 20
153.7904153346942
 30
0.0
 10
167.5738711556912
 20
154.1543930591346
 30
0.0
 10
167.5738711556912
 20
154.6089491906292
 30
0.0
 10
167.5738711556912
 20
155.0795417293846
 30
0.0
 10
167.5738711556913
 20
155.564755713015
 30
0.0
 10
167.5738711556912
 20
156.0619364202266
 30
0.0
 10
167.5738711556912
 20
156.4022305582643
 30
0.0
 10
167.5738711556912
 20
156.5723776266676
 30
0.0
  0
SPLINE
  5
19A
330
1F
100
AcDbEntity
  8
0
  6
Continuous
 62
     7
370
    18
100
AcDbSpline
210
0.0
220
0.0
230
1.0
 70
     8
 71
     3
 72
    12
 73
     8
 74
     0
 42
0.000000001
 43
0.00000001
 40
0.0
 40
0.0
 40
0.0
 40
0.0
 40
0.1687587900164895
 40
0.3347821315277626
 40
0.4984190143118628
 40
0.7514131734719781
 40
1.0
 40
1.0
 40
1.0
 40
1.0
 10
167.0167543715586
 20
154.1291446390801
 30
0.0
 10
167.0552257835025
 20
154.2648496109382
 30
0.0
 10
167.131545015776
 20
154.5340598827891
 30
0.0
 10
167.236332268452
 20
154.9372874602791
 30
0.0
 10
167.350252514652
 20
155.4107666040265
 30
0.0
 10
167.4679055518353
 20
155.9543408618625
 30
0.0
 10
167.5387568082683
 20
156.3675757175123
 30
0.0
 10
167.5738711556912
 20
156.5723776225044
 30
0.0
  0
SPLINE
  5
19B
330
1F
100
AcDbEntity
  8
0
  6
Continuous
 62
     7
370
    18
100
AcDbSpline
210
0.0
220
0.0
230
1.0
 70
     8
 71
     3
 72
    12
 73
     8
 74
     0
 42
0.000000001
 43
0.00000001
 40
0.0
 40
0.0
 40
0.0
 40
0.0
 40
0.168758790016817
 40
0.3347821315282851
 40
0.4984190143124476
 40
0.7514131734724137
 40
1.0
 40
1.0
 40
1.0
 40
1.0
 10
165.1309879398238
 20
163.9440992117096
 30
0.0
 10
165.0925165278794
 20
163.808394239851
 30
0.0
 10
165.0161972956047
 20
163.5391839679993
 30
0.0
 10
164.9114100429271
 20
163.1359563905082
 30
0.0
 10
164.7974897967254
 20
162.6624772467599
 30
0.0
 10
164.6798367595403
 20
162.1189029889235
 30
0.0
 10
164.6089855031062
 20
161.7056681332733
 30
0.0
 10
164.5738711556828
 20
161.5008662282812
 30
0.0
  0
SPLINE
  5
19C
330
1F
100
AcDbEntity
  8
0
  6
Continuous
 62
     7
370
    18
100
AcDbSpline
210
0.0
220
0.0
230
1.0
 70
     8
 71
     3
 72
    12
 73
     8
 74
     0
 42
0.000000001
 43
0.00000001
 40
0.0
 40
0.0
 40
0.0
 40
0.0
 40
0.1644443311829417
 40
0.330551927094998
 40
0.4988651060836751
 40
0.7465204752797889
 40
1.0
 40
1.0
 40
1.0
 40
1.0
 10
164.5738711556828
 20
165.1657157041782
 30
0.0
 10
164.5966226757847
 20
165.0979332973994
 30
0.0
 10
164.6423558352068
 20
164.9616829017629
 30
0.0
 10
164.7233164786604
 20
164.7571426872313
 30
0.0
 10
164.8274961740444
 20
164.5195499652941
 30
0.0
 10
164.9603938014419
 20
164.2477087247239
 30
0.0
 10
165.0736843420537
 20
164.0460834743459
 30
0.0
 10
165.1309879398238
 20
163.9440992117096
 30
0.0
  0
SPLINE
  5
19D
330
1F
100
AcDbEntity
  8
0
  6
Continuous
 62
   144
370
    18
100
AcDbSpline
210
0.0
220
0.0
230
1.0
 70
    24
 71
     3
 72
     8
 73
     4
 74
     0
 42
0.000000001
 43
0.00000001
 40
0.0
 40
0.0
 40
0.0
 40
0.0
 40
1.0
 40
1.0
 40
1.0
 40
1.0
 10
164.5738711556828
 20
161.5008662282812
 30
0.0
 10
164.5738711556828
 20
162.8755943429761
 30
0.0
 10
164.5738711556828
 20
164.1331981464105
 30
0.0
 10
164.5738711556828
 20
165.1657157041782
 30
0.0
  0
SPLINE
  5
19E
330
1F
100
AcDbEntity
  8
0
  6
Continuous
 62
     7
370
    18
100
AcDbSpline
210
0.0
220
0.0
230
1.0
 70
     8
 71
     3
 72
    12
 73
     8
 74
     0
 42
0.000000001
 43
0.00000001
 40
0.0
 40
0.0
 40
0.0
 40
0.0
 40
0.1650881909416596
 40
0.3318533786677293
 40
0.5008439397044389
 40
0.7475316019264285
 40
1.0
 40
1.0
 40
1.0
 40
1.0
 10
167.5738711556912
 20
161.5008662302456
 30
0.0
 10
167.5510268974587
 20
161.636950486908
 30
0.0
 10
167.5051063247369
 20
161.910501369617
 30
0.0
 10
167.4237682552617
 20
162.3211929572938
 30
0.0
 10
167.3194246374912
 20
162.796706657297
 30
0.0
 10
167.1866894629072
 20
163.3392692461082
 30
0.0
 10
167.0738350583451
 20
163.7409386441635
 30
0.0
 10
167.0167543715586
 20
163.9440992136699
 30
0.0
  0
SPLINE
  5
19F
330
1F
100
AcDbEntity
  8
0
  6
Continuous
 62
     7
370
    18
100
AcDbSpline
210
0.0
220
0.0
230
1.0
 70
    24
 71
     3
 72
    17
 73
    13
 74
     0
 42
0.000000001
 43
0.00000001
 40
0.0
 40
0.0
 40
0.0
 40
0.0
 40
0.0625338379618608
 40
0.1250106786040567
 40
0.187487519472383
 40
0.2500213581120177
 40
0.3750177973432062
 40
0.500014236973813
 40
0.6250106783120738
 40
0.7500071190359108
 40
0.8750035599206741
 40
1.0
 40
1.0
 40
1.0
 40
1.0
 10
167.5738711556912
 20
161.500866224122
 30
0.0
 10
167.5738711556912
 20
161.5861940293611
 30
0.0
 10
167.5738711556912
 20
161.7567718666473
 30
0.0
 10
167.5738711556912
 20
162.009521970569
 30
0.0
 10
167.5738711556912
 20
162.259723558759
 30
0.0
 10
167.5738711556913
 20
162.5893729335263
 30
0.0
 10
167.5738711556912
 20
162.993686220872
 30
0.0
 10
167.5738711556912
 20
163.4642808318317
 30
0.0
 10
167.5738711556912
 20
163.9189220055046
 30
0.0
 10
167.5738711556913
 20
164.3553032564299
 30
0.0
 10
167.5738711556912
 20
164.7739671835452
 30
0.0
 10
167.5738711556912
 20
165.0351328594212
 30
0.0
 10
167.5738711556912
 20
165.1657156969385
 30
0.0
  0
SPLINE
  5
1A0
330
1F
100
AcDbEntity
  8
0
  6
Continuous
 62
     7
370
    18
100
AcDbSpline
210
0.0
220
0.0
230
1.0
 70
     8
 71
     3
 72
    12
 73
     8
 74
     0
 42
0.000000001
 43
0.00000001
 40
0.0
 40
0.0
 40
0.0
 40
0.0
 40
0.168957258200695
 40
0.3351727945466871
 40
0.4989969118046786
 40
0.7516965879704228
 40
1.0
 40
1.0
 40
1.0
 40
1.0
 10
167.0167543715586
 20
163.9440992136699
 30
0.0
 10
167.0552702741229
 20
164.0120301494541
 30
0.0
 10
167.1316770697496
 20
164.1467896846493
 30
0.0
 10
167.2365725282588
 20
164.3486364994133
 30
0.0
 10
167.35048271653
 20
164.5854278769591
 30
0.0
 10
167.4680344633342
 20
164.857023082828
 30
0.0
 10
167.5387992434333
 20
165.0634218759732
 30
0.0
 10
167.5738711556912
 20
165.1657157056606
 30
0.0
  0
SPLINE
  5
1A1
330
1F
100
AcDbEntity
  8
0
  6
Continuous
 62
     7
370
    18
100
AcDbSpline
210
0.0
220
0.0
230
1.0
 70
     8
 71
     3
 72
    12
 73
     8
 74
     0
 42
0.000000001
 43
0.00000001
 40
0.0
 40
0.0
 40
0.0
 40
0.0
 40
0.1689572582006954
 40
0.3351727945466875
 40
0.4989969118046796
 40
0.7516965879704238
 40
1.0
 40
1.0
 40
1.0
 40
1.0
 10
165.1309879398239
 20
154.1291446371198
 30
0.0
 10
165.0924720372595
 20
154.0612137013356
 30
0.0
 10
165.0160652416329
 20
153.9264541661404
 30
0.0
 10
164.9111697831236
 20
153.7246073513764
 30
0.0
 10
164.7972595948525
 20
153.4878159738307
 30
0.0
 10
164.6797078480482
 20
153.2162207679617
 30
0.0
 10
164.6089430679491
 20
153.0098219748165
 30
0.0
 10
164.5738711556912
 20
152.907528145129
 30
0.0
  0
SPLINE
  5
1A2
330
1F
100
AcDbEntity
  8
0
  6
Continuous
 62
     7
370
    18
100
AcDbSpline
210
0.0
220
0.0
230
1.0
 70
     8
 71
     3
 72
    12
 73
     8
 74
     0
 42
0.000000001
 43
0.00000001
 40
0.0
 40
0.0
 40
0.0
 40
0.0
 40
0.1650881909416596
 40
0.3318533786677281
 40
0.5008439397044387
 40
0.7475316019264282
 40
1.0
 40
1.0
 40
1.0
 40
1.0
 10
164.5738711556912
 20
156.5723776205442
 30
0.0
 10
164.5967154139238
 20
156.4362933638817
 30
0.0
 10
164.6426359866456
 20
156.1627424811727
 30
0.0
 10
164.7239740561207
 20
155.7520508934959
 30
0.0
 10
164.8283176738913
 20
155.2765371934928
 30
0.0
 10
164.9610528484753
 20
154.7339746046815
 30
0.0
 10
165.0739072530374
 20
154.3323052066262
 30
0.0
 10
165.1309879398239
 20
154.1291446371198
 30
0.0
  0
SPLINE
  5
1A3
330
1F
100
AcDbEntity
  8
0
  6
Continuous
 62
   144
370
    18
100
AcDbSpline
210
0.0
220
0.0
230
1.0
 70
    24
 71
     3
 72
     8
 73
     4
 74
     0
 42
0.000000001
 43
0.00000001
 40
0.0
 40
0.0
 40
0.0
 40
0.0
 40
1.0
 40
1.0
 40
1.0
 40
1.0
 10
164.5738711556912
 20
152.907528145129
 30
0.0
 10
164.5738711556912
 20
153.9400457026699
 30
0.0
 10
164.5738711556912
 20
155.1976495059389
 30
0.0
 10
164.5738711556912
 20
156.5723776205441
 30
0.0
  0
LINE
  5
1A4
330
1F
100
AcDbEntity
  8
0
  6
Continuous
 62
     7
370
    18
100
AcDbLine
 10
165.130987976
 20
163.9440991659
 30
0.0
 11
167.0167560021
 21
163.9440991659
 31
0.0
  0
LINE
  5
1A5
330
1F
100
AcDbEntity
  8
0
  6
Continuous
 62
     7
370
    18
100
AcDbLine
 10
165.130987976
 20
154.1291448031
 30
0.0
 11
167.0167560021
 21
154.1291448031
 31
0.0
  0
LINE
  5
1A6
330
1F
100
AcDbEntity
  8
0
  6
Continuous
 62
     7
370
    18
100
AcDbLine
 10
167.573869441
 20
156.5723776095
 30
0.0
 11
167.573869441
 21
161.5008661267
 31
0.0
  0
LINE
  5
1A7
330
1F
100
AcDbEntity
  8
0
  6
Continuous
 62
   144
370
    18
100
AcDbLine
 10
164.5738708119
 20
161.5008661267
 30
0.0
 11
164.5738708119
 21
156.5723776095
 31
0.0
  0
LINE
  5
1A8
330
1F
100
AcDbEntity
  8
0
  6
Continuous
 62
     7
370
    18
100
AcDbLine
 10
167.573869441
 20
150.4432839085
 30
0.0
 11
167.573869441
 21
152.9075280507
 31
0.0
  0
SPLINE
  5
1A9
330
1F
100
AcDbEntity
  8
0
  6
Continuous
 62
     7
370
    18
100
AcDbSpline
210
0.0
220
0.0
230
1.0
 70
    24
 71
     3
 72
    13
 73
     9
 74
     0
 42
0.000000001
 43
0.00000001
 40
0.0
 40
0.0
 40
0.0
 40
0.0
 40
0.1250641151984619
 40
0.2500142379812878
 40
0.3749643601757214
 40
0.5000284736106126
 40
0.7500142355488975
 40
1.0
 40
1.0
 40
1.0
 40
1.0
 10
167.5738711556912
 20
150.1866219297845
 30
0.0
 10
167.5738711556912
 20
150.1873948295276
 30
0.0
 10
167.5738711556912
 20
150.1889399245377
 30
0.0
 10
167.5738711556912
 20
150.201484056374
 30
0.0
 10
167.5738711556912
 20
150.2214573702655
 30
0.0
 10
167.5738711556912
 20
150.2592646399691
 30
0.0
 10
167.5738711556912
 20
150.3245559276315
 30
0.0
 10
167.5738711556912
 20
150.403707867219
 30
0.0
 10
167.5738711556912
 20
150.4432838372117
 30
0.0
  0
SPLINE
  5
1AA
330
1F
100
AcDbEntity
  8
0
  6
Continuous
 62
     7
370
    18
100
AcDbSpline
210
0.0
220
0.0
230
1.0
 70
    24
 71
     3
 72
    13
 73
     9
 74
     0
 42
0.000000001
 43
0.00000001
 40
0.0
 40
0.0
 40
0.0
 40
0.0
 40
0.1250641152941324
 40
0.2500142381351566
 40
0.3749643603477607
 40
0.5000284737583536
 40
0.7500142357031315
 40
1.0
 40
1.0
 40
1.0
 40
1.0
 10
167.5738711556912
 20
167.6299600135781
 30
0.0
 10
167.5738711556912
 20
167.6505038135814
 30
0.0
 10
167.5738711556912
 20
167.6915726884873
 30
0.0
 10
167.5738711556912
 20
167.7431774048877
 30
0.0
 10
167.5738711556912
 20
167.7874557116403
 30
0.0
 10
167.5738711556912
 20
167.835398200554
 30
0.0
 10
167.5738711556912
 20
167.877375352845
 30
0.0
 10
167.5738711556912
 20
167.8835397316088
 30
0.0
 10
167.5738711556912
 20
167.8866219210053
 30
0.0
  0
LINE
  5
1AB
330
1F
100
AcDbEntity
  8
0
  6
Continuous
 62
     7
370
    18
100
AcDbLine
 10
167.573869441
 20
165.1657159184
 30
0.0
 11
167.573869441
 21
167.6299600605
 31
0.0
  0
SPLINE
  5
1AC
330
1F
100
AcDbEntity
  8
0
  6
Continuous
 62
     7
370
    18
100
AcDbSpline
210
0.0
220
0.0
230
1.0
 70
     8
 71
     3
 72
    12
 73
     8
 74
     0
 42
0.000000001
 43
0.00000001
 40
0.0
 40
0.0
 40
0.0
 40
0.0
 40
0.1644443311832607
 40
0.3305519270955152
 40
0.498865106084258
 40
0.7465204752802315
 40
1.0
 40
1.0
 40
1.0
 40
1.0
 10
164.5738711556912
 20
150.4432838409115
 30
0.0
 10
164.5966226757928
 20
150.3755121810438
 30
0.0
 10
164.6423558352141
 20
150.2392833879285
 30
0.0
 10
164.7233164786666
 20
150.0347439942343
 30
0.0
 10
164.827496174049
 20
149.7971016105238
 30
0.0
 10
164.9603938014444
 20
149.5252988173274
 30
0.0
 10
165.0736843420546
 20
149.323658986647
 30
0.0
 10
165.1309879398239
 20
149.221667349134
 30
0.0
  0
LINE
  5
1AD
330
1F
100
AcDbEntity
  8
0
  6
Continuous
 62
     7
370
    18
100
AcDbLine
 10
165.130987976
 20
149.221667156
 30
0.0
 11
167.0167560021
 21
149.221667156
 31
0.0
  0
SPLINE
  5
1AE
330
1F
100
AcDbEntity
  8
0
  6
Continuous
 62
     7
370
    18
100
AcDbSpline
210
0.0
220
0.0
230
1.0
 70
     8
 71
     3
 72
    12
 73
     8
 74
     0
 42
0.000000001
 43
0.00000001
 40
0.0
 40
0.0
 40
0.0
 40
0.0
 40
0.1689572569418508
 40
0.335172792740277
 40
0.498996910170126
 40
0.7516965888233987
 40
1.0
 40
1.0
 40
1.0
 40
1.0
 10
167.0167543715586
 20
149.221667349134
 30
0.0
 10
167.0552702741574
 20
149.2896012107602
 30
0.0
 10
167.13167707001
 20
149.4243665504386
 30
0.0
 10
167.2365725284345
 20
149.626218397995
 30
0.0
 10
167.3504827171953
 20
149.8629817273612
 30
0.0
 10
167.4680344622801
 20
150.134648160382
 30
0.0
 10
167.5387992432411
 20
150.3410088799991
 30
0.0
 10
167.5738711556912
 20
150.4432838392836
 30
0.0
  0
LINE
  5
1AF
330
1F
100
AcDbEntity
  8
0
  6
Continuous
 62
   144
370
    18
100
AcDbLine
 10
164.5738708119
 20
152.9075280507
 30
0.0
 11
164.5738708119
 21
150.4432839085
 31
0.0
  0
SPLINE
  5
1B0
330
1F
100
AcDbEntity
  8
0
  6
Continuous
 62
     7
370
    18
100
AcDbSpline
210
0.0
220
0.0
230
1.0
 70
     8
 71
     3
 72
    12
 73
     8
 74
     0
 42
0.000000001
 43
0.00000001
 40
0.0
 40
0.0
 40
0.0
 40
0.0
 40
0.1644443311832603
 40
0.3305519270955148
 40
0.4988651060842583
 40
0.7465204752802318
 40
1.0
 40
1.0
 40
1.0
 40
1.0
 10
167.5738711556912
 20
167.6299600098782
 30
0.0
 10
167.5511196355896
 20
167.6977316697459
 30
0.0
 10
167.5053864761683
 20
167.8339604628613
 30
0.0
 10
167.4244258327159
 20
168.0384998565554
 30
0.0
 10
167.3202461373334
 20
168.2761422402659
 30
0.0
 10
167.187348509938
 20
168.5479450334624
 30
0.0
 10
167.0740579693278
 20
168.7495848641427
 30
0.0
 10
167.0167543715586
 20
168.8515765016558
 30
0.0
  0
LINE
  5
1B1
330
1F
100
AcDbEntity
  8
0
  6
Continuous
 62
     7
370
    18
100
AcDbLine
 10
167.0167560021
 20
168.851576813
 30
0.0
 11
165.130987976
 21
168.851576813
 31
0.0
  0
SPLINE
  5
1B2
330
1F
100
AcDbEntity
  8
0
  6
Continuous
 62
     7
370
    18
100
AcDbSpline
210
0.0
220
0.0
230
1.0
 70
     8
 71
     3
 72
    12
 73
     8
 74
     0
 42
0.000000001
 43
0.00000001
 40
0.0
 40
0.0
 40
0.0
 40
0.0
 40
0.168957256941851
 40
0.3351727927402772
 40
0.4989969101701267
 40
0.7516965888233993
 40
1.0
 40
1.0
 40
1.0
 40
1.0
 10
165.1309879398239
 20
168.8515765016558
 30
0.0
 10
165.092472037225
 20
168.7836426400295
 30
0.0
 10
165.0160652413724
 20
168.6488773003511
 30
0.0
 10
164.911169782948
 20
168.4470254527947
 30
0.0
 10
164.7972595941872
 20
168.2102621234285
 30
0.0
 10
164.6797078491023
 20
167.9385956904077
 30
0.0
 10
164.6089430681414
 20
167.7322349707906
 30
0.0
 10
164.5738711556912
 20
167.6299600115061
 30
0.0
  0
LINE
  5
1B3
330
1F
100
AcDbEntity
  8
0
  6
Continuous
 62
   144
370
    18
100
AcDbLine
 10
164.5738708119
 20
167.6299600605
 30
0.0
 11
164.5738708119
 21
165.1657159184
 31
0.0
  0
SPLINE
  5
1B4
330
1F
100
AcDbEntity
  8
0
  6
Continuous
 62
   144
370
    18
100
AcDbSpline
210
0.0
220
0.0
230
1.0
 70
    24
 71
     3
 72
     8
 73
     4
 74
     0
 42
0.000000001
 43
0.00000001
 40
0.0
 40
0.0
 40
0.0
 40
0.0
 40
1.0
 40
1.0
 40
1.0
 40
1.0
 10
164.5738711556912
 20
167.6299600115061
 30
0.0
 10
164.5738711556912
 20
167.8004423078068
 30
0.0
 10
164.5738711556912
 20
167.8866219254557
 30
0.0
 10
164.5738711556912
 20
167.8866219253948
 30
0.0
  0
SPLINE
  5
1B5
330
1F
100
AcDbEntity
  8
0
  6
Continuous
 62
   144
370
    18
100
AcDbSpline
210
0.0
220
0.0
230
1.0
 70
    24
 71
     3
 72
     8
 73
     4
 74
     0
 42
0.000000001
 43
0.00000001
 40
0.0
 40
0.0
 40
0.0
 40
0.0
 40
1.0
 40
1.0
 40
1.0
 40
1.0
 10
164.5738711556912
 20
150.1866219253949
 30
0.0
 10
164.5738711556912
 20
150.1866219255229
 30
0.0
 10
164.5738711556912
 20
150.272801543721
 30
0.0
 10
164.5738711556912
 20
150.4432838409115
 30
0.0
  0
LINE
  5
1B6
330
1F
100
AcDbEntity
  8
0
  6
Continuous
 62
   144
370
    18
100
AcDbLine
 10
164.5738708119
 20
156.5723776095
 30
0.0
 11
164.5738708119
 21
161.5008661267
 31
0.0
  0
SPLINE
  5
1B7
330
1F
100
AcDbEntity
  8
0
  6
Continuous
 62
   144
370
    18
100
AcDbSpline
210
0.0
220
0.0
230
1.0
 70
    24
 71
     3
 72
    17
 73
    13
 74
     0
 42
0.000000001
 43
0.00000001
 40
0.0
 40
0.0
 40
0.0
 40
0.0
 40
0.0625338373402157
 40
0.1250106772911918
 40
0.1874875174435965
 40
0.2500213553875465
 40
0.3750177961085818
 40
0.5000142374440406
 40
0.6250106770718453
 40
0.7500071163002331
 40
0.8750035586022229
 40
1.0
 40
1.0
 40
1.0
 40
1.0
 10
164.5738711556912
 20
152.9075281538512
 30
0.0
 10
164.5738711556912
 20
152.9723129151454
 30
0.0
 10
164.5738711556912
 20
153.1018233887066
 30
0.0
 10
164.5738711556912
 20
153.3029574008928
 30
0.0
 10
164.5738711556912
 20
153.5089238900746
 30
0.0
 10
164.5738711556912
 20
153.7904153346942
 30
0.0
 10
164.5738711556912
 20
154.1543930591346
 30
0.0
 10
164.5738711556912
 20
154.6089491906292
 30
0.0
 10
164.5738711556912
 20
155.0795417293846
 30
0.0
 10
164.5738711556912
 20
155.564755713015
 30
0.0
 10
164.5738711556912
 20
156.0619364202266
 30
0.0
 10
164.5738711556912
 20
156.4022305582643
 30
0.0
 10
164.5738711556912
 20
156.5723776266676
 30
0.0
  0
LINE
  5
1B8
330
1F
100
AcDbEntity
  8
0
  6
Continuous
 62
   144
370
    18
100
AcDbLine
 10
164.5738708119
 20
150.4432839085
 30
0.0
 11
164.5738708119
 21
152.9075280507
 31
0.0
  0
SPLINE
  5
1B9
330
1F
100
AcDbEntity
  8
0
  6
Continuous
 62
   144
370
    18
100
AcDbSpline
210
0.0
220
0.0
230
1.0
 70
    24
 71
     3
 72
    13
 73
     9
 74
     0
 42
0.000000001
 43
0.00000001
 40
0.0
 40
0.0
 40
0.0
 40
0.0
 40
0.1250641151508132
 40
0.2500142378872863
 40
0.3749643600355365
 40
0.5000284734242031
 40
0.7500142354556928
 40
1.0
 40
1.0
 40
1.0
 40
1.0
 10
164.5738711556912
 20
150.1866219297845
 30
0.0
 10
164.5738711556912
 20
150.1873948295345
 30
0.0
 10
164.5738711556913
 20
150.1889399245582
 30
0.0
 10
164.5738711556912
 20
150.2014840563998
 30
0.0
 10
164.5738711556912
 20
150.2214573702855
 30
0.0
 10
164.5738711556912
 20
150.2592646399789
 30
0.0
 10
164.5738711556912
 20
150.3245559276315
 30
0.0
 10
164.5738711556912
 20
150.403707867219
 30
0.0
 10
164.5738711556912
 20
150.4432838372117
 30
0.0
  0
SPLINE
  5
1BA
330
1F
100
AcDbEntity
  8
0
  6
Continuous
 62
   144
370
    18
100
AcDbSpline
210
0.0
220
0.0
230
1.0
 70
    24
 71
     3
 72
    13
 73
     9
 74
     0
 42
0.000000001
 43
0.00000001
 40
0.0
 40
0.0
 40
0.0
 40
0.0
 40
0.1250641152941324
 40
0.2500142381351566
 40
0.3749643603477607
 40
0.5000284737583536
 40
0.7500142357031315
 40
1.0
 40
1.0
 40
1.0
 40
1.0
 10
164.5738711556912
 20
167.6299600135781
 30
0.0
 10
164.5738711556912
 20
167.6505038135814
 30
0.0
 10
164.5738711556912
 20
167.6915726884873
 30
0.0
 10
164.5738711556912
 20
167.7431774048877
 30
0.0
 10
164.5738711556912
 20
167.7874557116403
 30
0.0
 10
164.5738711556912
 20
167.835398200554
 30
0.0
 10
164.5738711556912
 20
167.877375352845
 30
0.0
 10
164.5738711556912
 20
167.8835397316088
 30
0.0
 10
164.5738711556912
 20
167.8866219210053
 30
0.0
  0
LINE
  5
1BB
330
1F
100
AcDbEntity
  8
0
  6
Continuous
 62
   144
370
    18
100
AcDbLine
 10
164.5738708119
 20
165.1657159184
 30
0.0
 11
164.5738708119
 21
167.6299600605
 31
0.0
  0
SPLINE
  5
1BC
330
1F
100
AcDbEntity
  8
0
  6
Continuous
 62
   144
370
    18
100
AcDbSpline
210
0.0
220
0.0
230
1.0
 70
    24
 71
     3
 72
    17
 73
    13
 74
     0
 42
0.000000001
 43
0.00000001
 40
0.0
 40
0.0
 40
0.0
 40
0.0
 40
0.0625338379618608
 40
0.1250106786040567
 40
0.187487519472383
 40
0.2500213581120177
 40
0.3750177973432062
 40
0.500014236973813
 40
0.6250106783120738
 40
0.7500071190359108
 40
0.8750035599206741
 40
1.0
 40
1.0
 40
1.0
 40
1.0
 10
164.5738711556912
 20
161.500866224122
 30
0.0
 10
164.5738711556912
 20
161.5861940293611
 30
0.0
 10
164.5738711556912
 20
161.7567718666473
 30
0.0
 10
164.5738711556913
 20
162.009521970569
 30
0.0
 10
164.5738711556912
 20
162.259723558759
 30
0.0
 10
164.5738711556912
 20
162.5893729335263
 30
0.0
 10
164.5738711556912
 20
162.993686220872
 30
0.0
 10
164.5738711556912
 20
163.4642808318317
 30
0.0
 10
164.5738711556912
 20
163.9189220055046
 30
0.0
 10
164.5738711556913
 20
164.3553032564299
 30
0.0
 10
164.5738711556912
 20
164.7739671835452
 30
0.0
 10
164.5738711556912
 20
165.0351328594212
 30
0.0
 10
164.5738711556912
 20
165.1657156969385
 30
0.0
  0
LINE
  5
1BD
330
1F
100
AcDbEntity
  8
0
  6
Continuous
 62
   144
370
    18
100
AcDbLine
 10
164.5738708119
 20
150.4432839085
 30
0.0
 11
164.5738708119
 21
152.9075280507
 31
0.0
  0
SPLINE
  5
1BE
330
1F
100
AcDbEntity
  8
0
  6
Continuous
 62
   144
370
    18
100
AcDbSpline
210
0.0
220
0.0
230
1.0
 70
    24
 71
     3
 72
    13
 73
     9
 74
     0
 42
0.000000001
 43
0.00000001
 40
0.0
 40
0.0
 40
0.0
 40
0.0
 40
0.1250641151514992
 40
0.2500142378877442
 40
0.3749643600357647
 40
0.5000284734242031
 40
0.7500142354556935
 40
1.0
 40
1.0
 40
1.0
 40
1.0
 10
164.5738711556912
 20
150.1866219297845
 30
0.0
 10
164.5738711556912
 20
150.1873948295345
 30
0.0
 10
164.5738711556912
 20
150.1889399245582
 30
0.0
 10
164.5738711556912
 20
150.2014840563999
 30
0.0
 10
164.5738711556912
 20
150.2214573702855
 30
0.0
 10
164.5738711556912
 20
150.2592646399789
 30
0.0
 10
164.5738711556912
 20
150.3245559276315
 30
0.0
 10
164.5738711556912
 20
150.403707867219
 30
0.0
 10
164.5738711556912
 20
150.4432838372117
 30
0.0
  0
SPLINE
  5
1BF
330
1F
100
AcDbEntity
  8
0
  6
Continuous
 62
   144
370
    18
100
AcDbSpline
210
0.0
220
0.0
230
1.0
 70
    24
 71
     3
 72
    13
 73
     9
 74
     0
 42
0.000000001
 43
0.00000001
 40
0.0
 40
0.0
 40
0.0
 40
0.0
 40
0.1250641152941324
 40
0.2500142381351565
 40
0.3749643603477607
 40
0.5000284737583536
 40
0.7500142357026763
 40
1.0
 40
1.0
 40
1.0
 40
1.0
 10
164.5738711556912
 20
167.6299600135781
 30
0.0
 10
164.5738711556912
 20
167.6505038135814
 30
0.0
 10
164.5738711556912
 20
167.6915726884873
 30
0.0
 10
164.5738711556912
 20
167.7431774048877
 30
0.0
 10
164.5738711556912
 20
167.7874557116403
 30
0.0
 10
164.5738711556912
 20
167.8353982005539
 30
0.0
 10
164.5738711556912
 20
167.877375352845
 30
0.0
 10
164.5738711556912
 20
167.8835397316088
 30
0.0
 10
164.5738711556912
 20
167.8866219210053
 30
0.0
  0
LINE
  5
1C0
330
1F
100
AcDbEntity
  8
0
  6
Continuous
 62
   144
370
    18
100
AcDbLine
 10
164.5738708119
 20
165.1657159184
 30
0.0
 11
164.5738708119
 21
167.6299600605
 31
0.0
  0
SPLINE
  5
1C1
330
1F
100
AcDbEntity
  8
0
  6
Continuous
 62
   144
370
    18
100
AcDbSpline
210
0.0
220
0.0
230
1.0
 70
    24
 71
     3
 72
    17
 73
    13
 74
     0
 42
0.000000001
 43
0.00000001
 40
0.0
 40
0.0
 40
0.0
 40
0.0
 40
0.0625338379618608
 40
0.1250106786040567
 40
0.187487519472383
 40
0.2500213581120177
 40
0.3750177973432062
 40
0.500014236973813
 40
0.6250106783120738
 40
0.7500071190359108
 40
0.8750035599206741
 40
1.0
 40
1.0
 40
1.0
 40
1.0
 10
164.5738711556912
 20
161.500866224122
 30
0.0
 10
164.5738711556912
 20
161.5861940293611
 30
0.0
 10
164.5738711556912
 20
161.7567718666473
 30
0.0
 10
164.5738711556913
 20
162.009521970569
 30
0.0
 10
164.5738711556912
 20
162.259723558759
 30
0.0
 10
164.5738711556912
 20
162.5893729335263
 30
0.0
 10
164.5738711556912
 20
162.993686220872
 30
0.0
 10
164.5738711556912
 20
163.4642808318317
 30
0.0
 10
164.5738711556912
 20
163.9189220055046
 30
0.0
 10
164.5738711556913
 20
164.3553032564299
 30
0.0
 10
164.5738711556912
 20
164.7739671835452
 30
0.0
 10
164.5738711556912
 20
165.0351328594212
 30
0.0
 10
164.5738711556912
 20
165.1657156969385
 30
0.0
  0
LINE
  5
1C2
330
1F
100
AcDbEntity
  8
0
  6
Continuous
 62
   144
370
    18
100
AcDbLine
 10
164.5738708119
 20
156.5723776095
 30
0.0
 11
164.5738708119
 21
161.5008661267
 31
0.0
  0
SPLINE
  5
1C3
330
1F
100
AcDbEntity
  8
0
  6
Continuous
 62
   144
370
    18
100
AcDbSpline
210
0.0
220
0.0
230
1.0
 70
    24
 71
     3
 72
    17
 73
    13
 74
     0
 42
0.000000001
 43
0.00000001
 40
0.0
 40
0.0
 40
0.0
 40
0.0
 40
0.0625338373402157
 40
0.1250106772911918
 40
0.1874875174435965
 40
0.2500213553875465
 40
0.3750177961085818
 40
0.5000142374440406
 40
0.6250106770718453
 40
0.7500071163002331
 40
0.8750035586022229
 40
1.0
 40
1.0
 40
1.0
 40
1.0
 10
164.5738711556912
 20
152.9075281538512
 30
0.0
 10
164.5738711556912
 20
152.9723129151454
 30
0.0
 10
164.5738711556912
 20
153.1018233887066
 30
0.0
 10
164.5738711556912
 20
153.3029574008928
 30
0.0
 10
164.5738711556912
 20
153.5089238900746
 30
0.0
 10
164.5738711556912
 20
153.7904153346942
 30
0.0
 10
164.5738711556912
 20
154.1543930591346
 30
0.0
 10
164.5738711556912
 20
154.6089491906292
 30
0.0
 10
164.5738711556912
 20
155.0795417293846
 30
0.0
 10
164.5738711556912
 20
155.564755713015
 30
0.0
 10
164.5738711556912
 20
156.0619364202266
 30
0.0
 10
164.5738711556912
 20
156.4022305582643
 30
0.0
 10
164.5738711556912
 20
156.5723776266676
 30
0.0
  0
SPLINE
  5
1C4
330
1F
100
AcDbEntity
  8
0
  6
Continuous
 62
     8
370
    18
100
AcDbSpline
210
0.0
220
0.0
230
1.0
 70
     8
 71
     3
 72
    10
 73
     6
 74
     0
 42
0.000000001
 43
0.00000001
 40
0.0
 40
0.0
 40
0.0
 40
0.0
 40
0.0001366501447363
 40
0.4999060414676834
 40
0.9999999999999999
 40
0.9999999999999999
 40
0.9999999999999999
 40
0.9999999999999999
 10
128.7376575435185
 20
152.0366250280749
 30
0.0
 10
128.7376609591791
 20
152.0366239412699
 30
0.0
 10
128.750156440809
 20
152.0326480918921
 30
0.0
 10
128.7100043141605
 20
152.0457379863783
 30
0.0
 10
128.628455623854
 20
152.0709601512357
 30
0.0
 10
128.5876680428767
 20
152.0835753273677
 30
0.0
  0
SPLINE
  5
1C5
330
1F
100
AcDbEntity
  8
0
  6
Continuous
 62
     8
370
    18
100
AcDbSpline
210
0.0
220
0.0
230
1.0
 70
     8
 71
     3
 72
     9
 73
     5
 74
     0
 42
0.000000001
 43
0.00000001
 40
0.0
 40
0.0
 40
0.0
 40
0.0
 40
0.4976554472525803
 40
1.0
 40
1.0
 40
1.0
 40
1.0
 10
123.8376779745006
 20
152.0366250280749
 30
0.0
 10
123.8441170110149
 20
152.0387645913473
 30
0.0
 10
123.8570557551799
 20
152.0430638776993
 30
0.0
 10
123.943994657035
 20
152.0700293628101
 30
0.0
 10
123.9876679408037
 20
152.0835753273677
 30
0.0
  0
SPLINE
  5
1C6
330
1F
100
AcDbEntity
  8
0
  6
Continuous
 62
     8
370
    18
100
AcDbSpline
210
0.0
220
0.0
230
1.0
 70
    24
 71
     3
 72
    10
 73
     6
 74
     0
 42
0.000000001
 43
0.00000001
 40
0.0
 40
0.0
 40
0.0
 40
0.0
 40
0.4999999999999999
 40
0.4999999999999999
 40
1.0
 40
1.0
 40
1.0
 40
1.0
 10
123.9876678446912
 20
166.0366219253949
 30
0.0
 10
123.9876678446912
 20
166.036621925014
 30
0.0
 10
123.9876678446912
 20
165.2990868898843
 30
0.0
 10
123.9876678446912
 20
162.6736518944713
 30
0.0
 10
123.9876678446912
 20
160.8930848107732
 30
0.0
 10
123.9876678446912
 20
159.0366219225234
 30
0.0
  0
SPLINE
  5
1C7
330
1F
100
AcDbEntity
  8
0
  6
Continuous
 62
     8
370
    18
100
AcDbSpline
210
0.0
220
0.0
230
1.0
 70
    24
 71
     3
 72
    10
 73
     6
 74
     0
 42
0.000000001
 43
0.00000001
 40
0.0
 40
0.0
 40
0.0
 40
0.0
 40
0.5000000000000001
 40
0.5000000000000001
 40
1.0
 40
1.0
 40
1.0
 40
1.0
 10
122.5876678446912
 20
152.0366219253949
 30
0.0
 10
122.5876678446912
 20
152.0366219251808
 30
0.0
 10
122.5876678446912
 20
152.7741569592615
 30
0.0
 10
122.5876678446912
 20
155.3995919523155
 30
0.0
 10
122.5876678446912
 20
157.1801590348827
 30
0.0
 10
122.5876678446912
 20
159.0366219225234
 30
0.0
  0
SPLINE
  5
1C8
330
1F
100
AcDbEntity
  8
0
  6
Continuous
 62
     8
370
    18
100
AcDbSpline
210
0.0
220
0.0
230
1.0
 70
    24
 71
     3
 72
    10
 73
     6
 74
     0
 42
0.000000001
 43
0.00000001
 40
0.0
 40
0.0
 40
0.0
 40
0.0
 40
0.5000000000000002
 40
0.5000000000000002
 40
1.0
 40
1.0
 40
1.0
 40
1.0
 10
122.5876678446912
 20
159.0366219225234
 30
0.0
 10
122.5876678446912
 20
160.8930848107733
 30
0.0
 10
122.5876678446912
 20
162.6736518944714
 30
0.0
 10
122.5876678446912
 20
165.2990868898844
 30
0.0
 10
122.5876678446912
 20
166.0366219250141
 30
0.0
 10
122.5876678446912
 20
166.0366219253949
 30
0.0
  0
SPLINE
  5
1C9
330
1F
100
AcDbEntity
  8
0
  6
Continuous
 62
     8
370
    18
100
AcDbSpline
210
0.0
220
0.0
230
1.0
 70
    24
 71
     3
 72
    10
 73
     6
 74
     0
 42
0.000000001
 43
0.00000001
 40
0.0
 40
0.0
 40
0.0
 40
0.0
 40
0.4999999999999999
 40
0.4999999999999999
 40
1.0
 40
1.0
 40
1.0
 40
1.0
 10
114.9876678446912
 20
159.0366219231387
 30
0.0
 10
114.9876678446912
 20
157.577972511421
 30
0.0
 10
114.9876678446912
 20
156.1789555179753
 30
0.0
 10
114.9876678446912
 20
154.1161137377186
 30
0.0
 10
114.9876678446912
 20
153.5366219252266
 30
0.0
 10
114.9876678446912
 20
153.5366219253949
 30
0.0
  0
SPLINE
  5
1CA
330
1F
100
AcDbEntity
  8
0
  6
Continuous
 62
     8
370
    18
100
AcDbSpline
210
0.0
220
0.0
230
1.0
 70
    24
 71
     3
 72
    10
 73
     6
 74
     0
 42
0.000000001
 43
0.00000001
 40
0.0
 40
0.0
 40
0.0
 40
0.0
 40
0.4999999999999999
 40
0.4999999999999999
 40
1.0
 40
1.0
 40
1.0
 40
1.0
 10
114.9876678446912
 20
164.5366219253949
 30
0.0
 10
114.9876678446912
 20
164.5366219250957
 30
0.0
 10
114.9876678446912
 20
163.9571301117794
 30
0.0
 10
114.9876678446912
 20
161.8942883296692
 30
0.0
 10
114.9876678446912
 20
160.495271335335
 30
0.0
 10
114.9876678446912
 20
159.0366219231387
 30
0.0
  0
SPLINE
  5
1CB
330
1F
100
AcDbEntity
  8
0
  6
Continuous
 62
     8
370
    18
100
AcDbSpline
210
0.0
220
0.0
230
1.0
 70
    24
 71
     3
 72
    10
 73
     6
 74
     0
 42
0.000000001
 43
0.00000001
 40
0.0
 40
0.0
 40
0.0
 40
0.0
 40
0.4999999999999999
 40
0.4999999999999999
 40
1.0
 40
1.0
 40
1.0
 40
1.0
 10
113.5876678446912
 20
159.0366219231387
 30
0.0
 10
113.5876678446912
 20
160.495271335335
 30
0.0
 10
113.5876678446912
 20
161.8942883296693
 30
0.0
 10
113.5876678446912
 20
163.9571301117795
 30
0.0
 10
113.5876678446912
 20
164.5366219250957
 30
0.0
 10
113.5876678446912
 20
164.5366219253949
 30
0.0
  0
SPLINE
  5
1CC
330
1F
100
AcDbEntity
  8
0
  6
Continuous
 62
     8
370
    18
100
AcDbSpline
210
0.0
220
0.0
230
1.0
 70
    24
 71
     3
 72
    10
 73
     6
 74
     0
 42
0.000000001
 43
0.00000001
 40
0.0
 40
0.0
 40
0.0
 40
0.0
 40
0.5000000000000001
 40
0.5000000000000001
 40
1.0
 40
1.0
 40
1.0
 40
1.0
 10
113.5876678446912
 20
153.5366219253949
 30
0.0
 10
113.5876678446912
 20
153.5366219252267
 30
0.0
 10
113.5876678446912
 20
154.1161137377186
 30
0.0
 10
113.5876678446912
 20
156.1789555179754
 30
0.0
 10
113.5876678446912
 20
157.577972511421
 30
0.0
 10
113.5876678446912
 20
159.0366219231387
 30
0.0
  0
SPLINE
  5
1CD
330
1F
100
AcDbEntity
  8
0
  6
Continuous
 62
     8
370
    18
100
AcDbSpline
210
0.0
220
0.0
230
1.0
 70
    24
 71
     3
 72
    13
 73
     9
 74
     0
 42
0.000000001
 43
0.00000001
 40
0.0
 40
0.0
 40
0.0
 40
0.0
 40
0.1951225938749533
 40
0.3902451522310752
 40
0.5853677788323309
 40
0.7804903469902374
 40
0.9756129478190955
 40
1.0
 40
1.0
 40
1.0
 40
1.0
 10
132.9876680190348
 20
163.5366217907976
 30
0.0
 10
132.9876680190348
 20
163.5199056952749
 30
0.0
 10
132.9876680190348
 20
163.4864735072723
 30
0.0
 10
132.9876680190348
 20
163.218417064423
 30
0.0
 10
132.9876680190348
 20
162.8043377195196
 30
0.0
 10
132.9876680190348
 20
162.2336429699635
 30
0.0
 10
132.9876680190348
 20
161.7654821865981
 30
0.0
 10
132.9876680190348
 20
161.4720516580665
 30
0.0
 10
132.9876680190348
 20
161.4394521549802
 30
0.0
  0
SPLINE
  5
1CE
330
1F
100
AcDbEntity
  8
0
  6
Continuous
 62
     8
370
    18
100
AcDbSpline
210
0.0
220
0.0
230
1.0
 70
     8
 71
     3
 72
    14
 73
    10
 74
     0
 42
0.000000001
 43
0.00000001
 40
0.0
 40
0.0
 40
0.0
 40
0.0
 40
0.1728443973603835
 40
0.3431175153567843
 40
0.5108856967489229
 40
0.6762183011457965
 40
0.8391877992886136
 40
0.9998698607396204
 40
1.0
 40
1.0
 40
1.0
 40
1.0
 10
128.3060351914824
 20
151.7855875171824
 30
0.0
 10
128.3202720624136
 20
151.7804224957026
 30
0.0
 10
128.3485340127862
 20
151.7701692889804
 30
0.0
 10
128.38136108085
 20
151.7580427084978
 30
0.0
 10
128.4069265361386
 20
151.7484656223457
 30
0.0
 10
128.424788588723
 20
151.7416532376488
 30
0.0
 10
128.4353445453326
 20
151.7375493491264
 30
0.0
 10
128.4376672076307
 20
151.7366221489901
 30
0.0
 10
128.437667844176
 20
151.7366219267269
 30
0.0
 10
128.4376678446911
 20
151.7366219265471
 30
0.0
  0
SPLINE
  5
1CF
330
1F
100
AcDbEntity
  8
0
  6
Continuous
 62
     8
370
    18
100
AcDbSpline
210
0.0
220
0.0
230
1.0
 70
     8
 71
     3
 72
    12
 73
     8
 74
     0
 42
0.000000001
 43
0.00000001
 40
0.0
 40
0.0
 40
0.0
 40
0.0
 40
0.1931171764646113
 40
0.3895498845211245
 40
0.5894272634164739
 40
0.7928718889554414
 40
0.9999999999999999
 40
0.9999999999999999
 40
0.9999999999999999
 40
0.9999999999999999
 10
124.1376678446914
 20
151.7366219265471
 30
0.0
 10
124.1386319694587
 20
151.7370065690497
 30
0.0
 10
124.1405767715661
 20
151.7377824577886
 30
0.0
 10
124.1563970173947
 20
151.7439112240448
 30
0.0
 10
124.1823820712841
 20
151.7537271113294
 30
0.0
 10
124.2189263009302
 20
151.7672981286541
 30
0.0
 10
124.2524089680301
 20
151.7794546997958
 30
0.0
 10
124.269300497767
 20
151.7855875171824
 30
0.0
  0
SPLINE
  5
1D0
330
1F
100
AcDbEntity
  8
0
  6
Continuous
 62
     8
370
    18
100
AcDbSpline
210
0.0
220
0.0
230
1.0
 70
     8
 71
     3
 72
    25
 73
    21
 74
     0
 42
0.000000001
 43
0.00000001
 40
0.0
 40
0.0
 40
0.0
 40
0.0
 40
0.0148042242305464
 40
0.0730231014020725
 40
0.1312390984838786
 40
0.1894570786379423
 40
0.2476740632589582
 40
0.305891068363808
 40
0.3641090386493959
 40
0.4223250380907385
 40
0.4805439071250195
 40
0.5387589703960091
 40
0.5969786250038743
 40
0.6551928661010264
 40
0.7134131498979346
 40
0.7716267507126997
 40
0.8298474863814299
 40
0.8880606569914945
 40
0.9462816493329489
 40
1.0
 40
1.0
 40
1.0
 40
1.0
 10
131.7708932126545
 20
165.0686884042334
 30
0.0
 10
131.7807606465862
 20
165.0741718748684
 30
0.0
 10
131.8294326078691
 20
165.1012195624733
 30
0.0
 10
131.9168978296651
 20
164.9491825641826
 30
0.0
 10
132.0333114032113
 20
164.6126331126881
 30
0.0
 10
132.1497127217448
 20
164.0742360362276
 30
0.0
 10
132.2661199474061
 20
163.3754395522763
 30
0.0
 10
132.3825291624775
 20
162.5311632660333
 30
0.0
 10
132.4989298438961
 20
161.573496869166
 30
0.0
 10
132.6153441124412
 20
160.532076844005
 30
0.0
 10
132.7317385855989
 20
159.4429910093527
 30
0.0
 10
132.8481601547776
 20
158.3419141552993
 30
0.0
 10
132.9645491040896
 20
157.2655625898115
 30
0.0
 10
133.0809743435768
 20
156.2503600901374
 30
0.0
 10
133.1973587872308
 20
155.3291461301038
 30
0.0
 10
133.3137892977911
 20
154.5341887906753
 30
0.0
 10
133.4301706400285
 20
153.8892112399798
 30
0.0
 10
133.5466016940847
 20
153.4227145963008
 30
0.0
 10
133.6599884782955
 20
153.135044216946
 30
0.0
 10
133.7346059013072
 20
153.1080762202106
 30
0.0
 10
133.7704139093541
 20
153.0951346014153
 30
0.0
  0
SPLINE
  5
1D1
330
1F
100
AcDbEntity
  8
0
  6
Continuous
 62
     8
370
    18
100
AcDbSpline
210
0.0
220
0.0
230
1.0
 70
     8
 71
     3
 72
    25
 73
    21
 74
     0
 42
0.000000001
 43
0.00000001
 40
0.0
 40
0.0
 40
0.0
 40
0.0
 40
0.0522606155802732
 40
0.1105769478420456
 40
0.1688986292482307
 40
0.2272142292366702
 40
0.2855364665758552
 40
0.3438515076176983
 40
0.4021741135910925
 40
0.460488858221988
 40
0.5188116145357313
 40
0.5771262896947105
 40
0.6354489830770316
 40
0.6937638517619369
 40
0.7520862990108199
 40
0.8104015955053976
 40
0.8687235896335777
 40
0.9270395245768126
 40
0.98536088421176
 40
1.0
 40
1.0
 40
1.0
 40
1.0
 10
135.7704049239539
 20
165.0781813752364
 30
0.0
 10
135.8051739219366
 20
165.0659620773472
 30
0.0
 10
135.8787407874195
 20
165.0401075662519
 30
0.0
 10
135.9911295736397
 20
164.7550166622624
 30
0.0
 10
136.1075169308319
 20
164.2903242697461
 30
0.0
 10
136.2239439474589
 20
163.6461744984062
 30
0.0
 10
136.3403270024249
 20
162.8522113661545
 30
0.0
 10
136.4567576722891
 20
161.9317793025289
 30
0.0
 10
136.5731372705494
 20
160.9170104562021
 30
0.0
 10
136.689572794953
 20
159.84100789626
 30
0.0
 10
136.8059512831857
 20
158.7400172269888
 30
0.0
 10
136.9223841790135
 20
157.6505341464045
 30
0.0
 10
137.0387638921304
 20
156.6090921119797
 30
0.0
 10
137.1551953685977
 20
155.6501093692227
 30
0.0
 10
137.2715771994297
 20
154.8058855481663
 30
0.0
 10
137.3880053132925
 20
154.104893749137
 30
0.0
 10
137.5043932885935
 20
153.5666875655704
 30
0.0
 10
137.6208179415747
 20
153.2273522371618
 30
0.0
 10
137.7081492789603
 20
153.0756805684383
 30
0.0
 10
137.7566954369211
 20
153.1017177021668
 30
0.0
 10
137.7664359549665
 20
153.1069419090163
 30
0.0
  0
SPLINE
  5
1D2
330
1F
100
AcDbEntity
  8
0
  6
Continuous
 62
     8
370
    18
100
AcDbSpline
210
0.0
220
0.0
230
1.0
 70
     8
 71
     3
 72
    25
 73
    21
 74
     0
 42
0.000000001
 43
0.00000001
 40
0.0
 40
0.0
 40
0.0
 40
0.0
 40
0.0305525580514581
 40
0.0888727156619609
 40
0.1471848571406622
 40
0.2055048665858998
 40
0.2638173296337614
 40
0.3221369654442565
 40
0.3804499665037562
 40
0.4387690619122017
 40
0.4970827926070888
 40
0.5554011795766115
 40
0.6137158094849936
 40
0.6720333558960156
 40
0.7303489526768066
 40
0.788665554378932
 40
0.8469821432618083
 40
0.9052977403402844
 40
0.9636152814527774
 40
1.0
 40
1.0
 40
1.0
 40
1.0
 10
139.7715362052106
 20
165.0625910353374
 30
0.0
 10
139.7918670494042
 20
165.0662600966888
 30
0.0
 10
139.8510063637665
 20
165.0769328346536
 30
0.0
 10
139.9489196692645
 20
164.8760745775566
 30
0.0
 10
140.0653509864247
 20
164.4820369326455
 30
0.0
 10
140.1817347274464
 20
163.897743519883
 30
0.0
 10
140.2981642416209
 20
163.1562484775876
 30
0.0
 10
140.4145476083832
 20
162.2778591980124
 30
0.0
 10
140.5309746321262
 20
161.2938017960857
 30
0.0
 10
140.6473616974931
 20
160.2357492891201
 30
0.0
 10
140.7637842293667
 20
159.1396431844285
 30
0.0
 10
140.8801765393853
 20
158.0418486806146
 30
0.0
 10
140.9965927411741
 20
156.9785767600955
 30
0.0
 10
141.1129939226994
 20
155.9863349611154
 30
0.0
 10
141.2294039638919
 20
155.0963510687648
 30
0.0
 10
141.3458085153903
 20
154.3413342382966
 30
0.0
 10
141.4622128940659
 20
153.7407915481157
 30
0.0
 10
141.5786235959915
 20
153.3286288716309
 30
0.0
 10
141.6804315427568
 20
153.1070920290878
 30
0.0
 10
141.743446300005
 20
153.1103086685495
 30
0.0
 10
141.7676566431903
 20
153.11154450518
 30
0.0
  0
SPLINE
  5
1D3
330
1F
100
AcDbEntity
  8
0
  6
Continuous
 62
     8
370
    18
100
AcDbSpline
210
0.0
220
0.0
230
1.0
 70
     8
 71
     3
 72
    25
 73
    21
 74
     0
 42
0.000000001
 43
0.00000001
 40
0.0
 40
0.0
 40
0.0
 40
0.0
 40
0.010502767246205
 40
0.0720591950059281
 40
0.1336196650747887
 40
0.1951770903835428
 40
0.2567365938309554
 40
0.3182950855487998
 40
0.3798535653033661
 40
0.4414130775323638
 40
0.5029705095659784
 40
0.5645309741559721
 40
0.6260874082271307
 40
0.6876486948897336
 40
0.7492042521800965
 40
0.8107662307510085
 40
0.8723210417063687
 40
0.933883459172794
 40
0.9954383069891841
 40
1.0
 40
1.0
 40
1.0
 40
1.0
 10
143.770478878417
 20
165.0733520020258
 30
0.0
 10
143.7770993330193
 20
165.0777044866519
 30
0.0
 10
143.8225220885685
 20
165.1075667630489
 30
0.0
 10
143.9067515627898
 20
164.9699647100715
 30
0.0
 10
144.0231477711109
 20
164.6502853875357
 30
0.0
 10
144.1395614613809
 20
164.1284999664212
 30
0.0
 10
144.2559627324724
 20
163.4419953085126
 30
0.0
 10
144.3723702353588
 20
162.6103845293043
 30
0.0
 10
144.4887781262794
 20
161.660543507188
 30
0.0
 10
144.6051783878357
 20
160.6256631338005
 30
0.0
 10
144.7215956493208
 20
159.5390303591697
 30
0.0
 10
144.8379897143045
 20
158.4375248188594
 30
0.0
 10
144.9544099021035
 20
157.3578111733258
 30
0.0
 10
145.0707992101467
 20
156.335491519803
 30
0.0
 10
145.1872244092869
 20
155.4051163147605
 30
0.0
 10
145.3036087328747
 20
154.5983641703322
 30
0.0
 10
145.4200393042182
 20
153.9362688549107
 30
0.0
 10
145.536415802842
 20
153.466757942832
 30
0.0
 10
145.6169248791455
 20
153.2166014399377
 30
0.0
 10
145.6585895320361
 20
153.1829756289509
 30
0.0
 10
145.6614641735935
 20
153.1806556251358
 30
0.0
  0
SPLINE
  5
1D4
330
1F
100
AcDbEntity
  8
0
  6
Continuous
 62
     8
370
    18
100
AcDbSpline
210
0.0
220
0.0
230
1.0
 70
     8
 71
     3
 72
    10
 73
     6
 74
     0
 42
0.000000001
 43
0.00000001
 40
0.0
 40
0.0
 40
0.0
 40
0.0
 40
0.1362104055101192
 40
0.6715661442117418
 40
1.0
 40
1.0
 40
1.0
 40
1.0
 10
143.5871480296039
 20
163.8691356149029
 30
0.0
 10
143.5772739361048
 20
163.8517286285171
 30
0.0
 10
143.5285911143045
 20
163.7659059434905
 30
0.0
 10
143.4561226107644
 20
163.5185501498305
 30
0.0
 10
143.3935070658224
 20
163.2288164247667
 30
0.0
 10
143.3696991095924
 20
163.1186526012134
 30
0.0
  0
SPLINE
  5
1D5
330
1F
100
AcDbEntity
  8
0
  6
Continuous
 62
     8
370
    18
100
AcDbSpline
210
0.0
220
0.0
230
1.0
 70
     8
 71
     3
 72
     9
 73
     5
 74
     0
 42
0.000000001
 43
0.00000001
 40
0.0
 40
0.0
 40
0.0
 40
0.0
 40
0.6073681384618252
 40
1.0
 40
1.0
 40
1.0
 40
1.0
 10
143.2876682172202
 20
162.7111037470858
 30
0.0
 10
143.2612159343141
 20
162.57110957917
 30
0.0
 10
143.2176636285031
 20
162.3406164744933
 30
0.0
 10
143.1741031618305
 20
162.0505222019016
 30
0.0
 10
143.1569999347114
 20
161.9366219476323
 30
0.0
  0
SPLINE
  5
1D6
330
1F
100
AcDbEntity
  8
0
  6
Continuous
 62
     8
370
    18
100
AcDbSpline
210
0.0
220
0.0
230
1.0
 70
     8
 71
     3
 72
    11
 73
     7
 74
     0
 42
0.000000001
 43
0.00000001
 40
0.0
 40
0.0
 40
0.0
 40
0.0
 40
0.2128448426998064
 40
0.4919208468871473
 40
0.7710260088998003
 40
1.0
 40
1.0
 40
1.0
 40
1.0
 10
142.3658283690595
 20
156.1366220213931
 30
0.0
 10
142.3362394313823
 20
155.9510320095406
 30
0.0
 10
142.2678543340688
 20
155.522101739743
 30
0.0
 10
142.1606428230796
 20
154.9854302959843
 30
0.0
 10
142.0512198029451
 20
154.5391901883305
 30
0.0
 10
141.980576026348
 20
154.3722169104984
 30
0.0
 10
141.9487392793083
 20
154.2969677340697
 30
0.0
  0
SPLINE
  5
1D7
330
1F
100
AcDbEntity
  8
0
  6
Continuous
 62
     8
370
    18
100
AcDbSpline
210
0.0
220
0.0
230
1.0
 70
     8
 71
     3
 72
    11
 73
     7
 74
     0
 42
0.000000001
 43
0.00000001
 40
0.0
 40
0.0
 40
0.0
 40
0.0
 40
0.241614440712505
 40
0.5116776020917057
 40
0.7817079324171899
 40
1.0
 40
1.0
 40
1.0
 40
1.0
 10
139.5874658862733
 20
163.8777428981375
 30
0.0
 10
139.5527452398118
 20
163.7917338341458
 30
0.0
 10
139.4792157890385
 20
163.6095886300278
 30
0.0
 10
139.3669143537936
 20
163.1400653223763
 30
0.0
 10
139.2579240598565
 20
162.5823468873011
 30
0.0
 10
139.1877657256892
 20
162.1361036155771
 30
0.0
 10
139.1564032326125
 20
161.9366219476323
 30
0.0
  0
SPLINE
  5
1D8
330
1F
100
AcDbEntity
  8
0
  6
Continuous
 62
     8
370
    18
100
AcDbSpline
210
0.0
220
0.0
230
1.0
 70
     8
 71
     3
 72
    12
 73
     8
 74
     0
 42
0.000000001
 43
0.00000001
 40
0.0
 40
0.0
 40
0.0
 40
0.0
 40
0.1115312524430943
 40
0.3924179346519304
 40
0.6733093799363896
 40
0.9541913095856487
 40
1.0
 40
1.0
 40
1.0
 40
1.0
 10
138.3654663602495
 20
156.1366220213931
 30
0.0
 10
138.3500591795241
 20
156.036274174488
 30
0.0
 10
138.2958496740569
 20
155.6832045732178
 30
0.0
 10
138.2028372452992
 20
155.1833325224106
 30
0.0
 10
138.0864357979848
 20
154.6792266978731
 30
0.0
 10
138.0024997493926
 20
154.3869336845562
 30
0.0
 10
137.9573707256103
 20
154.3120770081216
 30
0.0
 10
137.9510427157068
 20
154.3015805747818
 30
0.0
  0
SPLINE
  5
1D9
330
1F
100
AcDbEntity
  8
0
  6
Continuous
 62
     8
370
    18
100
AcDbSpline
210
0.0
220
0.0
230
1.0
 70
     8
 71
     3
 72
    12
 73
     8
 74
     0
 42
0.000000001
 43
0.00000001
 40
0.0
 40
0.0
 40
0.0
 40
0.0
 40
0.1501967137514265
 40
0.4180415869472331
 40
0.68589093151308
 40
0.9537403232216479
 40
1.0
 40
1.0
 40
1.0
 40
1.0
 10
135.590769563117
 20
163.8727547344278
 30
0.0
 10
135.5690114810344
 20
163.8281604677323
 30
0.0
 10
135.5084523453812
 20
163.7040415203032
 30
0.0
 10
135.4090878178484
 20
163.3292842389789
 30
0.0
 10
135.2926823450312
 20
162.7673033961871
 30
0.0
 10
135.2083797038134
 20
162.2889331167989
 30
0.0
 10
135.1628734376446
 20
161.9818472925747
 30
0.0
 10
135.1561716089629
 20
161.9366219476323
 30
0.0
  0
SPLINE
  5
1DA
330
1F
100
AcDbEntity
  8
0
  6
Continuous
 62
     8
370
    18
100
AcDbSpline
210
0.0
220
0.0
230
1.0
 70
     8
 71
     3
 72
    12
 73
     8
 74
     0
 42
0.000000001
 43
0.00000001
 40
0.0
 40
0.0
 40
0.0
 40
0.0
 40
0.013254591765288
 40
0.292318107813156
 40
0.571347439116959
 40
0.8504126318817181
 40
1.0
 40
1.0
 40
1.0
 40
1.0
 10
134.3669632712983
 20
156.1366220213931
 30
0.0
 10
134.3651198600799
 20
156.1242638189307
 30
0.0
 10
134.324465082563
 20
155.8517147714948
 30
0.0
 10
134.2450419163167
 20
155.4049374453263
 30
0.0
 10
134.1286077804173
 20
154.8433687709747
 30
0.0
 10
134.0302235929218
 20
154.4718647926443
 30
0.0
 10
133.9706117878754
 20
154.3501241830783
 30
0.0
 10
133.9498089889669
 20
154.3076402251135
 30
0.0
  0
SPLINE
  5
1DB
330
1F
100
AcDbEntity
  8
0
  6
Continuous
 62
     8
370
    18
100
AcDbSpline
210
0.0
220
0.0
230
1.0
 70
     8
 71
     3
 72
     9
 73
     5
 74
     0
 42
0.000000001
 43
0.00000001
 40
0.0
 40
0.0
 40
0.0
 40
0.0
 40
0.159706776282603
 40
0.9999999999999999
 40
0.9999999999999999
 40
0.9999999999999999
 40
0.9999999999999999
 10
131.5861551354312
 20
163.8715570535969
 30
0.0
 10
131.5799978981093
 20
163.8614560072183
 30
0.0
 10
131.5414445100486
 20
163.7982085570241
 30
0.0
 10
131.5028856339575
 20
163.6560644884294
 30
0.0
 10
131.470484871664
 20
163.5366217907976
 30
0.0
  0
DIMENSION
  5
1DC
330
1F
100
AcDbEntity
  8
0
  6
Continuous
 62
     7
370
    18
100
AcDbDimension
  2
_D
 10
113.2876678451
 20
176.0161720905
 30
0.0
 11
117.7876678451
 21
176.0161720904
 31
0.0
 70
   160
  1
<>
 71
     2
 42
-1.0
  3
SLDDIMSTYLE1
100
AcDbAlignedDimension
 13
122.2876678447
 23
165.7366219221
 33
0.0
 14
113.2876678447
 24
164.2366219228
 34
0.0
 50
-0.0000000022
100
AcDbRotatedDimension
  0
DIMENSION
  5
1E9
330
1F
100
AcDbEntity
  8
0
  6
Continuous
 62
     7
370
    18
100
AcDbDimension
  2
_D_1
 10
149.2876678447
 20
176.0161720898
 30
0.0
 11
146.2876678447
 21
176.0161720898
 31
0.0
 70
   160
  1
<>
 71
     2
 42
-1.0
  3
SLDDIMSTYLE1
100
AcDbAlignedDimension
 13
143.2876678447
 23
163.0366587559
 33
0.0
 14
149.2876678447
 24
168.8515765004
 34
0.0
100
AcDbRotatedDimension
  0
DIMENSION
  5
1F5
330
1F
100
AcDbEntity
  8
0
  6
Continuous
 62
     7
370
    18
100
AcDbDimension
  2
_D_2
 10
169.2876678447
 20
176.0161720898
 30
0.0
 11
159.2876678447
 21
176.0161720898
 31
0.0
 70
   160
  1
<>
 71
     2
 42
-1.0
  3
SLDDIMSTYLE2
100
AcDbAlignedDimension
 13
149.2876678447
 23
168.8515765004
 33
0.0
 14
169.2876678447
 24
164.036667964
 34
0.0
 50
0.0
100
AcDbRotatedDimension
  0
DIMENSION
  5
200
330
1F
100
AcDbEntity
  8
0
  6
Continuous
 62
     7
370
    18
100
AcDbDimension
  2
_D_3
 10
149.2876678447
 20
184.7189211644
 30
0.0
 11
160.2876678447
 21
184.7189211644
 31
0.0
 70
   160
  1
<>
 71
     2
 42
-1.0
  3
SLDDIMSTYLE2
100
AcDbAlignedDimension
 13
171.2876678447
 23
161.5366219254
 33
0.0
 14
149.2876678447
 24
168.8515765004
 34
0.0
 50
0.0
100
AcDbRotatedDimension
  0
DIMENSION
  5
20A
330
1F
100
AcDbEntity
  8
0
  6
Continuous
 62
     7
370
    18
100
AcDbDimension
  2
_D_4
 10
113.2876678462
 20
194.4416219272
 30
0.0
 11
142.2876678462
 21
194.4416219258
 31
0.0
 70
   160
  1
<>
 71
     2
 42
-1.0
  3
SLDDIMSTYLE2
100
AcDbAlignedDimension
 13
171.2876678447
 23
161.5366219254
 33
0.0
 14
113.2876678447
 24
164.2366219228
 34
0.0
 50
-0.0000000028
100
AcDbRotatedDimension
  0
DIMENSION
  5
214
330
1F
100
AcDbEntity
  8
0
  6
Continuous
 62
     7
370
    18
100
AcDbDimension
  2
_D_5
 10
146.2876678447
 20
142.6546107918
 30
0.0
 11
154.0241970006
 21
142.6546107918
 31
0.0
 70
   160
  1
<>
 71
     2
 42
-1.0
  3
SLDDIMSTYLE1
100
AcDbAlignedDimension
 13
149.2876678447
 23
149.2216673501
 33
0.0
 14
146.2876678447
 24
149.2216673501
 34
0.0
 50
0.0
100
AcDbRotatedDimension
  0
DIMENSION
  5
220
330
1F
100
AcDbEntity
  8
0
  6
Continuous
 62
     7
370
    18
100
AcDbDimension
  2
_D_6
 10
133.2876678449
 20
136.2918409567
 30
0.0
 11
138.2876678449
 21
136.2918409567
 31
0.0
 70
   160
  1
<>st
 71
     2
 42
-1.0
  3
SLDDIMSTYLE1
100
AcDbAlignedDimension
 13
143.2876678447
 23
155.0365850939
 33
0.0
 14
133.2876678449
 24
159.0366219254
 34
0.0
100
AcDbRotatedDimension
  0
DIMENSION
  5
22D
330
1F
100
AcDbEntity
  8
0
  6
Continuous
 62
     7
370
    18
100
AcDbDimension
  2
_D_7
 10
179.1929278248
 20
161.9366219252
 30
0.0
 11
179.1929278248
 21
174.0834029284
 31
0.0
 70
   160
  1
%%c<>
 71
     2
 42
-1.0
  3
SLDDIMSTYLE1
100
AcDbAlignedDimension
 13
170.7876678447
 23
156.1366219257
 33
0.0
 14
170.7876678447
 24
161.9366219252
 34
0.0
 50
90.0
100
AcDbRotatedDimension
  0
DIMENSION
  5
23A
330
1F
100
AcDbEntity
  8
0
  6
Continuous
 62
     7
370
    18
100
AcDbDimension
  2
_D_8
 10
188.3882480841
 20
149.2216673494
 30
0.0
 11
188.3882480841
 21
159.0366219254
 31
0.0
 70
   160
  1
<>
 71
     2
 42
-1.0
  3
SLDDIMSTYLE2
100
AcDbAlignedDimension
 13
167.0167543707
 23
168.8515765014
 33
0.0
 14
167.0167543707
 24
149.2216673494
 34
0.0
 50
90.0
100
AcDbRotatedDimension
  0
DIMENSION
  5
244
330
1F
100
AcDbEntity
  8
0
  6
Continuous
 62
     7
370
    18
100
AcDbDimension
  2
_D_9
 10
104.7675173099
 20
153.5366219254
 30
0.0
 11
104.7675173099
 21
159.0366219254
 31
0.0
 70
   160
  1
%%c<>
 71
     2
 42
-1.0
  3
SLDDIMSTYLE1
100
AcDbAlignedDimension
 13
113.5876678447
 23
164.5366219254
 33
0.0
 14
113.5876678447
 24
153.5366219254
 34
0.0
 50
90.0
100
AcDbRotatedDimension
  0
DIMENSION
  5
251
330
1F
100
AcDbEntity
  8
0
  6
Continuous
 62
     7
370
    18
100
AcDbDimension
  2
_D_10
 10
93.9186648064
 20
152.0366219254
 30
0.0
 11
93.9186648064
 21
159.0366219254
 31
0.0
 70
   160
  1
%%c<>
 71
     2
 42
-1.0
  3
SLDDIMSTYLE1
100
AcDbAlignedDimension
 13
122.5876678447
 23
166.0366219254
 33
0.0
 14
122.5876678447
 24
152.0366219254
 34
0.0
 50
90.0
100
AcDbRotatedDimension
  0
INSERT
  5
263
330
1F
100
AcDbEntity
  8
0
  6
Continuous
 62
     7
370
     0
100
AcDbBlockReference
  2
SW_NOTE_2
 10
167.3445229682
 20
135.6649000759
 30
0.0
  0
LEADER
  5
264
330
1F
100
AcDbEntity
  8
0
  6
Continuous
 62
     7
370
     0
100
AcDbLeader
  3
SLDDIMSTYLE0
 76
     2
 10
156.788424056
 20
153.0366219251
 30
0.0
 10
167.3445229682
 20
135.6649000759
 30
0.0
  0
LINE
  5
265
330
1F
100
AcDbEntity
  8
0
  6
CENTERX2
 62
     7
370
    18
100
AcDbLine
 10
110.9848198611
 20
159.0366219254
 30
0.0
 11
170.2876678447
 21
159.0366219254
 31
0.0
  0
ENDSEC
  0
SECTION
  2
OBJECTS
  0
DICTIONARY
  5
C
330
0
100
AcDbDictionary
281
     1
  3
ACAD_GROUP
350
D
  3
ACAD_LAYOUT
350
1A
  3
ACAD_MLINESTYLE
350
17
  3
ACAD_PLOTSETTINGS
350
19
  3
ACAD_PLOTSTYLENAME
350
E
  3
ACAD_SCALELIST
350
47
  0
DICTIONARY
  5
D
102
{ACAD_REACTORS
330
C
102
}
330
C
100
AcDbDictionary
281
     1
  0
DICTIONARY
  5
1A
102
{ACAD_REACTORS
330
C
102
}
330
C
100
AcDbDictionary
281
     1
  3
Layout1
350
1E
  3
Layout2
350
26
  3
Model
350
22
  0
DICTIONARY
  5
17
102
{ACAD_REACTORS
330
C
102
}
330
C
100
AcDbDictionary
281
     1
  3
Standard
350
18
  0
DICTIONARY
  5
19
102
{ACAD_REACTORS
330
C
102
}
330
C
100
AcDbDictionary
281
     1
  0
ACDBDICTIONARYWDFLT
  5
E
102
{ACAD_REACTORS
330
C
102
}
330
C
100
AcDbDictionary
281
     1
  3
Normal
350
F
100
AcDbDictionaryWithDefault
340
F
  0
DICTIONARY
  5
47
102
{ACAD_REACTORS
330
C
102
}
330
C
100
AcDbDictionary
281
     1
  3
A0
350
48
  3
A1
350
49
  3
A2
350
4A
  3
A3
350
4B
  3
A4
350
4C
  3
A5
350
4D
  3
A6
350
4E
  3
A7
350
4F
  3
A8
350
50
  3
A9
350
51
  3
B0
350
52
  3
B1
350
53
  3
B2
350
54
  3
B3
350
55
  3
B4
350
56
  3
B5
350
57
  3
B6
350
58
  3
B7
350
59
  3
B8
350
5A
  3
B9
350
5B
  3
C0
350
5C
  3
C1
350
5D
  3
C2
350
5E
  3
C3
350
5F
  3
C4
350
60
  3
C5
350
61
  3
C6
350
62
  3
C7
350
63
  3
C8
350
64
  3
C9
350
65
  3
D0
350
66
  3
D1
350
67
  3
D2
350
68
  0
LAYOUT
  5
1E
102
{ACAD_REACTORS
330
1A
102
}
330
1A
100
AcDbPlotSettings
  1

  2
none_device
  4

  6

 40
0.0
 41
0.0
 42
0.0
 43
0.0
 44
0.0
 45
0.0
 46
0.0
 47
0.0
 48
0.0
 49
0.0
140
0.0
141
0.0
142
1.0
143
1.0
 70
   688
 72
     1
 73
     0
 74
     5
  7

 75
    16
147
1.0
148
0.0
149
0.0
100
AcDbLayout
  1
Layout1
 70
     1
 71
     1
 10
0.0
 20
0.0
 11
420.0
 21
297.0
 12
0.0
 22
0.0
 32
0.0
 14
1.0000000000E+20
 24
1.0000000000E+20
 34
1.0000000000E+20
 15
-1.0000000000E+20
 25
-1.0000000000E+20
 35
-1.0000000000E+20
146
0.0
 13
0.0
 23
0.0
 33
0.0
 16
1.0
 26
0.0
 36
0.0
 17
0.0
 27
1.0
 37
0.0
 76
     0
330
1B
  0
LAYOUT
  5
26
102
{ACAD_REACTORS
330
1A
102
}
330
1A
100
AcDbPlotSettings
  1

  2
none_device
  4

  6

 40
0.0
 41
0.0
 42
0.0
 43
0.0
 44
0.0
 45
0.0
 46
0.0
 47
0.0
 48
0.0
 49
0.0
140
0.0
141
0.0
142
1.0
143
1.0
 70
   688
 72
     1
 73
     0
 74
     5
  7

 75
    16
147
1.0
148
0.0
149
0.0
100
AcDbLayout
  1
Layout2
 70
     1
 71
     2
 10
0.0
 20
0.0
 11
0.0
 21
0.0
 12
0.0
 22
0.0
 32
0.0
 14
0.0
 24
0.0
 34
0.0
 15
0.0
 25
0.0
 35
0.0
146
0.0
 13
0.0
 23
0.0
 33
0.0
 16
1.0
 26
0.0
 36
0.0
 17
0.0
 27
1.0
 37
0.0
 76
     0
330
23
  0
LAYOUT
  5
22
102
{ACAD_REACTORS
330
1A
102
}
330
1A
100
AcDbPlotSettings
  1

  2
none_device
  4
Letter_(8.50_x_11.00_Inches)
  6

 40
6.35
 41
6.35
 42
6.35000508
 43
6.35000508
 44
215.9
 45
279.4
 46
0.0
 47
0.0
 48
0.0
 49
0.0
140
0.0
141
0.0
142
1.0
143
1.0
 70
  1712
 72
     1
 73
     0
 74
     0
  7

 75
     0
147
1.0
148
0.0
149
0.0
100
AcDbLayout
  1
Model
 70
     1
 71
     0
 10
0.0
 20
0.0
 11
210.0
 21
297.0
 12
0.0
 22
0.0
 32
0.0
 14
0.0
 24
0.0
 34
0.0
 15
210.0
 25
297.0
 35
0.0
146
0.0
 13
0.0
 23
0.0
 33
0.0
 16
1.0
 26
0.0
 36
0.0
 17
0.0
 27
1.0
 37
0.0
 76
     0
330
1F
331
29
  0
MLINESTYLE
  5
18
102
{ACAD_REACTORS
330
17
102
}
330
17
100
AcDbMlineStyle
  2
Standard
 70
     0
  3

 62
   256
 51
90.0
 52
90.0
 71
     2
 49
0.5
 62
   256
  6
BYLAYER
 49
-0.5
 62
   256
  6
BYLAYER
  0
ACDBPLACEHOLDER
  5
F
102
{ACAD_REACTORS
330
E
102
}
330
E
  0
SCALE
  5
48
102
{ACAD_REACTORS
330
47
102
}
330
47
100
AcDbScale
 70
     0
300
1:1
140
1.0
141
1.0
290
     1
  0
SCALE
  5
49
102
{ACAD_REACTORS
330
47
102
}
330
47
100
AcDbScale
 70
     0
300
1:2
140
1.0
141
2.0
290
     0
  0
SCALE
  5
4A
102
{ACAD_REACTORS
330
47
102
}
330
47
100
AcDbScale
 70
     0
300
1:4
140
1.0
141
4.0
290
     0
  0
SCALE
  5
4B
102
{ACAD_REACTORS
330
47
102
}
330
47
100
AcDbScale
 70
     0
300
1:5
140
1.0
141
5.0
290
     0
  0
SCALE
  5
4C
102
{ACAD_REACTORS
330
47
102
}
330
47
100
AcDbScale
 70
     0
300
1:8
140
1.0
141
8.0
290
     0
  0
SCALE
  5
4D
102
{ACAD_REACTORS
330
47
102
}
330
47
100
AcDbScale
 70
     0
300
1:10
140
1.0
141
10.0
290
     0
  0
SCALE
  5
4E
102
{ACAD_REACTORS
330
47
102
}
330
47
100
AcDbScale
 70
     0
300
1:16
140
1.0
141
16.0
290
     0
  0
SCALE
  5
4F
102
{ACAD_REACTORS
330
47
102
}
330
47
100
AcDbScale
 70
     0
300
1:20
140
1.0
141
20.0
290
     0
  0
SCALE
  5
50
102
{ACAD_REACTORS
330
47
102
}
330
47
100
AcDbScale
 70
     0
300
1:30
140
1.0
141
30.0
290
     0
  0
SCALE
  5
51
102
{ACAD_REACTORS
330
47
102
}
330
47
100
AcDbScale
 70
     0
300
1:40
140
1.0
141
40.0
290
     0
  0
SCALE
  5
52
102
{ACAD_REACTORS
330
47
102
}
330
47
100
AcDbScale
 70
     0
300
1:50
140
1.0
141
50.0
290
     0
  0
SCALE
  5
53
102
{ACAD_REACTORS
330
47
102
}
330
47
100
AcDbScale
 70
     0
300
1:100
140
1.0
141
100.0
290
     0
  0
SCALE
  5
54
102
{ACAD_REACTORS
330
47
102
}
330
47
100
AcDbScale
 70
     0
300
2:1
140
2.0
141
1.0
290
     0
  0
SCALE
  5
55
102
{ACAD_REACTORS
330
47
102
}
330
47
100
AcDbScale
 70
     0
300
4:1
140
4.0
141
1.0
290
     0
  0
SCALE
  5
56
102
{ACAD_REACTORS
330
47
102
}
330
47
100
AcDbScale
 70
     0
300
8:1
140
8.0
141
1.0
290
     0
  0
SCALE
  5
57
102
{ACAD_REACTORS
330
47
102
}
330
47
100
AcDbScale
 70
     0
300
10:1
140
10.0
141
1.0
290
     0
  0
SCALE
  5
58
102
{ACAD_REACTORS
330
47
102
}
330
47
100
AcDbScale
 70
     0
300
100:1
140
100.0
141
1.0
290
     0
  0
SCALE
  5
59
102
{ACAD_REACTORS
330
47
102
}
330
47
100
AcDbScale
 70
     0
300
1/128" = 1'-0"
140
0.0078125
141
12.0
290
     0
  0
SCALE
  5
5A
102
{ACAD_REACTORS
330
47
102
}
330
47
100
AcDbScale
 70
     0
300
1/64" = 1'-0"
140
0.015625
141
12.0
290
     0
  0
SCALE
  5
5B
102
{ACAD_REACTORS
330
47
102
}
330
47
100
AcDbScale
 70
     0
300
1/32" = 1'-0"
140
0.03125
141
12.0
290
     0
  0
SCALE
  5
5C
102
{ACAD_REACTORS
330
47
102
}
330
47
100
AcDbScale
 70
     0
300
1/16" = 1'-0"
140
0.0625
141
12.0
290
     0
  0
SCALE
  5
5D
102
{ACAD_REACTORS
330
47
102
}
330
47
100
AcDbScale
 70
     0
300
3/32" = 1'-0"
140
0.09375
141
12.0
290
     0
  0
SCALE
  5
5E
102
{ACAD_REACTORS
330
47
102
}
330
47
100
AcDbScale
 70
     0
300
1/8" = 1'-0"
140
0.125
141
12.0
290
     0
  0
SCALE
  5
5F
102
{ACAD_REACTORS
330
47
102
}
330
47
100
AcDbScale
 70
     0
300
3/16" = 1'-0"
140
0.1875
141
12.0
290
     0
  0
SCALE
  5
60
102
{ACAD_REACTORS
330
47
102
}
330
47
100
AcDbScale
 70
     0
300
1/4" = 1'-0"
140
0.25
141
12.0
290
     0
  0
SCALE
  5
61
102
{ACAD_REACTORS
330
47
102
}
330
47
100
AcDbScale
 70
     0
300
3/8" = 1'-0"
140
0.375
141
12.0
290
     0
  0
SCALE
  5
62
102
{ACAD_REACTORS
330
47
102
}
330
47
100
AcDbScale
 70
     0
300
1/2" = 1'-0"
140
0.5
141
12.0
290
     0
  0
SCALE
  5
63
102
{ACAD_REACTORS
330
47
102
}
330
47
100
AcDbScale
 70
     0
300
3/4" = 1'-0"
140
0.75
141
12.0
290
     0
  0
SCALE
  5
64
102
{ACAD_REACTORS
330
47
102
}
330
47
100
AcDbScale
 70
     0
300
1" = 1'-0"
140
1.0
141
12.0
290
     0
  0
SCALE
  5
65
102
{ACAD_REACTORS
330
47
102
}
330
47
100
AcDbScale
 70
     0
300
1-1/2" = 1'-0"
140
1.5
141
12.0
290
     0
  0
SCALE
  5
66
102
{ACAD_REACTORS
330
47
102
}
330
47
100
AcDbScale
 70
     0
300
3" = 1'-0"
140
3.0
141
12.0
290
     0
  0
SCALE
  5
67
102
{ACAD_REACTORS
330
47
102
}
330
47
100
AcDbScale
 70
     0
300
6" = 1'-0"
140
6.0
141
12.0
290
     0
  0
SCALE
  5
68
102
{ACAD_REACTORS
330
47
102
}
330
47
100
AcDbScale
 70
     0
300
1'-0" = 1'-0"
140
12.0
141
12.0
290
     0
  0
ENDSEC
  0
EOF
