  0
SECTION
  2
HEADER
  9
$ACADVER
  1
AC1015
  9
$ACADMAINTVER
 70
     6
  9
$DWGCODEPAGE
  3
DOS932
  9
$INSBASE
 10
0.0
 20
0.0
 30
0.0
  9
$EXTMIN
 10
0.0
 20
0.0
 30
0.0
  9
$EXTMAX
 10
210.0
 20
297.0
 30
0.0
  9
$LIMMIN
 10
0.0
 20
0.0
  9
$LIMMAX
 10
210.0
 20
297.0
  9
$ORTHOMODE
 70
     0
  9
$REGENMODE
 70
     1
  9
$FILLMODE
 70
     1
  9
$QTEXTMODE
 70
     0
  9
$MIRRTEXT
 70
     1
  9
$LTSCALE
 40
1.0
  9
$ATTMODE
 70
     1
  9
$TEXTSIZE
 40
3.5
  9
$TRACEWID
 40
1.0
  9
$TEXTSTYLE
  7
Standard
  9
$CLAYER
  8
0
  9
$CELTYPE
  6
ByLayer
  9
$CECOLOR
 62
   256
  9
$CELTSCALE
 40
1.0
  9
$DISPSILH
 70
     0
  9
$DIMSCALE
 40
1.0
  9
$DIMASZ
 40
3.0
  9
$DIMEXO
 40
1.0
  9
$DIMDLI
 40
3.75
  9
$DIMRND
 40
0.0
  9
$DIMDLE
 40
0.0
  9
$DIMEXE
 40
1.0
  9
$DIMTP
 40
0.0
  9
$DIMTM
 40
0.0
  9
$DIMTXT
 40
3.5
  9
$DIMCEN
 40
2.5
  9
$DIMTSZ
 40
0.0
  9
$DIMTOL
 70
     0
  9
$DIMLIM
 70
     0
  9
$DIMTIH
 70
     1
  9
$DIMTOH
 70
     1
  9
$DIMSE1
 70
     0
  9
$DIMSE2
 70
     0
  9
$DIMTAD
 70
     1
  9
$DIMZIN
 70
     0
  9
$DIMBLK
  1

  9
$DIMASO
 70
     1
  9
$DIMSHO
 70
     1
  9
$DIMPOST
  1

  9
$DIMAPOST
  1

  9
$DIMALT
 70
     0
  9
$DIMALTD
 70
     3
  9
$DIMALTF
 40
0.0393700787
  9
$DIMLFAC
 40
1.0
  9
$DIMTOFL
 70
     1
  9
$DIMTVP
 40
0.0
  9
$DIMTIX
 70
     0
  9
$DIMSOXD
 70
     0
  9
$DIMSAH
 70
     0
  9
$DIMBLK1
  1

  9
$DIMBLK2
  1

  9
$DIMSTYLE
  2
ISO-25
  9
$DIMCLRD
 70
     0
  9
$DIMCLRE
 70
     0
  9
$DIMCLRT
 70
     0
  9
$DIMTFAC
 40
1.0
  9
$DIMGAP
 40
1.524
  9
$DIMJUST
 70
     0
  9
$DIMSD1
 70
     0
  9
$DIMSD2
 70
     0
  9
$DIMTOLJ
 70
     0
  9
$DIMTZIN
 70
     0
  9
$DIMALTZ
 70
     0
  9
$DIMALTTZ
 70
     0
  9
$DIMUPT
 70
     0
  9
$DIMDEC
 70
     1
  9
$DIMTDEC
 70
     3
  9
$DIMALTU
 70
     2
  9
$DIMALTTD
 70
     3
  9
$DIMTXSTY
  7
Standard
  9
$DIMAUNIT
 70
     0
  9
$DIMADEC
 70
     2
  9
$DIMALTRND
 40
0.0
  9
$DIMAZIN
 70
     0
  9
$DIMDSEP
 70
    44
  9
$DIMATFIT
 70
     3
  9
$DIMFRAC
 70
     0
  9
$DIMLDRBLK
  1

  9
$DIMLUNIT
 70
     2
  9
$DIMLWD
 70
    -2
  9
$DIMLWE
 70
    -2
  9
$DIMTMOVE
 70
     0
  9
$LUNITS
 70
     2
  9
$LUPREC
 70
     1
  9
$SKETCHINC
 40
1.0
  9
$FILLETRAD
 40
10.0
  9
$AUNITS
 70
     0
  9
$AUPREC
 70
     2
  9
$MENU
  1
.
  9
$ELEVATION
 40
0.0
  9
$PELEVATION
 40
0.0
  9
$THICKNESS
 40
0.0
  9
$LIMCHECK
 70
     0
  9
$CHAMFERA
 40
0.0
  9
$CHAMFERB
 40
0.0
  9
$CHAMFERC
 40
0.0
  9
$CHAMFERD
 40
0.0
  9
$SKPOLY
 70
     0
  9
$TDCREATE
 40
2458675.808132315
  9
$TDUCREATE
 40
2458675.433132315
  9
$TDUPDATE
 40
2458675.808135556
  9
$TDUUPDATE
 40
2458675.433135556
  9
$TDINDWG
 40
0.0000000116
  9
$TDUSRTIMER
 40
0.0000000116
  9
$USRTIMER
 70
     1
  9
$ANGBASE
 50
0.0
  9
$ANGDIR
 70
     0
  9
$PDMODE
 70
     0
  9
$PDSIZE
 40
-1.0
  9
$PLINEWID
 40
0.0
  9
$SPLFRAME
 70
     0
  9
$SPLINETYPE
 70
     6
  9
$SPLINESEGS
 70
     8
  9
$HANDSEED
  5
29B
  9
$SURFTAB1
 70
     6
  9
$SURFTAB2
 70
     6
  9
$SURFTYPE
 70
     6
  9
$SURFU
 70
     6
  9
$SURFV
 70
     6
  9
$UCSBASE
  2

  9
$UCSNAME
  2

  9
$UCSORG
 10
0.0
 20
0.0
 30
0.0
  9
$UCSXDIR
 10
1.0
 20
0.0
 30
0.0
  9
$UCSYDIR
 10
0.0
 20
1.0
 30
0.0
  9
$UCSORTHOREF
  2

  9
$UCSORTHOVIEW
 70
     0
  9
$UCSORGTOP
 10
0.0
 20
0.0
 30
0.0
  9
$UCSORGBOTTOM
 10
0.0
 20
0.0
 30
0.0
  9
$UCSORGLEFT
 10
0.0
 20
0.0
 30
0.0
  9
$UCSORGRIGHT
 10
0.0
 20
0.0
 30
0.0
  9
$UCSORGFRONT
 10
0.0
 20
0.0
 30
0.0
  9
$UCSORGBACK
 10
0.0
 20
0.0
 30
0.0
  9
$PUCSBASE
  2

  9
$PUCSNAME
  2

  9
$PUCSORG
 10
0.0
 20
0.0
 30
0.0
  9
$PUCSXDIR
 10
1.0
 20
0.0
 30
0.0
  9
$PUCSYDIR
 10
0.0
 20
1.0
 30
0.0
  9
$PUCSORTHOREF
  2

  9
$PUCSORTHOVIEW
 70
     0
  9
$PUCSORGTOP
 10
0.0
 20
0.0
 30
0.0
  9
$PUCSORGBOTTOM
 10
0.0
 20
0.0
 30
0.0
  9
$PUCSORGLEFT
 10
0.0
 20
0.0
 30
0.0
  9
$PUCSORGRIGHT
 10
0.0
 20
0.0
 30
0.0
  9
$PUCSORGFRONT
 10
0.0
 20
0.0
 30
0.0
  9
$PUCSORGBACK
 10
0.0
 20
0.0
 30
0.0
  9
$USERI1
 70
     0
  9
$USERI2
 70
     0
  9
$USERI3
 70
     0
  9
$USERI4
 70
     0
  9
$USERI5
 70
     0
  9
$USERR1
 40
0.0
  9
$USERR2
 40
0.0
  9
$USERR3
 40
0.0
  9
$USERR4
 40
0.0
  9
$USERR5
 40
0.0
  9
$WORLDVIEW
 70
     1
  9
$SHADEDGE
 70
     3
  9
$SHADEDIF
 70
    70
  9
$TILEMODE
 70
     1
  9
$MAXACTVP
 70
    64
  9
$PINSBASE
 10
0.0
 20
0.0
 30
0.0
  9
$PLIMCHECK
 70
     0
  9
$PEXTMIN
 10
1.0000000000E+20
 20
1.0000000000E+20
 30
1.0000000000E+20
  9
$PEXTMAX
 10
-1.0000000000E+20
 20
-1.0000000000E+20
 30
-1.0000000000E+20
  9
$PLIMMIN
 10
0.0
 20
0.0
  9
$PLIMMAX
 10
420.0
 20
297.0
  9
$UNITMODE
 70
     0
  9
$VISRETAIN
 70
     1
  9
$PLINEGEN
 70
     0
  9
$PSLTSCALE
 70
     1
  9
$TREEDEPTH
 70
  3020
  9
$CMLSTYLE
  2
Standard
  9
$CMLJUST
 70
     0
  9
$CMLSCALE
 40
20.0
  9
$PROXYGRAPHICS
 70
     1
  9
$MEASUREMENT
 70
     1
  9
$CELWEIGHT
370
    -1
  9
$ENDCAPS
280
     0
  9
$JOINSTYLE
280
     0
  9
$LWDISPLAY
290
     1
  9
$INSUNITS
 70
     4
  9
$HYPERLINKBASE
  1

  9
$STYLESHEET
  1

  9
$XEDIT
290
     1
  9
$CEPSNTYPE
380
     0
  9
$PSTYLEMODE
290
     1
  9
$FINGERPRINTGUID
  2
{565FC3E9-FAB5-42BE-B170-57A326B8C5E8}
  9
$VERSIONGUID
  2
{FAEB1C32-E019-11D5-929B-00C0DF256EC4}
  9
$EXTNAMES
290
     1
  9
$PSVPSCALE
 40
0.0
  9
$OLESTARTUP
290
     0
  0
ENDSEC
  0
SECTION
  2
CLASSES
  0
CLASS
  1
ACDBDICTIONARYWDFLT
  2
AcDbDictionaryWithDefault
  3
ObjectDBX Classes
 90
        0
280
     0
281
     0
  0
CLASS
  1
VISUALSTYLE
  2
AcDbVisualStyle
  3
ObjectDBX Classes
 90
     4095
280
     0
281
     0
  0
CLASS
  1
MATERIAL
  2
AcDbMaterial
  3
ObjectDBX Classes
 90
     1153
280
     0
281
     0
  0
CLASS
  1
SCALE
  2
AcDbScale
  3
ObjectDBX Classes
 90
     1153
280
     0
281
     0
  0
CLASS
  1
TABLESTYLE
  2
AcDbTableStyle
  3
ObjectDBX Classes
 90
     4095
280
     0
281
     0
  0
CLASS
  1
MLEADERSTYLE
  2
AcDbMLeaderStyle
  3
ACDB_MLEADERSTYLE_CLASS
 90
     4095
280
     0
281
     0
  0
CLASS
  1
SUN
  2
AcDbSun
  3
SCENEOE
 90
     1153
280
     0
281
     0
  0
CLASS
  1
ACDBPLACEHOLDER
  2
AcDbPlaceHolder
  3
ObjectDBX Classes
 90
        0
280
     0
281
     0
  0
CLASS
  1
LAYOUT
  2
AcDbLayout
  3
ObjectDBX Classes
 90
        0
280
     0
281
     0
  0
ENDSEC
  0
SECTION
  2
TABLES
  0
TABLE
  2
VPORT
  5
8
330
0
100
AcDbSymbolTable
 70
     1
  0
VPORT
  5
29
330
8
100
AcDbSymbolTableRecord
100
AcDbViewportTableRecord
  2
*Active
 70
     0
 10
0.0
 20
0.0
 11
1.0
 21
1.0
 12
105.0
 22
148.5
 13
0.0
 23
0.0
 14
10.0
 24
10.0
 15
10.0
 25
10.0
 16
0.0
 26
0.0
 36
1.0
 17
0.0
 27
0.0
 37
0.0
 40
297.0
 41
0.7070707071
 42
50.0
 43
0.0
 44
0.0
 50
0.0
 51
0.0
 71
     0
 72
  2000
 73
     1
 74
     3
 75
     0
 76
     0
 77
     0
 78
     0
281
     0
 65
     1
110
0.0
120
0.0
130
0.0
111
1.0
121
0.0
131
0.0
112
0.0
122
1.0
132
0.0
 79
     0
146
0.0
  0
ENDTAB
  0
TABLE
  2
LTYPE
  5
5
330
0
100
AcDbSymbolTable
 70
     6
  0
LTYPE
  5
14
330
5
100
AcDbSymbolTableRecord
100
AcDbLinetypeTableRecord
  2
ByBlock
 70
     0
  3

 72
    65
 73
     0
 40
0.0
  0
LTYPE
  5
15
330
5
100
AcDbSymbolTableRecord
100
AcDbLinetypeTableRecord
  2
ByLayer
 70
     0
  3

 72
    65
 73
     0
 40
0.0
  0
LTYPE
  5
16
330
5
100
AcDbSymbolTableRecord
100
AcDbLinetypeTableRecord
  2
Continuous
 70
     0
  3
Solid line
 72
    65
 73
     0
 40
0.0
  0
LTYPE
  5
6E
330
5
100
AcDbSymbolTableRecord
100
AcDbLinetypeTableRecord
  2
HIDDEN
 70
     0
  3
Hidden __ __ __ __ __ __ __ __ __ __ __ __ __ __
 72
    65
 73
     2
 40
1.905
 49
1.27
 74
     0
 49
-0.635
 74
     0
  0
LTYPE
  5
6F
330
5
100
AcDbSymbolTableRecord
100
AcDbLinetypeTableRecord
  2
PHANTOM
 70
     0
  3
Phantom ______  __  __  ______  __  __  ______
 72
    65
 73
     6
 40
12.7
 49
6.35
 74
     0
 49
-1.27
 74
     0
 49
1.27
 74
     0
 49
-1.27
 74
     0
 49
1.27
 74
     0
 49
-1.27
 74
     0
  0
LTYPE
  5
70
330
5
100
AcDbSymbolTableRecord
100
AcDbLinetypeTableRecord
  2
CENTER
 70
     0
  3
Center ____ _ ____ _ ____ _ ____ _ ____ _ ____
 72
    65
 73
     4
 40
10.16
 49
6.35
 74
     0
 49
-1.27
 74
     0
 49
1.27
 74
     0
 49
-1.27
 74
     0
  0
LTYPE
  5
71
330
5
100
AcDbSymbolTableRecord
100
AcDbLinetypeTableRecord
  2
CENTERX2
 70
     0
  3
Center (2x) ________  __  ________  __  _____
 72
    65
 73
     4
 40
20.32
 49
12.7
 74
     0
 49
-2.54
 74
     0
 49
2.54
 74
     0
 49
-2.54
 74
     0
  0
LTYPE
  5
72
330
5
100
AcDbSymbolTableRecord
100
AcDbLinetypeTableRecord
  2
DOT2
 70
     0
  3
Dot (.5x) ........................................
 72
    65
 73
     2
 40
0.635
 49
0.0
 74
     0
 49
-0.635
 74
     0
  0
ENDTAB
  0
TABLE
  2
LAYER
  5
2
330
0
100
AcDbSymbolTable
 70
     1
  0
LAYER
  5
10
330
2
100
AcDbSymbolTableRecord
100
AcDbLayerTableRecord
  2
0
 70
     0
 62
     7
  6
Continuous
370
    -3
390
F
  0
ENDTAB
  0
TABLE
  2
STYLE
  5
3
330
0
100
AcDbSymbolTable
 70
     2
  0
STYLE
  5
11
330
3
100
AcDbSymbolTableRecord
100
AcDbTextStyleTableRecord
  2
Standard
 70
     0
 40
0.0
 41
1.0
 50
0.0
 71
     0
 42
3.5
  3
txt
  4
bigfont
  0
STYLE
  5
7B
330
3
100
AcDbSymbolTableRecord
100
AcDbTextStyleTableRecord
  2
SLDTEXTSTYLE0
 70
     0
 40
0.0
 41
0.7
 50
0.0
 71
     0
 42
3.5
  3
TXT
  4
bigfont
  0
ENDTAB
  0
TABLE
  2
VIEW
  5
6
330
0
100
AcDbSymbolTable
 70
     0
  0
ENDTAB
  0
TABLE
  2
UCS
  5
7
330
0
100
AcDbSymbolTable
 70
     0
  0
ENDTAB
  0
TABLE
  2
APPID
  5
9
330
0
100
AcDbSymbolTable
 70
     1
  0
APPID
  5
12
330
9
100
AcDbSymbolTableRecord
100
AcDbRegAppTableRecord
  2
ACAD
 70
     0
  0
ENDTAB
  0
TABLE
  2
DIMSTYLE
  5
A
330
0
100
AcDbSymbolTable
 70
     4
100
AcDbDimStyleTable
  0
DIMSTYLE
105
27
330
A
100
AcDbSymbolTableRecord
100
AcDbDimStyleTableRecord
  2
ISO-25
 70
     0
 41
2.5
 42
0.625
 43
3.75
 44
1.25
 73
     0
 74
     0
 77
     1
 78
     8
140
2.5
141
2.5
143
0.0393700787
147
0.625
171
     3
172
     1
178
     0
271
     2
272
     2
274
     3
278
    44
283
     0
284
     8
340
11
  0
DIMSTYLE
105
AB
330
A
100
AcDbSymbolTableRecord
100
AcDbDimStyleTableRecord
  2
SLDDIMSTYLE0
 70
     0
 41
3.0
 44
0.0
 45
0.000000001
146
3.0
147
0.0
173
     1
178
     0
271
     0
272
     0
276
     2
340
11
  0
DIMSTYLE
105
214
102
{ACAD_REACTORS
330
213
330
221
330
22E
330
246
330
252
330
27C
102
}
330
A
100
AcDbSymbolTableRecord
100
AcDbDimStyleTableRecord
  2
SLDDIMSTYLE1
 70
     0
 41
3.0
 44
0.0
 45
0.000000001
 73
     0
 74
     0
 77
     3
 78
    12
 79
     3
140
3.5
147
0.875
172
     1
173
     1
178
     0
271
     1
272
     3
276
     2
284
    12
289
     0
340
7B
  0
DIMSTYLE
105
23B
102
{ACAD_REACTORS
330
23A
330
25E
330
268
330
272
330
289
102
}
330
A
100
AcDbSymbolTableRecord
100
AcDbDimStyleTableRecord
  2
SLDDIMSTYLE2
 70
     0
 41
3.0
 44
0.0
 45
0.000000001
 73
     0
 74
     0
 77
     3
 78
    12
 79
     3
140
3.5
147
0.875
173
     1
178
     0
271
     1
272
     3
276
     2
284
    12
340
7B
  0
ENDTAB
  0
TABLE
  2
BLOCK_RECORD
  5
1
330
0
100
AcDbSymbolTable
 70
    16
  0
BLOCK_RECORD
  5
1F
330
1
100
AcDbSymbolTableRecord
100
AcDbBlockTableRecord
  2
*Model_Space
340
22
  0
BLOCK_RECORD
  5
1B
330
1
100
AcDbSymbolTableRecord
100
AcDbBlockTableRecord
  2
*Paper_Space
340
1E
  0
BLOCK_RECORD
  5
23
330
1
100
AcDbSymbolTableRecord
100
AcDbBlockTableRecord
  2
*Paper_Space0
340
26
  0
BLOCK_RECORD
  5
A5
330
1
100
AcDbSymbolTableRecord
100
AcDbBlockTableRecord
  2
SW_NOTE_0
340
0
102
{BLKREFS
331
AA
102
}
  0
BLOCK_RECORD
  5
AD
330
1
100
AcDbSymbolTableRecord
100
AcDbBlockTableRecord
  2
SW_NOTE_1
340
0
102
{BLKREFS
331
B2
102
}
  0
BLOCK_RECORD
  5
B4
330
1
100
AcDbSymbolTableRecord
100
AcDbBlockTableRecord
  2
SW_CENTERMARKSYMBOL_0
340
0
102
{BLKREFS
331
BF
102
}
  0
BLOCK_RECORD
  5
215
330
1
100
AcDbSymbolTableRecord
100
AcDbBlockTableRecord
  2
_D
340
0
  0
BLOCK_RECORD
  5
222
330
1
100
AcDbSymbolTableRecord
100
AcDbBlockTableRecord
  2
_D_1
340
0
  0
BLOCK_RECORD
  5
22F
330
1
100
AcDbSymbolTableRecord
100
AcDbBlockTableRecord
  2
_D_2
340
0
  0
BLOCK_RECORD
  5
23C
330
1
100
AcDbSymbolTableRecord
100
AcDbBlockTableRecord
  2
_D_3
340
0
  0
BLOCK_RECORD
  5
247
330
1
100
AcDbSymbolTableRecord
100
AcDbBlockTableRecord
  2
_D_4
340
0
  0
BLOCK_RECORD
  5
253
330
1
100
AcDbSymbolTableRecord
100
AcDbBlockTableRecord
  2
_D_5
340
0
  0
BLOCK_RECORD
  5
25F
330
1
100
AcDbSymbolTableRecord
100
AcDbBlockTableRecord
  2
_D_6
340
0
  0
BLOCK_RECORD
  5
269
330
1
100
AcDbSymbolTableRecord
100
AcDbBlockTableRecord
  2
_D_7
340
0
  0
BLOCK_RECORD
  5
273
330
1
100
AcDbSymbolTableRecord
100
AcDbBlockTableRecord
  2
_D_8
340
0
  0
BLOCK_RECORD
  5
27D
330
1
100
AcDbSymbolTableRecord
100
AcDbBlockTableRecord
  2
_D_9
340
0
  0
BLOCK_RECORD
  5
28A
330
1
100
AcDbSymbolTableRecord
100
AcDbBlockTableRecord
  2
_D_10
340
0
  0
BLOCK_RECORD
  5
293
330
1
100
AcDbSymbolTableRecord
100
AcDbBlockTableRecord
  2
SW_NOTE_2
340
0
102
{BLKREFS
331
298
102
}
  0
ENDTAB
  0
ENDSEC
  0
SECTION
  2
BLOCKS
  0
BLOCK
  5
20
330
1F
100
AcDbEntity
  8
0
100
AcDbBlockBegin
  2
*Model_Space
 70
     0
 10
0.0
 20
0.0
 30
0.0
  3
*Model_Space
  1

  0
ENDBLK
  5
21
330
1F
100
AcDbEntity
  8
0
100
AcDbBlockEnd
  0
BLOCK
  5
1C
330
1B
100
AcDbEntity
 67
     1
  8
0
100
AcDbBlockBegin
  2
*Paper_Space
 70
     0
 10
0.0
 20
0.0
 30
0.0
  3
*Paper_Space
  1

  0
ENDBLK
  5
1D
330
1B
100
AcDbEntity
 67
     1
  8
0
100
AcDbBlockEnd
  0
BLOCK
  5
24
330
23
100
AcDbEntity
  8
0
100
AcDbBlockBegin
  2
*Paper_Space0
 70
     0
 10
0.0
 20
0.0
 30
0.0
  3
*Paper_Space0
  1

  0
ENDBLK
  5
25
330
23
100
AcDbEntity
  8
0
100
AcDbBlockEnd
  0
BLOCK
  5
A6
330
A5
100
AcDbEntity
  8
0
100
AcDbBlockBegin
  2
SW_NOTE_0
 70
     0
 10
0.0
 20
0.0
 30
0.0
  3
SW_NOTE_0
  1

  0
LINE
  5
A8
330
A5
100
AcDbEntity
  8
0
  6
Continuous
 62
     0
370
     0
100
AcDbLine
 10
3.9558253648
 20
0.0
 30
0.0
 11
0.0
 21
0.0
 31
0.0
  0
MTEXT
  5
A9
330
A5
100
AcDbEntity
  8
0
  6
Continuous
 62
     0
370
     0
100
AcDbMText
 10
0.443594784
 20
4.5768207211
 30
0.0
 40
3.5
 41
0.0
 71
     1
 72
     1
  1
M5
  7
SLDTEXTSTYLE0
 73
     1
 44
1.0
  0
ENDBLK
  5
A7
330
A5
100
AcDbEntity
  8
0
100
AcDbBlockEnd
  0
BLOCK
  5
AE
330
AD
100
AcDbEntity
  8
0
100
AcDbBlockBegin
  2
SW_NOTE_1
 70
     0
 10
0.0
 20
0.0
 30
0.0
  3
SW_NOTE_1
  1

  0
LINE
  5
B0
330
AD
100
AcDbEntity
  8
0
  6
Continuous
 62
     0
370
     0
100
AcDbLine
 10
-34.7434797858
 20
0.0
 30
0.0
 11
0.0
 21
0.0
 31
0.0
  0
MTEXT
  5
B1
330
AD
100
AcDbEntity
  8
0
  6
Continuous
 62
     0
370
     0
100
AcDbMText
 10
-35.1300558575
 20
4.5228404136
 30
0.0
 40
3.5
 41
0.0
 71
     1
 72
     1
  1
外径φ6配管用継手
  7
SLDTEXTSTYLE0
 73
     1
 44
1.0
  0
ENDBLK
  5
AF
330
AD
100
AcDbEntity
  8
0
100
AcDbBlockEnd
  0
BLOCK
  5
B5
330
B4
100
AcDbEntity
  8
0
100
AcDbBlockBegin
  2
SW_CENTERMARKSYMBOL_0
 70
     0
 10
0.0
 20
0.0
 30
0.0
  3
SW_CENTERMARKSYMBOL_0
  1

  0
LINE
  5
B7
330
B4
100
AcDbEntity
  8
0
  6
Continuous
 62
     0
370
    18
100
AcDbLine
 10
0.0
 20
0.0
 30
0.0
 11
0.0
 21
2.5
 31
0.0
  0
LINE
  5
B8
330
B4
100
AcDbEntity
  8
0
  6
Continuous
 62
     0
370
    18
100
AcDbLine
 10
0.0
 20
0.0
 30
0.0
 11
-2.5
 21
0.0
 31
0.0
  0
LINE
  5
B9
330
B4
100
AcDbEntity
  8
0
  6
Continuous
 62
     0
370
    18
100
AcDbLine
 10
0.0
 20
0.0
 30
0.0
 11
0.0
 21
-2.5
 31
0.0
  0
LINE
  5
BA
330
B4
100
AcDbEntity
  8
0
  6
Continuous
 62
     0
370
    18
100
AcDbLine
 10
0.0
 20
0.0
 30
0.0
 11
2.5
 21
0.0
 31
0.0
  0
LINE
  5
BB
330
B4
100
AcDbEntity
  8
0
  6
Continuous
 62
     0
370
    18
100
AcDbLine
 10
0.0
 20
5.0
 30
0.0
 11
0.0
 21
9.5000000002
 31
0.0
  0
LINE
  5
BC
330
B4
100
AcDbEntity
  8
0
  6
Continuous
 62
     0
370
    18
100
AcDbLine
 10
-5.0
 20
0.0
 30
0.0
 11
-9.5000000002
 21
0.0
 31
0.0
  0
LINE
  5
BD
330
B4
100
AcDbEntity
  8
0
  6
Continuous
 62
     0
370
    18
100
AcDbLine
 10
0.0
 20
-5.0
 30
0.0
 11
0.0
 21
-15.3576051855
 31
0.0
  0
LINE
  5
BE
330
B4
100
AcDbEntity
  8
0
  6
Continuous
 62
     0
370
    18
100
AcDbLine
 10
5.0
 20
0.0
 30
0.0
 11
9.5000000002
 21
0.0
 31
0.0
  0
ENDBLK
  5
B6
330
B4
100
AcDbEntity
  8
0
100
AcDbBlockEnd
  0
BLOCK
  5
216
330
215
100
AcDbEntity
  8
0
100
AcDbBlockBegin
  2
_D
 70
     0
 10
0.0
 20
0.0
 30
0.0
  3
_D
  1

  0
SOLID
  5
218
330
215
100
AcDbEntity
  8
0
  6
Continuous
 62
     7
370
    18
100
AcDbTrace
 10
87.3576491765
 20
161.8670530958
 30
0.0
 11
88.1076491765
 21
164.8670530958
 31
0.0
 12
86.6076491765
 22
164.8670530958
 32
0.0
 13
86.6076491765
 23
164.8670530958
 33
0.0
  0
SOLID
  5
219
330
215
100
AcDbEntity
  8
0
  6
Continuous
 62
     7
370
    18
100
AcDbTrace
 10
87.3576491765
 20
150.8670530958
 30
0.0
 11
86.6076491765
 21
147.8670530958
 31
0.0
 12
88.1076491765
 22
147.8670530958
 32
0.0
 13
88.1076491765
 23
147.8670530958
 33
0.0
  0
LINE
  5
21A
330
215
100
AcDbEntity
  8
0
  6
Continuous
 62
     7
370
    18
100
AcDbLine
 10
96.6626501768
 20
161.8670530958
 30
0.0
 11
86.3576491765
 21
161.8670530958
 31
0.0
  0
LINE
  5
21B
330
215
100
AcDbEntity
  8
0
  6
Continuous
 62
     7
370
    18
100
AcDbLine
 10
96.6626501768
 20
150.8670530958
 30
0.0
 11
86.3576491765
 21
150.8670530958
 31
0.0
  0
LINE
  5
21C
330
215
100
AcDbEntity
  8
0
  6
Continuous
 62
     7
370
    18
100
AcDbLine
 10
87.3576491765
 20
161.8670530958
 30
0.0
 11
87.3576491765
 21
166.8670530958
 31
0.0
  0
LINE
  5
21D
330
215
100
AcDbEntity
  8
0
  6
Continuous
 62
     7
370
    18
100
AcDbLine
 10
87.3576491765
 20
161.8670530958
 30
0.0
 11
87.3576491765
 21
150.8670530958
 31
0.0
  0
LINE
  5
21E
330
215
100
AcDbEntity
  8
0
  6
Continuous
 62
     7
370
    18
100
AcDbLine
 10
87.3576491765
 20
150.8670530958
 30
0.0
 11
87.3576491765
 21
145.8670530958
 31
0.0
  0
MTEXT
  5
21F
330
215
100
AcDbEntity
  8
0
  6
Continuous
 62
     7
370
    18
100
AcDbMText
 10
82.8459118545
 20
152.3952822244
 30
0.0
 40
3.5
 41
0.0
 71
     1
 72
     1
  1
%%c
  7
SLDTEXTSTYLE0
 11
-7.044195017643634E-15
 21
1.0
 31
0.0
 73
     1
 44
1.0
  0
MTEXT
  5
220
330
215
100
AcDbEntity
  8
0
  6
Continuous
 62
     7
370
    18
100
AcDbMText
 10
82.8459118545
 20
156.2652127394
 30
0.0
 40
3.5
 41
0.0
 71
     1
 72
     1
  1
11
  7
SLDTEXTSTYLE0
 11
-7.044195017643634E-15
 21
1.0
 31
0.0
 73
     1
 44
1.0
  0
ENDBLK
  5
217
330
215
100
AcDbEntity
  8
0
100
AcDbBlockEnd
  0
BLOCK
  5
223
330
222
100
AcDbEntity
  8
0
100
AcDbBlockBegin
  2
_D_1
 70
     0
 10
0.0
 20
0.0
 30
0.0
  3
_D_1
  1

  0
SOLID
  5
225
330
222
100
AcDbEntity
  8
0
  6
Continuous
 62
     7
370
    18
100
AcDbTrace
 10
75.3576491765
 20
163.3670530958
 30
0.0
 11
76.1076491765
 21
166.3670530958
 31
0.0
 12
74.6076491765
 22
166.3670530958
 32
0.0
 13
74.6076491765
 23
166.3670530958
 33
0.0
  0
SOLID
  5
226
330
222
100
AcDbEntity
  8
0
  6
Continuous
 62
     7
370
    18
100
AcDbTrace
 10
75.3576491765
 20
149.3670530958
 30
0.0
 11
74.6076491765
 21
146.3670530958
 31
0.0
 12
76.1076491765
 22
146.3670530958
 32
0.0
 13
76.1076491765
 23
146.3670530958
 33
0.0
  0
LINE
  5
227
330
222
100
AcDbEntity
  8
0
  6
Continuous
 62
     7
370
    18
100
AcDbLine
 10
105.6626501768
 20
163.3670530958
 30
0.0
 11
74.3576491765
 21
163.3670530958
 31
0.0
  0
LINE
  5
228
330
222
100
AcDbEntity
  8
0
  6
Continuous
 62
     7
370
    18
100
AcDbLine
 10
105.6626501768
 20
149.3670530958
 30
0.0
 11
74.3576491765
 21
149.3670530958
 31
0.0
  0
LINE
  5
229
330
222
100
AcDbEntity
  8
0
  6
Continuous
 62
     7
370
    18
100
AcDbLine
 10
75.3576491765
 20
163.3670530958
 30
0.0
 11
75.3576491765
 21
168.3670530958
 31
0.0
  0
LINE
  5
22A
330
222
100
AcDbEntity
  8
0
  6
Continuous
 62
     7
370
    18
100
AcDbLine
 10
75.3576491765
 20
163.3670530958
 30
0.0
 11
75.3576491765
 21
149.3670530958
 31
0.0
  0
LINE
  5
22B
330
222
100
AcDbEntity
  8
0
  6
Continuous
 62
     7
370
    18
100
AcDbLine
 10
75.3576491765
 20
149.3670530958
 30
0.0
 11
75.3576491765
 21
144.3670530958
 31
0.0
  0
MTEXT
  5
22C
330
222
100
AcDbEntity
  8
0
  6
Continuous
 62
     7
370
    18
100
AcDbMText
 10
70.8459118545
 20
152.3952822244
 30
0.0
 40
3.5
 41
0.0
 71
     1
 72
     1
  1
%%c
  7
SLDTEXTSTYLE0
 11
-7.044195017643634E-15
 21
1.0
 31
0.0
 73
     1
 44
1.0
  0
MTEXT
  5
22D
330
222
100
AcDbEntity
  8
0
  6
Continuous
 62
     7
370
    18
100
AcDbMText
 10
70.8459118545
 20
156.2652127394
 30
0.0
 40
3.5
 41
0.0
 71
     1
 72
     1
  1
14
  7
SLDTEXTSTYLE0
 11
-7.044195017643634E-15
 21
1.0
 31
0.0
 73
     1
 44
1.0
  0
ENDBLK
  5
224
330
222
100
AcDbEntity
  8
0
100
AcDbBlockEnd
  0
BLOCK
  5
230
330
22F
100
AcDbEntity
  8
0
100
AcDbBlockBegin
  2
_D_2
 70
     0
 10
0.0
 20
0.0
 30
0.0
  3
_D_2
  1

  0
SOLID
  5
232
330
22F
100
AcDbEntity
  8
0
  6
Continuous
 62
     7
370
    18
100
AcDbTrace
 10
106.3626501772
 20
171.8746356366
 30
0.0
 11
109.3626501772
 21
171.1246356365
 31
0.0
 12
109.3626501772
 22
172.6246356365
 32
0.0
 13
109.3626501772
 23
172.6246356365
 33
0.0
  0
SOLID
  5
233
330
22F
100
AcDbEntity
  8
0
  6
Continuous
 62
     7
370
    18
100
AcDbTrace
 10
97.3626501772
 20
171.874635637
 30
0.0
 11
94.3626501773
 21
172.6246356371
 31
0.0
 12
94.3626501772
 22
171.1246356371
 32
0.0
 13
94.3626501772
 23
171.1246356371
 33
0.0
  0
LINE
  5
234
330
22F
100
AcDbEntity
  8
0
  6
Continuous
 62
     7
370
    18
100
AcDbLine
 10
106.3626501769
 20
164.0670530925
 30
0.0
 11
106.3626501772
 21
172.8746356366
 31
0.0
  0
LINE
  5
235
330
22F
100
AcDbEntity
  8
0
  6
Continuous
 62
     7
370
    18
100
AcDbLine
 10
97.3626501769
 20
162.5670530932
 30
0.0
 11
97.3626501773
 21
172.874635637
 31
0.0
  0
LINE
  5
236
330
22F
100
AcDbEntity
  8
0
  6
Continuous
 62
     7
370
    18
100
AcDbLine
 10
106.3626501772
 20
171.8746356366
 30
0.0
 11
111.3626501772
 21
171.8746356365
 31
0.0
  0
LINE
  5
237
330
22F
100
AcDbEntity
  8
0
  6
Continuous
 62
     7
370
    18
100
AcDbLine
 10
106.3626501772
 20
171.8746356366
 30
0.0
 11
97.3626501772
 21
171.874635637
 31
0.0
  0
LINE
  5
238
330
22F
100
AcDbEntity
  8
0
  6
Continuous
 62
     7
370
    18
100
AcDbLine
 10
97.3626501772
 20
171.874635637
 30
0.0
 11
92.3626501772
 21
171.8746356372
 31
0.0
  0
MTEXT
  5
239
330
22F
100
AcDbEntity
  8
0
  6
Continuous
 62
     7
370
    18
100
AcDbMText
 10
100.8442474286
 20
176.3863724932
 30
0.0
 40
3.5
 41
0.0
 71
     1
 72
     1
  1
9
  7
SLDTEXTSTYLE0
 73
     1
 44
1.0
  0
ENDBLK
  5
231
330
22F
100
AcDbEntity
  8
0
100
AcDbBlockEnd
  0
BLOCK
  5
23D
330
23C
100
AcDbEntity
  8
0
100
AcDbBlockBegin
  2
_D_3
 70
     0
 10
0.0
 20
0.0
 30
0.0
  3
_D_3
  1

  0
SOLID
  5
23F
330
23C
100
AcDbEntity
  8
0
  6
Continuous
 62
     7
370
    18
100
AcDbTrace
 10
121.3626501768
 20
136.4592772431
 30
0.0
 11
124.3626501768
 21
135.7092772431
 31
0.0
 12
124.3626501768
 22
137.2092772431
 32
0.0
 13
124.3626501768
 23
137.2092772431
 33
0.0
  0
SOLID
  5
240
330
23C
100
AcDbEntity
  8
0
  6
Continuous
 62
     7
370
    18
100
AcDbTrace
 10
151.3626501768
 20
136.4592772431
 30
0.0
 11
148.3626501768
 21
137.2092772431
 31
0.0
 12
148.3626501768
 22
135.7092772431
 32
0.0
 13
148.3626501768
 23
135.7092772431
 33
0.0
  0
LINE
  5
241
330
23C
100
AcDbEntity
  8
0
  6
Continuous
 62
     7
370
    18
100
AcDbLine
 10
121.3626501768
 20
152.4670530955
 30
0.0
 11
121.3626501768
 21
135.4592772431
 31
0.0
  0
LINE
  5
242
330
23C
100
AcDbEntity
  8
0
  6
Continuous
 62
     7
370
    18
100
AcDbLine
 10
151.3626501768
 20
151.3670162644
 30
0.0
 11
151.3626501768
 21
135.4592772431
 31
0.0
  0
LINE
  5
243
330
23C
100
AcDbEntity
  8
0
  6
Continuous
 62
     7
370
    18
100
AcDbLine
 10
121.3626501768
 20
136.4592772431
 30
0.0
 11
151.3626501768
 21
136.4592772431
 31
0.0
  0
MTEXT
  5
244
330
23C
100
AcDbEntity
  8
0
  6
Continuous
 62
     7
370
    18
100
AcDbMText
 10
132.2890391819
 20
140.9710140994
 30
0.0
 40
3.5
 41
0.0
 71
     1
 72
     1
  1
30
  7
SLDTEXTSTYLE0
 73
     1
 44
1.0
  0
MTEXT
  5
245
330
23C
100
AcDbEntity
  8
0
  6
Continuous
 62
     7
370
    18
100
AcDbMText
 10
136.3626501768
 20
140.9710140994
 30
0.0
 40
3.5
 41
0.0
 71
     1
 72
     1
  1
st
  7
SLDTEXTSTYLE0
 73
     1
 44
1.0
  0
ENDBLK
  5
23E
330
23C
100
AcDbEntity
  8
0
100
AcDbBlockEnd
  0
BLOCK
  5
248
330
247
100
AcDbEntity
  8
0
100
AcDbBlockBegin
  2
_D_4
 70
     0
 10
0.0
 20
0.0
 30
0.0
  3
_D_4
  1

  0
SOLID
  5
24A
330
247
100
AcDbEntity
  8
0
  6
Continuous
 62
     7
370
    18
100
AcDbTrace
 10
154.3626501768
 20
140.979092205
 30
0.0
 11
151.3626501768
 21
141.729092205
 31
0.0
 12
151.3626501768
 22
140.229092205
 32
0.0
 13
151.3626501768
 23
140.229092205
 33
0.0
  0
SOLID
  5
24B
330
247
100
AcDbEntity
  8
0
  6
Continuous
 62
     7
370
    18
100
AcDbTrace
 10
157.3626501768
 20
140.979092205
 30
0.0
 11
160.3626501768
 21
140.229092205
 31
0.0
 12
160.3626501768
 22
141.729092205
 32
0.0
 13
160.3626501768
 23
141.729092205
 33
0.0
  0
LINE
  5
24C
330
247
100
AcDbEntity
  8
0
  6
Continuous
 62
     7
370
    18
100
AcDbLine
 10
154.3626501768
 20
145.5520985205
 30
0.0
 11
154.3626501768
 21
139.979092205
 31
0.0
  0
LINE
  5
24D
330
247
100
AcDbEntity
  8
0
  6
Continuous
 62
     7
370
    18
100
AcDbLine
 10
157.3626501768
 20
145.5520985205
 30
0.0
 11
157.3626501768
 21
139.979092205
 31
0.0
  0
LINE
  5
24E
330
247
100
AcDbEntity
  8
0
  6
Continuous
 62
     7
370
    18
100
AcDbLine
 10
154.3626501768
 20
140.979092205
 30
0.0
 11
149.3626501768
 21
140.979092205
 31
0.0
  0
LINE
  5
24F
330
247
100
AcDbEntity
  8
0
  6
Continuous
 62
     7
370
    18
100
AcDbLine
 10
154.3626501768
 20
140.979092205
 30
0.0
 11
157.3626501768
 21
140.979092205
 31
0.0
  0
LINE
  5
250
330
247
100
AcDbEntity
  8
0
  6
Continuous
 62
     7
370
    18
100
AcDbLine
 10
157.3626501768
 20
140.979092205
 30
0.0
 11
163.2739767024
 21
140.979092205
 31
0.0
  0
MTEXT
  5
251
330
247
100
AcDbEntity
  8
0
  6
Continuous
 62
     7
370
    18
100
AcDbMText
 10
161.2371712049
 20
145.4908290613
 30
0.0
 40
3.5
 41
0.0
 71
     1
 72
     1
  1
3
  7
SLDTEXTSTYLE0
 73
     1
 44
1.0
  0
ENDBLK
  5
249
330
247
100
AcDbEntity
  8
0
100
AcDbBlockEnd
  0
BLOCK
  5
254
330
253
100
AcDbEntity
  8
0
100
AcDbBlockBegin
  2
_D_5
 70
     0
 10
0.0
 20
0.0
 30
0.0
  3
_D_5
  1

  0
SOLID
  5
256
330
253
100
AcDbEntity
  8
0
  6
Continuous
 62
     7
370
    18
100
AcDbTrace
 10
157.3626501768
 20
171.6513511658
 30
0.0
 11
160.3626501768
 21
170.9013511658
 31
0.0
 12
160.3626501768
 22
172.4013511658
 32
0.0
 13
160.3626501768
 23
172.4013511658
 33
0.0
  0
SOLID
  5
257
330
253
100
AcDbEntity
  8
0
  6
Continuous
 62
     7
370
    18
100
AcDbTrace
 10
151.3626501768
 20
171.6513511658
 30
0.0
 11
148.3626501768
 21
172.4013511658
 31
0.0
 12
148.3626501768
 22
170.9013511658
 32
0.0
 13
148.3626501768
 23
170.9013511658
 33
0.0
  0
LINE
  5
258
330
253
100
AcDbEntity
  8
0
  6
Continuous
 62
     7
370
    18
100
AcDbLine
 10
157.3626501768
 20
167.1820076711
 30
0.0
 11
157.3626501768
 21
172.6513511658
 31
0.0
  0
LINE
  5
259
330
253
100
AcDbEntity
  8
0
  6
Continuous
 62
     7
370
    18
100
AcDbLine
 10
151.3626501768
 20
159.3670530957
 30
0.0
 11
151.3626501768
 21
172.6513511658
 31
0.0
  0
LINE
  5
25A
330
253
100
AcDbEntity
  8
0
  6
Continuous
 62
     7
370
    18
100
AcDbLine
 10
157.3626501768
 20
171.6513511658
 30
0.0
 11
162.3626501768
 21
171.6513511658
 31
0.0
  0
LINE
  5
25B
330
253
100
AcDbEntity
  8
0
  6
Continuous
 62
     7
370
    18
100
AcDbLine
 10
157.3626501768
 20
171.6513511658
 30
0.0
 11
151.3626501768
 21
171.6513511658
 31
0.0
  0
LINE
  5
25C
330
253
100
AcDbEntity
  8
0
  6
Continuous
 62
     7
370
    18
100
AcDbLine
 10
151.3626501768
 20
171.6513511658
 30
0.0
 11
146.3626501768
 21
171.6513511658
 31
0.0
  0
MTEXT
  5
25D
330
253
100
AcDbEntity
  8
0
  6
Continuous
 62
     7
370
    18
100
AcDbMText
 10
153.3442474281
 20
176.1630880222
 30
0.0
 40
3.5
 41
0.0
 71
     1
 72
     1
  1
6
  7
SLDTEXTSTYLE0
 73
     1
 44
1.0
  0
ENDBLK
  5
255
330
253
100
AcDbEntity
  8
0
100
AcDbBlockEnd
  0
BLOCK
  5
260
330
25F
100
AcDbEntity
  8
0
100
AcDbBlockBegin
  2
_D_6
 70
     0
 10
0.0
 20
0.0
 30
0.0
  3
_D_6
  1

  0
SOLID
  5
262
330
25F
100
AcDbEntity
  8
0
  6
Continuous
 62
     7
370
    18
100
AcDbTrace
 10
157.3626501768
 20
171.6513511658
 30
0.0
 11
160.3626501768
 21
170.9013511658
 31
0.0
 12
160.3626501768
 22
172.4013511658
 32
0.0
 13
160.3626501768
 23
172.4013511658
 33
0.0
  0
SOLID
  5
263
330
25F
100
AcDbEntity
  8
0
  6
Continuous
 62
     7
370
    18
100
AcDbTrace
 10
177.3626501768
 20
171.6513511659
 30
0.0
 11
174.3626501768
 21
172.4013511659
 31
0.0
 12
174.3626501768
 22
170.9013511659
 32
0.0
 13
174.3626501768
 23
170.9013511659
 33
0.0
  0
LINE
  5
264
330
25F
100
AcDbEntity
  8
0
  6
Continuous
 62
     7
370
    18
100
AcDbLine
 10
157.3626501768
 20
167.1820076711
 30
0.0
 11
157.3626501768
 21
172.6513511658
 31
0.0
  0
LINE
  5
265
330
25F
100
AcDbEntity
  8
0
  6
Continuous
 62
     7
370
    18
100
AcDbLine
 10
177.3626501768
 20
162.3670991344
 30
0.0
 11
177.3626501768
 21
172.6513511659
 31
0.0
  0
LINE
  5
266
330
25F
100
AcDbEntity
  8
0
  6
Continuous
 62
     7
370
    18
100
AcDbLine
 10
157.3626501768
 20
171.6513511658
 30
0.0
 11
177.3626501768
 21
171.6513511659
 31
0.0
  0
MTEXT
  5
267
330
25F
100
AcDbEntity
  8
0
  6
Continuous
 62
     7
370
    18
100
AcDbMText
 10
165.3258446794
 20
176.1630880222
 30
0.0
 40
3.5
 41
0.0
 71
     1
 72
     1
  1
20
  7
SLDTEXTSTYLE0
 73
     1
 44
1.0
  0
ENDBLK
  5
261
330
25F
100
AcDbEntity
  8
0
100
AcDbBlockEnd
  0
BLOCK
  5
26A
330
269
100
AcDbEntity
  8
0
100
AcDbBlockBegin
  2
_D_7
 70
     0
 10
0.0
 20
0.0
 30
0.0
  3
_D_7
  1

  0
SOLID
  5
26C
330
269
100
AcDbEntity
  8
0
  6
Continuous
 62
     7
370
    18
100
AcDbTrace
 10
179.3626501768
 20
179.772053096
 30
0.0
 11
176.3626501768
 21
180.522053096
 31
0.0
 12
176.3626501768
 22
179.022053096
 32
0.0
 13
176.3626501768
 23
179.022053096
 33
0.0
  0
SOLID
  5
26D
330
269
100
AcDbEntity
  8
0
  6
Continuous
 62
     7
370
    18
100
AcDbTrace
 10
157.3626501768
 20
179.772053096
 30
0.0
 11
160.3626501768
 21
179.022053096
 31
0.0
 12
160.3626501768
 22
180.522053096
 32
0.0
 13
160.3626501768
 23
180.522053096
 33
0.0
  0
LINE
  5
26E
330
269
100
AcDbEntity
  8
0
  6
Continuous
 62
     7
370
    18
100
AcDbLine
 10
179.3626501768
 20
159.8670530958
 30
0.0
 11
179.3626501768
 21
180.772053096
 31
0.0
  0
LINE
  5
26F
330
269
100
AcDbEntity
  8
0
  6
Continuous
 62
     7
370
    18
100
AcDbLine
 10
157.3626501768
 20
167.1820076711
 30
0.0
 11
157.3626501768
 21
180.772053096
 31
0.0
  0
LINE
  5
270
330
269
100
AcDbEntity
  8
0
  6
Continuous
 62
     7
370
    18
100
AcDbLine
 10
179.3626501768
 20
179.772053096
 30
0.0
 11
157.3626501768
 21
179.772053096
 31
0.0
  0
MTEXT
  5
271
330
269
100
AcDbEntity
  8
0
  6
Continuous
 62
     7
370
    18
100
AcDbMText
 10
166.3258446794
 20
184.2837899524
 30
0.0
 40
3.5
 41
0.0
 71
     1
 72
     1
  1
22
  7
SLDTEXTSTYLE0
 73
     1
 44
1.0
  0
ENDBLK
  5
26B
330
269
100
AcDbEntity
  8
0
100
AcDbBlockEnd
  0
BLOCK
  5
274
330
273
100
AcDbEntity
  8
0
100
AcDbBlockBegin
  2
_D_8
 70
     0
 10
0.0
 20
0.0
 30
0.0
  3
_D_8
  1

  0
SOLID
  5
276
330
273
100
AcDbEntity
  8
0
  6
Continuous
 62
     7
370
    18
100
AcDbTrace
 10
97.3626501782
 20
189.6977620726
 30
0.0
 11
100.3626501782
 21
188.9477620725
 31
0.0
 12
100.3626501783
 22
190.4477620725
 32
0.0
 13
100.3626501783
 23
190.4477620725
 33
0.0
  0
SOLID
  5
277
330
273
100
AcDbEntity
  8
0
  6
Continuous
 62
     7
370
    18
100
AcDbTrace
 10
179.3626501784
 20
189.6977620686
 30
0.0
 11
176.3626501784
 21
190.4477620687
 31
0.0
 12
176.3626501783
 22
188.9477620687
 32
0.0
 13
176.3626501783
 23
188.9477620687
 33
0.0
  0
LINE
  5
278
330
273
100
AcDbEntity
  8
0
  6
Continuous
 62
     7
370
    18
100
AcDbLine
 10
97.3626501769
 20
162.5670530932
 30
0.0
 11
97.3626501783
 21
190.6977620726
 31
0.0
  0
LINE
  5
279
330
273
100
AcDbEntity
  8
0
  6
Continuous
 62
     7
370
    18
100
AcDbLine
 10
179.3626501769
 20
159.8670530958
 30
0.0
 11
179.3626501784
 21
190.6977620686
 31
0.0
  0
LINE
  5
27A
330
273
100
AcDbEntity
  8
0
  6
Continuous
 62
     7
370
    18
100
AcDbLine
 10
97.3626501782
 20
189.6977620726
 30
0.0
 11
179.3626501784
 21
189.6977620686
 31
0.0
  0
MTEXT
  5
27B
330
273
100
AcDbEntity
  8
0
  6
Continuous
 62
     7
370
    18
100
AcDbMText
 10
136.3258446811
 20
194.2094989271
 30
0.0
 40
3.5
 41
0.0
 71
     1
 72
     1
  1
82
  7
SLDTEXTSTYLE0
 73
     1
 44
1.0
  0
ENDBLK
  5
275
330
273
100
AcDbEntity
  8
0
100
AcDbBlockEnd
  0
BLOCK
  5
27E
330
27D
100
AcDbEntity
  8
0
100
AcDbBlockBegin
  2
_D_9
 70
     0
 10
0.0
 20
0.0
 30
0.0
  3
_D_9
  1

  0
SOLID
  5
280
330
27D
100
AcDbEntity
  8
0
  6
Continuous
 62
     7
370
    18
100
AcDbTrace
 10
185.2173817742
 20
159.2670530956
 30
0.0
 11
185.9673817742
 21
162.2670530956
 31
0.0
 12
184.4673817742
 22
162.2670530956
 32
0.0
 13
184.4673817742
 23
162.2670530956
 33
0.0
  0
SOLID
  5
281
330
27D
100
AcDbEntity
  8
0
  6
Continuous
 62
     7
370
    18
100
AcDbTrace
 10
185.2173817742
 20
153.4670530961
 30
0.0
 11
184.4673817742
 21
150.4670530961
 31
0.0
 12
185.9673817742
 22
150.4670530961
 32
0.0
 13
185.9673817742
 23
150.4670530961
 33
0.0
  0
LINE
  5
282
330
27D
100
AcDbEntity
  8
0
  6
Continuous
 62
     7
370
    18
100
AcDbLine
 10
179.8626501768
 20
159.2670530956
 30
0.0
 11
186.2173817742
 21
159.2670530956
 31
0.0
  0
LINE
  5
283
330
27D
100
AcDbEntity
  8
0
  6
Continuous
 62
     7
370
    18
100
AcDbLine
 10
179.8626501768
 20
153.4670530961
 30
0.0
 11
186.2173817742
 21
153.4670530961
 31
0.0
  0
LINE
  5
284
330
27D
100
AcDbEntity
  8
0
  6
Continuous
 62
     7
370
    18
100
AcDbLine
 10
185.2173817742
 20
159.2670530956
 30
0.0
 11
185.2173817742
 21
172.8756014283
 31
0.0
  0
LINE
  5
285
330
27D
100
AcDbEntity
  8
0
  6
Continuous
 62
     7
370
    18
100
AcDbLine
 10
185.2173817742
 20
159.2670530956
 30
0.0
 11
185.2173817742
 21
153.4670530961
 31
0.0
  0
LINE
  5
286
330
27D
100
AcDbEntity
  8
0
  6
Continuous
 62
     7
370
    18
100
AcDbLine
 10
185.2173817742
 20
153.4670530961
 30
0.0
 11
185.2173817742
 21
148.4670530961
 31
0.0
  0
MTEXT
  5
287
330
27D
100
AcDbEntity
  8
0
  6
Continuous
 62
     7
370
    18
100
AcDbMText
 10
180.7056444522
 20
162.8952544208
 30
0.0
 40
3.5
 41
0.0
 71
     1
 72
     1
  1
%%c
  7
SLDTEXTSTYLE0
 11
-7.044195017643634E-15
 21
1.0
 31
0.0
 73
     1
 44
1.0
  0
MTEXT
  5
288
330
27D
100
AcDbEntity
  8
0
  6
Continuous
 62
     7
370
    18
100
AcDbMText
 10
180.7056444522
 20
166.7651849358
 30
0.0
 40
3.5
 41
0.0
 71
     1
 72
     1
  1
5.8
  7
SLDTEXTSTYLE0
 11
-7.044195017643634E-15
 21
1.0
 31
0.0
 73
     1
 44
1.0
  0
ENDBLK
  5
27F
330
27D
100
AcDbEntity
  8
0
100
AcDbBlockEnd
  0
BLOCK
  5
28B
330
28A
100
AcDbEntity
  8
0
100
AcDbBlockBegin
  2
_D_10
 70
     0
 10
0.0
 20
0.0
 30
0.0
  3
_D_10
  1

  0
SOLID
  5
28D
330
28A
100
AcDbEntity
  8
0
  6
Continuous
 62
     7
370
    18
100
AcDbTrace
 10
192.8186270229
 20
166.1820076718
 30
0.0
 11
192.0686270229
 21
163.1820076718
 31
0.0
 12
193.5686270229
 22
163.1820076718
 32
0.0
 13
193.5686270229
 23
163.1820076718
 33
0.0
  0
SOLID
  5
28E
330
28A
100
AcDbEntity
  8
0
  6
Continuous
 62
     7
370
    18
100
AcDbTrace
 10
192.8186270229
 20
146.5520985198
 30
0.0
 11
193.5686270229
 21
149.5520985198
 31
0.0
 12
192.0686270229
 22
149.5520985198
 32
0.0
 13
192.0686270229
 23
149.5520985198
 33
0.0
  0
LINE
  5
28F
330
28A
100
AcDbEntity
  8
0
  6
Continuous
 62
     7
370
    18
100
AcDbLine
 10
175.8098557978
 20
166.1820076718
 30
0.0
 11
193.8186270229
 21
166.1820076718
 31
0.0
  0
LINE
  5
290
330
28A
100
AcDbEntity
  8
0
  6
Continuous
 62
     7
370
    18
100
AcDbLine
 10
175.8098557978
 20
146.5520985198
 30
0.0
 11
193.8186270229
 21
146.5520985198
 31
0.0
  0
LINE
  5
291
330
28A
100
AcDbEntity
  8
0
  6
Continuous
 62
     7
370
    18
100
AcDbLine
 10
192.8186270229
 20
166.1820076718
 30
0.0
 11
192.8186270229
 21
146.5520985198
 31
0.0
  0
MTEXT
  5
292
330
28A
100
AcDbEntity
  8
0
  6
Continuous
 62
     7
370
    18
100
AcDbMText
 10
188.3068901665
 20
152.2934421008
 30
0.0
 40
3.5
 41
0.0
 71
     1
 72
     1
  1
19.6
  7
SLDTEXTSTYLE0
 11
-7.044195017643634E-15
 21
1.0
 31
0.0
 73
     1
 44
1.0
  0
ENDBLK
  5
28C
330
28A
100
AcDbEntity
  8
0
100
AcDbBlockEnd
  0
BLOCK
  5
294
330
293
100
AcDbEntity
  8
0
100
AcDbBlockBegin
  2
SW_NOTE_2
 70
     0
 10
0.0
 20
0.0
 30
0.0
  3
SW_NOTE_2
  1

  0
LINE
  5
296
330
293
100
AcDbEntity
  8
0
  6
Continuous
 62
     0
370
     0
100
AcDbLine
 10
18.2134645457
 20
0.0
 30
0.0
 11
0.0
 21
0.0
 31
0.0
  0
MTEXT
  5
297
330
293
100
AcDbEntity
  8
0
  6
Continuous
 62
     0
370
     0
100
AcDbMText
 10
0.4226919702
 20
4.6147175064
 30
0.0
 40
3.5
 41
0.0
 71
     1
 72
     1
  1
M12 P=1.0
  7
SLDTEXTSTYLE0
 73
     1
 44
1.0
  0
ENDBLK
  5
295
330
293
100
AcDbEntity
  8
0
100
AcDbBlockEnd
  0
ENDSEC
  0
SECTION
  2
ENTITIES
  0
LINE
  5
73
330
1F
100
AcDbEntity
  8
0
  6
Continuous
 62
     7
370
    18
100
AcDbLine
 10
20.2604743903
 20
285.0
 30
0.0
 11
196.7604743903
 21
285.0
 31
0.0
  0
LINE
  5
74
330
1F
100
AcDbEntity
  8
0
  6
Continuous
 62
     7
370
    18
100
AcDbLine
 10
20.2604743903
 20
285.0
 30
0.0
 11
20.2604743903
 21
10.0
 31
0.0
  0
LINE
  5
75
330
1F
100
AcDbEntity
  8
0
  6
Continuous
 62
     7
370
    18
100
AcDbLine
 10
20.2604743903
 20
10.0
 30
0.0
 11
196.7604743903
 21
10.0
 31
0.0
  0
LINE
  5
76
330
1F
100
AcDbEntity
  8
0
  6
Continuous
 62
     7
370
    18
100
AcDbLine
 10
196.7604743903
 20
285.0
 30
0.0
 11
196.7604743903
 21
10.0
 31
0.0
  0
LINE
  5
77
330
1F
100
AcDbEntity
  8
0
  6
Continuous
 62
     7
370
    18
100
AcDbLine
 10
127.0104743903
 20
50.75
 30
0.0
 11
196.7604743903
 21
50.75
 31
0.0
  0
LINE
  5
78
330
1F
100
AcDbEntity
  8
0
  6
Continuous
 62
     7
370
    18
100
AcDbLine
 10
127.0104743903
 20
50.75
 30
0.0
 11
127.0104743903
 21
10.0
 31
0.0
  0
LINE
  5
79
330
1F
100
AcDbEntity
  8
0
  6
Continuous
 62
     7
370
    18
100
AcDbLine
 10
127.0104743903
 20
22.75
 30
0.0
 11
196.7604743903
 21
22.75
 31
0.0
  0
LINE
  5
7A
330
1F
100
AcDbEntity
  8
0
  6
Continuous
 62
     7
370
    18
100
AcDbLine
 10
127.0104743903
 20
36.75
 30
0.0
 11
196.7604743903
 21
36.75
 31
0.0
  0
MTEXT
  5
7C
330
1F
100
AcDbEntity
  8
0
  6
Continuous
 62
     7
370
     0
100
AcDbMText
 10
162.5003819534
 20
30.4171582345
 30
0.0
 40
4.2333333333
 41
0.0
 71
     2
 72
     1
  1
VFILP-S-30
  7
SLDTEXTSTYLE0
 73
     1
 44
1.0
  0
MTEXT
  5
7D
330
1F
100
AcDbEntity
  8
0
  6
Continuous
 62
     7
370
     0
100
AcDbMText
 10
160.2799415598
 20
43.9409718514
 30
0.0
 40
4.2333333333
 41
0.0
 71
     2
 72
     1
  1
吸着樹脂具・スモール用
  7
SLDTEXTSTYLE0
 73
     1
 44
1.0
  0
MTEXT
  5
7E
330
1F
100
AcDbEntity
  8
0
  6
Continuous
 62
     7
370
     0
100
AcDbMText
 10
163.103291639
 20
16.8228189052
 30
0.0
 40
4.2333333333
 41
0.0
 71
     2
 72
     1
  1
211100
  7
SLDTEXTSTYLE0
 73
     1
 44
1.0
  0
LWPOLYLINE
  5
7F
330
1F
100
AcDbEntity
  8
0
  6
Continuous
 62
     7
370
    18
100
AcDbPolyline
 90
        3
 70
   128
 43
0.0
 10
57.6010197224
 20
147.0670530615
 10
57.7970195851
 20
145.6670526458
 10
57.9510195936
 20
144.5670526517
  0
LWPOLYLINE
  5
80
330
1F
100
AcDbEntity
  8
0
  6
Continuous
 62
     7
370
    18
100
AcDbPolyline
 90
        3
 70
   128
 43
0.0
 10
61.9510197835
 20
144.5670526517
 10
62.1470196462
 20
145.9670530675
 10
62.3010196546
 20
147.0670530615
  0
LWPOLYLINE
  5
81
330
1F
100
AcDbEntity
  8
0
  6
Continuous
 62
     7
370
    18
100
AcDbPolyline
 90
        3
 70
   128
 43
0.0
 10
57.6010197224
 20
144.5670526517
 10
57.7970195851
 20
143.1670531673
 10
57.9510195936
 20
142.0670531733
  0
LWPOLYLINE
  5
82
330
1F
100
AcDbEntity
  8
0
  6
Continuous
 62
     7
370
    18
100
AcDbPolyline
 90
        3
 70
   128
 43
0.0
 10
61.9510197835
 20
142.0670531733
 10
62.1470196462
 20
143.4670526577
 10
62.3010196546
 20
144.5670526517
  0
SPLINE
  5
83
330
1F
100
AcDbEntity
  8
0
  6
Continuous
 62
     7
370
    18
100
AcDbSpline
210
0.0
220
0.0
230
1.0
 70
     8
 71
     3
 72
     9
 73
     5
 74
     0
 42
0.000000001
 43
0.00000001
 40
0.0
 40
0.0
 40
0.0
 40
0.0
 40
0.9523648035620942
 40
0.9999999999999999
 40
0.9999999999999999
 40
0.9999999999999999
 40
0.9999999999999999
 10
59.17602024836327
 20
149.3897589897449
 30
0.0
 10
59.05492013019176
 20
149.4082670193605
 30
0.0
 10
58.92776284999982
 20
149.4277007799808
 30
0.0
 10
58.82859749795593
 20
149.4782655701071
 30
0.0
 10
58.82387373693148
 20
149.4806742338176
 30
0.0
  0
LINE
  5
84
330
1F
100
AcDbEntity
  8
0
  6
Continuous
 62
     7
370
    18
100
AcDbLine
 10
57.8010196155
 20
149.7394915713
 30
0.0
 11
57.8010196155
 21
147.0670530615
 31
0.0
  0
LINE
  5
85
330
1F
100
AcDbEntity
  8
0
  6
Continuous
 62
     7
370
    18
100
AcDbLine
 10
62.1010197616
 20
147.0670530615
 30
0.0
 11
62.1010197616
 21
149.7394915713
 31
0.0
  0
SPLINE
  5
86
330
1F
100
AcDbEntity
  8
0
  6
Continuous
 62
     7
370
    18
100
AcDbSpline
210
0.0
220
0.0
230
1.0
 70
     8
 71
     3
 72
    33
 73
    29
 74
     0
 42
0.000000001
 43
0.00000001
 40
0.0
 40
0.0
 40
0.0
 40
0.0
 40
0.0125326068134496
 40
0.0250361823974898
 40
0.0375300658794424
 40
0.0500336413586776
 40
0.0625662479630028
 40
0.0938388078910985
 40
0.1251113679925473
 40
0.1563839283128946
 40
0.1876564884698982
 40
0.2501259056882397
 40
0.312595322906581
 40
0.375064740736413
 40
0.4375341581404723
 40
0.5000035755502352
 40
0.5624729929599983
 40
0.6249424103640574
 40
0.6874118281938896
 40
0.7498812454122309
 40
0.8123506626305723
 40
0.843623222787576
 40
0.8748957831079233
 40
0.9061683432093721
 40
0.9374409031374676
 40
0.9583088818550776
 40
0.9791320209916652
 40
1.0
 40
1.0
 40
1.0
 40
1.0
 10
54.75101969112446
 20
156.3670530957813
 30
0.0
 10
54.75178652861972
 20
156.2988795139584
 30
0.0
 10
54.75331842726509
 20
156.1626902713998
 30
0.0
 10
54.76576158224108
 20
155.9588507334032
 30
0.0
 10
54.78563954819232
 20
155.7558003319755
 30
0.0
 10
54.81367796401868
 20
155.55353427106
 30
0.0
 10
54.86755840887817
 20
155.2519739870018
 30
0.0
 10
54.96682035914334
 20
154.8550898218076
 30
0.0
 10
55.13916850730104
 20
154.373932661574
 30
0.0
 10
55.35758230771736
 20
153.9117750139069
 30
0.0
 10
55.70773572447399
 20
153.3278103845433
 30
0.0
 10
56.25040124737917
 20
152.6662720315647
 30
0.0
 10
57.04342115322635
 20
152.0155731683877
 30
0.0
 10
57.94824100848723
 20
151.5319019802895
 30
0.0
 10
58.93000984718743
 20
151.2340960514329
 30
0.0
 10
59.95101968636631
 20
151.1335316223505
 30
0.0
 10
60.97202953861894
 20
151.234096049322
 30
0.0
 10
61.95379833809787
 20
151.5319019887333
 30
0.0
 10
62.85861833717007
 20
152.0155731367237
 30
0.0
 10
63.65163770699321
 20
152.6662721497769
 30
0.0
 10
64.1943048972064
 20
153.3278100364784
 30
0.0
 10
64.54445491081368
 20
153.9117756175758
 30
0.0
 10
64.76287910867929
 20
154.3739303574618
 30
0.0
 10
64.93518822094778
 20
154.8550984345874
 30
0.0
 10
65.04560013663004
 20
155.2960097244195
 30
0.0
 10
65.11001247401727
 20
155.6878188394393
 30
0.0
 10
65.14463825481505
 20
156.0267117785162
 30
0.0
 10
65.14889101759708
 20
156.2535246756547
 30
0.0
 10
65.15101968596606
 20
156.3670530957813
 30
0.0
  0
SPLINE
  5
87
330
1F
100
AcDbEntity
  8
0
  6
Continuous
 62
     7
370
    18
100
AcDbSpline
210
0.0
220
0.0
230
1.0
 70
     8
 71
     3
 72
    33
 73
    29
 74
     0
 42
0.000000001
 43
0.00000001
 40
0.0
 40
0.0
 40
0.0
 40
0.0
 40
0.0125326068134497
 40
0.0250361823974899
 40
0.0375300658794425
 40
0.0500336413586776
 40
0.0625662479630028
 40
0.0938388078910984
 40
0.1251113679925473
 40
0.1563839283128946
 40
0.1876564884698983
 40
0.2501259056882397
 40
0.3125953229065811
 40
0.3750647407364132
 40
0.4375341581404723
 40
0.5000035755502354
 40
0.5624729929599984
 40
0.6249424103640576
 40
0.6874118281938897
 40
0.749881245412231
 40
0.8123506626305724
 40
0.8436232227875762
 40
0.8748957831079234
 40
0.9061683432093723
 40
0.9374409031374679
 40
0.958308881855078
 40
0.9791320209916654
 40
1.0
 40
1.0
 40
1.0
 40
1.0
 10
65.15101968596606
 20
156.3670530957813
 30
0.0
 10
65.15025284847081
 20
156.4352266776042
 30
0.0
 10
65.14872094982543
 20
156.5714159201628
 30
0.0
 10
65.13627779484945
 20
156.7752554581594
 30
0.0
 10
65.11639982889821
 20
156.9783058595871
 30
0.0
 10
65.08836141307184
 20
157.1805719205027
 30
0.0
 10
65.03448096821236
 20
157.4821322045608
 30
0.0
 10
64.93521901794719
 20
157.8790163697551
 30
0.0
 10
64.7628708697895
 20
158.3601735299886
 30
0.0
 10
64.54445706937318
 20
158.8223311776558
 30
0.0
 10
64.19430365261654
 20
159.4062958070194
 30
0.0
 10
63.65163812971135
 20
160.0678341599979
 30
0.0
 10
62.85861822386418
 20
160.718533023175
 30
0.0
 10
61.9537983686033
 20
161.2022042112731
 30
0.0
 10
60.9720295299031
 20
161.5000101401297
 30
0.0
 10
59.95101969072422
 20
161.6005745692121
 30
0.0
 10
58.93000983847159
 20
161.5000101422407
 30
0.0
 10
57.94824103899266
 20
161.2022042028294
 30
0.0
 10
57.04342103992045
 20
160.7185330548389
 30
0.0
 10
56.25040167009731
 20
160.0678340417858
 30
0.0
 10
55.70773447988412
 20
159.4062961550843
 30
0.0
 10
55.35758446627684
 20
158.8223305739868
 30
0.0
 10
55.13916026841123
 20
158.3601758341009
 30
0.0
 10
54.96685115614275
 20
157.8790077569752
 30
0.0
 10
54.85643924046049
 20
157.4380964671432
 30
0.0
 10
54.79202690307326
 20
157.0462873521233
 30
0.0
 10
54.75740112227548
 20
156.7073944130464
 30
0.0
 10
54.75314835949345
 20
156.4805815159079
 30
0.0
 10
54.75101969112446
 20
156.3670530957813
 30
0.0
  0
SPLINE
  5
88
330
1F
100
AcDbEntity
  8
0
  6
Continuous
 62
     7
370
    18
100
AcDbSpline
210
0.0
220
0.0
230
1.0
 70
     8
 71
     3
 72
    14
 73
    10
 74
     0
 42
0.000000001
 43
0.00000001
 40
0.0
 40
0.0
 40
0.0
 40
0.0
 40
0.25
 40
0.25
 40
0.4999999999999999
 40
0.4999999999999999
 40
0.75
 40
0.75
 40
1.0
 40
1.0
 40
1.0
 40
1.0
 10
57.85101968854526
 20
156.3670530954042
 30
0.0
 10
57.85101968864528
 20
155.810114229112
 30
0.0
 10
58.072280199027
 20
155.2759441042908
 30
0.0
 10
58.85991069717547
 20
154.4883136061929
 30
0.0
 10
59.39408082201089
 20
154.2670530958455
 30
0.0
 10
60.50795855459533
 20
154.2670530957171
 30
0.0
 10
61.04212867948178
 20
154.4883136059413
 30
0.0
 10
61.82975917781189
 20
155.2759441038575
 30
0.0
 10
62.05101968831681
 20
155.8101142286277
 30
0.0
 10
62.05101968854526
 20
156.3670530949199
 30
0.0
  0
SPLINE
  5
89
330
1F
100
AcDbEntity
  8
0
  6
Continuous
 62
     7
370
    18
100
AcDbSpline
210
0.0
220
0.0
230
1.0
 70
     8
 71
     3
 72
    12
 73
     8
 74
     0
 42
0.000000001
 43
0.00000001
 40
0.0
 40
0.0
 40
0.0
 40
0.0
 40
0.3333333333333334
 40
0.3333333333333334
 40
0.6666666666666666
 40
0.6666666666666666
 40
0.9999999999999999
 40
0.9999999999999999
 40
0.9999999999999999
 40
0.9999999999999999
 10
62.05101968854526
 20
156.3670530949199
 30
0.0
 10
62.05101968885298
 20
157.1172012991124
 30
0.0
 10
61.65066709037399
 20
157.8106323411676
 30
0.0
 10
60.35137228771124
 20
158.5607805457154
 30
0.0
 10
59.55066709027918
 20
158.5607805458796
 30
0.0
 10
58.2513722873087
 20
157.8106323418648
 30
0.0
 10
57.85101968854526
 20
157.1172012999738
 30
0.0
 10
57.85101968854526
 20
156.3670530957813
 30
0.0
  0
SPLINE
  5
8A
330
1F
100
AcDbEntity
  8
0
  6
Continuous
 62
     7
370
    18
100
AcDbSpline
210
0.0
220
0.0
230
1.0
 70
    24
 71
     3
 72
    10
 73
     6
 74
     0
 42
0.000000001
 43
0.00000001
 40
0.0
 40
0.0
 40
0.0
 40
0.0
 40
0.5
 40
0.5
 40
1.0
 40
1.0
 40
1.0
 40
1.0
 10
54.45101968815939
 20
156.3670530957813
 30
0.0
 10
54.45101968825665
 20
156.3670530957813
 30
0.0
 10
54.48030901015736
 20
156.3670530957813
 30
0.0
 10
54.59746629766818
 20
156.3670530957813
 30
0.0
 10
54.68030901013765
 20
156.3670530957813
 30
0.0
 10
54.75101968835269
 20
156.3670530957813
 30
0.0
  0
SPLINE
  5
8B
330
1F
100
AcDbEntity
  8
0
  6
Continuous
 62
     7
370
    18
100
AcDbSpline
210
0.0
220
0.0
230
1.0
 70
     8
 71
     3
 72
    14
 73
    10
 74
     0
 42
0.000000001
 43
0.00000001
 40
0.0
 40
0.0
 40
0.0
 40
0.0
 40
0.25
 40
0.25
 40
0.5
 40
0.5
 40
0.75
 40
0.75
 40
1.0
 40
1.0
 40
1.0
 40
1.0
 10
54.45101968854527
 20
156.3670530947936
 30
0.0
 10
54.45101968880721
 20
154.9084036830759
 30
0.0
 10
55.03051150171171
 20
153.5093866894966
 30
0.0
 10
57.09335328257676
 20
151.4465449087641
 30
0.0
 10
58.49237027619333
 20
150.8670530959495
 30
0.0
 10
61.40966909962879
 20
150.8670530956131
 30
0.0
 10
62.808686093379
 20
151.4465449081051
 30
0.0
 10
64.87152787471977
 20
153.5093866883618
 30
0.0
 10
65.45101968794692
 20
154.9084036818075
 30
0.0
 10
65.45101968854526
 20
156.3670530935252
 30
0.0
  0
SPLINE
  5
8C
330
1F
100
AcDbEntity
  8
0
  6
Continuous
 62
     7
370
    18
100
AcDbSpline
210
0.0
220
0.0
230
1.0
 70
    24
 71
     3
 72
    10
 73
     6
 74
     0
 42
0.000000001
 43
0.00000001
 40
0.0
 40
0.0
 40
0.0
 40
0.0
 40
0.5
 40
0.5
 40
1.0
 40
1.0
 40
1.0
 40
1.0
 10
65.15101968873783
 20
156.3670530957813
 30
0.0
 10
65.22173036695288
 20
156.3670530957813
 30
0.0
 10
65.30457307942234
 20
156.3670530957813
 30
0.0
 10
65.42173036693318
 20
156.3670530957813
 30
0.0
 10
65.45101968883388
 20
156.3670530957813
 30
0.0
 10
65.45101968893114
 20
156.3670530957813
 30
0.0
  0
SPLINE
  5
8D
330
1F
100
AcDbEntity
  8
0
  6
Continuous
 62
     7
370
    18
100
AcDbSpline
210
0.0
220
0.0
230
1.0
 70
     8
 71
     3
 72
    12
 73
     8
 74
     0
 42
0.000000001
 43
0.00000001
 40
0.0
 40
0.0
 40
0.0
 40
0.0
 40
0.3333333333333332
 40
0.3333333333333332
 40
0.6666666666666665
 40
0.6666666666666665
 40
0.9999999999999999
 40
0.9999999999999999
 40
0.9999999999999999
 40
0.9999999999999999
 10
65.45101968854526
 20
156.3670530935252
 30
0.0
 10
65.45101968935118
 20
158.3317269616483
 30
0.0
 10
64.40247716952527
 20
160.1478558813168
 30
0.0
 10
60.99956221017043
 20
162.1125297503706
 30
0.0
 10
58.90247716927693
 20
162.1125297508007
 30
0.0
 10
55.49956220911617
 20
160.1478558831429
 30
0.0
 10
54.45101968854527
 20
158.3317269639045
 30
0.0
 10
54.45101968854527
 20
156.3670530957813
 30
0.0
  0
SPLINE
  5
8E
330
1F
100
AcDbEntity
  8
0
  6
Continuous
 62
     7
370
    18
100
AcDbSpline
210
0.0
220
0.0
230
1.0
 70
     8
 71
     3
 72
    33
 73
    29
 74
     0
 42
0.000000001
 43
0.00000001
 40
0.0
 40
0.0
 40
0.0
 40
0.0
 40
0.0125326068134496
 40
0.0250361823974898
 40
0.0375300658794424
 40
0.0500336413586776
 40
0.0625662479630028
 40
0.0938388078910986
 40
0.1251113679925474
 40
0.1563839283128947
 40
0.1876564884698984
 40
0.2501259056882397
 40
0.3125953229065812
 40
0.3750647407364132
 40
0.4375341581404724
 40
0.5000035755502354
 40
0.5624729929599984
 40
0.6249424103640576
 40
0.6874118281938897
 40
0.7498812454122311
 40
0.8123506626305724
 40
0.843623222787576
 40
0.8748957831079234
 40
0.9061683432093722
 40
0.9374409031374679
 40
0.9583088818550777
 40
0.9791320209916653
 40
1.0
 40
1.0
 40
1.0
 40
1.0
 10
53.25101969186846
 20
156.3670530957813
 30
0.0
 10
53.25200773248735
 20
156.2792140576634
 30
0.0
 10
53.25398152497274
 20
156.1037394566744
 30
0.0
 10
53.27001405157642
 20
155.841100051948
 30
0.0
 10
53.29562604616743
 20
155.5794774193392
 30
0.0
 10
53.3317524665591
 20
155.3188653793134
 30
0.0
 10
53.40117534743572
 20
154.930316551777
 30
0.0
 10
53.5290705525851
 20
154.4189465696998
 30
0.0
 10
53.75113451271136
 20
153.7989940747835
 30
0.0
 10
54.032552294017
 20
153.2035217210585
 30
0.0
 10
54.48371150406881
 20
152.4511057563015
 30
0.0
 10
55.18291515858126
 20
151.5987390322715
 30
0.0
 10
56.20469080649973
 20
150.7603385739472
 30
0.0
 10
57.37051638923972
 20
150.1371468508208
 30
0.0
 10
58.63548777756498
 20
149.7534353655632
 30
0.0
 10
59.95101968573776
 20
149.6238619665532
 30
0.0
 10
61.26655161075557
 20
149.7534353628433
 30
0.0
 10
62.53152294854574
 20
150.1371468617002
 30
0.0
 10
63.69734871658108
 20
150.7603385331494
 30
0.0
 10
64.7191236738532
 20
151.5987391845833
 30
0.0
 10
65.41832947662789
 20
152.4511053078333
 30
0.0
 10
65.86948430185267
 20
153.2035224988627
 30
0.0
 10
66.1509154798718
 20
153.7989911060235
 30
0.0
 10
66.3729291437562
 20
154.4189576669354
 30
0.0
 10
66.51519065050064
 20
154.9870549057574
 30
0.0
 10
66.59818346982651
 20
155.4918858808791
 30
0.0
 10
66.64279745662364
 20
155.9285363985359
 30
0.0
 10
66.6482769779005
 20
156.2207760929259
 30
0.0
 10
66.65101968522207
 20
156.3670530957813
 30
0.0
  0
SPLINE
  5
8F
330
1F
100
AcDbEntity
  8
0
  6
Continuous
 62
     7
370
    18
100
AcDbSpline
210
0.0
220
0.0
230
1.0
 70
     8
 71
     3
 72
    33
 73
    29
 74
     0
 42
0.000000001
 43
0.00000001
 40
0.0
 40
0.0
 40
0.0
 40
0.0
 40
0.0125326068134496
 40
0.0250361823974898
 40
0.0375300658794425
 40
0.0500336413586776
 40
0.0625662479630028
 40
0.0938388078910984
 40
0.1251113679925473
 40
0.1563839283128946
 40
0.1876564884698983
 40
0.2501259056882397
 40
0.312595322906581
 40
0.3750647407364131
 40
0.4375341581404723
 40
0.5000035755502352
 40
0.5624729929599982
 40
0.6249424103640574
 40
0.6874118281938895
 40
0.7498812454122309
 40
0.8123506626305722
 40
0.843623222787576
 40
0.8748957831079233
 40
0.9061683432093721
 40
0.9374409031374678
 40
0.9583088818550778
 40
0.9791320209916653
 40
1.0
 40
1.0
 40
1.0
 40
1.0
 10
66.65101968522207
 20
156.3670530957813
 30
0.0
 10
66.65003164460317
 20
156.4548921338993
 30
0.0
 10
66.64805785211779
 20
156.6303667348882
 30
0.0
 10
66.6320253255141
 20
156.8930061396147
 30
0.0
 10
66.6064133309231
 20
157.1546287722234
 30
0.0
 10
66.57028691053142
 20
157.4152408122493
 30
0.0
 10
66.5008640296548
 20
157.8037896397857
 30
0.0
 10
66.37296882450542
 20
158.3151596218629
 30
0.0
 10
66.15090486437917
 20
158.9351121167792
 30
0.0
 10
65.86948708307352
 20
159.5305844705042
 30
0.0
 10
65.41832787302171
 20
160.2830004352611
 30
0.0
 10
64.71912421850926
 20
161.1353671592912
 30
0.0
 10
63.6973485705908
 20
161.9737676176154
 30
0.0
 10
62.53152298785081
 20
162.5969593407419
 30
0.0
 10
61.26655159952555
 20
162.9806708259995
 30
0.0
 10
59.95101969135277
 20
163.1102442250095
 30
0.0
 10
58.63548776633495
 20
162.9806708287193
 30
0.0
 10
57.3705164285448
 20
162.5969593298625
 30
0.0
 10
56.20469066050945
 20
161.9737676584133
 30
0.0
 10
55.18291570323733
 20
161.1353670069793
 30
0.0
 10
54.48370990046264
 20
160.2830008837294
 30
0.0
 10
54.03255507523787
 20
159.5305836926999
 30
0.0
 10
53.75112389721873
 20
158.9351150855392
 30
0.0
 10
53.52911023333433
 20
158.3151485246273
 30
0.0
 10
53.38684872658989
 20
157.7470512858052
 30
0.0
 10
53.30385590726402
 20
157.2422203106836
 30
0.0
 10
53.25924192046688
 20
156.8055697930267
 30
0.0
 10
53.25376239919004
 20
156.5133300986368
 30
0.0
 10
53.25101969186846
 20
156.3670530957813
 30
0.0
  0
SPLINE
  5
90
330
1F
100
AcDbEntity
  8
0
  6
Continuous
 62
     7
370
    18
100
AcDbSpline
210
0.0
220
0.0
230
1.0
 70
    24
 71
     3
 72
    10
 73
     6
 74
     0
 42
0.000000001
 43
0.00000001
 40
0.0
 40
0.0
 40
0.0
 40
0.0
 40
0.5
 40
0.5
 40
1.0
 40
1.0
 40
1.0
 40
1.0
 10
66.65101968873783
 20
156.3670530957813
 30
0.0
 10
66.72173036695288
 20
156.3670530957813
 30
0.0
 10
66.80457307942234
 20
156.3670530957813
 30
0.0
 10
66.92173036693316
 20
156.3670530957813
 30
0.0
 10
66.95101968883388
 20
156.3670530957813
 30
0.0
 10
66.95101968893114
 20
156.3670530957813
 30
0.0
  0
SPLINE
  5
91
330
1F
100
AcDbEntity
  8
0
  6
Continuous
 62
     7
370
    18
100
AcDbSpline
210
0.0
220
0.0
230
1.0
 70
     8
 71
     3
 72
    12
 73
     8
 74
     0
 42
0.000000001
 43
0.00000001
 40
0.0
 40
0.0
 40
0.0
 40
0.0
 40
0.3333333333333332
 40
0.3333333333333332
 40
0.6666666666666665
 40
0.6666666666666665
 40
0.9999999999999999
 40
0.9999999999999999
 40
0.9999999999999999
 40
0.9999999999999999
 10
66.95101968854526
 20
156.3670530929099
 30
0.0
 10
66.95101968957098
 20
158.8675471068848
 30
0.0
 10
65.61651102797435
 20
161.1789839137356
 30
0.0
 10
61.28552835243184
 20
163.6794779288949
 30
0.0
 10
58.61651102765831
 20
163.6794779294423
 30
0.0
 10
54.28552835109006
 20
161.1789839160597
 30
0.0
 10
52.95101968854527
 20
158.8675471097562
 30
0.0
 10
52.95101968854527
 20
156.3670530957813
 30
0.0
  0
SPLINE
  5
92
330
1F
100
AcDbEntity
  8
0
  6
Continuous
 62
     7
370
    18
100
AcDbSpline
210
0.0
220
0.0
230
1.0
 70
    24
 71
     3
 72
    10
 73
     6
 74
     0
 42
0.000000001
 43
0.00000001
 40
0.0
 40
0.0
 40
0.0
 40
0.0
 40
0.5
 40
0.5
 40
1.0
 40
1.0
 40
1.0
 40
1.0
 10
52.95101968815939
 20
156.3670530957813
 30
0.0
 10
52.95101968825665
 20
156.3670530957813
 30
0.0
 10
52.98030901015736
 20
156.3670530957813
 30
0.0
 10
53.09746629766818
 20
156.3670530957813
 30
0.0
 10
53.18030901013766
 20
156.3670530957813
 30
0.0
 10
53.25101968835269
 20
156.3670530957813
 30
0.0
  0
SPLINE
  5
93
330
1F
100
AcDbEntity
  8
0
  6
Continuous
 62
     7
370
    18
100
AcDbSpline
210
0.0
220
0.0
230
1.0
 70
     8
 71
     3
 72
    14
 73
    10
 74
     0
 42
0.000000001
 43
0.00000001
 40
0.0
 40
0.0
 40
0.0
 40
0.0
 40
0.25
 40
0.25
 40
0.5
 40
0.5
 40
0.75
 40
0.75
 40
1.0
 40
1.0
 40
1.0
 40
1.0
 10
52.95101968854527
 20
156.3670530945242
 30
0.0
 10
52.95101968887866
 20
154.5105902068835
 30
0.0
 10
53.68855472348439
 20
152.7300231241462
 30
0.0
 10
56.31398971731262
 20
150.1045881304867
 30
0.0
 10
58.09455680009736
 20
149.3670530959954
 30
0.0
 10
61.80748257537884
 20
149.3670530955673
 30
0.0
 10
63.58804965833366
 20
150.1045881296479
 30
0.0
 10
66.21348465276738
 20
152.7300231227019
 30
0.0
 10
66.95101968778373
 20
154.5105902052691
 30
0.0
 10
66.95101968854526
 20
156.3670530929099
 30
0.0
  0
SPLINE
  5
94
330
1F
100
AcDbEntity
  8
0
  6
Continuous
 62
     7
370
    18
100
AcDbSpline
210
0.0
220
0.0
230
1.0
 70
     8
 71
     3
 72
    10
 73
     6
 74
     0
 42
0.000000001
 43
0.00000001
 40
0.0
 40
0.0
 40
0.0
 40
0.0
 40
0.5
 40
0.5
 40
1.0
 40
1.0
 40
1.0
 40
1.0
 10
60.69175783888741
 20
149.1160186648062
 30
0.0
 10
60.68469149104302
 20
149.1848964667293
 30
0.0
 10
60.68609034644781
 20
149.2649378821388
 30
0.0
 10
60.7126902837845
 20
149.3803662586982
 30
0.0
 10
60.73685648409027
 20
149.4112624308467
 30
0.0
 10
60.76042773450855
 20
149.4140063807067
 30
0.0
  0
SPLINE
  5
95
330
1F
100
AcDbEntity
  8
0
  6
Continuous
 62
     7
370
    18
100
AcDbSpline
210
0.0
220
0.0
230
1.0
 70
     8
 71
     3
 72
     8
 73
     4
 74
     0
 42
0.000000001
 43
0.00000001
 40
0.0
 40
0.0
 40
0.0
 40
0.0
 40
1.0
 40
1.0
 40
1.0
 40
1.0
 10
59.17602028668077
 20
149.3897588770666
 30
0.0
 10
59.16535024700791
 20
149.4050211365232
 30
0.0
 10
59.15339707588477
 20
149.412634431586
 30
0.0
 10
59.14161146154527
 20
149.4140064017813
 30
0.0
  0
SPLINE
  5
96
330
1F
100
AcDbEntity
  8
0
  6
Continuous
 62
     7
370
    18
100
AcDbSpline
210
0.0
220
0.0
230
1.0
 70
     8
 71
     3
 72
    16
 73
    12
 74
     0
 42
0.000000001
 43
0.00000001
 40
0.0
 40
0.0
 40
0.0
 40
0.0
 40
0.0864429162688004
 40
0.1715998848054072
 40
0.2555040849425257
 40
0.3381902047989417
 40
0.4196944884322913
 40
0.5000547796939435
 40
0.6618863547864201
 40
0.8284401449971459
 40
1.0
 40
1.0
 40
1.0
 40
1.0
 10
59.2102813733195
 20
149.1160186875688
 30
0.0
 10
59.25126995371229
 20
149.1108536705897
 30
0.0
 10
59.33263735751285
 20
149.1006004727928
 30
0.0
 10
59.45705254927852
 20
149.0884738263715
 30
0.0
 10
59.58136994016169
 20
149.0788969852903
 30
0.0
 10
59.70536199161632
 20
149.0720837046253
 30
0.0
 10
59.82849666499175
 20
149.0679830890135
 30
0.0
 10
59.99209814512929
 20
149.066113567982
 30
0.0
 10
60.19867036416828
 20
149.0709422333754
 30
0.0
 10
60.4482859071203
 20
149.086905929333
 30
0.0
 10
60.60980350289751
 20
149.1062191186693
 30
0.0
 10
60.69175800459898
 20
149.1160186875688
 30
0.0
  0
SPLINE
  5
97
330
1F
100
AcDbEntity
  8
0
  6
Continuous
 62
     7
370
    18
100
AcDbSpline
210
0.0
220
0.0
230
1.0
 70
    24
 71
     3
 72
    12
 73
     8
 74
     0
 42
0.000000001
 43
0.00000001
 40
0.0
 40
0.0
 40
0.0
 40
0.0
 40
0.3333333333333333
 40
0.3333333333333333
 40
0.6666666666666665
 40
0.6666666666666665
 40
0.9999999999999999
 40
0.9999999999999999
 40
0.9999999999999999
 40
0.9999999999999999
 10
57.60101968854526
 20
147.0670530957813
 30
0.0
 10
57.60101968854526
 20
147.0670530957813
 30
0.0
 10
58.04903331097101
 20
147.0670530957813
 30
0.0
 10
59.50300606667607
 20
147.0670530957812
 30
0.0
 10
60.39903331142147
 20
147.0670530957812
 30
0.0
 10
61.85300606678217
 20
147.0670530957812
 30
0.0
 10
62.30101968888961
 20
147.0670530957812
 30
0.0
 10
62.30101968854526
 20
147.0670530957812
 30
0.0
  0
SPLINE
  5
98
330
1F
100
AcDbEntity
  8
0
  6
Continuous
 62
     7
370
    18
100
AcDbSpline
210
0.0
220
0.0
230
1.0
 70
    24
 71
     3
 72
    12
 73
     8
 74
     0
 42
0.000000001
 43
0.00000001
 40
0.0
 40
0.0
 40
0.0
 40
0.0
 40
0.3333333333333333
 40
0.3333333333333333
 40
0.6666666666666665
 40
0.6666666666666665
 40
0.9999999999999999
 40
0.9999999999999999
 40
0.9999999999999999
 40
0.9999999999999999
 10
57.60101968854526
 20
144.5670530957813
 30
0.0
 10
57.60101968854526
 20
144.5670530957813
 30
0.0
 10
58.04903331097101
 20
144.5670530957813
 30
0.0
 10
59.50300606667607
 20
144.5670530957813
 30
0.0
 10
60.39903331142147
 20
144.5670530957813
 30
0.0
 10
61.85300606678217
 20
144.5670530957813
 30
0.0
 10
62.30101968888961
 20
144.5670530957813
 30
0.0
 10
62.30101968854526
 20
144.5670530957813
 30
0.0
  0
SPLINE
  5
99
330
1F
100
AcDbEntity
  8
0
  6
Continuous
 62
     7
370
    18
100
AcDbSpline
210
0.0
220
0.0
230
1.0
 70
    24
 71
     3
 72
    12
 73
     8
 74
     0
 42
0.000000001
 43
0.00000001
 40
0.0
 40
0.0
 40
0.0
 40
0.0
 40
0.3333333333333332
 40
0.3333333333333332
 40
0.6666666666666665
 40
0.6666666666666665
 40
0.9999999999999999
 40
0.9999999999999999
 40
0.9999999999999999
 40
0.9999999999999999
 10
61.95101968854527
 20
142.0670530957813
 30
0.0
 10
61.95101968883833
 20
142.0670530957813
 30
0.0
 10
61.56973149981071
 20
142.0670530957813
 30
0.0
 10
60.33230787822714
 20
142.0670530957813
 30
0.0
 10
59.56973149972042
 20
142.0670530957813
 30
0.0
 10
58.33230787784377
 20
142.0670530957813
 30
0.0
 10
57.95101968854526
 20
142.0670530957814
 30
0.0
 10
57.95101968854526
 20
142.0670530957814
 30
0.0
  0
LINE
  5
9A
330
1F
100
AcDbEntity
  8
0
  6
Continuous
 62
     7
370
    18
100
AcDbLine
 10
60.7604277144
 20
149.4140064386
 30
0.0
 11
60.9450856978
 21
149.4596212214
 31
0.0
  0
LINE
  5
9B
330
1F
100
AcDbEntity
  8
0
  6
Continuous
 62
     7
370
    18
100
AcDbLine
 10
62.1010197616
 20
147.793401782
 30
0.0
 11
68.4510201505
 21
151.4595759144
 31
0.0
  0
LINE
  5
9C
330
1F
100
AcDbEntity
  8
0
  6
Continuous
 62
     7
370
    18
100
AcDbLine
 10
51.4510201579
 20
151.4595759144
 30
0.0
 11
57.8010196155
 21
147.793401782
 31
0.0
  0
LINE
  5
9D
330
1F
100
AcDbEntity
  8
0
  6
Continuous
 62
     7
370
    18
100
AcDbLine
 10
51.4510192266
 20
161.2745302772
 30
0.0
 11
51.4510201579
 21
151.4595759144
 31
0.0
  0
LINE
  5
9E
330
1F
100
AcDbEntity
  8
0
  6
Continuous
 62
     7
370
    18
100
AcDbLine
 10
59.9510196864
 20
166.1820074586
 30
0.0
 11
51.4510192266
 21
161.2745302772
 31
0.0
  0
LINE
  5
9F
330
1F
100
AcDbEntity
  8
0
  6
Continuous
 62
     7
370
    18
100
AcDbLine
 10
68.4510201505
 20
151.4595759144
 30
0.0
 11
68.4510192192
 21
161.2745302772
 31
0.0
  0
LINE
  5
A0
330
1F
100
AcDbEntity
  8
0
  6
Continuous
 62
     7
370
    18
100
AcDbLine
 10
68.4510192192
 20
161.2745302772
 30
0.0
 11
59.9510196864
 21
166.1820074586
 31
0.0
  0
SPLINE
  5
A1
330
1F
100
AcDbEntity
  8
0
  6
Continuous
 62
     8
370
    18
100
AcDbSpline
210
0.0
220
0.0
230
1.0
 70
     8
 71
     3
 72
    10
 73
     6
 74
     0
 42
0.000000001
 43
0.00000001
 40
0.0
 40
0.0
 40
0.0
 40
0.0
 40
0.5
 40
0.5
 40
1.0
 40
1.0
 40
1.0
 40
1.0
 10
59.21028137254526
 20
149.1160186867813
 30
0.0
 10
59.21558113865154
 20
149.1676770613471
 30
0.0
 10
59.21647939205502
 20
149.2254584891837
 30
0.0
 10
59.20472838458238
 20
149.3258539687931
 30
0.0
 10
59.19202537226561
 20
149.3668654505835
 30
0.0
 10
59.17602028668077
 20
149.3897588770666
 30
0.0
  0
SPLINE
  5
A2
330
1F
100
AcDbEntity
  8
0
  6
Continuous
 62
     8
370
    18
100
AcDbSpline
210
0.0
220
0.0
230
1.0
 70
     8
 71
     3
 72
    11
 73
     7
 74
     0
 42
0.000000001
 43
0.00000001
 40
0.0
 40
0.0
 40
0.0
 40
0.0
 40
0.3386679565311906
 40
0.6830979415508188
 40
0.8609607222684013
 40
0.9999999999999999
 40
0.9999999999999999
 40
0.9999999999999999
 40
0.9999999999999999
 10
60.69175786668296
 20
149.1160186050172
 30
0.0
 10
60.79084330935247
 20
149.1331384484462
 30
0.0
 10
60.99070001448179
 20
149.1676694088767
 30
0.0
 10
61.20334143759736
 20
149.2826119085005
 30
0.0
 10
61.33654094663753
 20
149.4114187338531
 30
0.0
 10
61.38217638984435
 20
149.4921053738611
 30
0.0
 10
61.40219872448454
 20
149.5275062551434
 30
0.0
  0
LINE
  5
A3
330
1F
100
AcDbEntity
  8
0
  6
Continuous
 62
     8
370
    18
100
AcDbLine
 10
58.9207972922
 20
149.4685209399
 30
0.0
 11
59.1416113717
 21
149.4140064386
 31
0.0
  0
SPLINE
  5
A4
330
1F
100
AcDbEntity
  8
0
  6
Continuous
 62
     8
370
    18
100
AcDbSpline
210
0.0
220
0.0
230
1.0
 70
     8
 71
     3
 72
    11
 73
     7
 74
     0
 42
0.000000001
 43
0.00000001
 40
0.0
 40
0.0
 40
0.0
 40
0.0
 40
0.1394358981503701
 40
0.3174492096156306
 40
0.6619685099982178
 40
1.0
 40
1.0
 40
1.0
 40
1.0
 10
58.4998311065496
 20
149.5275095147724
 30
0.0
 10
58.51991970986579
 20
149.49201476332
 30
0.0
 10
58.56565478476113
 20
149.4112050081313
 30
0.0
 10
58.69904802274028
 20
149.2823510439681
 30
0.0
 10
58.91167710589444
 20
149.1675909319375
 30
0.0
 10
59.11137933181054
 20
149.1331000994217
 30
0.0
 10
59.21028133578459
 20
149.1160186050172
 30
0.0
  0
INSERT
  5
AA
330
1F
100
AcDbEntity
  8
0
  6
Continuous
 62
     7
370
     0
100
AcDbBlockReference
  2
SW_NOTE_0
 10
71.1136631331
 20
172.5318023139
 30
0.0
  0
LEADER
  5
AC
330
1F
100
AcDbEntity
  8
0
  6
Continuous
 62
     7
370
     0
100
AcDbLeader
  3
SLDDIMSTYLE0
 76
     2
 10
61.1520429945
 20
158.0897088996
 30
0.0
 10
71.1136631331
 20
172.5318023139
 30
0.0
  0
INSERT
  5
B2
330
1F
100
AcDbEntity
  8
0
  6
Continuous
 62
     7
370
     0
100
AcDbBlockReference
  2
SW_NOTE_1
 10
56.916035734
 20
133.8981156236
 30
0.0
  0
LEADER
  5
B3
330
1F
100
AcDbEntity
  8
0
  6
Continuous
 62
     7
370
     0
100
AcDbLeader
  3
SLDDIMSTYLE0
 76
     2
 10
60.5397048601
 20
145.9288082581
 30
0.0
 10
56.916035734
 20
133.8981156236
 30
0.0
  0
INSERT
  5
BF
330
1F
100
AcDbEntity
  8
0
  6
Continuous
 62
     7
370
    18
100
AcDbBlockReference
  2
SW_CENTERMARKSYMBOL_0
 10
59.9510196885
 20
156.3670530958
 30
0.0
  0
LINE
  5
C0
330
1F
100
AcDbEntity
  8
0
  6
Continuous
 62
     7
370
    18
100
AcDbLine
 10
114.0626498595
 20
163.3670533118
 30
0.0
 11
112.662650375
 21
163.3670533118
 31
0.0
  0
LINE
  5
C1
330
1F
100
AcDbEntity
  8
0
  6
Continuous
 62
     7
370
    18
100
AcDbLine
 10
112.8126398757
 20
149.3670528797
 30
0.0
 11
114.0626498595
 21
149.3670528797
 31
0.0
  0
LINE
  5
C2
330
1F
100
AcDbEntity
  8
0
  6
Continuous
 62
     7
370
    18
100
AcDbLine
 10
108.062650273
 20
163.3670533118
 30
0.0
 11
106.6626503229
 21
163.3670533118
 31
0.0
  0
LINE
  5
C3
330
1F
100
AcDbEntity
  8
0
  6
Continuous
 62
     7
370
    18
100
AcDbLine
 10
106.6626503229
 20
149.3670528797
 30
0.0
 11
107.9126603067
 21
149.3670528797
 31
0.0
  0
SPLINE
  5
C4
330
1F
100
AcDbEntity
  8
0
  6
Continuous
 62
     7
370
    18
100
AcDbSpline
210
0.0
220
0.0
230
1.0
 70
     8
 71
     3
 72
    13
 73
     9
 74
     0
 42
0.000000001
 43
0.00000001
 40
0.0
 40
0.0
 40
0.0
 40
0.0
 40
0.2394574322037146
 40
0.368360978420422
 40
0.4999993869342706
 40
0.6316385653189425
 40
0.7605425677962853
 40
0.9999999999999999
 40
0.9999999999999999
 40
0.9999999999999999
 40
0.9999999999999999
 10
112.6626503750321
 20
163.3670533118482
 30
0.0
 10
112.6249113768195
 20
163.3630458037029
 30
0.0
 10
112.5668569068526
 20
163.356880993499
 30
0.0
 10
112.4970119144428
 20
163.3194720528425
 30
0.0
 10
112.4489501834293
 20
163.2807533451551
 30
0.0
 10
112.4102318837322
 20
163.2326912952677
 30
0.0
 10
112.3728220077174
 20
163.1628465759276
 30
0.0
 10
112.3666573544758
 20
163.1047919457563
 30
0.0
 10
112.3626499533293
 20
163.0670528901453
 30
0.0
  0
SPLINE
  5
C5
330
1F
100
AcDbEntity
  8
0
  6
Continuous
 62
     7
370
    18
100
AcDbSpline
210
0.0
220
0.0
230
1.0
 70
     8
 71
     3
 72
    13
 73
     9
 74
     0
 42
0.000000001
 43
0.00000001
 40
0.0
 40
0.0
 40
0.0
 40
0.0
 40
0.2394575904124695
 40
0.368361221795335
 40
0.5000004871535884
 40
0.6316397525118418
 40
0.7605433838947073
 40
1.0
 40
1.0
 40
1.0
 40
1.0
 10
108.3626502290007
 20
163.0670528901453
 30
0.0
 10
108.3586427368963
 20
163.1047919003185
 30
0.0
 10
108.3524779513682
 20
163.1628463886845
 30
0.0
 10
108.3150688320323
 20
163.232691398357
 30
0.0
 10
108.276350415774
 20
163.2807534984863
 30
0.0
 10
108.2282883153151
 20
163.3194719152202
 30
0.0
 10
108.1584434428025
 20
163.3568809596822
 30
0.0
 10
108.1003891210738
 20
163.3630457938384
 30
0.0
 10
108.0626502729592
 20
163.3670533118482
 30
0.0
  0
SPLINE
  5
C6
330
1F
100
AcDbEntity
  8
0
  6
Continuous
 62
     7
370
    18
100
AcDbSpline
210
0.0
220
0.0
230
1.0
 70
     8
 71
     3
 72
    13
 73
     9
 74
     0
 42
0.000000001
 43
0.00000001
 40
0.0
 40
0.0
 40
0.0
 40
0.0
 40
0.2394574322037146
 40
0.3683614346810574
 40
0.5000006130657293
 40
0.6316390215795779
 40
0.7605425677962853
 40
0.9999999999999999
 40
0.9999999999999999
 40
0.9999999999999999
 40
0.9999999999999999
 10
114.3626502811548
 20
163.0670528901453
 30
0.0
 10
114.3586428800083
 20
163.1047919457563
 30
0.0
 10
114.3524782267666
 20
163.1628465759276
 30
0.0
 10
114.3150683507519
 20
163.2326912952677
 30
0.0
 10
114.2763500510547
 20
163.2807533451551
 30
0.0
 10
114.2282883200413
 20
163.3194720528425
 30
0.0
 10
114.1584433276315
 20
163.356880993499
 30
0.0
 10
114.1003888576646
 20
163.3630458037029
 30
0.0
 10
114.062649859452
 20
163.3670533118482
 30
0.0
  0
SPLINE
  5
C7
330
1F
100
AcDbEntity
  8
0
  6
Continuous
 62
     7
370
    18
100
AcDbSpline
210
0.0
220
0.0
230
1.0
 70
     8
 71
     3
 72
    13
 73
     9
 74
     0
 42
0.000000001
 43
0.00000001
 40
0.0
 40
0.0
 40
0.0
 40
0.0
 40
0.2394574322037146
 40
0.368360978420422
 40
0.4999993869342706
 40
0.6316385653189425
 40
0.7605425677962853
 40
0.9999999999999999
 40
0.9999999999999999
 40
0.9999999999999999
 40
0.9999999999999999
 10
114.062649859452
 20
149.3670528797145
 30
0.0
 10
114.1003888576646
 20
149.3710603878598
 30
0.0
 10
114.1584433276315
 20
149.3772251980636
 30
0.0
 10
114.2282883200413
 20
149.4146341387202
 30
0.0
 10
114.2763500510547
 20
149.4533528464076
 30
0.0
 10
114.3150683507519
 20
149.501414896295
 30
0.0
 10
114.3524782267666
 20
149.5712596156351
 30
0.0
 10
114.3586428800083
 20
149.6293142458064
 30
0.0
 10
114.3626502811548
 20
149.6670533014174
 30
0.0
  0
SPLINE
  5
C8
330
1F
100
AcDbEntity
  8
0
  6
Continuous
 62
     7
370
    18
100
AcDbSpline
210
0.0
220
0.0
230
1.0
 70
     8
 71
     3
 72
    13
 73
     9
 74
     0
 42
0.000000001
 43
0.00000001
 40
0.0
 40
0.0
 40
0.0
 40
0.0
 40
0.2394572503640339
 40
0.368360798735251
 40
0.500000604708678
 40
0.6316390154227473
 40
0.7605425637939643
 40
1.0
 40
1.0
 40
1.0
 40
1.0
 10
106.3626503668365
 20
149.6670533014174
 30
0.0
 10
106.3666576775043
 20
149.6293143015199
 30
0.0
 10
106.3728221855998
 20
149.5712598131944
 30
0.0
 10
106.4102312485187
 20
149.501414612784
 30
0.0
 10
106.4489501928709
 20
149.453353012972
 30
0.0
 10
106.4970118269971
 20
149.4146341119593
 30
0.0
 10
106.5668568725795
 20
149.3772252116223
 30
0.0
 10
106.6249113317098
 20
149.3710603932014
 30
0.0
 10
106.6626503228781
 20
149.3670528797145
 30
0.0
  0
SPLINE
  5
C9
330
1F
100
AcDbEntity
  8
0
  6
Continuous
 62
     7
370
    18
100
AcDbSpline
210
0.0
220
0.0
230
1.0
 70
     8
 71
     3
 72
    13
 73
     9
 74
     0
 42
0.000000001
 43
0.00000001
 40
0.0
 40
0.0
 40
0.0
 40
0.0
 40
0.2394574362060356
 40
0.3683609845772527
 40
0.4999993952913219
 40
0.631639201264749
 40
0.7605427496359661
 40
1.0
 40
1.0
 40
1.0
 40
1.0
 10
106.6626503228781
 20
163.3670533118482
 30
0.0
 10
106.6249113317098
 20
163.3630457983612
 30
0.0
 10
106.5668568725795
 20
163.3568809799403
 30
0.0
 10
106.4970118269971
 20
163.3194720796033
 30
0.0
 10
106.4489501928709
 20
163.2807531785906
 30
0.0
 10
106.4102312485187
 20
163.2326915787787
 30
0.0
 10
106.3728221855998
 20
163.1628463783682
 30
0.0
 10
106.3666576775043
 20
163.1047918900427
 30
0.0
 10
106.3626503668365
 20
163.0670528901453
 30
0.0
  0
SPLINE
  5
CA
330
1F
100
AcDbEntity
  8
0
  6
Continuous
 62
     7
370
    18
100
AcDbSpline
210
0.0
220
0.0
230
1.0
 70
     8
 71
     3
 72
    13
 73
     9
 74
     0
 42
0.000000001
 43
0.00000001
 40
0.0
 40
0.0
 40
0.0
 40
0.0
 40
0.2394566593578912
 40
0.3683605921757337
 40
0.4999999323948229
 40
0.6316392726139121
 40
0.7605434335631049
 40
1.0
 40
1.0
 40
1.0
 40
1.0
 10
99.36265015076965
 20
161.5670531099374
 30
0.0
 10
99.35864278236653
 20
161.6047919890651
 30
0.0
 10
99.35247817369789
 20
161.662846402339
 30
0.0
 10
99.31506870128212
 20
161.7326910799852
 30
0.0
 10
99.27635037522573
 20
161.780753300144
 30
0.0
 10
99.22828810704507
 20
161.8194715708085
 30
0.0
 10
99.15844360230228
 20
161.856881460365
 30
0.0
 10
99.10038910195912
 20
161.8630458457498
 30
0.0
 10
99.06265019472808
 20
161.867053065979
 30
0.0
  0
SPLINE
  5
CB
330
1F
100
AcDbEntity
  8
0
  6
Continuous
 62
     7
370
    18
100
AcDbSpline
210
0.0
220
0.0
230
1.0
 70
     8
 71
     3
 72
    13
 73
     9
 74
     0
 42
0.000000001
 43
0.00000001
 40
0.0
 40
0.0
 40
0.0
 40
0.0
 40
0.2394565664368951
 40
0.3683607273860878
 40
0.500000067605177
 40
0.6316394078242663
 40
0.7605433406421088
 40
1.0
 40
1.0
 40
1.0
 40
1.0
 10
99.06265019472808
 20
150.8670531255837
 30
0.0
 10
99.10038910195912
 20
150.8710603458129
 30
0.0
 10
99.15844360230228
 20
150.8772247311977
 30
0.0
 10
99.22828810704507
 20
150.9146346207541
 30
0.0
 10
99.27635037522573
 20
150.9533528914187
 30
0.0
 10
99.31506870128212
 20
151.0014151115774
 30
0.0
 10
99.35247817369789
 20
151.0712597892236
 30
0.0
 10
99.35864278236653
 20
151.1293142024975
 30
0.0
 10
99.36265015076965
 20
151.1670530816252
 30
0.0
  0
SPLINE
  5
CC
330
1F
100
AcDbEntity
  8
0
  6
Continuous
 62
     7
370
    18
100
AcDbSpline
210
0.0
220
0.0
230
1.0
 70
     8
 71
     3
 72
    13
 73
     9
 74
     0
 42
0.000000001
 43
0.00000001
 40
0.0
 40
0.0
 40
0.0
 40
0.0
 40
0.2394565340598923
 40
0.3683606775799101
 40
0.4999999999999999
 40
0.6316393224200898
 40
0.7605434659401077
 40
1.0
 40
1.0
 40
1.0
 40
1.0
 10
97.66265024464697
 20
161.867053065979
 30
0.0
 10
97.62491133644451
 20
161.8630458462265
 30
0.0
 10
97.56685683460698
 20
161.8568814615749
 30
0.0
 10
97.49701233719676
 20
161.8194715684204
 30
0.0
 10
97.44895004508624
 20
161.7807533094982
 30
0.0
 10
97.41023178616398
 20
161.7326910173876
 30
0.0
 10
97.37282189300947
 20
161.6628465199774
 30
0.0
 10
97.36665750835796
 20
161.6047920181399
 30
0.0
 10
97.3626502886054
 20
161.5670531099374
 30
0.0
  0
SPLINE
  5
CD
330
1F
100
AcDbEntity
  8
0
  6
Continuous
 62
     7
370
    18
100
AcDbSpline
210
0.0
220
0.0
230
1.0
 70
     8
 71
     3
 72
    13
 73
     9
 74
     0
 42
0.000000001
 43
0.00000001
 40
0.0
 40
0.0
 40
0.0
 40
0.0
 40
0.2394565340598923
 40
0.3683606775799101
 40
0.4999999999999999
 40
0.6316393224200898
 40
0.7605434659401077
 40
1.0
 40
1.0
 40
1.0
 40
1.0
 10
97.3626502886054
 20
151.1670530816252
 30
0.0
 10
97.36665750835796
 20
151.1293141734228
 30
0.0
 10
97.37282189300947
 20
151.0712596715852
 30
0.0
 10
97.41023178616398
 20
151.001415174175
 30
0.0
 10
97.44895004508624
 20
150.9533528820645
 30
0.0
 10
97.49701233719676
 20
150.9146346231422
 30
0.0
 10
97.56685683460698
 20
150.8772247299877
 30
0.0
 10
97.62491133644451
 20
150.8710603453362
 30
0.0
 10
97.66265024464697
 20
150.8670531255837
 30
0.0
  0
LINE
  5
CE
330
1F
100
AcDbEntity
  8
0
  6
Continuous
 62
     7
370
    18
100
AcDbLine
 10
99.0626501947
 20
161.867053066
 30
0.0
 11
97.6626502446
 21
161.867053066
 31
0.0
  0
LINE
  5
CF
330
1F
100
AcDbEntity
  8
0
  6
Continuous
 62
     7
370
    18
100
AcDbLine
 10
97.6626502446
 20
150.8670531256
 30
0.0
 11
99.0626501947
 21
150.8670531256
 31
0.0
  0
SPLINE
  5
D0
330
1F
100
AcDbEntity
  8
0
  6
Continuous
 62
     7
370
    18
100
AcDbSpline
210
0.0
220
0.0
230
1.0
 70
     8
 71
     3
 72
    10
 73
     6
 74
     0
 42
0.000000001
 43
0.00000001
 40
0.0
 40
0.0
 40
0.0
 40
0.0
 40
0.1564471102270321
 40
0.451635944685801
 40
1.0
 40
1.0
 40
1.0
 40
1.0
 10
121.2517066955206
 20
160.7979292092557
 30
0.0
 10
121.2435956476898
 20
160.8049113293959
 30
0.0
 10
121.2201804452988
 20
160.8250675113852
 30
0.0
 10
121.1579813228945
 20
160.856344200136
 30
0.0
 10
121.1002070788972
 20
160.8628340675745
 30
0.0
 10
121.0626500755188
 20
160.8670529020662
 30
0.0
  0
SPLINE
  5
D1
330
1F
100
AcDbEntity
  8
0
  6
Continuous
 62
     7
370
    18
100
AcDbSpline
210
0.0
220
0.0
230
1.0
 70
     8
 71
     3
 72
    13
 73
     9
 74
     0
 42
0.000000001
 43
0.00000001
 40
0.0
 40
0.0
 40
0.0
 40
0.0
 40
0.2394573173452735
 40
0.3683591403673424
 40
0.5000012927832058
 40
0.6316397403193129
 40
0.7605428684928158
 40
0.9999999999999999
 40
0.9999999999999999
 40
0.9999999999999999
 40
0.9999999999999999
 10
121.0626500755188
 20
151.8670532894964
 30
0.0
 10
121.1003891733471
 20
151.8710604333835
 30
0.0
 10
121.1584435347189
 20
151.8772246554416
 30
0.0
 10
121.2282881153352
 20
151.9146348793987
 30
0.0
 10
121.2763507746746
 20
151.9533525879071
 30
0.0
 10
121.3150697378025
 20
152.0014146984934
 30
0.0
 10
121.3524780568911
 20
152.0712598825053
 30
0.0
 10
121.3586423749147
 20
152.1293142728436
 30
0.0
 10
121.3626495658991
 20
152.167053245538
 30
0.0
  0
LINE
  5
D2
330
1F
100
AcDbEntity
  8
0
  6
Continuous
 62
     7
370
    18
100
AcDbLine
 10
121.0626500755
 20
160.8670529021
 30
0.0
 11
117.2517349109
 21
160.8670529021
 31
0.0
  0
LINE
  5
D3
330
1F
100
AcDbEntity
  8
0
  6
Continuous
 62
     7
370
    18
100
AcDbLine
 10
116.2340079531
 20
160.8670529021
 30
0.0
 11
114.3626502812
 21
160.8670529021
 31
0.0
  0
LINE
  5
D4
330
1F
100
AcDbEntity
  8
0
  6
Continuous
 62
     7
370
    18
100
AcDbLine
 10
114.3626502812
 20
151.8670532895
 30
0.0
 11
117.7705067306
 21
151.8670532895
 31
0.0
  0
LINE
  5
D5
330
1F
100
AcDbEntity
  8
0
  6
Continuous
 62
     7
370
    18
100
AcDbLine
 10
118.7849219054
 20
151.8670532895
 30
0.0
 11
121.0626500755
 21
151.8670532895
 31
0.0
  0
LINE
  5
D6
330
1F
100
AcDbEntity
  8
0
  6
Continuous
 62
     7
370
    18
100
AcDbLine
 10
112.3626499533
 20
160.8670529021
 30
0.0
 11
108.362650229
 21
160.8670529021
 31
0.0
  0
LINE
  5
D7
330
1F
100
AcDbEntity
  8
0
  6
Continuous
 62
     7
370
    18
100
AcDbLine
 10
106.3626503668
 20
160.26705299
 30
0.0
 11
99.3626501508
 21
160.26705299
 31
0.0
  0
LINE
  5
D8
330
1F
100
AcDbEntity
  8
0
  6
Continuous
 62
     7
370
    18
100
AcDbLine
 10
99.3626501508
 20
152.4670532016
 30
0.0
 11
106.3626503668
 21
152.4670532016
 31
0.0
  0
SPLINE
  5
D9
330
1F
100
AcDbEntity
  8
0
  6
Continuous
 62
     7
370
    18
100
AcDbSpline
210
0.0
220
0.0
230
1.0
 70
     8
 71
     3
 72
    10
 73
     6
 74
     0
 42
0.000000001
 43
0.00000001
 40
0.0
 40
0.0
 40
0.0
 40
0.0
 40
0.2072187718191384
 40
0.4846511757160765
 40
1.0
 40
1.0
 40
1.0
 40
1.0
 10
177.2852490752575
 20
153.467802381673
 30
0.0
 10
177.2951645598257
 20
153.4791756920848
 30
0.0
 10
177.3183552737344
 20
153.5057760247403
 30
0.0
 10
177.3521198521017
 20
153.5715858162114
 30
0.0
 10
177.3585034730887
 20
153.6294429164922
 30
0.0
 10
177.3626531570789
 20
153.6670530257459
 30
0.0
  0
SPLINE
  5
DA
330
1F
100
AcDbEntity
  8
0
  6
Continuous
 62
     7
370
    18
100
AcDbSpline
210
0.0
220
0.0
230
1.0
 70
     8
 71
     3
 72
    10
 73
     6
 74
     0
 42
0.000000001
 43
0.00000001
 40
0.0
 40
0.0
 40
0.0
 40
0.0
 40
0.5153898114939431
 40
0.792844280407175
 40
1.0
 40
1.0
 40
1.0
 40
1.0
 10
177.3626531570789
 20
159.0670531658168
 30
0.0
 10
177.3585031120878
 20
159.1046629846913
 30
0.0
 10
177.352118935759
 20
159.1625196382703
 30
0.0
 10
177.3183595746861
 20
159.2283262328722
 30
0.0
 10
177.2951695409557
 20
159.2549196545701
 30
0.0
 10
177.2852565258381
 20
159.2662875117446
 30
0.0
  0
SPLINE
  5
DB
330
1F
100
AcDbEntity
  8
0
  6
Continuous
 62
     7
370
    18
100
AcDbSpline
210
0.0
220
0.0
230
1.0
 70
     8
 71
     3
 72
    10
 73
     6
 74
     0
 42
0.000000001
 43
0.00000001
 40
0.0
 40
0.0
 40
0.0
 40
0.0
 40
0.5153458234080358
 40
0.7927609002246461
 40
1.0
 40
1.0
 40
1.0
 40
1.0
 10
178.0626501053211
 20
153.6670530257459
 30
0.0
 10
178.0668016705268
 20
153.6294440022366
 30
0.0
 10
178.0731880588903
 20
153.5715897188029
 30
0.0
 10
178.1069391283833
 20
153.5057717859954
 30
0.0
 10
178.1301354103591
 20
153.4791751546707
 30
0.0
 10
178.1400541871426
 20
153.467802381673
 30
0.0
  0
SPLINE
  5
DC
330
1F
100
AcDbEntity
  8
0
  6
Continuous
 62
     7
370
    18
100
AcDbSpline
210
0.0
220
0.0
230
1.0
 70
     8
 71
     3
 72
    10
 73
     6
 74
     0
 42
0.000000001
 43
0.00000001
 40
0.0
 40
0.0
 40
0.0
 40
0.0
 40
0.2072390997753539
 40
0.4846541765919642
 40
1.0
 40
1.0
 40
1.0
 40
1.0
 10
178.1400541871426
 20
159.2663038098897
 30
0.0
 10
178.1301354103591
 20
159.2549310368919
 30
0.0
 10
178.1069391283833
 20
159.2283344055672
 30
0.0
 10
178.0731880588903
 20
159.1625164727597
 30
0.0
 10
178.0668016705268
 20
159.1046621893261
 30
0.0
 10
178.0626501053211
 20
159.0670531658168
 30
0.0
  0
LWPOLYLINE
  5
DD
330
1F
100
AcDbEntity
  8
0
  6
Continuous
 62
     7
370
    18
100
AcDbPolyline
 90
        3
 70
   128
 43
0.0
 10
178.9626355379
 20
153.4670393957
 10
179.1426490157
 20
153.6470531063
 10
179.3626497596
 20
153.8670531517
  0
LWPOLYLINE
  5
DE
330
1F
100
AcDbEntity
  8
0
  6
Continuous
 62
     7
370
    18
100
AcDbPolyline
 90
        3
 70
   128
 43
0.0
 10
179.3626497596
 20
158.8670530399
 10
179.0826494902
 20
159.1470530765
 10
178.9626355379
 20
159.2670667959
  0
LWPOLYLINE
  5
DF
330
1F
100
AcDbEntity
  8
0
  6
Continuous
 62
     7
370
    18
100
AcDbPolyline
 90
        3
 70
   128
 43
0.0
 10
108.0126503579
 20
147.0670530615
 10
108.2086499877
 20
145.6670526458
 10
108.362650229
 20
144.5670526517
  0
LWPOLYLINE
  5
E0
330
1F
100
AcDbEntity
  8
0
  6
Continuous
 62
     7
370
    18
100
AcDbPolyline
 90
        3
 70
   128
 43
0.0
 10
112.3626499533
 20
144.5670526517
 10
112.5586505144
 20
145.9670530675
 10
112.7126502901
 20
147.0670530615
  0
LWPOLYLINE
  5
E1
330
1F
100
AcDbEntity
  8
0
  6
Continuous
 62
     7
370
    18
100
AcDbPolyline
 90
        3
 70
   128
 43
0.0
 10
108.0126503579
 20
144.5670526517
 10
108.2086499877
 20
143.1670531673
 10
108.362650229
 20
142.0670531733
  0
LWPOLYLINE
  5
E2
330
1F
100
AcDbEntity
  8
0
  6
Continuous
 62
     7
370
    18
100
AcDbPolyline
 90
        3
 70
   128
 43
0.0
 10
112.3626499533
 20
142.0670531733
 10
112.5586505144
 20
143.4670526577
 10
112.7126502901
 20
144.5670526517
  0
LINE
  5
E3
330
1F
100
AcDbEntity
  8
0
  6
Continuous
 62
     7
370
    18
100
AcDbLine
 10
108.2126500181
 20
149.067056649
 30
0.0
 11
108.2126500181
 21
147.0670530615
 31
0.0
  0
LINE
  5
E4
330
1F
100
AcDbEntity
  8
0
  6
Continuous
 62
     7
370
    18
100
AcDbLine
 10
112.5126506298
 20
147.0670530615
 30
0.0
 11
112.5126506298
 21
149.067056649
 31
0.0
  0
LINE
  5
E5
330
1F
100
AcDbEntity
  8
0
  6
Continuous
 62
     7
370
    18
100
AcDbLine
 10
177.4626473993
 20
158.3670531908
 30
0.0
 11
177.3626531571
 21
158.3670531908
 31
0.0
  0
LINE
  5
E6
330
1F
100
AcDbEntity
  8
0
  6
Continuous
 62
     7
370
    18
100
AcDbLine
 10
177.3626531571
 20
154.3670530008
 30
0.0
 11
177.4626473993
 21
154.3670530008
 31
0.0
  0
SPLINE
  5
E7
330
1F
100
AcDbEntity
  8
0
  6
Continuous
 62
     7
370
    18
100
AcDbSpline
210
0.0
220
0.0
230
1.0
 70
     8
 71
     3
 72
    13
 73
     9
 74
     0
 42
0.000000001
 43
0.00000001
 40
0.0
 40
0.0
 40
0.0
 40
0.0
 40
0.2394572286227625
 40
0.3683613215908416
 40
0.4999998225149915
 40
0.6316389488317626
 40
0.7605425855389255
 40
1.0
 40
1.0
 40
1.0
 40
1.0
 10
112.512650629842
 20
149.0670529236729
 30
0.0
 10
112.5166576459944
 20
149.1047919778472
 30
0.0
 10
112.5228217103413
 20
149.1628466373419
 30
0.0
 10
112.5602314893136
 20
149.2326913116101
 30
0.0
 10
112.5989502418246
 20
149.2807529015791
 30
0.0
 10
112.6470114809182
 20
149.3194721356465
 30
0.0
 10
112.7168566614939
 20
149.3568810204111
 30
0.0
 10
112.7749111319445
 20
149.3630455530754
 30
0.0
 10
112.8126501202223
 20
149.3670528797145
 30
0.0
  0
SPLINE
  5
E8
330
1F
100
AcDbEntity
  8
0
  6
Continuous
 62
     7
370
    18
100
AcDbSpline
210
0.0
220
0.0
230
1.0
 70
     8
 71
     3
 72
    13
 73
     9
 74
     0
 42
0.000000001
 43
0.00000001
 40
0.0
 40
0.0
 40
0.0
 40
0.0
 40
0.2394564446074945
 40
0.3683600837125361
 40
0.4999999823457923
 40
0.6316384857186951
 40
0.7605425810846612
 40
0.9999999999999999
 40
0.9999999999999999
 40
0.9999999999999999
 40
0.9999999999999999
 10
107.9126500621077
 20
149.3670528797145
 30
0.0
 10
107.9503889018851
 20
149.3630455440971
 30
0.0
 10
108.0084432265552
 20
149.3568809888441
 30
0.0
 10
108.0782882751744
 20
149.3194719935846
 30
0.0
 10
108.1263499230646
 20
149.2807530722999
 30
0.0
 10
108.1650686897516
 20
149.2326912943826
 30
0.0
 10
108.2024784315846
 20
149.1628466092371
 30
0.0
 10
108.2086428019669
 20
149.1047919729864
 30
0.0
 10
108.2126500181493
 20
149.0670529236729
 30
0.0
  0
LINE
  5
E9
330
1F
100
AcDbEntity
  8
0
  6
Continuous
 62
     7
370
    18
100
AcDbLine
 10
178.0626501053
 20
160.8670529021
 30
0.0
 11
177.4626473993
 21
160.8670529021
 31
0.0
  0
LINE
  5
EA
330
1F
100
AcDbEntity
  8
0
  6
Continuous
 62
     7
370
    18
100
AcDbLine
 10
177.4626473993
 20
151.8670532895
 30
0.0
 11
178.0626501053
 21
151.8670532895
 31
0.0
  0
SPLINE
  5
EB
330
1F
100
AcDbEntity
  8
0
  6
Continuous
 62
     7
370
    18
100
AcDbSpline
210
0.0
220
0.0
230
1.0
 70
     8
 71
     3
 72
    27
 73
    23
 74
     0
 42
0.000000001
 43
0.00000001
 40
0.0
 40
0.0
 40
0.0
 40
0.0
 40
0.0177964596439229
 40
0.0489240747668531
 40
0.082039469433248
 40
0.1170920188119336
 40
0.1538508660318101
 40
0.1906068512481142
 40
0.2625078736864367
 40
0.3322411151957215
 40
0.4002049618423119
 40
0.4691066384698975
 40
0.5393504048584904
 40
0.6109402740806281
 40
0.6804259237904818
 40
0.7453724683483025
 40
0.8064765158134405
 40
0.8739411186505166
 40
0.9112291384553801
 40
0.9453156031801301
 40
0.9749160063313895
 40
1.0
 40
1.0
 40
1.0
 40
1.0
 10
136.0759797602531
 20
161.4022322972949
 30
0.0
 10
136.0735744836357
 20
161.3999796630178
 30
0.0
 10
136.0669621609928
 20
161.3937869679539
 30
0.0
 10
136.1020924599627
 20
161.3129792465772
 30
0.0
 10
136.1548127089988
 20
161.1581912557396
 30
0.0
 10
136.2267180807187
 20
160.9177748955315
 30
0.0
 10
136.3085022752331
 20
160.5936394071505
 30
0.0
 10
136.4196989858479
 20
160.0846598256455
 30
0.0
 10
136.5590878927549
 20
159.3364280688328
 30
0.0
 10
136.7248503096078
 20
158.3123683841735
 30
0.0
 10
136.8889490878382
 20
157.2134575573034
 30
0.0
 10
137.053320023691
 20
156.0735989983309
 30
0.0
 10
137.2206870496036
 20
154.9223770465553
 30
0.0
 10
137.3887657958623
 20
153.828110926374
 30
0.0
 10
137.5527456425452
 20
152.8647837559755
 30
0.0
 10
137.7113175858902
 20
152.0745668350091
 30
0.0
 10
137.8656195050433
 20
151.4455475009864
 30
0.0
 10
138.0261359003362
 20
150.982412808986
 30
0.0
 10
138.1973623252198
 20
150.679667576432
 30
0.0
 10
138.358325920504
 20
150.506538488773
 30
0.0
 10
138.5400894260159
 20
150.3910565277974
 30
0.0
 10
138.6994604304608
 20
150.3748865779463
 30
0.0
 10
138.7725646704075
 20
150.3674693448181
 30
0.0
  0
SPLINE
  5
EC
330
1F
100
AcDbEntity
  8
0
  6
Continuous
 62
     7
370
    18
100
AcDbSpline
210
0.0
220
0.0
230
1.0
 70
     8
 71
     3
 72
    27
 73
    23
 74
     0
 42
0.000000001
 43
0.00000001
 40
0.0
 40
0.0
 40
0.0
 40
0.0
 40
0.0203156307427928
 40
0.0502508710372798
 40
0.08034491714716
 40
0.1436925898522229
 40
0.2112003495396415
 40
0.2799497475692412
 40
0.3419607594123809
 40
0.3966559315661582
 40
0.4447633841953246
 40
0.4974545905884322
 40
0.5582902607159017
 40
0.6273588496353258
 40
0.7014508517098534
 40
0.7709969449545214
 40
0.8355252803691057
 40
0.8659655042893528
 40
0.8970802641127351
 40
0.9406050939340438
 40
0.9683029872930455
 40
1.0
 40
1.0
 40
1.0
 40
1.0
 10
141.0741868525383
 20
161.3968590317006
 30
0.0
 10
141.0678959970596
 20
161.3990327829806
 30
0.0
 10
141.0523355169852
 20
161.4044095737197
 30
0.0
 10
141.1149193001169
 20
161.278639101179
 30
0.0
 10
141.1889214087678
 20
161.0514143804609
 30
0.0
 10
141.3078730306358
 20
160.6158174415849
 30
0.0
 10
141.459773983465
 20
159.8847217763168
 30
0.0
 10
141.615347934713
 20
158.9994479849268
 30
0.0
 10
141.7604260272246
 20
158.0759831756936
 30
0.0
 10
141.8897441217574
 20
157.2048803936752
 30
0.0
 10
142.0118289514281
 20
156.3621992219286
 30
0.0
 10
142.1387529924702
 20
155.4839492993644
 30
0.0
 10
142.2823725811286
 20
154.5134491821465
 30
0.0
 10
142.4432352082242
 20
153.4946741324465
 30
0.0
 10
142.6113046270786
 20
152.5509607838537
 30
0.0
 10
142.7801467957445
 20
151.7735528283233
 30
0.0
 10
142.9205040952108
 20
151.2816175204504
 30
0.0
 10
143.0364311751202
 20
150.9812077895293
 30
0.0
 10
143.1371172032905
 20
150.7663257885366
 30
0.0
 10
143.31075330871
 20
150.5387432265245
 30
0.0
 10
143.5388672524742
 20
150.3926297651331
 30
0.0
 10
143.6912862144948
 20
150.3760861993611
 30
0.0
 10
143.7726269572613
 20
150.3672574689324
 30
0.0
  0
SPLINE
  5
ED
330
1F
100
AcDbEntity
  8
0
  6
Continuous
 62
     7
370
    18
100
AcDbSpline
210
0.0
220
0.0
230
1.0
 70
     8
 71
     3
 72
    25
 73
    21
 74
     0
 42
0.000000001
 43
0.00000001
 40
0.0
 40
0.0
 40
0.0
 40
0.0
 40
0.0305494585042708
 40
0.067323301601914
 40
0.101159596750075
 40
0.1319653269093622
 40
0.1945763595972866
 40
0.261700566026809
 40
0.3328108795877315
 40
0.403682718283609
 40
0.473281906855406
 40
0.5415902344654444
 40
0.6101017129840416
 40
0.6806519345244354
 40
0.7533932865727839
 40
0.8256501699256575
 40
0.8912594712301373
 40
0.949862525900571
 40
0.9759867192533274
 40
1.0
 40
1.0
 40
1.0
 40
1.0
 10
146.0820126443741
 20
161.3948771772618
 30
0.0
 10
146.0809850900535
 20
161.3861114952838
 30
0.0
 10
146.0787206194925
 20
161.366794143015
 30
0.0
 10
146.1260854803391
 20
161.2435778084031
 30
0.0
 10
146.186828226584
 20
161.0523193795268
 30
0.0
 10
146.2824921603966
 20
160.7074831786531
 30
0.0
 10
146.4066235399206
 20
160.1563920173058
 30
0.0
 10
146.5641141405202
 20
159.3062421256654
 30
0.0
 10
146.7295856748944
 20
158.2831769832967
 30
0.0
 10
146.8970994161683
 20
157.157482179787
 30
0.0
 10
147.0626413994677
 20
156.0087852430269
 30
0.0
 10
147.226218178831
 20
154.8858478175605
 30
0.0
 10
147.3906818034848
 20
153.8161529748366
 30
0.0
 10
147.5598261545634
 20
152.8235619991758
 30
0.0
 10
147.7348319886831
 20
151.9608313403553
 30
0.0
 10
147.9095908102988
 20
151.2949980736545
 30
0.0
 10
148.1058888306371
 20
150.8024671424601
 30
0.0
 10
148.3145601346325
 20
150.5300589231904
 30
0.0
 10
148.5521080422899
 20
150.3887904119932
 30
0.0
 10
148.7009329181197
 20
150.3741731651018
 30
0.0
 10
148.7722124069569
 20
150.3671722529168
 30
0.0
  0
SPLINE
  5
EE
330
1F
100
AcDbEntity
  8
0
  6
Continuous
 62
     7
370
    18
100
AcDbSpline
210
0.0
220
0.0
230
1.0
 70
     8
 71
     3
 72
    31
 73
    27
 74
     0
 42
0.000000001
 43
0.00000001
 40
0.0
 40
0.0
 40
0.0
 40
0.0
 40
0.0235405743783762
 40
0.0593535570391461
 40
0.0925105881693158
 40
0.1532651550621213
 40
0.2063833046234235
 40
0.2566252224304258
 40
0.3065697940076565
 40
0.3568889102580789
 40
0.4170741554598912
 40
0.4520391366084587
 40
0.4902522820609565
 40
0.5317426734079188
 40
0.5765307512235569
 40
0.6241027297022542
 40
0.6691250675249014
 40
0.7101979909464361
 40
0.7473085930248109
 40
0.790606197433494
 40
0.8268219563696341
 40
0.8571008669009376
 40
0.8838276548832606
 40
0.9163970194455598
 40
0.9550853093716214
 40
1.0
 40
1.0
 40
1.0
 40
1.0
 10
151.0835836737988
 20
161.38713183307
 30
0.0
 10
151.0768570563234
 20
161.3876437946306
 30
0.0
 10
151.0598970337009
 20
161.388934618686
 30
0.0
 10
151.1295801870573
 20
161.2420802782886
 30
0.0
 10
151.2091782497637
 20
160.9826041411793
 30
0.0
 10
151.3164981425226
 20
160.5694141757094
 30
0.0
 10
151.4420459533367
 20
159.9676077666818
 30
0.0
 10
151.5615913353305
 20
159.3103593835693
 30
0.0
 10
151.6790999050201
 20
158.5976410458481
 30
0.0
 10
151.8048481647524
 20
157.7811189179927
 30
0.0
 10
151.9189198057309
 20
157.0039300663738
 30
0.0
 10
152.0234119016137
 20
156.2817852541087
 30
0.0
 10
152.1133827475901
 20
155.6602170114516
 30
0.0
 10
152.2111284509035
 20
154.9940407406134
 30
0.0
 10
152.3163482519097
 20
154.2983570393599
 30
0.0
 10
152.4244559452047
 20
153.6200952559353
 30
0.0
 10
152.5301651219146
 20
153.0060205565684
 30
0.0
 10
152.6285140112478
 20
152.4862264964844
 30
0.0
 10
152.7270147189645
 20
152.0206358509702
 30
0.0
 10
152.8240496490424
 20
151.6240629669235
 30
0.0
 10
152.9203360658584
 20
151.2981478705888
 30
0.0
 10
153.0087437523275
 20
151.0530633447132
 30
0.0
 10
153.1127922255641
 20
150.8302319752337
 30
0.0
 10
153.2462813000344
 20
150.625143290697
 30
0.0
 10
153.4311201043337
 20
150.442353431422
 30
0.0
 10
153.5846185092502
 20
150.3995042736758
 30
0.0
 10
153.667083671653
 20
150.3764840816791
 30
0.0
  0
SPLINE
  5
EF
330
1F
100
AcDbEntity
  8
0
  6
Continuous
 62
     7
370
    18
100
AcDbSpline
210
0.0
220
0.0
230
1.0
 70
     8
 71
     3
 72
    14
 73
    10
 74
     0
 42
0.000000001
 43
0.00000001
 40
0.0
 40
0.0
 40
0.0
 40
0.0
 40
0.0732973263504535
 40
0.1499744032945505
 40
0.3140666087600564
 40
0.4839434841137378
 40
0.6560007063726221
 40
0.8310047154083333
 40
0.9999999999999999
 40
0.9999999999999999
 40
0.9999999999999999
 40
0.9999999999999999
 10
151.2719753294823
 20
162.3668603641624
 30
0.0
 10
151.1945902079011
 20
162.3584899354796
 30
0.0
 10
151.0362517253004
 20
162.3413631164053
 30
0.0
 10
150.7928441647583
 20
162.1833513917247
 30
0.0
 10
150.6005508835997
 20
161.9132755906734
 30
0.0
 10
150.4145644075181
 20
161.4471271345792
 30
0.0
 10
150.2516149540981
 20
160.8392792943534
 30
0.0
 10
150.1007433713648
 20
160.1261369168534
 30
0.0
 10
150.0006735792126
 20
159.5500601845646
 30
0.0
 10
149.9515126555798
 20
159.267053058901
 30
0.0
  0
SPLINE
  5
F0
330
1F
100
AcDbEntity
  8
0
  6
Continuous
 62
     7
370
    18
100
AcDbSpline
210
0.0
220
0.0
230
1.0
 70
     8
 71
     3
 72
    10
 73
     6
 74
     0
 42
0.000000001
 43
0.00000001
 40
0.0
 40
0.0
 40
0.0
 40
0.0
 40
0.1531580174045692
 40
0.6381365689356201
 40
1.0
 40
1.0
 40
1.0
 40
1.0
 10
149.0651319831249
 20
153.4670531326617
 30
0.0
 10
149.0492556775862
 20
153.3716729319066
 30
0.0
 10
148.9831066681156
 20
152.9742690278494
 30
0.0
 10
148.8802871537351
 20
152.4497233713669
 30
0.0
 10
148.7962472230736
 20
152.1093636653039
 30
0.0
 10
148.7603361814854
 20
151.9639248070951
 30
0.0
  0
SPLINE
  5
F1
330
1F
100
AcDbEntity
  8
0
  6
Continuous
 62
     7
370
    18
100
AcDbSpline
210
0.0
220
0.0
230
1.0
 70
     8
 71
     3
 72
    15
 73
    11
 74
     0
 42
0.000000001
 43
0.00000001
 40
0.0
 40
0.0
 40
0.0
 40
0.0
 40
0.0832356087215588
 40
0.1571228108008269
 40
0.2769493572640433
 40
0.3659240889777641
 40
0.4510445768912402
 40
0.6292992202081077
 40
0.8186891046546603
 40
1.0
 40
1.0
 40
1.0
 40
1.0
 10
146.2732951253292
 20
162.3669087929363
 30
0.0
 10
146.1949808485043
 20
162.3588335044635
 30
0.0
 10
146.0471479739744
 20
162.3435898840663
 30
0.0
 10
145.8213660438296
 20
162.2044206091363
 30
0.0
 10
145.6437565777938
 20
161.979978814749
 30
0.0
 10
145.5369161806116
 20
161.7546817559535
 30
0.0
 10
145.4189778554012
 20
161.4473935456423
 30
0.0
 10
145.2763733838018
 20
160.9436910060367
 30
0.0
 10
145.1126693821532
 20
160.1936153309785
 30
0.0
 10
145.0049889287214
 20
159.5713869031115
 30
0.0
 10
144.9523220866558
 20
159.267053058901
 30
0.0
  0
SPLINE
  5
F2
330
1F
100
AcDbEntity
  8
0
  6
Continuous
 62
     7
370
    18
100
AcDbSpline
210
0.0
220
0.0
230
1.0
 70
     8
 71
     3
 72
    10
 73
     6
 74
     0
 42
0.000000001
 43
0.00000001
 40
0.0
 40
0.0
 40
0.0
 40
0.0
 40
0.2514145358742588
 40
0.775459858907262
 40
1.0
 40
1.0
 40
1.0
 40
1.0
 10
144.0646263867256
 20
153.4670531326617
 30
0.0
 10
144.0381371682262
 20
153.3111325458336
 30
0.0
 10
143.9564341530498
 20
152.8302130324011
 30
0.0
 10
143.8495166353814
 20
152.3026254616497
 30
0.0
 10
143.7810951260781
 20
152.0462516191604
 30
0.0
 10
143.7605719178555
 20
151.9693516237373
 30
0.0
  0
SPLINE
  5
F3
330
1F
100
AcDbEntity
  8
0
  6
Continuous
 62
     7
370
    18
100
AcDbSpline
210
0.0
220
0.0
230
1.0
 70
     8
 71
     3
 72
    15
 73
    11
 74
     0
 42
0.000000001
 43
0.00000001
 40
0.0
 40
0.0
 40
0.0
 40
0.0
 40
0.0687891700840911
 40
0.1325558758650864
 40
0.2454685553270012
 40
0.3455409156967457
 40
0.4441585381719871
 40
0.6397987922973968
 40
0.8348306611943799
 40
1.0
 40
1.0
 40
1.0
 40
1.0
 10
141.2720705479023
 20
162.3667518650825
 30
0.0
 10
141.2013177180605
 20
162.3602535001338
 30
0.0
 10
141.0649778942459
 20
162.347731231637
 30
0.0
 10
140.8537623176116
 20
162.2311821475027
 30
0.0
 10
140.6826961052379
 20
162.0392983205039
 30
0.0
 10
140.5695476517928
 20
161.8243456108198
 30
0.0
 10
140.4255389859671
 20
161.4736969303296
 30
0.0
 10
140.2693938844799
 20
160.9194674988517
 30
0.0
 10
140.10420721318
 20
160.1490833103217
 30
0.0
 10
140.0001628091723
 20
159.5443513475126
 30
0.0
 10
139.9524535148975
 20
159.267053058901
 30
0.0
  0
SPLINE
  5
F4
330
1F
100
AcDbEntity
  8
0
  6
Continuous
 62
     7
370
    18
100
AcDbSpline
210
0.0
220
0.0
230
1.0
 70
     8
 71
     3
 72
    10
 73
     6
 74
     0
 42
0.000000001
 43
0.00000001
 40
0.0
 40
0.0
 40
0.0
 40
0.0
 40
0.3146740434341322
 40
0.8360713194694441
 40
1.0
 40
1.0
 40
1.0
 40
1.0
 10
139.0642772525188
 20
153.4670531326617
 30
0.0
 10
139.031427466903
 20
153.2752233048652
 30
0.0
 10
138.9441474252942
 20
152.7655421901186
 30
0.0
 10
138.8401991814408
 20
152.2574007358694
 30
0.0
 10
138.775648325811
 20
152.0222768429172
 30
0.0
 10
138.7602078824875
 20
151.9660356497104
 30
0.0
  0
SPLINE
  5
F5
330
1F
100
AcDbEntity
  8
0
  6
Continuous
 62
     7
370
    18
100
AcDbSpline
210
0.0
220
0.0
230
1.0
 70
     8
 71
     3
 72
    17
 73
    13
 74
     0
 42
0.000000001
 43
0.00000001
 40
0.0
 40
0.0
 40
0.0
 40
0.0
 40
0.0925708859576747
 40
0.1758983457419996
 40
0.3154425009148653
 40
0.4279532190103527
 40
0.5293330752342148
 40
0.6497122514165707
 40
0.7538589377379491
 40
0.8547458931057629
 40
0.9555783119581626
 40
0.9999999999999999
 40
0.9999999999999999
 40
0.9999999999999999
 40
0.9999999999999999
 10
136.2728539019463
 20
162.3665558216805
 30
0.0
 10
136.1862125785004
 20
162.3564078921185
 30
0.0
 10
136.0215812766677
 20
162.3371253282301
 30
0.0
 10
135.7760045295118
 20
162.1649103048931
 30
0.0
 10
135.5924543872374
 20
161.8912875647887
 30
0.0
 10
135.4777769167758
 20
161.6076943030712
 30
0.0
 10
135.3661265801053
 20
161.2681811546864
 30
0.0
 10
135.2647689013263
 20
160.8797091893472
 30
0.0
 10
135.1672443149791
 20
160.4407121579918
 30
0.0
 10
135.0786159765438
 20
159.9894635544722
 30
0.0
 10
135.0071127412494
 20
159.5994983672964
 30
0.0
 10
134.9650614013262
 20
159.3449110786103
 30
0.0
 10
134.9522012382385
 20
159.267053058901
 30
0.0
  0
SPLINE
  5
F6
330
1F
100
AcDbEntity
  8
0
  6
Continuous
 62
     7
370
    18
100
AcDbSpline
210
0.0
220
0.0
230
1.0
 70
     8
 71
     3
 72
    10
 73
     6
 74
     0
 42
0.000000001
 43
0.00000001
 40
0.0
 40
0.0
 40
0.0
 40
0.0
 40
0.0895991720913596
 40
0.5352095746218207
 40
1.0
 40
1.0
 40
1.0
 40
1.0
 10
134.0666215031979
 20
153.4670531326617
 30
0.0
 10
134.0592202471929
 20
153.4228180442353
 30
0.0
 10
134.0150097596895
 20
153.1585852136474
 30
0.0
 10
133.9324748829954
 20
152.7177198690806
 30
0.0
 10
133.8573781387444
 20
152.3727539474422
 30
0.0
 10
133.8190387099621
 20
152.1966371727819
 30
0.0
  0
SPLINE
  5
F7
330
1F
100
AcDbEntity
  8
0
  6
Continuous
 62
     7
370
    18
100
AcDbSpline
210
0.0
220
0.0
230
1.0
 70
     8
 71
     3
 72
    10
 73
     6
 74
     0
 42
0.000000001
 43
0.00000001
 40
0.0
 40
0.0
 40
0.0
 40
0.0
 40
0.3854864257606083
 40
0.7556942363727297
 40
1.0
 40
1.0
 40
1.0
 40
1.0
 10
134.8035658806202
 20
152.0640256857212
 30
0.0
 10
134.8375678476405
 20
152.2234421787881
 30
0.0
 10
134.9042241260084
 20
152.5359567498414
 30
0.0
 10
134.9923158019726
 20
153.0019220609649
 30
0.0
 10
135.0465276702321
 20
153.3347386904416
 30
0.0
 10
135.0680801182625
 20
153.4670531326617
 30
0.0
  0
SPLINE
  5
F8
330
1F
100
AcDbEntity
  8
0
  6
Continuous
 62
     7
370
    18
100
AcDbSpline
210
0.0
220
0.0
230
1.0
 70
     8
 71
     3
 72
    10
 73
     6
 74
     0
 42
0.000000001
 43
0.00000001
 40
0.0
 40
0.0
 40
0.0
 40
0.0
 40
0.0062326510454094
 40
0.5118260971279377
 40
1.0
 40
1.0
 40
1.0
 40
1.0
 10
135.9549748807785
 20
159.267053058901
 30
0.0
 10
135.9556218394951
 20
159.2709362936465
 30
0.0
 10
136.0087501716453
 20
159.5898280252037
 30
0.0
 10
136.1125529630982
 20
160.1450822290481
 30
0.0
 10
136.2118095333875
 20
160.567739452784
 30
0.0
 10
136.2605678945419
 20
160.7753637289341
 30
0.0
  0
SPLINE
  5
F9
330
1F
100
AcDbEntity
  8
0
  6
Continuous
 62
     7
370
    18
100
AcDbSpline
210
0.0
220
0.0
230
1.0
 70
     8
 71
     3
 72
    16
 73
    12
 74
     0
 42
0.000000001
 43
0.00000001
 40
0.0
 40
0.0
 40
0.0
 40
0.0
 40
0.0809148313682036
 40
0.1530540929664346
 40
0.2710065337424273
 40
0.3589956630945115
 40
0.4418895535690761
 40
0.6156825013395276
 40
0.8005655892262367
 40
0.9965621221892804
 40
1.0
 40
1.0
 40
1.0
 40
1.0
 10
138.7495721786854
 20
150.3674558406408
 30
0.0
 10
138.8257713975095
 20
150.3752228764332
 30
0.0
 10
138.9699056943335
 20
150.3899145787841
 30
0.0
 10
139.1923197630649
 20
150.5230272468288
 30
0.0
 10
139.3702002682109
 20
150.7403302823404
 30
0.0
 10
139.4788502004119
 20
150.9645681432417
 30
0.0
 10
139.5938085509444
 20
151.2604607567899
 30
0.0
 10
139.73403112829
 20
151.7397480747047
 30
0.0
 10
139.8998069164024
 20
152.5045180517004
 30
0.0
 10
140.0118578273367
 20
153.0996585990129
 30
0.0
 10
140.0697008483076
 20
153.4608272576355
 30
0.0
 10
140.070697954261
 20
153.4670531326617
 30
0.0
  0
SPLINE
  5
FA
330
1F
100
AcDbEntity
  8
0
  6
Continuous
 62
     7
370
    18
100
AcDbSpline
210
0.0
220
0.0
230
1.0
 70
     8
 71
     3
 72
    10
 73
     6
 74
     0
 42
0.000000001
 43
0.00000001
 40
0.0
 40
0.0
 40
0.0
 40
0.0
 40
0.2377158449980067
 40
0.5267561413607925
 40
1.0
 40
1.0
 40
1.0
 40
1.0
 10
140.9554655760166
 20
159.267053058901
 30
0.0
 10
140.980193189375
 20
159.4092336533185
 30
0.0
 10
141.0349872742954
 20
159.7242925897239
 30
0.0
 10
141.1384428154464
 20
160.2617879043583
 30
0.0
 10
141.2134955306941
 20
160.5740119530254
 30
0.0
 10
141.2600900143024
 20
160.7678479557569
 30
0.0
  0
SPLINE
  5
FB
330
1F
100
AcDbEntity
  8
0
  6
Continuous
 62
     7
370
    18
100
AcDbSpline
210
0.0
220
0.0
230
1.0
 70
     8
 71
     3
 72
    15
 73
    11
 74
     0
 42
0.000000001
 43
0.00000001
 40
0.0
 40
0.0
 40
0.0
 40
0.0
 40
0.0744417934427252
 40
0.142114370706069
 40
0.2576053218242235
 40
0.3553459492743778
 40
0.4520120570010231
 40
0.6459657325804455
 40
0.8419721937636755
 40
1.0
 40
1.0
 40
1.0
 40
1.0
 10
143.7495934873459
 20
150.3672421021099
 30
0.0
 10
143.8246072355623
 20
150.3746890879347
 30
0.0
 10
143.9678135062479
 20
150.3889058827646
 30
0.0
 10
144.1859528918189
 20
150.5168560669179
 30
0.0
 10
144.3573697414643
 20
150.72137299445
 30
0.0
 10
144.4665961589814
 20
150.9385137696882
 30
0.0
 10
144.6053145841735
 20
151.2877667905857
 30
0.0
 10
144.7587952085941
 20
151.8403188979244
 30
0.0
 10
144.9213502164173
 20
152.6030588427339
 30
0.0
 10
145.0236333449028
 20
153.2004152985741
 30
0.0
 10
145.0692887514469
 20
153.4670531326617
 30
0.0
  0
SPLINE
  5
FC
330
1F
100
AcDbEntity
  8
0
  6
Continuous
 62
     7
370
    18
100
AcDbSpline
210
0.0
220
0.0
230
1.0
 70
     8
 71
     3
 72
    10
 73
     6
 74
     0
 42
0.000000001
 43
0.00000001
 40
0.0
 40
0.0
 40
0.0
 40
0.0
 40
0.330908585449863
 40
0.8451573319982796
 40
0.9999999999999999
 40
0.9999999999999999
 40
0.9999999999999999
 40
0.9999999999999999
 10
145.9577257841465
 20
159.267053058901
 30
0.0
 10
145.9923138217054
 20
159.4682032785978
 30
0.0
 10
146.080653426139
 20
159.9819511548542
 30
0.0
 10
146.1847762862021
 20
160.4882740615288
 30
0.0
 10
146.2478291619843
 20
160.7173236753679
 30
0.0
 10
146.262421002948
 20
160.7703308617408
 30
0.0
  0
SPLINE
  5
FD
330
1F
100
AcDbEntity
  8
0
  6
Continuous
 62
     7
370
    18
100
AcDbSpline
210
0.0
220
0.0
230
1.0
 70
     8
 71
     3
 72
    15
 73
    11
 74
     0
 42
0.000000001
 43
0.00000001
 40
0.0
 40
0.0
 40
0.0
 40
0.0
 40
0.0814453277516689
 40
0.1558644999284368
 40
0.2835181330795007
 40
0.3874345566307034
 40
0.4836644429486447
 40
0.6678571415623185
 40
0.8422475003806519
 40
1.0
 40
1.0
 40
1.0
 40
1.0
 10
148.7492422669766
 20
150.3671932076747
 30
0.0
 10
148.8257960813595
 20
150.3749739295705
 30
0.0
 10
148.9722995374301
 20
150.3898641431756
 30
0.0
 10
149.2009365948691
 20
150.5294717233851
 30
0.0
 10
149.387349959073
 20
150.7662599544616
 30
0.0
 10
149.5061908545386
 20
151.0273030837544
 30
0.0
 10
149.6336969939129
 20
151.3824140635148
 30
0.0
 10
149.7762449788073
 20
151.918462759848
 30
0.0
 10
149.9285885661612
 20
152.6467556856039
 30
0.0
 10
150.0248824803503
 20
153.2029069827207
 30
0.0
 10
150.0706176370022
 20
153.4670531326617
 30
0.0
  0
SPLINE
  5
FE
330
1F
100
AcDbEntity
  8
0
  6
Continuous
 62
     7
370
    18
100
AcDbSpline
210
0.0
220
0.0
230
1.0
 70
     8
 71
     3
 72
    11
 73
     7
 74
     0
 42
0.000000001
 43
0.00000001
 40
0.0
 40
0.0
 40
0.0
 40
0.0
 40
0.0902547996724602
 40
0.3860460663986127
 40
0.6616188192335312
 40
1.0
 40
1.0
 40
1.0
 40
1.0
 10
150.9555677979824
 20
159.267053058901
 30
0.0
 10
150.9650352668075
 20
159.3233876972133
 30
0.0
 10
151.0055303885287
 20
159.5643473536682
 30
0.0
 10
151.0740897826826
 20
159.92867482394
 30
0.0
 10
151.1678982414923
 20
160.4002940910929
 30
0.0
 10
151.2278500858862
 20
160.6350996345113
 30
0.0
 10
151.2608925908443
 20
160.7645128896172
 30
0.0
  0
SPLINE
  5
FF
330
1F
100
AcDbEntity
  8
0
  6
Continuous
 62
     7
370
    18
100
AcDbSpline
210
0.0
220
0.0
230
1.0
 70
     8
 71
     3
 72
     9
 73
     5
 74
     0
 42
0.000000001
 43
0.00000001
 40
0.0
 40
0.0
 40
0.0
 40
0.0
 40
0.4594504336731458
 40
1.0
 40
1.0
 40
1.0
 40
1.0
 10
153.6182339399693
 20
150.4653047812815
 30
0.0
 10
153.6543277076236
 20
150.4385894010474
 30
0.0
 10
153.7328862745745
 20
150.3804430194662
 30
0.0
 10
153.8111529356064
 20
150.3776733975136
 30
0.0
 10
153.853459945285
 20
150.3761762795682
 30
0.0
  0
LWPOLYLINE
  5
100
330
1F
100
AcDbEntity
  8
0
  6
Continuous
 62
     7
370
    18
100
AcDbPolyline
 90
       26
 70
   128
 43
0.0
 10
153.9184290081
 20
151.3521008236
 10
153.9273622542
 20
151.3671742795
 10
153.9118017166
 20
151.4352115845
 10
153.8804273218
 20
151.5331550544
 10
153.785994938
 20
151.8540715841
 10
153.720664522
 20
152.1155948793
 10
153.6439309924
 20
152.461321144
 10
153.5562562853
 20
152.902522408
 10
153.4580501824
 20
153.4476508895
 10
153.3501583248
 20
154.0988667911
 10
153.2443191021
 20
154.7801495107
 10
153.1455281287
 20
155.4427809823
 10
153.0538785368
 20
156.0712596619
 10
152.8923387736
 20
157.1853646236
 10
152.7602846831
 20
158.0752394438
 10
152.6428076535
 20
158.829809683
 10
152.523188582
 20
159.5452887049
 10
152.4011033684
 20
160.2044113023
 10
152.2653500646
 20
160.8344910709
 10
152.1024133175
 20
161.4293645179
 10
152.0077723175
 20
161.6925199559
 10
151.885035178
 20
161.9467696218
 10
151.6529123395
 20
162.2229235289
 10
151.4732713908
 20
162.3267212925
 10
151.2489567607
 20
162.3668217143
 10
151.2489567607
 20
162.3668217143
  0
LWPOLYLINE
  5
101
330
1F
100
AcDbEntity
  8
0
  6
Continuous
 62
     7
370
    18
100
AcDbPolyline
 90
       21
 70
   128
 43
0.0
 10
148.9410798162
 20
151.3424951626
 10
148.9256459385
 20
151.4127806803
 10
148.8742220312
 20
151.5595147429
 10
148.8051141709
 20
151.7894913485
 10
148.7236308962
 20
152.1069186782
 10
148.6395697206
 20
152.4845732419
 10
148.4717602938
 20
153.3703601962
 10
148.3066293507
 20
154.3758316474
 10
148.1448586195
 20
155.447800811
 10
147.9808005601
 20
156.5762235622
 10
147.8134605199
 20
157.7207941372
 10
147.6427267402
 20
158.8301868686
 10
147.4764223307
 20
159.8067787053
 10
147.3196062356
 20
160.5969302399
 10
147.1683818012
 20
161.2129586791
 10
146.9643811792
 20
161.7892093999
 10
146.8198101133
 20
162.042925418
 10
146.651635608
 20
162.2243465898
 10
146.4603195995
 20
162.3322063168
 10
146.2502914577
 20
162.3669432519
 10
146.2502914577
 20
162.3669432519
  0
SPLINE
  5
102
330
1F
100
AcDbEntity
  8
0
  6
Continuous
 62
     7
370
    18
100
AcDbSpline
210
0.0
220
0.0
230
1.0
 70
     8
 71
     3
 72
    27
 73
    23
 74
     0
 42
0.000000001
 43
0.00000001
 40
0.0
 40
0.0
 40
0.0
 40
0.0
 40
0.018890086312947
 40
0.047436447247764
 40
0.0764945607238531
 40
0.1391302464365731
 40
0.2078006737002975
 40
0.2806956449440501
 40
0.3475031379038719
 40
0.4063843340043786
 40
0.4572328428544176
 40
0.5064223973667716
 40
0.5630598217135091
 40
0.6272676111085014
 40
0.6978164882861454
 40
0.7663756914188524
 40
0.8317027463561871
 40
0.863234584732043
 40
0.895775071599289
 40
0.940250954960602
 40
0.9682022098076102
 40
1.0
 40
1.0
 40
1.0
 40
1.0
 10
143.9495409935352
 20
151.3354543639059
 30
0.0
 10
143.9557895089827
 20
151.3330363136239
 30
0.0
 10
143.971480669335
 20
151.326964148958
 30
0.0
 10
143.9118909550846
 20
151.4437896154553
 30
0.0
 10
143.8402482906464
 20
151.6588088298247
 30
0.0
 10
143.7220300139497
 20
152.0850942746496
 30
0.0
 10
143.567315715348
 20
152.8207012328434
 30
0.0
 10
143.4038389778358
 20
153.7504297496618
 30
0.0
 10
143.248485366644
 20
154.7438209518632
 30
0.0
 10
143.1099659440838
 20
155.682779735936
 30
0.0
 10
142.9852256649381
 20
156.5461936217885
 30
0.0
 10
142.862200768712
 20
157.3947673233125
 30
0.0
 10
142.7285694779091
 20
158.2927718101228
 30
0.0
 10
142.5776135972964
 20
159.2451915560514
 30
0.0
 10
142.4172652637984
 20
160.1478162032129
 30
0.0
 10
142.2519124428981
 20
160.9205913418196
 30
0.0
 10
142.1111922435746
 20
161.4229087920416
 30
0.0
 10
141.9924297576791
 20
161.7379101774401
 30
0.0
 10
141.8891183314702
 20
161.9619803903261
 30
0.0
 10
141.7133667702272
 20
162.193733165946
 30
0.0
 10
141.4835360803667
 20
162.3411242537055
 30
0.0
 10
141.330490168546
 20
162.357847659787
 30
0.0
 10
141.2490408032772
 20
162.3667476741309
 30
0.0
  0
SPLINE
  5
103
330
1F
100
AcDbEntity
  8
0
  6
Continuous
 62
     7
370
    18
100
AcDbSpline
210
0.0
220
0.0
230
1.0
 70
     8
 71
     3
 72
    25
 73
    21
 74
     0
 42
0.000000001
 43
0.00000001
 40
0.0
 40
0.0
 40
0.0
 40
0.0
 40
0.0278859809668227
 40
0.0635635511445234
 40
0.0967716451432742
 40
0.1274178482970504
 40
0.190000775749758
 40
0.2570954076870735
 40
0.3281953171860995
 40
0.3990431571199
 40
0.4686390266737256
 40
0.5369249648121462
 40
0.6054327116031997
 40
0.6759514128648423
 40
0.7486692724979963
 40
0.8212280201392234
 40
0.8883688636576674
 40
0.9491000248640195
 40
0.9757927762030448
 40
0.9999999999999999
 40
0.9999999999999999
 40
0.9999999999999999
 40
0.9999999999999999
 10
138.9428178876278
 20
151.3367591468329
 30
0.0
 10
138.9443566090436
 20
151.3436662174661
 30
0.0
 10
138.94786398422
 20
151.359410255231
 30
0.0
 10
138.9032814719419
 20
151.4716664562337
 30
0.0
 10
138.8444319980308
 20
151.6516342799173
 30
0.0
 10
138.7497069128128
 20
151.9856759800373
 30
0.0
 10
138.6261021041024
 20
152.5262287824515
 30
0.0
 10
138.4687585339592
 20
153.3650555026664
 30
0.0
 10
138.3034263475404
 20
154.3809060493244
 30
0.0
 10
138.1358918882842
 20
155.5017616675881
 30
0.0
 10
137.9704708012927
 20
156.6493297284826
 30
0.0
 10
137.8068409437743
 20
157.7744225981708
 30
0.0
 10
137.6425085226793
 20
158.8491334312319
 30
0.0
 10
137.4734301865855
 20
159.8493796149853
 30
0.0
 10
137.298555602333
 20
160.7239131261425
 30
0.0
 10
137.1227205132138
 20
161.4069187244367
 30
0.0
 10
136.9231573395698
 20
161.9197065922642
 30
0.0
 10
136.7121056985812
 20
162.2007136084908
 30
0.0
 10
136.4719057535262
 20
162.344639371106
 30
0.0
 10
136.3214343891008
 20
162.3595053532673
 30
0.0
 10
136.2498725860951
 20
162.3665753794546
 30
0.0
  0
SPLINE
  5
104
330
1F
100
AcDbEntity
  8
0
  6
Continuous
 62
     7
370
    18
100
AcDbSpline
210
0.0
220
0.0
230
1.0
 70
     8
 71
     3
 72
    14
 73
    10
 74
     0
 42
0.000000001
 43
0.00000001
 40
0.0
 40
0.0
 40
0.0
 40
0.0
 40
0.1292285427971034
 40
0.2435856464182814
 40
0.4279356612624843
 40
0.5631071832893491
 40
0.6912141797513862
 40
0.9567913773648112
 40
0.9999999999999999
 40
0.9999999999999999
 40
0.9999999999999999
 40
0.9999999999999999
 10
118.7496787964937
 20
150.3675564234788
 30
0.0
 10
118.8279199811827
 20
150.3757086004057
 30
0.0
 10
118.9753984649332
 20
150.3910748131902
 30
0.0
 10
119.2005046161962
 20
150.5292212688358
 30
0.0
 10
119.3771128056237
 20
150.7523033216993
 30
0.0
 10
119.4826829628843
 20
150.9730974068512
 30
0.0
 10
119.5968053807935
 20
151.2726843468076
 30
0.0
 10
119.6869753452442
 20
151.55750746981
 30
0.0
 10
119.7464230672822
 20
151.8290553927071
 30
0.0
 10
119.7547416299221
 20
151.8670532894964
 30
0.0
  0
SPLINE
  5
105
330
1F
100
AcDbEntity
  8
0
  6
Continuous
 62
     7
370
    18
100
AcDbSpline
210
0.0
220
0.0
230
1.0
 70
     8
 71
     3
 72
    15
 73
    11
 74
     0
 42
0.000000001
 43
0.00000001
 40
0.0
 40
0.0
 40
0.0
 40
0.0
 40
0.070528228568479
 40
0.155786046000927
 40
0.2556224217892264
 40
0.3656249623159483
 40
0.559288462784267
 40
0.7280230388035692
 40
0.906965316665206
 40
1.0
 40
1.0
 40
1.0
 40
1.0
 10
123.7496088355419
 20
150.3675280181403
 30
0.0
 10
123.8233439097454
 20
150.3752402901662
 30
0.0
 10
123.9862133861932
 20
150.3922755168972
 30
0.0
 10
124.1705540062161
 20
150.5124877583306
 30
0.0
 10
124.3368095048769
 20
150.6966026934552
 30
0.0
 10
124.5132853171211
 20
151.0232769915558
 30
0.0
 10
124.6776388847889
 20
151.5188962637669
 30
0.0
 10
124.8335269778671
 20
152.1822950242226
 30
0.0
 10
124.9629634142876
 20
152.8304297020627
 30
0.0
 10
125.0414892351522
 20
153.3047896537928
 30
0.0
 10
125.0683504253265
 20
153.4670531326617
 30
0.0
  0
SPLINE
  5
106
330
1F
100
AcDbEntity
  8
0
  6
Continuous
 62
     7
370
    18
100
AcDbSpline
210
0.0
220
0.0
230
1.0
 70
     8
 71
     3
 72
    11
 73
     7
 74
     0
 42
0.000000001
 43
0.00000001
 40
0.0
 40
0.0
 40
0.0
 40
0.0
 40
0.084266588608001
 40
0.6318292955935649
 40
0.9117206828778393
 40
1.0
 40
1.0
 40
1.0
 40
1.0
 10
125.9563497364161
 20
159.267053058901
 30
0.0
 10
125.9650816400238
 20
159.3202750218925
 30
0.0
 10
126.0305532889515
 20
159.7193322988341
 30
0.0
 10
126.1231066134576
 20
160.1791214055162
 30
0.0
 10
126.2154265079301
 20
160.6023866594923
 30
0.0
 10
126.2509330985012
 20
160.7356295858204
 30
0.0
 10
126.2594468056795
 20
160.7675783378716
 30
0.0
  0
SPLINE
  5
107
330
1F
100
AcDbEntity
  8
0
  6
Continuous
 62
     7
370
    18
100
AcDbSpline
210
0.0
220
0.0
230
1.0
 70
     8
 71
     3
 72
    16
 73
    12
 74
     0
 42
0.000000001
 43
0.00000001
 40
0.0
 40
0.0
 40
0.0
 40
0.0
 40
0.0818759258646325
 40
0.1566292185460779
 40
0.2846554804107982
 40
0.388514662565
 40
0.4829290669830853
 40
0.6568409953078802
 40
0.8122347586617839
 40
0.9560244339006423
 40
0.9999999999999999
 40
0.9999999999999999
 40
0.9999999999999999
 40
0.9999999999999999
 10
128.7491570323345
 20
150.3673431506093
 30
0.0
 10
128.8257999348521
 20
150.3752052291887
 30
0.0
 10
128.9724183431528
 20
150.3902454404723
 30
0.0
 10
129.2012320059071
 20
150.5299002899392
 30
0.0
 10
129.3877783248925
 20
150.7666619687716
 30
0.0
 10
129.5060410135477
 20
151.0271160326427
 30
0.0
 10
129.629749073852
 20
151.3719337298674
 30
0.0
 10
129.7632884645485
 20
151.8644510135337
 30
0.0
 10
129.9032652149173
 20
152.527411711397
 30
0.0
 10
130.0027271563588
 20
153.0595690273843
 30
0.0
 10
130.0570694243969
 20
153.3897281919048
 30
0.0
 10
130.0697966575262
 20
153.4670531326617
 30
0.0
  0
SPLINE
  5
108
330
1F
100
AcDbEntity
  8
0
  6
Continuous
 62
     7
370
    18
100
AcDbSpline
210
0.0
220
0.0
230
1.0
 70
     8
 71
     3
 72
    12
 73
     8
 74
     0
 42
0.000000001
 43
0.00000001
 40
0.0
 40
0.0
 40
0.0
 40
0.0
 40
0.0223645722482625
 40
0.3407852430976201
 40
0.6350322732325693
 40
0.9051647885866607
 40
1.0
 40
1.0
 40
1.0
 40
1.0
 10
130.9549889623758
 20
159.267053058901
 30
0.0
 10
130.9573214587506
 20
159.2811194554469
 30
0.0
 10
130.992863401394
 20
159.4954593638172
 30
0.0
 10
131.0584905027927
 20
159.8496229224239
 30
0.0
 10
131.1485487725724
 20
160.3010277829909
 30
0.0
 10
131.21495492075
 20
160.6012199224995
 30
0.0
 10
131.2500521084417
 20
160.7352969156775
 30
0.0
 10
131.2591719537613
 20
160.7701362153227
 30
0.0
  0
SPLINE
  5
109
330
1F
100
AcDbEntity
  8
0
  6
Continuous
 62
     7
370
    18
100
AcDbSpline
210
0.0
220
0.0
230
1.0
 70
     8
 71
     3
 72
    14
 73
    10
 74
     0
 42
0.000000001
 43
0.00000001
 40
0.0
 40
0.0
 40
0.0
 40
0.0
 40
0.1395224166725336
 40
0.2380490876252536
 40
0.3553127173601972
 40
0.4907711674103553
 40
0.6438080352380103
 40
0.8137891502477927
 40
1.0
 40
1.0
 40
1.0
 40
1.0
 10
133.750251224601
 20
150.3671596800621
 30
0.0
 10
133.8388963829575
 20
150.3788111526981
 30
0.0
 10
133.9901401728262
 20
150.3986905562854
 30
0.0
 10
134.142894468526
 20
150.5051890988099
 30
0.0
 10
134.2792115018165
 20
150.6437214026251
 30
0.0
 10
134.4136477897566
 20
150.8545831057652
 30
0.0
 10
134.5475110584013
 20
151.1530078424627
 30
0.0
 10
134.6801074532613
 20
151.5492689275445
 30
0.0
 10
134.7611596830152
 20
151.8872533321544
 30
0.0
 10
134.8035323530075
 20
152.0639455919797
 30
0.0
  0
SPLINE
  5
10A
330
1F
100
AcDbEntity
  8
0
  6
Continuous
 62
     7
370
    18
100
AcDbSpline
210
0.0
220
0.0
230
1.0
 70
     8
 71
     3
 72
    27
 73
    23
 74
     0
 42
0.000000001
 43
0.00000001
 40
0.0
 40
0.0
 40
0.0
 40
0.0
 40
0.0292663066674742
 40
0.0667452538802895
 40
0.1015931440793234
 40
0.1642559902836674
 40
0.2183495814121474
 40
0.2727110469205196
 40
0.329150137195316
 40
0.389574495750142
 40
0.4579585279480097
 40
0.5344843020661448
 40
0.5742446770957296
 40
0.6112036482554982
 40
0.6763871029933142
 40
0.7304494941497696
 40
0.7848300813503599
 40
0.8446957174856725
 40
0.877087072483604
 40
0.9131649795952858
 40
0.9540337962489318
 40
1.0
 40
1.0
 40
1.0
 40
1.0
 10
133.9387471884129
 20
151.3482679655488
 30
0.0
 10
133.9445495383137
 20
151.349630285689
 30
0.0
 10
133.9577824795808
 20
151.3527372169685
 30
0.0
 10
133.8780141186837
 20
151.5329062703289
 30
0.0
 10
133.7939928088933
 20
151.8201689970772
 30
0.0
 10
133.6810749056999
 20
152.2719113033262
 30
0.0
 10
133.5486317554206
 20
152.9303438906361
 30
0.0
 10
133.4197343323333
 20
153.6622576387671
 30
0.0
 10
133.285397726135
 20
154.5026259930395
 30
0.0
 10
133.1397771472969
 20
155.4762867282669
 30
0.0
 10
132.9783070114801
 20
156.5944145499563
 30
0.0
 10
132.8327783886037
 20
157.5974086376382
 30
0.0
 10
132.7122984035113
 20
158.3929593213286
 30
0.0
 10
132.6005958801537
 20
159.0990578100229
 30
0.0
 10
132.4770369725915
 20
159.8211623610378
 30
0.0
 10
132.3395563846616
 20
160.5225927236919
 30
0.0
 10
132.20186364827
 20
161.1137835725001
 30
0.0
 10
132.071518447103
 20
161.5395675806853
 30
0.0
 10
131.9527971628535
 20
161.8323641207148
 30
0.0
 10
131.8110588317049
 20
162.0786368700362
 30
0.0
 10
131.5853603139113
 20
162.3103683703314
 30
0.0
 10
131.3654906942484
 20
162.3473105649286
 30
0.0
 10
131.2491024940846
 20
162.3668659520979
 30
0.0
  0
SPLINE
  5
10B
330
1F
100
AcDbEntity
  8
0
  6
Continuous
 62
     7
370
    18
100
AcDbSpline
210
0.0
220
0.0
230
1.0
 70
     8
 71
     3
 72
    27
 73
    23
 74
     0
 42
0.000000001
 43
0.00000001
 40
0.0
 40
0.0
 40
0.0
 40
0.0
 40
0.0162338330228868
 40
0.0481207019623122
 40
0.1133052739159087
 40
0.1797764293037812
 40
0.2453029548236224
 40
0.309107682549003
 40
0.3710649254814874
 40
0.4320940013606246
 40
0.4941277511741007
 40
0.5572532328908691
 40
0.6214907689810504
 40
0.6845458567308336
 40
0.7437112120874577
 40
0.7990041365922014
 40
0.8287969541101341
 40
0.8711854007312003
 40
0.897718806902109
 40
0.9280160899800093
 40
0.9621451277324384
 40
1.0
 40
1.0
 40
1.0
 40
1.0
 10
128.9364441394445
 20
151.3402450872297
 30
0.0
 10
128.9395004587791
 20
151.3422868505042
 30
0.0
 10
128.9485600709848
 20
151.3483390922557
 30
0.0
 10
128.9031644694916
 20
151.4570618708791
 30
0.0
 10
128.8098579987478
 20
151.7513542799057
 30
0.0
 10
128.655529337999
 20
152.3815507137065
 30
0.0
 10
128.5033365505968
 20
153.1722976322071
 30
0.0
 10
128.3522308045803
 20
154.07346897007
 30
0.0
 10
128.2040828839332
 20
155.040189470601
 30
0.0
 10
128.0571924051868
 20
156.046450346582
 30
0.0
 10
127.9093796861492
 20
157.0721648446789
 30
0.0
 10
127.7589132919493
 20
158.0938797775632
 30
0.0
 10
127.6073945912227
 20
159.0636606012496
 30
0.0
 10
127.4587611247734
 20
159.9219368699719
 30
0.0
 10
127.315028680272
 20
160.6382703078752
 30
0.0
 10
127.1980719176164
 20
161.116933705474
 30
0.0
 10
127.0871273914728
 20
161.4923927681423
 30
0.0
 10
126.9705755606297
 20
161.7861758976901
 30
0.0
 10
126.8264816366541
 20
162.0283977965617
 30
0.0
 10
126.6725118274159
 20
162.203923028652
 30
0.0
 10
126.4776651973674
 20
162.3400037136571
 30
0.0
 10
126.3284317395547
 20
162.3574781370226
 30
0.0
 10
126.2499529033539
 20
162.3666675803895
 30
0.0
  0
SPLINE
  5
10C
330
1F
100
AcDbEntity
  8
0
  6
Continuous
 62
     7
370
    18
100
AcDbSpline
210
0.0
220
0.0
230
1.0
 70
     8
 71
     3
 72
    27
 73
    23
 74
     0
 42
0.000000001
 43
0.00000001
 40
0.0
 40
0.0
 40
0.0
 40
0.0
 40
0.0186962621492456
 40
0.048585796775516
 40
0.0783207759269441
 40
0.1414379776505658
 40
0.2094323948357212
 40
0.2803858794947984
 40
0.3448248167801806
 40
0.401206118632758
 40
0.4494476151972633
 40
0.4975845161922795
 40
0.5534825854795353
 40
0.6172249081392395
 40
0.6886187016023569
 40
0.7609448607894489
 40
0.8314851071757096
 40
0.8662458696286386
 40
0.9012603792702842
 40
0.944509775129797
 40
0.9706983183216928
 40
1.0
 40
1.0
 40
1.0
 40
1.0
 10
123.9460769205925
 20
151.3388131787713
 30
0.0
 10
123.9525037989062
 20
151.3367756488646
 30
0.0
 10
123.9692052658173
 20
151.3314807394768
 30
0.0
 10
123.9097837987757
 20
151.4484896630506
 30
0.0
 10
123.8358810709537
 20
151.6721965293614
 30
0.0
 10
123.7178342037094
 20
152.1027320973744
 30
0.0
 10
123.5647327510294
 20
152.8355166071083
 30
0.0
 10
123.405220595014
 20
153.7429741662686
 30
0.0
 10
123.2552777128568
 20
154.699919031587
 30
0.0
 10
123.1226100313423
 20
155.5960913308712
 30
0.0
 10
123.0027229143095
 20
156.424759170987
 30
0.0
 10
122.8831727096104
 20
157.2512214138715
 30
0.0
 10
122.7513000400399
 20
158.1428182963259
 30
0.0
 10
122.6007093008095
 20
159.1056955813685
 30
0.0
 10
122.4374197397224
 20
160.0435391854274
 30
0.0
 10
122.2647305629034
 20
160.8711511162749
 30
0.0
 10
122.11345000352
 20
161.4201201653311
 30
0.0
 10
121.9795271155242
 20
161.7668607132156
 30
0.0
 10
121.8736499117264
 20
161.9873885395121
 30
0.0
 10
121.702070127977
 20
162.2043779934594
 30
0.0
 10
121.4777985469854
 20
162.3427471276586
 30
0.0
 10
121.3283931599193
 20
162.3583148026207
 30
0.0
 10
121.2494994610187
 20
162.3665353325839
 30
0.0
  0
SPLINE
  5
10D
330
1F
100
AcDbEntity
  8
0
  6
Continuous
 62
     7
370
    18
100
AcDbSpline
210
0.0
220
0.0
230
1.0
 70
     8
 71
     3
 72
    25
 73
    21
 74
     0
 42
0.000000001
 43
0.00000001
 40
0.0
 40
0.0
 40
0.0
 40
0.0
 40
0.0265612596348463
 40
0.0593033682397329
 40
0.1188929925396675
 40
0.1710032724574223
 40
0.2261451272081199
 40
0.2870205773293368
 40
0.3529479339226503
 40
0.4188116862865723
 40
0.4835874476314553
 40
0.5472364912177662
 40
0.6104704440301759
 40
0.6751036916234732
 40
0.7413767365158449
 40
0.8101582060463
 40
0.8494026252314035
 40
0.8938536754599959
 40
0.9440492216626314
 40
1.0
 40
1.0
 40
1.0
 40
1.0
 10
118.9451671301958
 20
151.3340303716893
 30
0.0
 10
118.9457206303113
 20
151.3412337557581
 30
0.0
 10
118.9469564309329
 20
151.3573167632615
 30
0.0
 10
118.8873061444003
 20
151.505363670311
 30
0.0
 10
118.8011742341048
 20
151.7891081672344
 30
0.0
 10
118.6710290532265
 20
152.3196558474134
 30
0.0
 10
118.5402293561324
 20
152.9732484814913
 30
0.0
 10
118.3966570589488
 20
153.7970726317662
 30
0.0
 10
118.24416845339
 20
154.7713028345451
 30
0.0
 10
118.0883800175552
 20
155.8299468307584
 30
0.0
 10
117.934353806514
 20
156.8996824389733
 30
0.0
 10
117.7823776688084
 20
157.9378899168883
 30
0.0
 10
117.6304759698636
 20
158.9208858801786
 30
0.0
 10
117.4759506131083
 20
159.8329305423218
 30
0.0
 10
117.3123404475705
 20
160.6543029755094
 30
0.0
 10
117.1735578294762
 20
161.2219695540941
 30
0.0
 10
117.0204955939572
 20
161.6742582684626
 30
0.0
 10
116.8478263667015
 20
162.0151316289504
 30
0.0
 10
116.5934697839819
 20
162.3040466857545
 30
0.0
 10
116.3679771368355
 20
162.3450064845138
 30
0.0
 10
116.2491177305219
 20
162.3665967998738
 30
0.0
  0
SPLINE
  5
10E
330
1F
100
AcDbEntity
  8
0
  6
Continuous
 62
     7
370
    18
100
AcDbSpline
210
0.0
220
0.0
230
1.0
 70
     8
 71
     3
 72
    25
 73
    21
 74
     0
 42
0.000000001
 43
0.00000001
 40
0.0
 40
0.0
 40
0.0
 40
0.0
 40
0.0175971535089618
 40
0.0475879600574432
 40
0.0772813768992707
 40
0.140701264305218
 40
0.209529788007556
 40
0.282505397281426
 40
0.350725161649303
 40
0.4121394714431502
 40
0.4666676939834225
 40
0.5204005082261375
 40
0.5846603579965423
 40
0.6597932534223339
 40
0.7370457182356877
 40
0.8059944526605366
 40
0.8672416905152006
 40
0.9301342463952005
 40
0.9641724176548695
 40
1.0
 40
1.0
 40
1.0
 40
1.0
 10
116.0758405089018
 20
161.395890456223
 30
0.0
 10
116.0695163929763
 20
161.397928312598
 30
0.0
 10
116.0524140942489
 20
161.4034392850248
 30
0.0
 10
116.1102777990368
 20
161.2913294499746
 30
0.0
 10
116.1846727139885
 20
161.0680485367321
 30
0.0
 10
116.3031653379467
 20
160.6370941409947
 30
0.0
 10
116.4584125438388
 20
159.8946833842461
 30
0.0
 10
116.6230046783633
 20
158.9557581007152
 30
0.0
 10
116.7814663878505
 20
157.939074967516
 30
0.0
 10
116.925992019425
 20
156.956680747189
 30
0.0
 10
117.0591693150474
 20
156.0334634301354
 30
0.0
 10
117.194646661138
 20
155.1020448876692
 30
0.0
 10
117.3465493848915
 20
154.0951280677903
 30
0.0
 10
117.5177862965264
 20
153.0563236372061
 30
0.0
 10
117.6928648304877
 20
152.1466775689829
 30
0.0
 10
117.8675123894374
 20
151.4477406596529
 30
0.0
 10
118.0313464933621
 20
150.9596957098548
 30
0.0
 10
118.2370888861052
 20
150.6066563753868
 30
0.0
 10
118.5039808673325
 20
150.4017259975163
 30
0.0
 10
118.6816124168478
 20
150.3791381908173
 30
0.0
 10
118.7727029531834
 20
150.367555026495
 30
0.0
  0
SPLINE
  5
10F
330
1F
100
AcDbEntity
  8
0
  6
Continuous
 62
     7
370
    18
100
AcDbSpline
210
0.0
220
0.0
230
1.0
 70
     8
 71
     3
 72
    26
 73
    22
 74
     0
 42
0.000000001
 43
0.00000001
 40
0.0
 40
0.0
 40
0.0
 40
0.0
 40
0.0213029984266274
 40
0.0890819088518306
 40
0.1586458672926201
 40
0.2295755514453264
 40
0.2973638563137425
 40
0.3578487747238673
 40
0.4109104982925018
 40
0.4570203408164266
 40
0.506974793791119
 40
0.565063926292069
 40
0.6313875976738218
 40
0.7030690735698715
 40
0.7713469840414214
 40
0.8357750473083635
 40
0.8666228740858244
 40
0.8989444302247345
 40
0.9426156570993984
 40
0.9695862250421905
 40
1.0
 40
1.0
 40
1.0
 40
1.0
 10
121.0722892641661
 20
161.4026234527762
 30
0.0
 10
121.0685462352917
 20
161.4018702011728
 30
0.0
 10
121.0528941589811
 20
161.3987203586325
 30
0.0
 10
121.1897292206434
 20
161.0970926718605
 30
0.0
 10
121.3228083799521
 20
160.5404665874491
 30
0.0
 10
121.4891777687259
 20
159.7333690376885
 30
0.0
 10
121.6451906112452
 20
158.8146004453632
 30
0.0
 10
121.7883133992008
 20
157.8914610054187
 30
0.0
 10
121.9143719419989
 20
157.035815827009
 30
0.0
 10
122.0321791984978
 20
156.2209940899193
 30
0.0
 10
122.1539916416118
 20
155.3796291533573
 30
0.0
 10
122.2920370903058
 20
154.4510844970809
 30
0.0
 10
122.4476319174564
 20
153.4690465935499
 30
0.0
 10
122.6118043844627
 20
152.5502869021176
 30
0.0
 10
122.7786354172506
 20
151.7793261333257
 30
0.0
 10
122.9198914550358
 20
151.2846613610685
 30
0.0
 10
123.0369323667722
 20
150.9797616635958
 30
0.0
 10
123.1434679214919
 20
150.7544950946143
 30
0.0
 10
123.3208766643897
 20
150.5298565383256
 30
0.0
 10
123.5465635800365
 20
150.3910033993771
 30
0.0
 10
123.6943115032473
 20
150.3756667215213
 30
0.0
 10
123.7726180910704
 20
150.3675382626886
 30
0.0
  0
SPLINE
  5
110
330
1F
100
AcDbEntity
  8
0
  6
Continuous
 62
     7
370
    18
100
AcDbSpline
210
0.0
220
0.0
230
1.0
 70
     8
 71
     3
 72
    27
 73
    23
 74
     0
 42
0.000000001
 43
0.00000001
 40
0.0
 40
0.0
 40
0.0
 40
0.0
 40
0.0234576533724327
 40
0.0593985436719803
 40
0.0937395370995056
 40
0.160376467279343
 40
0.2240447832791244
 40
0.2836535552547222
 40
0.3386702797971546
 40
0.3898973926132398
 40
0.4481081247207589
 40
0.5166090401199234
 40
0.5548011660095612
 40
0.5956212388032385
 40
0.6386266201125078
 40
0.6799107687900049
 40
0.7546166351670215
 40
0.819018765661396
 40
0.8737455091333155
 40
0.9317988789357557
 40
0.9645992364754552
 40
1.0
 40
1.0
 40
1.0
 40
1.0
 10
126.0838720112679
 20
161.3866922488148
 30
0.0
 10
126.0771687158977
 20
161.3872471600767
 30
0.0
 10
126.060194896033
 20
161.388652284464
 30
0.0
 10
126.1312919079328
 20
161.2376752865604
 30
0.0
 10
126.2161031211329
 20
160.959708164296
 30
0.0
 10
126.3382579664714
 20
160.481008107005
 30
0.0
 10
126.4846314531918
 20
159.7478330391015
 30
0.0
 10
126.6241710776006
 20
158.9415683581353
 30
0.0
 10
126.7541399636721
 20
158.1157558815747
 30
0.0
 10
126.8833497238501
 20
157.249446263867
 30
0.0
 10
127.0231738456443
 20
156.2836955134085
 30
0.0
 10
127.1530343681092
 20
155.3856471571418
 30
0.0
 10
127.2691362835648
 20
154.6076977409963
 30
0.0
 10
127.3653505164435
 20
153.9869560473399
 30
0.0
 10
127.4640098039883
 20
153.3848295630239
 30
0.0
 10
127.5903147434807
 20
152.6723002447224
 30
0.0
 10
127.7347979585036
 20
151.9618563361854
 30
0.0
 10
127.9004983260321
 20
151.3428788157269
 30
0.0
 10
128.0509555398804
 20
150.9208859615535
 30
0.0
 10
128.2478785644176
 20
150.5967309748445
 30
0.0
 10
128.5072613820017
 20
150.4005685666505
 30
0.0
 10
128.6816495088331
 20
150.3786962751296
 30
0.0
 10
128.7721681505081
 20
150.3673431506093
 30
0.0
  0
SPLINE
  5
111
330
1F
100
AcDbEntity
  8
0
  6
Continuous
 62
     7
370
    18
100
AcDbSpline
210
0.0
220
0.0
230
1.0
 70
     8
 71
     3
 72
    27
 73
    23
 74
     0
 42
0.000000001
 43
0.00000001
 40
0.0
 40
0.0
 40
0.0
 40
0.0
 40
0.0132838426639103
 40
0.0507019647406522
 40
0.0855367089887681
 40
0.1480743396836164
 40
0.2038287321598918
 40
0.2664480516422002
 40
0.337523431788851
 40
0.4119577910396989
 40
0.4795245960207642
 40
0.5398959706259799
 40
0.5947529867591058
 40
0.6482200183155602
 40
0.7004743716002729
 40
0.7556453931507685
 40
0.8192296380578388
 40
0.8543865100719833
 40
0.8931080104495437
 40
0.9409951066334155
 40
0.9691078815302407
 40
1.0
 40
1.0
 40
1.0
 40
1.0
 10
131.0813563972351
 20
161.3920943854089
 30
0.0
 10
131.0759245456264
 20
161.3931453749615
 30
0.0
 10
131.0551921750534
 20
161.3971568072395
 30
0.0
 10
131.1104268648558
 20
161.2944002090961
 30
0.0
 10
131.1911092371367
 20
161.0439221279273
 30
0.0
 10
131.302208521938
 20
160.6325956755893
 30
0.0
 10
131.4429117963603
 20
159.9681013214852
 30
0.0
 10
131.5908985632315
 20
159.1468272506337
 30
0.0
 10
131.7546385559733
 20
158.1197547407913
 30
0.0
 10
131.9224322890983
 20
156.9826645186978
 30
0.0
 10
132.0818584990633
 20
155.8755417096751
 30
0.0
 10
132.2258361366606
 20
154.8911940593085
 30
0.0
 10
132.3587508609767
 20
154.0233897404029
 30
0.0
 10
132.4856589494262
 20
153.2530447509773
 30
0.0
 10
132.6130176865477
 20
152.5545562963652
 30
0.0
 10
132.7507549485439
 20
151.9011746730785
 30
0.0
 10
132.8824442846992
 20
151.4037320737148
 30
0.0
 10
133.007619956325
 20
151.0482614835886
 30
0.0
 10
133.1242876966883
 20
150.7842935502838
 30
0.0
 10
133.3106525174661
 20
150.5383033732391
 30
0.0
 10
133.5435515527374
 20
150.3912932173096
 30
0.0
 10
133.694334539133
 20
150.3754739937506
 30
0.0
 10
133.7732772439358
 20
150.3671918106909
 30
0.0
  0
LINE
  5
112
330
1F
100
AcDbEntity
  8
0
  6
Continuous
 62
     7
370
    18
100
AcDbLine
 10
133.8190424353
 20
152.1967228545
 30
0.0
 11
133.762742123
 21
151.9634633368
 31
0.0
  0
SPLINE
  5
113
330
1F
100
AcDbEntity
  8
0
  6
Continuous
 62
     7
370
    18
100
AcDbSpline
210
0.0
220
0.0
230
1.0
 70
     8
 71
     3
 72
    14
 73
    10
 74
     0
 42
0.000000001
 43
0.00000001
 40
0.0
 40
0.0
 40
0.0
 40
0.0
 40
0.110930153677844
 40
0.2580562117416048
 40
0.3863967319075887
 40
0.55412245996605
 40
0.7254294205967374
 40
0.9003737013617737
 40
1.0
 40
1.0
 40
1.0
 40
1.0
 10
131.2721378266451
 20
162.3668706087108
 30
0.0
 10
131.1656536364417
 20
162.35047291644
 30
0.0
 10
130.9179400452926
 20
162.3123270543061
 30
0.0
 10
130.6645716805353
 20
162.0228678445721
 30
0.0
 10
130.4998977880155
 20
161.6804146384672
 30
0.0
 10
130.3466689831311
 20
161.2162082885158
 30
0.0
 10
130.191151931348
 20
160.566059769586
 30
0.0
 10
130.061571062
 20
159.9149491036816
 30
0.0
 10
129.9821543687736
 20
159.4395491128009
 30
0.0
 10
129.9533384948608
 20
159.267053058901
 30
0.0
  0
SPLINE
  5
114
330
1F
100
AcDbEntity
  8
0
  6
Continuous
 62
     7
370
    18
100
AcDbSpline
210
0.0
220
0.0
230
1.0
 70
     8
 71
     3
 72
    10
 73
     6
 74
     0
 42
0.000000001
 43
0.00000001
 40
0.0
 40
0.0
 40
0.0
 40
0.0
 40
0.3342050984225432
 40
0.8174215962944258
 40
1.0
 40
1.0
 40
1.0
 40
1.0
 10
129.0648399948713
 20
153.4670531326617
 30
0.0
 10
129.030238645517
 20
153.2668120885861
 30
0.0
 10
128.9456083081683
 20
152.7770489022537
 30
0.0
 10
128.8428162397327
 20
152.2737512230175
 30
0.0
 10
128.7787170936325
 20
152.0363733074675
 30
0.0
 10
128.7611394285795
 20
151.9712780644829
 30
0.0
  0
SPLINE
  5
115
330
1F
100
AcDbEntity
  8
0
  6
Continuous
 62
     7
370
    18
100
AcDbSpline
210
0.0
220
0.0
230
1.0
 70
     8
 71
     3
 72
    14
 73
    10
 74
     0
 42
0.000000001
 43
0.00000001
 40
0.0
 40
0.0
 40
0.0
 40
0.0
 40
0.065678180178115
 40
0.1361413563925873
 40
0.2918948632143309
 40
0.468534444196991
 40
0.6665700281834451
 40
0.8668921194365169
 40
1.0
 40
1.0
 40
1.0
 40
1.0
 10
126.2729155927536
 20
162.366639175051
 30
0.0
 10
126.2018966122737
 20
162.3599246489243
 30
0.0
 10
126.0546845502779
 20
162.3460064086209
 30
0.0
 10
125.8196357130572
 20
162.2088323034861
 30
0.0
 10
125.6130620022713
 20
161.9435714158479
 30
0.0
 10
125.4200144860512
 20
161.4718751161391
 30
0.0
 10
125.2460907981079
 20
160.81911021386
 30
0.0
 10
125.0889448470998
 20
160.0686108622782
 30
0.0
 10
124.9922194423882
 20
159.495745457197
 30
0.0
 10
124.9536058961985
 20
159.267053058901
 30
0.0
  0
SPLINE
  5
116
330
1F
100
AcDbEntity
  8
0
  6
Continuous
 62
     7
370
    18
100
AcDbSpline
210
0.0
220
0.0
230
1.0
 70
     8
 71
     3
 72
    10
 73
     6
 74
     0
 42
0.000000001
 43
0.00000001
 40
0.0
 40
0.0
 40
0.0
 40
0.0
 40
0.4976860877589759
 40
0.977502125216058
 40
1.0
 40
1.0
 40
1.0
 40
1.0
 10
124.0668620079395
 20
153.4670531326617
 30
0.0
 10
124.0160267573726
 20
153.1828636755776
 30
0.0
 10
123.9161815603954
 20
152.6246889443636
 30
0.0
 10
123.8126042247219
 20
152.1490328671369
 30
0.0
 10
123.7645607280236
 20
151.9711804140238
 30
0.0
 10
123.7624089330074
 20
151.9632146736319
 30
0.0
  0
SPLINE
  5
117
330
1F
100
AcDbEntity
  8
0
  6
Continuous
 62
     7
370
    18
100
AcDbSpline
210
0.0
220
0.0
230
1.0
 70
     8
 71
     3
 72
    14
 73
    10
 74
     0
 42
0.000000001
 43
0.00000001
 40
0.0
 40
0.0
 40
0.0
 40
0.0
 40
0.1337134962315902
 40
0.2504725563317772
 40
0.433738557039254
 40
0.5644821517383719
 40
0.6922122129510646
 40
0.9624649391719716
 40
1.0
 40
1.0
 40
1.0
 40
1.0
 10
121.272531068289
 20
162.3665362639065
 30
0.0
 10
121.1912612320099
 20
162.3576874615848
 30
0.0
 10
121.0390263101869
 20
162.3411118562761
 30
0.0
 10
120.8111939972192
 20
162.1961133474622
 30
0.0
 10
120.6378994372256
 20
161.9691528000303
 30
0.0
 10
120.537586857586
 20
161.7563187033647
 30
0.0
 10
120.4227412888911
 20
161.4542421924377
 30
0.0
 10
120.3336069559871
 20
161.1727319201216
 30
0.0
 10
120.2744181538064
 20
160.9002788545542
 30
0.0
 10
120.2672000139591
 20
160.8670529020662
 30
0.0
  0
SPLINE
  5
118
330
1F
100
AcDbEntity
  8
0
  6
Continuous
 62
     7
370
    18
100
AcDbSpline
210
0.0
220
0.0
230
1.0
 70
     8
 71
     3
 72
    14
 73
    10
 74
     0
 42
0.000000001
 43
0.00000001
 40
0.0
 40
0.0
 40
0.0
 40
0.0
 40
0.1905306797220834
 40
0.3666068573779948
 40
0.5592007619967099
 40
0.7299999354960732
 40
0.8788546809600214
 40
0.9931390634964836
 40
1.0
 40
1.0
 40
1.0
 40
1.0
 10
116.2721055656311
 20
162.3666270678575
 30
0.0
 10
116.1488446518932
 20
162.3430720159789
 30
0.0
 10
115.9116739438008
 20
162.2977489028868
 30
0.0
 10
115.7048829245379
 20
162.0670335424931
 30
0.0
 10
115.5482798683526
 20
161.792616033243
 30
0.0
 10
115.426772573893
 20
161.4677513402196
 30
0.0
 10
115.3401037412633
 20
161.167340986642
 30
0.0
 10
115.288814817818
 20
160.9742419719908
 30
0.0
 10
115.2659039263571
 20
160.8727980697496
 30
0.0
 10
115.2646063923475
 20
160.8670529020662
 30
0.0
  0
LINE
  5
119
330
1F
100
AcDbEntity
  8
0
  6
Continuous
 62
     7
370
    18
100
AcDbLine
 10
176.3626511305
 20
162.3670531479
 30
0.0
 11
175.3669704407
 21
162.3670531479
 31
0.0
  0
LINE
  5
11A
330
1F
100
AcDbEntity
  8
0
  6
Continuous
 62
     7
370
    18
100
AcDbLine
 10
169.3669731825
 20
162.3670531479
 30
0.0
 11
158.8626491934
 21
162.3670531479
 31
0.0
  0
LINE
  5
11B
330
1F
100
AcDbEntity
  8
0
  6
Continuous
 62
     7
370
    18
100
AcDbLine
 10
158.8626491934
 20
150.3670530436
 30
0.0
 11
169.3669731825
 21
150.3670530436
 31
0.0
  0
LINE
  5
11C
330
1F
100
AcDbEntity
  8
0
  6
Continuous
 62
     7
370
    18
100
AcDbLine
 10
175.3669704407
 20
150.3670530436
 30
0.0
 11
176.3626511305
 21
150.3670530436
 31
0.0
  0
LWPOLYLINE
  5
11D
330
1F
100
AcDbEntity
  8
0
  6
Continuous
 62
     7
370
    18
100
AcDbPolyline
 90
        3
 70
   128
 43
0.0
 10
176.3626511305
 20
150.3670530436
 10
176.9227261752
 20
150.9271322792
 10
177.3627947181
 20
151.3671943029
  0
LINE
  5
11E
330
1F
100
AcDbEntity
  8
0
  6
Continuous
 62
     7
370
    18
100
AcDbLine
 10
158.8626491934
 20
161.867053066
 30
0.0
 11
157.3626498788
 21
161.867053066
 31
0.0
  0
LINE
  5
11F
330
1F
100
AcDbEntity
  8
0
  6
Continuous
 62
     7
370
    18
100
AcDbLine
 10
157.3626498788
 20
150.8670531256
 30
0.0
 11
158.8626491934
 21
150.8670531256
 31
0.0
  0
LWPOLYLINE
  5
120
330
1F
100
AcDbEntity
  8
0
  6
Continuous
 62
     7
370
    18
100
AcDbPolyline
 90
        3
 70
   128
 43
0.0
 10
177.3626531571
 20
161.367052984
 10
176.8026526183
 20
161.9270530572
 10
176.3626511305
 20
162.3670531479
  0
LINE
  5
121
330
1F
100
AcDbEntity
  8
0
  6
Continuous
 62
     7
370
    18
100
AcDbLine
 10
154.3626512497
 20
160.8670529021
 30
0.0
 11
152.2564317196
 21
160.8670529021
 31
0.0
  0
LINE
  5
122
330
1F
100
AcDbEntity
  8
0
  6
Continuous
 62
     7
370
    18
100
AcDbLine
 10
151.8626499086
 20
151.8670532895
 30
0.0
 11
152.7678023189
 21
151.8670532895
 31
0.0
  0
LINE
  5
123
330
1F
100
AcDbEntity
  8
0
  6
Continuous
 62
     7
370
    18
100
AcDbLine
 10
153.7827502101
 20
151.8670532895
 30
0.0
 11
154.3626512497
 21
151.8670532895
 31
0.0
  0
LWPOLYLINE
  5
124
330
1F
100
AcDbEntity
  8
0
  6
Continuous
 62
     7
370
    18
100
AcDbPolyline
 90
        3
 70
   128
 43
0.0
 10
151.3626488953
 20
152.3670529058
 10
151.6426491648
 20
152.087053102
 10
151.8626499086
 20
151.8670532895
  0
LWPOLYLINE
  5
125
330
1F
100
AcDbEntity
  8
0
  6
Continuous
 62
     7
370
    18
100
AcDbPolyline
 90
        3
 70
   128
 43
0.0
 10
169.9274356573
 20
166.187797491
 10
169.6135724991
 20
165.6441807789
 10
169.3669731825
 20
165.2170529632
  0
LWPOLYLINE
  5
126
330
1F
100
AcDbEntity
  8
0
  6
Continuous
 62
     7
370
    18
100
AcDbPolyline
 90
        3
 70
   128
 43
0.0
 10
171.8065167874
 20
146.5463087005
 10
172.120372495
 20
147.0899254126
 10
172.3669718116
 20
147.5170532284
  0
LWPOLYLINE
  5
127
330
1F
100
AcDbEntity
  8
0
  6
Continuous
 62
     7
370
    18
100
AcDbPolyline
 90
        3
 70
   128
 43
0.0
 10
169.3669731825
 20
147.5170532284
 10
169.6808288902
 20
146.9734365163
 10
169.9274356573
 20
146.5463087005
  0
LWPOLYLINE
  5
128
330
1F
100
AcDbEntity
  8
0
  6
Continuous
 62
     7
370
    18
100
AcDbPolyline
 90
        3
 70
   128
 43
0.0
 10
172.3669718116
 20
165.2170529632
 10
172.053116104
 20
165.7606696753
 10
171.8065167874
 20
166.187797491
  0
LWPOLYLINE
  5
129
330
1F
100
AcDbEntity
  8
0
  6
Continuous
 62
     7
370
    18
100
AcDbPolyline
 90
        3
 70
   128
 43
0.0
 10
174.8065154165
 20
146.5463087005
 10
175.1203711241
 20
147.0899254126
 10
175.3669704407
 20
147.5170532284
  0
LWPOLYLINE
  5
12A
330
1F
100
AcDbEntity
  8
0
  6
Continuous
 62
     7
370
    18
100
AcDbPolyline
 90
        3
 70
   128
 43
0.0
 10
172.9274342864
 20
166.187797491
 10
172.6135711282
 20
165.6441807789
 10
172.3669718116
 20
165.2170529632
  0
LWPOLYLINE
  5
12B
330
1F
100
AcDbEntity
  8
0
  6
Continuous
 62
     7
370
    18
100
AcDbPolyline
 90
        3
 70
   128
 43
0.0
 10
175.3669704407
 20
165.2170529632
 10
175.0531147331
 20
165.7606696753
 10
174.8065154165
 20
166.187797491
  0
LWPOLYLINE
  5
12C
330
1F
100
AcDbEntity
  8
0
  6
Continuous
 62
     7
370
    18
100
AcDbPolyline
 90
        3
 70
   128
 43
0.0
 10
172.3669718116
 20
147.5170532284
 10
172.6808275193
 20
146.9734365163
 10
172.9274342864
 20
146.5463087005
  0
SPLINE
  5
12D
330
1F
100
AcDbEntity
  8
0
  6
Continuous
 62
     7
370
    18
100
AcDbSpline
210
0.0
220
0.0
230
1.0
 70
    24
 71
     3
 72
    14
 73
    10
 74
     0
 42
0.000000001
 43
0.00000001
 40
0.0
 40
0.0
 40
0.0
 40
0.0
 40
0.25
 40
0.25
 40
0.5
 40
0.5
 40
0.75
 40
0.75
 40
1.0
 40
1.0
 40
1.0
 40
1.0
 10
108.3626501772326
 20
149.9035014395986
 30
0.0
 10
108.3626501772326
 20
150.0868311288393
 30
0.0
 10
108.3626501772326
 20
150.3863463365863
 30
0.0
 10
108.3626501772326
 20
151.2156456485226
 30
0.0
 10
108.3626501772326
 20
151.745190150433
 30
0.0
 10
108.3626501772326
 20
152.9536913864079
 30
0.0
 10
108.3626501772326
 20
153.6305618433332
 30
0.0
 10
108.3626501772326
 20
155.0082987316911
 30
0.0
 10
108.3626501772326
 20
155.7073561377595
 30
0.0
 10
108.3626501772326
 20
156.3670530957813
 30
0.0
  0
SPLINE
  5
12E
330
1F
100
AcDbEntity
  8
0
  6
Continuous
 62
     7
370
    18
100
AcDbSpline
210
0.0
220
0.0
230
1.0
 70
    24
 71
     3
 72
    10
 73
     6
 74
     0
 42
0.000000001
 43
0.00000001
 40
0.0
 40
0.0
 40
0.0
 40
0.0
 40
0.5
 40
0.5
 40
1.0
 40
1.0
 40
1.0
 40
1.0
 10
108.0626501770393
 20
156.3670530957813
 30
0.0
 10
108.1333608552543
 20
156.3670530957813
 30
0.0
 10
108.2162035677238
 20
156.3670530957813
 30
0.0
 10
108.3333608552346
 20
156.3670530957813
 30
0.0
 10
108.3626501771353
 20
156.3670530957813
 30
0.0
 10
108.3626501772326
 20
156.3670530957813
 30
0.0
  0
SPLINE
  5
12F
330
1F
100
AcDbEntity
  8
0
  6
Continuous
 62
     7
370
    18
100
AcDbSpline
210
0.0
220
0.0
230
1.0
 70
    24
 71
     3
 72
    10
 73
     6
 74
     0
 42
0.000000001
 43
0.00000001
 40
0.0
 40
0.0
 40
0.0
 40
0.0
 40
0.4999999999999999
 40
0.4999999999999999
 40
1.0
 40
1.0
 40
1.0
 40
1.0
 10
108.0626501768467
 20
156.3670530929099
 30
0.0
 10
108.0626501768467
 20
154.6507632382898
 30
0.0
 10
108.0626501768467
 20
152.9941084496917
 30
0.0
 10
108.0626501768467
 20
150.43041746733
 30
0.0
 10
108.0626501768467
 20
149.6124605627776
 30
0.0
 10
108.0626501768467
 20
149.4140064020583
 30
0.0
  0
SPLINE
  5
130
330
1F
100
AcDbEntity
  8
0
  6
Continuous
 62
     7
370
    18
100
AcDbSpline
210
0.0
220
0.0
230
1.0
 70
     8
 71
     3
 72
    14
 73
    10
 74
     0
 42
0.000000001
 43
0.00000001
 40
0.0
 40
0.0
 40
0.0
 40
0.0
 40
0.25
 40
0.25
 40
0.5
 40
0.5
 40
0.75
 40
0.75
 40
1.0
 40
1.0
 40
1.0
 40
1.0
 10
108.0626501768467
 20
149.4140064017813
 30
0.0
 10
108.0838390408467
 20
149.4268960387813
 30
0.0
 10
108.1089953048467
 20
149.4440431957813
 30
0.0
 10
108.1659629368467
 20
149.4920015637813
 30
0.0
 10
108.1978739648467
 20
149.5229536977813
 30
0.0
 10
108.2615624328467
 20
149.6025371137813
 30
0.0
 10
108.2936650345134
 20
149.6514963781147
 30
0.0
 10
108.3447022638467
 20
149.7691236287813
 30
0.0
 10
108.3626501768467
 20
149.8364702127813
 30
0.0
 10
108.3626501768467
 20
149.9035014407813
 30
0.0
  0
SPLINE
  5
131
330
1F
100
AcDbEntity
  8
0
  6
Continuous
 62
     7
370
    18
100
AcDbSpline
210
0.0
220
0.0
230
1.0
 70
    27
 71
     3
 72
    12
 73
     8
 74
     0
 42
0.000000001
 43
0.00000001
 40
0.0
 40
0.0
 40
0.0
 40
0.0
 40
0.3333333333333333
 40
0.3333333333333333
 40
0.6666666666666665
 40
0.6666666666666665
 40
0.9999999999999999
 40
0.9999999999999999
 40
0.9999999999999999
 40
0.9999999999999999
 10
114.0626501768467
 20
156.3670530957813
 30
0.0
 10
114.0626501768467
 20
158.8675471097562
 30
0.0
 10
114.0626501768467
 20
161.1789839160597
 30
0.0
 10
114.0626501768467
 20
163.6794779294423
 30
0.0
 10
114.0626501768467
 20
163.6794779288949
 30
0.0
 10
114.0626501768467
 20
161.1789839137356
 30
0.0
 10
114.0626501768467
 20
158.8675471068848
 30
0.0
 10
114.0626501768467
 20
156.3670530929099
 30
0.0
  0
SPLINE
  5
132
330
1F
100
AcDbEntity
  8
0
  6
Continuous
 62
     7
370
    18
100
AcDbSpline
210
0.0
220
0.0
230
1.0
 70
    27
 71
     3
 72
    14
 73
    10
 74
     0
 42
0.000000001
 43
0.00000001
 40
0.0
 40
0.0
 40
0.0
 40
0.0
 40
0.25
 40
0.25
 40
0.5000000000000001
 40
0.5000000000000001
 40
0.75
 40
0.75
 40
1.0
 40
1.0
 40
1.0
 40
1.0
 10
114.0626501768467
 20
156.3670530929099
 30
0.0
 10
114.0626501768467
 20
154.5105902052691
 30
0.0
 10
114.0626501768467
 20
152.7300231227019
 30
0.0
 10
114.0626501768467
 20
150.1045881296479
 30
0.0
 10
114.0626501768467
 20
149.3670530955673
 30
0.0
 10
114.0626501768467
 20
149.3670530959954
 30
0.0
 10
114.0626501768467
 20
150.1045881304867
 30
0.0
 10
114.0626501768467
 20
152.7300231241462
 30
0.0
 10
114.0626501768467
 20
154.5105902068835
 30
0.0
 10
114.0626501768467
 20
156.3670530945242
 30
0.0
  0
SPLINE
  5
133
330
1F
100
AcDbEntity
  8
0
  6
Continuous
 62
     7
370
    18
100
AcDbSpline
210
0.0
220
0.0
230
1.0
 70
    24
 71
     3
 72
    10
 73
     6
 74
     0
 42
0.000000001
 43
0.00000001
 40
0.0
 40
0.0
 40
0.0
 40
0.0
 40
0.5000000000000002
 40
0.5000000000000002
 40
1.0
 40
1.0
 40
1.0
 40
1.0
 10
112.6626501768467
 20
149.4140064020583
 30
0.0
 10
112.6626501768467
 20
149.6124605627776
 30
0.0
 10
112.6626501768467
 20
150.43041746733
 30
0.0
 10
112.6626501768467
 20
152.9941084496917
 30
0.0
 10
112.6626501768467
 20
154.6507632382898
 30
0.0
 10
112.6626501768467
 20
156.3670530929099
 30
0.0
  0
SPLINE
  5
134
330
1F
100
AcDbEntity
  8
0
  6
Continuous
 62
     7
370
    18
100
AcDbSpline
210
0.0
220
0.0
230
1.0
 70
    27
 71
     3
 72
    12
 73
     8
 74
     0
 42
0.000000001
 43
0.00000001
 40
0.0
 40
0.0
 40
0.0
 40
0.0
 40
0.3333333333333332
 40
0.3333333333333332
 40
0.6666666666666665
 40
0.6666666666666665
 40
0.9999999999999999
 40
0.9999999999999999
 40
0.9999999999999999
 40
0.9999999999999999
 10
112.6626501768467
 20
156.3670530929099
 30
0.0
 10
112.6626501768467
 20
158.8675471068848
 30
0.0
 10
112.6626501768467
 20
161.1789839137356
 30
0.0
 10
112.6626501768467
 20
163.6794779288949
 30
0.0
 10
112.6626501768467
 20
163.6794779294423
 30
0.0
 10
112.6626501768467
 20
161.1789839160597
 30
0.0
 10
112.6626501768467
 20
158.8675471097562
 30
0.0
 10
112.6626501768467
 20
156.3670530957813
 30
0.0
  0
SPLINE
  5
135
330
1F
100
AcDbEntity
  8
0
  6
Continuous
 62
     7
370
    18
100
AcDbSpline
210
0.0
220
0.0
230
1.0
 70
     8
 71
     3
 72
    14
 73
    10
 74
     0
 42
0.000000001
 43
0.00000001
 40
0.0
 40
0.0
 40
0.0
 40
0.0
 40
0.25
 40
0.25
 40
0.5
 40
0.5
 40
0.75
 40
0.75
 40
1.0
 40
1.0
 40
1.0
 40
1.0
 10
112.3626501768467
 20
149.9035014407813
 30
0.0
 10
112.3626501768467
 20
149.8363732647813
 30
0.0
 10
112.3806225438467
 20
149.7690387837813
 30
0.0
 10
112.4316956025134
 20
149.6513859757813
 30
0.0
 10
112.4638267793467
 20
149.6023978587813
 30
0.0
 10
112.5276337053467
 20
149.5227229907813
 30
0.0
 10
112.5594391698467
 20
149.4919002811147
 30
0.0
 10
112.6165219618467
 20
149.4438762957813
 30
0.0
 10
112.6415838028467
 20
149.4268215247813
 30
0.0
 10
112.6626501768467
 20
149.4140064017813
 30
0.0
  0
SPLINE
  5
136
330
1F
100
AcDbEntity
  8
0
  6
Continuous
 62
     7
370
    18
100
AcDbSpline
210
0.0
220
0.0
230
1.0
 70
    24
 71
     3
 72
    10
 73
     6
 74
     0
 42
0.000000001
 43
0.00000001
 40
0.0
 40
0.0
 40
0.0
 40
0.0
 40
0.5
 40
0.5
 40
1.0
 40
1.0
 40
1.0
 40
1.0
 10
112.6626501766541
 20
156.3670530957813
 30
0.0
 10
112.5919394984391
 20
156.3670530957813
 30
0.0
 10
112.5090967859696
 20
156.3670530957813
 30
0.0
 10
112.3919394984588
 20
156.3670530957813
 30
0.0
 10
112.3626501765581
 20
156.3670530957813
 30
0.0
 10
112.3626501764608
 20
156.3670530957813
 30
0.0
  0
SPLINE
  5
137
330
1F
100
AcDbEntity
  8
0
  6
Continuous
 62
     7
370
    18
100
AcDbSpline
210
0.0
220
0.0
230
1.0
 70
    24
 71
     3
 72
    14
 73
    10
 74
     0
 42
0.000000001
 43
0.00000001
 40
0.0
 40
0.0
 40
0.0
 40
0.0
 40
0.2500000000000001
 40
0.2500000000000001
 40
0.5000000000000001
 40
0.5000000000000001
 40
0.75
 40
0.75
 40
1.0
 40
1.0
 40
1.0
 40
1.0
 10
112.3626501764608
 20
156.3670530957813
 30
0.0
 10
112.3626501764608
 20
155.7073561377595
 30
0.0
 10
112.3626501764608
 20
155.0082987316911
 30
0.0
 10
112.3626501764608
 20
153.6305618433332
 30
0.0
 10
112.3626501764608
 20
152.9536913864079
 30
0.0
 10
112.3626501764608
 20
151.745190150433
 30
0.0
 10
112.3626501764608
 20
151.2156456485226
 30
0.0
 10
112.3626501764608
 20
150.3863463365863
 30
0.0
 10
112.3626501764608
 20
150.0868311288393
 30
0.0
 10
112.3626501764608
 20
149.9035014395986
 30
0.0
  0
SPLINE
  5
138
330
1F
100
AcDbEntity
  8
0
  6
Continuous
 62
     7
370
    18
100
AcDbSpline
210
0.0
220
0.0
230
1.0
 70
    24
 71
     3
 72
    20
 73
    16
 74
     0
 42
0.000000001
 43
0.00000001
 40
0.0
 40
0.0
 40
0.0
 40
0.0
 40
0.1249999999999999
 40
0.1249999999999999
 40
0.2499999999999999
 40
0.2499999999999999
 40
0.3749999999999998
 40
0.3749999999999998
 40
0.4999999999999998
 40
0.4999999999999998
 40
0.6249999999999998
 40
0.6249999999999998
 40
0.7499999999999998
 40
0.7499999999999998
 40
1.0
 40
1.0
 40
1.0
 40
1.0
 10
112.3626501764608
 20
163.0670530959081
 30
0.0
 10
112.3626501764608
 20
163.067053095907
 30
0.0
 10
112.3626501764608
 20
162.9962207487647
 30
0.0
 10
112.3626501764608
 20
162.7255777507304
 30
0.0
 10
112.3626501764608
 20
162.526107305813
 30
0.0
 10
112.3626501764608
 20
162.0315282977292
 30
0.0
 10
112.3626501764608
 20
161.7368598138364
 30
0.0
 10
112.3626501764608
 20
161.0931367888666
 30
0.0
 10
112.3626501764608
 20
160.7443864291929
 30
0.0
 10
112.3626501764608
 20
160.0297197625133
 30
0.0
 10
112.3626501764608
 20
159.6639053451352
 30
0.0
 10
112.3626501764608
 20
158.9421109588916
 30
0.0
 10
112.3626501764608
 20
158.5860930958209
 30
0.0
 10
112.3626501764608
 20
157.5569730958026
 30
0.0
 10
112.3626501764608
 20
156.9253864291247
 30
0.0
 10
112.3626501764608
 20
156.3670530957813
 30
0.0
  0
SPLINE
  5
139
330
1F
100
AcDbEntity
  8
0
  6
Continuous
 62
     7
370
    18
100
AcDbSpline
210
0.0
220
0.0
230
1.0
 70
    24
 71
     3
 72
    20
 73
    16
 74
     0
 42
0.000000001
 43
0.00000001
 40
0.0
 40
0.0
 40
0.0
 40
0.0
 40
0.25
 40
0.25
 40
0.375
 40
0.375
 40
0.5
 40
0.5
 40
0.625
 40
0.625
 40
0.75
 40
0.75
 40
0.875
 40
0.875
 40
1.0
 40
1.0
 40
1.0
 40
1.0
 10
108.3626501772326
 20
156.3670530957813
 30
0.0
 10
108.3626501772326
 20
156.9253864291258
 30
0.0
 10
108.3626501772326
 20
157.5569730958051
 30
0.0
 10
108.3626501772326
 20
158.5860930958258
 30
0.0
 10
108.3626501772326
 20
158.9421109588974
 30
0.0
 10
108.3626501772326
 20
159.6639053451425
 30
0.0
 10
108.3626501772326
 20
160.0297197625213
 30
0.0
 10
108.3626501772326
 20
160.7443864292021
 30
0.0
 10
108.3626501772326
 20
161.0931367888761
 30
0.0
 10
108.3626501772326
 20
161.7368598138462
 30
0.0
 10
108.3626501772326
 20
162.0315282977388
 30
0.0
 10
108.3626501772326
 20
162.5261073058213
 30
0.0
 10
108.3626501772326
 20
162.7255777507376
 30
0.0
 10
108.3626501772326
 20
162.9962207487688
 30
0.0
 10
108.3626501772326
 20
163.0670530959092
 30
0.0
 10
108.3626501772326
 20
163.0670530959081
 30
0.0
  0
SPLINE
  5
13A
330
1F
100
AcDbEntity
  8
0
  6
Continuous
 62
     7
370
    18
100
AcDbSpline
210
0.0
220
0.0
230
1.0
 70
    24
 71
     3
 72
    10
 73
     6
 74
     0
 42
0.000000001
 43
0.00000001
 40
0.0
 40
0.0
 40
0.0
 40
0.0
 40
0.5
 40
0.5
 40
1.0
 40
1.0
 40
1.0
 40
1.0
 10
114.3626501772326
 20
156.3670530957813
 30
0.0
 10
114.3626501771353
 20
156.3670530957813
 30
0.0
 10
114.3333608552346
 20
156.3670530957813
 30
0.0
 10
114.2162035677238
 20
156.3670530957813
 30
0.0
 10
114.1333608552543
 20
156.3670530957813
 30
0.0
 10
114.0626501770393
 20
156.3670530957813
 30
0.0
  0
SPLINE
  5
13B
330
1F
100
AcDbEntity
  8
0
  6
Continuous
 62
     7
370
    18
100
AcDbSpline
210
0.0
220
0.0
230
1.0
 70
    24
 71
     3
 72
    10
 73
     6
 74
     0
 42
0.000000001
 43
0.00000001
 40
0.0
 40
0.0
 40
0.0
 40
0.0
 40
0.5
 40
0.5
 40
1.0
 40
1.0
 40
1.0
 40
1.0
 10
114.0626501770393
 20
156.3670530957813
 30
0.0
 10
114.1333608552543
 20
156.3670530957813
 30
0.0
 10
114.2162035677238
 20
156.3670530957813
 30
0.0
 10
114.3333608552346
 20
156.3670530957813
 30
0.0
 10
114.3626501771353
 20
156.3670530957813
 30
0.0
 10
114.3626501772326
 20
156.3670530957813
 30
0.0
  0
SPLINE
  5
13C
330
1F
100
AcDbEntity
  8
0
  6
Continuous
 62
     7
370
    18
100
AcDbSpline
210
0.0
220
0.0
230
1.0
 70
    24
 71
     3
 72
    25
 73
    21
 74
     0
 42
0.000000001
 43
0.00000001
 40
0.0
 40
0.0
 40
0.0
 40
0.0
 40
0.0250529546961805
 40
0.0500478753371753
 40
0.0750234212544377
 40
0.1000183416859154
 40
0.1250712959704197
 40
0.1875858261821788
 40
0.2501003567404746
 40
0.3126148877363533
 40
0.3751294184057042
 40
0.5000071476030015
 40
0.6248848768002986
 40
0.6873994074696498
 40
0.7499139384655285
 40
0.8124284690238244
 40
0.8749429992355832
 40
0.9166585443972171
 40
0.9582844542572012
 40
1.0
 40
1.0
 40
1.0
 40
1.0
 10
114.3626501768467
 20
163.0670530924581
 30
0.0
 10
114.3626501768467
 20
163.066065051813
 30
0.0
 10
114.3626501768467
 20
163.064091259275
 30
0.0
 10
114.3626501768467
 20
163.0480587330717
 30
0.0
 10
114.3626501768467
 20
163.0224467369699
 30
0.0
 10
114.3626501768467
 20
162.9863203222304
 30
0.0
 10
114.3626501768467
 20
162.9168974096511
 30
0.0
 10
114.3626501768467
 20
162.7890025117098
 30
0.0
 10
114.3626501768467
 20
162.5669372556647
 30
0.0
 10
114.3626501768467
 20
162.2855242741434
 30
0.0
 10
114.3626501768467
 20
161.8343412075802
 30
0.0
 10
114.3626501768467
 20
161.1353191582225
 30
0.0
 10
114.3626501768467
 20
160.2830068295579
 30
0.0
 10
114.3626501768467
 20
159.530582571954
 30
0.0
 10
114.3626501768467
 20
158.9351153861284
 30
0.0
 10
114.3626501768467
 20
158.3151484430162
 30
0.0
 10
114.3626501768467
 20
157.7470512997421
 30
0.0
 10
114.3626501768467
 20
157.2422203076211
 30
0.0
 10
114.3626501768467
 20
156.8055697937936
 30
0.0
 10
114.3626501768467
 20
156.5133300988926
 30
0.0
 10
114.3626501768467
 20
156.3670530957813
 30
0.0
  0
SPLINE
  5
13D
330
1F
100
AcDbEntity
  8
0
  6
Continuous
 62
     7
370
    18
100
AcDbSpline
210
0.0
220
0.0
230
1.0
 70
    24
 71
     3
 72
    25
 73
    21
 74
     0
 42
0.000000001
 43
0.00000001
 40
0.0
 40
0.0
 40
0.0
 40
0.0
 40
0.0250529547012751
 40
0.0500478753409906
 40
0.0750234212569811
 40
0.1000183416871891
 40
0.1250712959704198
 40
0.1875858261821789
 40
0.2501003567404747
 40
0.3126148877363534
 40
0.3751294184057044
 40
0.5000071476030016
 40
0.6248848768002989
 40
0.6873994074696499
 40
0.7499139384655285
 40
0.8124284690238243
 40
0.8749429992355833
 40
0.916658544395097
 40
0.9582844542529622
 40
1.0
 40
1.0
 40
1.0
 40
1.0
 10
114.3626501768467
 20
156.3670530957813
 30
0.0
 10
114.3626501768467
 20
156.2792140576554
 30
0.0
 10
114.3626501768467
 20
156.1037394566505
 30
0.0
 10
114.3626501768467
 20
155.8411000520433
 30
0.0
 10
114.3626501768467
 20
155.5794774189819
 30
0.0
 10
114.3626501768467
 20
155.31886538065
 30
0.0
 10
114.3626501768467
 20
154.9303165436143
 30
0.0
 10
114.3626501768467
 20
154.418946653592
 30
0.0
 10
114.3626501768467
 20
153.7989937703547
 30
0.0
 10
114.3626501768467
 20
153.2035228548813
 30
0.0
 10
114.3626501768467
 20
152.4510997415395
 30
0.0
 10
114.3626501768467
 20
151.5987874353505
 30
0.0
 10
114.3626501768467
 20
150.8997633979293
 30
0.0
 10
114.3626501768467
 20
150.44858469561
 30
0.0
 10
114.3626501768467
 20
150.1671583201093
 30
0.0
 10
114.3626501768467
 20
149.9451433648165
 30
0.0
 10
114.3626501768467
 20
149.8028821809188
 30
0.0
 10
114.3626501768467
 20
149.7198893041557
 30
0.0
 10
114.3626501768467
 20
149.6752753302952
 30
0.0
 10
114.3626501768467
 20
149.6697958072909
 30
0.0
 10
114.3626501768467
 20
149.6670530991045
 30
0.0
  0
SPLINE
  5
13E
330
1F
100
AcDbEntity
  8
0
  6
Continuous
 62
     7
370
    18
100
AcDbSpline
210
0.0
220
0.0
230
1.0
 70
    24
 71
     3
 72
    25
 73
    21
 74
     0
 42
0.000000001
 43
0.00000001
 40
0.0
 40
0.0
 40
0.0
 40
0.0
 40
0.0250529546961802
 40
0.0500478753371751
 40
0.0750234212544376
 40
0.1000183416859151
 40
0.1250712959704197
 40
0.1875858261821788
 40
0.2501003567404745
 40
0.3126148877363533
 40
0.3751294184057042
 40
0.5000071476030015
 40
0.6248848768002986
 40
0.6873994074696497
 40
0.7499139384655282
 40
0.8124284690238243
 40
0.8749429992355832
 40
0.9166585443972167
 40
0.958284454257201
 40
1.0
 40
1.0
 40
1.0
 40
1.0
 10
106.3626501768467
 20
149.6670530991045
 30
0.0
 10
106.3626501768467
 20
149.6680411397496
 30
0.0
 10
106.3626501768467
 20
149.6700149322877
 30
0.0
 10
106.3626501768467
 20
149.686047458491
 30
0.0
 10
106.3626501768467
 20
149.7116594545928
 30
0.0
 10
106.3626501768467
 20
149.7477858693323
 30
0.0
 10
106.3626501768467
 20
149.8172087819115
 30
0.0
 10
106.3626501768467
 20
149.9451036798529
 30
0.0
 10
106.3626501768467
 20
150.1671689358979
 30
0.0
 10
106.3626501768467
 20
150.4485819174193
 30
0.0
 10
106.3626501768467
 20
150.8997649839824
 30
0.0
 10
106.3626501768467
 20
151.5987870333402
 30
0.0
 10
106.3626501768467
 20
152.4510993620047
 30
0.0
 10
106.3626501768467
 20
153.2035236196086
 30
0.0
 10
106.3626501768467
 20
153.7989908054342
 30
0.0
 10
106.3626501768467
 20
154.4189577485465
 30
0.0
 10
106.3626501768467
 20
154.9870548918205
 30
0.0
 10
106.3626501768467
 20
155.4918858839416
 30
0.0
 10
106.3626501768467
 20
155.9285363977691
 30
0.0
 10
106.3626501768467
 20
156.2207760926701
 30
0.0
 10
106.3626501768467
 20
156.3670530957813
 30
0.0
  0
SPLINE
  5
13F
330
1F
100
AcDbEntity
  8
0
  6
Continuous
 62
     7
370
    18
100
AcDbSpline
210
0.0
220
0.0
230
1.0
 70
    24
 71
     3
 72
    10
 73
     6
 74
     0
 42
0.000000001
 43
0.00000001
 40
0.0
 40
0.0
 40
0.0
 40
0.0
 40
0.5
 40
0.5
 40
1.0
 40
1.0
 40
1.0
 40
1.0
 10
106.3626501764608
 20
156.3670530957813
 30
0.0
 10
106.3626501765581
 20
156.3670530957813
 30
0.0
 10
106.3919394984588
 20
156.3670530957813
 30
0.0
 10
106.5090967859696
 20
156.3670530957813
 30
0.0
 10
106.5919394984391
 20
156.3670530957813
 30
0.0
 10
106.6626501766541
 20
156.3670530957813
 30
0.0
  0
SPLINE
  5
140
330
1F
100
AcDbEntity
  8
0
  6
Continuous
 62
     7
370
    18
100
AcDbSpline
210
0.0
220
0.0
230
1.0
 70
    24
 71
     3
 72
    25
 73
    21
 74
     0
 42
0.000000001
 43
0.00000001
 40
0.0
 40
0.0
 40
0.0
 40
0.0
 40
0.0250529547012752
 40
0.0500478753409905
 40
0.0750234212569812
 40
0.1000183416871889
 40
0.1250712959704198
 40
0.1875858261821786
 40
0.2501003567404746
 40
0.3126148877363532
 40
0.3751294184057043
 40
0.5000071476030015
 40
0.6248848768002988
 40
0.6873994074696499
 40
0.7499139384655283
 40
0.8124284690238244
 40
0.8749429992355832
 40
0.9166585443950973
 40
0.958284454252962
 40
1.0
 40
1.0
 40
1.0
 40
1.0
 10
106.3626501768467
 20
156.3670530957813
 30
0.0
 10
106.3626501768467
 20
156.4548921339073
 30
0.0
 10
106.3626501768467
 20
156.6303667349122
 30
0.0
 10
106.3626501768467
 20
156.8930061395193
 30
0.0
 10
106.3626501768467
 20
157.1546287725808
 30
0.0
 10
106.3626501768467
 20
157.4152408109126
 30
0.0
 10
106.3626501768467
 20
157.8037896479484
 30
0.0
 10
106.3626501768467
 20
158.3151595379706
 30
0.0
 10
106.3626501768467
 20
158.935112421208
 30
0.0
 10
106.3626501768467
 20
159.5305833366814
 30
0.0
 10
106.3626501768467
 20
160.2830064500231
 30
0.0
 10
106.3626501768467
 20
161.1353187562121
 30
0.0
 10
106.3626501768467
 20
161.8343427936333
 30
0.0
 10
106.3626501768467
 20
162.2855214959527
 30
0.0
 10
106.3626501768467
 20
162.5669478714534
 30
0.0
 10
106.3626501768467
 20
162.7889628267462
 30
0.0
 10
106.3626501768467
 20
162.9312240106438
 30
0.0
 10
106.3626501768467
 20
163.0142168874069
 30
0.0
 10
106.3626501768467
 20
163.0588308612674
 30
0.0
 10
106.3626501768467
 20
163.0643103842717
 30
0.0
 10
106.3626501768467
 20
163.0670530924581
 30
0.0
  0
SPLINE
  5
141
330
1F
100
AcDbEntity
  8
0
  6
Continuous
 62
     7
370
    18
100
AcDbSpline
210
0.0
220
0.0
230
1.0
 70
    24
 71
     3
 72
    10
 73
     6
 74
     0
 42
0.000000001
 43
0.00000001
 40
0.0
 40
0.0
 40
0.0
 40
0.0
 40
0.5
 40
0.5
 40
1.0
 40
1.0
 40
1.0
 40
1.0
 10
99.06265017703926
 20
156.3670530957813
 30
0.0
 10
99.1333608552543
 20
156.3670530957813
 30
0.0
 10
99.21620356772377
 20
156.3670530957813
 30
0.0
 10
99.3333608552346
 20
156.3670530957813
 30
0.0
 10
99.36265017713531
 20
156.3670530957813
 30
0.0
 10
99.36265017723255
 20
156.3670530957813
 30
0.0
  0
SPLINE
  5
142
330
1F
100
AcDbEntity
  8
0
  6
Continuous
 62
     7
370
    18
100
AcDbSpline
210
0.0
220
0.0
230
1.0
 70
    24
 71
     3
 72
    20
 73
    16
 74
     0
 42
0.000000001
 43
0.00000001
 40
0.0
 40
0.0
 40
0.0
 40
0.0
 40
0.25
 40
0.25
 40
0.375
 40
0.375
 40
0.5
 40
0.5
 40
0.625
 40
0.625
 40
0.75
 40
0.75
 40
0.875
 40
0.875
 40
1.0
 40
1.0
 40
1.0
 40
1.0
 10
99.36265017723255
 20
156.3670530957813
 30
0.0
 10
99.36265017723255
 20
156.8003864291257
 30
0.0
 10
99.36265017723255
 20
157.2905730958048
 30
0.0
 10
99.36265017723255
 20
158.0892930958252
 30
0.0
 10
99.36265017723255
 20
158.3656054671659
 30
0.0
 10
99.36265017723255
 20
158.9258040952995
 30
0.0
 10
99.36265017723255
 20
159.2097197625204
 30
0.0
 10
99.36265017723255
 20
159.764386429201
 30
0.0
 10
99.36265017723255
 20
160.0350583501436
 30
0.0
 10
99.36265017723255
 20
160.5346642799738
 30
0.0
 10
99.36265017723255
 20
160.7633622077723
 30
0.0
 10
99.36265017723255
 20
161.1472145722563
 30
0.0
 10
99.36265017723255
 20
161.3020274548788
 30
0.0
 10
99.36265017723255
 20
161.5120787369341
 30
0.0
 10
99.36265017723255
 20
161.567053095909
 30
0.0
 10
99.36265017723255
 20
161.5670530959081
 30
0.0
  0
SPLINE
  5
143
330
1F
100
AcDbEntity
  8
0
  6
Continuous
 62
     7
370
    18
100
AcDbSpline
210
0.0
220
0.0
230
1.0
 70
    24
 71
     3
 72
    20
 73
    16
 74
     0
 42
0.000000001
 43
0.00000001
 40
0.0
 40
0.0
 40
0.0
 40
0.0
 40
0.125
 40
0.125
 40
0.25
 40
0.25
 40
0.375
 40
0.375
 40
0.5
 40
0.5
 40
0.625
 40
0.625
 40
0.75
 40
0.75
 40
1.0
 40
1.0
 40
1.0
 40
1.0
 10
99.36265017723255
 20
151.1670530956545
 30
0.0
 10
99.36265017723255
 20
151.1670530956554
 30
0.0
 10
99.36265017723255
 20
151.2220274546318
 30
0.0
 10
99.36265017723255
 20
151.4320787366894
 30
0.0
 10
99.36265017723255
 20
151.5868916193127
 30
0.0
 10
99.36265017723255
 20
151.9707439837978
 30
0.0
 10
99.36265017723255
 20
152.1994419115964
 30
0.0
 10
99.36265017723255
 20
152.6990478414265
 30
0.0
 10
99.36265017723255
 20
152.9697197623687
 30
0.0
 10
99.36265017723255
 20
153.5243864290485
 30
0.0
 10
99.36265017723255
 20
153.8083020962688
 30
0.0
 10
99.36265017723255
 20
154.3685007244012
 30
0.0
 10
99.36265017723255
 20
154.6448130957412
 30
0.0
 10
99.36265017723255
 20
155.4435330957598
 30
0.0
 10
99.36265017723255
 20
155.9337197624379
 30
0.0
 10
99.36265017723255
 20
156.3670530957813
 30
0.0
  0
SPLINE
  5
144
330
1F
100
AcDbEntity
  8
0
  6
Continuous
 62
     7
370
    18
100
AcDbSpline
210
0.0
220
0.0
230
1.0
 70
    24
 71
     3
 72
    10
 73
     6
 74
     0
 42
0.000000001
 43
0.00000001
 40
0.0
 40
0.0
 40
0.0
 40
0.0
 40
0.5
 40
0.5
 40
1.0
 40
1.0
 40
1.0
 40
1.0
 10
97.36265017646082
 20
156.3670530957813
 30
0.0
 10
97.36265017655806
 20
156.3670530957813
 30
0.0
 10
97.39193949845878
 20
156.3670530957813
 30
0.0
 10
97.50909678596962
 20
156.3670530957813
 30
0.0
 10
97.59193949843909
 20
156.3670530957813
 30
0.0
 10
97.66265017665413
 20
156.3670530957813
 30
0.0
  0
SPLINE
  5
145
330
1F
100
AcDbEntity
  8
0
  6
Continuous
 62
     7
370
    18
100
AcDbSpline
210
0.0
220
0.0
230
1.0
 70
    24
 71
     3
 72
    25
 73
    21
 74
     0
 42
0.000000001
 43
0.00000001
 40
0.0
 40
0.0
 40
0.0
 40
0.0
 40
0.0250529547012752
 40
0.0500478753409905
 40
0.0750234212569812
 40
0.1000183416871889
 40
0.1250712959704198
 40
0.1875858261821786
 40
0.2501003567404745
 40
0.312614887736353
 40
0.3751294184057041
 40
0.5000071476030014
 40
0.6248848768002986
 40
0.6873994074696498
 40
0.7499139384655282
 40
0.8124284690238243
 40
0.874942999235583
 40
0.9166585443950973
 40
0.958284454252962
 40
1.0
 40
1.0
 40
1.0
 40
1.0
 10
97.3626501768467
 20
156.3670530957813
 30
0.0
 10
97.3626501768467
 20
156.4352266776104
 30
0.0
 10
97.3626501768467
 20
156.5714159201814
 30
0.0
 10
97.36265017684669
 20
156.7752554580855
 30
0.0
 10
97.3626501768467
 20
156.9783058598645
 30
0.0
 10
97.3626501768467
 20
157.1805719194653
 30
0.0
 10
97.3626501768467
 20
157.4821322108961
 30
0.0
 10
97.36265017684669
 20
157.8790163046447
 30
0.0
 10
97.3626501768467
 20
158.3601737662617
 30
0.0
 10
97.3626501768467
 20
158.8223302976739
 30
0.0
 10
97.36265017684669
 20
159.4063004751929
 30
0.0
 10
97.3626501768467
 20
160.0677965934291
 30
0.0
 10
97.36265017684669
 20
160.6103227120247
 30
0.0
 10
97.3626501768467
 20
160.9604912571083
 30
0.0
 10
97.3626501768467
 20
161.1789117276462
 30
0.0
 10
97.36265017684669
 20
161.3512218422018
 30
0.0
 10
97.3626501768467
 20
161.4616335073164
 30
0.0
 10
97.36265017684669
 20
161.5260458892818
 30
0.0
 10
97.36265017684669
 20
161.5606716600392
 30
0.0
 10
97.3626501768467
 20
161.5649244241619
 30
0.0
 10
97.3626501768467
 20
161.5670530932021
 30
0.0
  0
SPLINE
  5
146
330
1F
100
AcDbEntity
  8
0
  6
Continuous
 62
     7
370
    18
100
AcDbSpline
210
0.0
220
0.0
230
1.0
 70
    24
 71
     3
 72
    25
 73
    21
 74
     0
 42
0.000000001
 43
0.00000001
 40
0.0
 40
0.0
 40
0.0
 40
0.0
 40
0.0250529546961802
 40
0.0500478753371752
 40
0.0750234212544376
 40
0.1000183416859151
 40
0.1250712959704199
 40
0.1875858261821789
 40
0.2501003567404746
 40
0.3126148877363534
 40
0.3751294184057043
 40
0.5000071476030015
 40
0.6248848768002988
 40
0.6873994074696499
 40
0.7499139384655285
 40
0.8124284690238245
 40
0.8749429992355833
 40
0.9166585443972168
 40
0.9582844542572012
 40
1.0
 40
1.0
 40
1.0
 40
1.0
 10
97.3626501768467
 20
151.1670530983605
 30
0.0
 10
97.36265017684669
 20
151.1678199358761
 30
0.0
 10
97.36265017684669
 20
151.1693518345624
 30
0.0
 10
97.3626501768467
 20
151.1817949892276
 30
0.0
 10
97.36265017684669
 20
151.2016729563514
 30
0.0
 10
97.36265017684669
 20
151.229711367791
 30
0.0
 10
97.36265017684669
 20
151.2835918372555
 30
0.0
 10
97.36265017684669
 20
151.3828535490906
 30
0.0
 10
97.3626501768467
 20
151.555202703036
 30
0.0
 10
97.36265017684669
 20
151.7736127782466
 30
0.0
 10
97.3626501768467
 20
152.1237847105046
 30
0.0
 10
97.3626501768467
 20
152.6663092861255
 30
0.0
 10
97.36265017684669
 20
153.3278054218055
 30
0.0
 10
97.3626501768467
 20
153.9117764874085
 30
0.0
 10
97.3626501768467
 20
154.3739301241687
 30
0.0
 10
97.36265017684669
 20
154.8550984979274
 30
0.0
 10
97.3626501768467
 20
155.2960097136028
 30
0.0
 10
97.36265017684669
 20
155.6878188418162
 30
0.0
 10
97.3626501768467
 20
156.026711777921
 30
0.0
 10
97.3626501768467
 20
156.2535246754562
 30
0.0
 10
97.3626501768467
 20
156.3670530957813
 30
0.0
  0
SPLINE
  5
147
330
1F
100
AcDbEntity
  8
0
  6
Continuous
 62
     7
370
    18
100
AcDbSpline
210
0.0
220
0.0
230
1.0
 70
    24
 71
     3
 72
    10
 73
     6
 74
     0
 42
0.000000001
 43
0.00000001
 40
0.0
 40
0.0
 40
0.0
 40
0.0
 40
0.5
 40
0.5
 40
1.0
 40
1.0
 40
1.0
 40
1.0
 10
121.3626501772326
 20
156.3670530957813
 30
0.0
 10
121.3626501771353
 20
156.3670530957813
 30
0.0
 10
121.3333608552346
 20
156.3670530957813
 30
0.0
 10
121.2162035677238
 20
156.3670530957813
 30
0.0
 10
121.1333608552543
 20
156.3670530957813
 30
0.0
 10
121.0626501770393
 20
156.3670530957813
 30
0.0
  0
SPLINE
  5
148
330
1F
100
AcDbEntity
  8
0
  6
Continuous
 62
     7
370
    18
100
AcDbSpline
210
0.0
220
0.0
230
1.0
 70
    27
 71
     3
 72
    12
 73
     8
 74
     0
 42
0.000000001
 43
0.00000001
 40
0.0
 40
0.0
 40
0.0
 40
0.0
 40
0.3333333333333333
 40
0.3333333333333333
 40
0.6666666666666665
 40
0.6666666666666665
 40
0.9999999999999999
 40
0.9999999999999999
 40
0.9999999999999999
 40
0.9999999999999999
 10
121.0626501768467
 20
156.3670530957813
 30
0.0
 10
121.0626501768467
 20
157.9745135333366
 30
0.0
 10
121.0626501768467
 20
159.4604371945317
 30
0.0
 10
121.0626501768467
 20
161.0678976317062
 30
0.0
 10
121.0626501768467
 20
161.0678976313543
 30
0.0
 10
121.0626501768467
 20
159.4604371930376
 30
0.0
 10
121.0626501768467
 20
157.9745135314907
 30
0.0
 10
121.0626501768467
 20
156.3670530939354
 30
0.0
  0
SPLINE
  5
149
330
1F
100
AcDbEntity
  8
0
  6
Continuous
 62
     7
370
    18
100
AcDbSpline
210
0.0
220
0.0
230
1.0
 70
    24
 71
     3
 72
    10
 73
     6
 74
     0
 42
0.000000001
 43
0.00000001
 40
0.0
 40
0.0
 40
0.0
 40
0.0
 40
0.5
 40
0.5
 40
1.0
 40
1.0
 40
1.0
 40
1.0
 10
121.0626501770393
 20
156.3670530957813
 30
0.0
 10
121.1333608552543
 20
156.3670530957813
 30
0.0
 10
121.2162035677238
 20
156.3670530957813
 30
0.0
 10
121.3333608552346
 20
156.3670530957813
 30
0.0
 10
121.3626501771353
 20
156.3670530957813
 30
0.0
 10
121.3626501772326
 20
156.3670530957813
 30
0.0
  0
SPLINE
  5
14A
330
1F
100
AcDbEntity
  8
0
  6
Continuous
 62
     7
370
    18
100
AcDbSpline
210
0.0
220
0.0
230
1.0
 70
    24
 71
     3
 72
    23
 73
    19
 74
     0
 42
0.000000001
 43
0.00000001
 40
0.0
 40
0.0
 40
0.0
 40
0.0
 40
0.0313055084021314
 40
0.0625354171742862
 40
0.0937653257826732
 40
0.1250708337010743
 40
0.1875873933451743
 40
0.2501039533358223
 40
0.3126205137640674
 40
0.3751370738657741
 40
0.5000188570150315
 40
0.624900640164289
 40
0.6874172002659958
 40
0.7499337606942408
 40
0.8124503206848888
 40
0.8749668803289885
 40
0.9374834398372706
 40
1.0
 40
1.0
 40
1.0
 40
1.0
 10
121.3626501768467
 20
160.5670530936981
 30
0.0
 10
121.3626501768467
 20
160.5660856499374
 30
0.0
 10
121.3626501768467
 20
160.5641530986946
 30
0.0
 10
121.3626501768467
 20
160.5484424221497
 30
0.0
 10
121.3626501768467
 20
160.5233354727383
 30
0.0
 10
121.3626501768467
 20
160.4762411009485
 30
0.0
 10
121.3626501768467
 20
160.3927609075598
 30
0.0
 10
121.3626501768467
 20
160.2535454567303
 30
0.0
 10
121.3626501768467
 20
160.0771400763353
 30
0.0
 10
121.3626501768467
 20
159.7943080152838
 30
0.0
 10
121.3626501768467
 20
159.3561153891597
 30
0.0
 10
121.3626501768467
 20
158.8218304212621
 30
0.0
 10
121.3626501768467
 20
158.3501604831582
 30
0.0
 10
121.3626501768467
 20
157.9768856497208
 30
0.0
 10
121.3626501768467
 20
157.5882379905785
 30
0.0
 10
121.3626501768467
 20
157.1877400403817
 30
0.0
 10
121.3626501768467
 20
156.7793965377432
 30
0.0
 10
121.3626501768467
 20
156.5045009102482
 30
0.0
 10
121.3626501768467
 20
156.3670530957813
 30
0.0
  0
SPLINE
  5
14B
330
1F
100
AcDbEntity
  8
0
  6
Continuous
 62
     7
370
    18
100
AcDbSpline
210
0.0
220
0.0
230
1.0
 70
    24
 71
     3
 72
    23
 73
    19
 74
     0
 42
0.000000001
 43
0.00000001
 40
0.0
 40
0.0
 40
0.0
 40
0.0
 40
0.0313055084069047
 40
0.0625354171774648
 40
0.0937653257842644
 40
0.1250708337010743
 40
0.1875873933451743
 40
0.2501039533358223
 40
0.3126205137640674
 40
0.3751370738657741
 40
0.5000188570150315
 40
0.6249006401642888
 40
0.6874172002659957
 40
0.7499337606942406
 40
0.8124503206848885
 40
0.8749668803289885
 40
0.9374834398340949
 40
1.0
 40
1.0
 40
1.0
 40
1.0
 10
121.3626501768467
 20
156.3670530957813
 30
0.0
 10
121.3626501768467
 20
156.2982470843509
 30
0.0
 10
121.3626501768467
 20
156.1608012210482
 30
0.0
 10
121.3626501768467
 20
155.9552112847976
 30
0.0
 10
121.3626501768467
 20
155.7506122944571
 30
0.0
 10
121.3626501768467
 20
155.4797573245088
 30
0.0
 10
121.3626501768467
 20
155.1458546224209
 30
0.0
 10
121.3626501768467
 20
154.7572241845698
 30
0.0
 10
121.3626501768467
 20
154.3839447160559
 30
0.0
 10
121.3626501768467
 20
153.9122765355741
 30
0.0
 10
121.3626501768467
 20
153.377988872607
 30
0.0
 10
121.3626501768467
 20
152.9398032027318
 30
0.0
 10
121.3626501768467
 20
152.6569574422202
 30
0.0
 10
121.3626501768467
 20
152.4805938190511
 30
0.0
 10
121.3626501768467
 20
152.3412216201361
 30
0.0
 10
121.3626501768467
 20
152.2416608853774
 30
0.0
 10
121.3626501768467
 20
152.1786643324274
 30
0.0
 10
121.3626501768467
 20
152.1709235093992
 30
0.0
 10
121.3626501768467
 20
152.1670530978645
 30
0.0
  0
SPLINE
  5
14C
330
1F
100
AcDbEntity
  8
0
  6
Continuous
 62
     7
370
    18
100
AcDbSpline
210
0.0
220
0.0
230
1.0
 70
    27
 71
     3
 72
    14
 73
    10
 74
     0
 42
0.000000001
 43
0.00000001
 40
0.0
 40
0.0
 40
0.0
 40
0.0
 40
0.25
 40
0.25
 40
0.5000000000000001
 40
0.5000000000000001
 40
0.75
 40
0.75
 40
1.0
 40
1.0
 40
1.0
 40
1.0
 10
121.0626501768467
 20
156.3670530939354
 30
0.0
 10
121.0626501768467
 20
155.1736126661663
 30
0.0
 10
121.0626501768467
 20
154.0289623988017
 30
0.0
 10
121.0626501768467
 20
152.3411827604099
 30
0.0
 10
121.0626501768467
 20
151.8670530956437
 30
0.0
 10
121.0626501768467
 20
151.8670530959189
 30
0.0
 10
121.0626501768467
 20
152.341182760949
 30
0.0
 10
121.0626501768467
 20
154.0289623997301
 30
0.0
 10
121.0626501768467
 20
155.1736126672041
 30
0.0
 10
121.0626501768467
 20
156.3670530949732
 30
0.0
  0
LINE
  5
14D
330
1F
100
AcDbEntity
  8
0
  6
Continuous
 62
     7
370
    18
100
AcDbLine
 10
112.3626499533
 20
157.6937030112
 30
0.0
 11
108.362650229
 21
157.6937030112
 31
0.0
  0
LINE
  5
14E
330
1F
100
AcDbEntity
  8
0
  6
Continuous
 62
     7
370
    18
100
AcDbLine
 10
108.362650229
 20
155.0404031804
 30
0.0
 11
112.3626499533
 21
155.0404031804
 31
0.0
  0
SPLINE
  5
14F
330
1F
100
AcDbEntity
  8
0
  6
Continuous
 62
     7
370
    18
100
AcDbSpline
210
0.0
220
0.0
230
1.0
 70
     8
 71
     3
 72
    14
 73
    10
 74
     0
 42
0.000000001
 43
0.00000001
 40
0.0
 40
0.0
 40
0.0
 40
0.0
 40
0.0836762611521478
 40
0.166704900191425
 40
0.2508158839822991
 40
0.4999698398158445
 40
0.7492796192960631
 40
0.8740091570941635
 40
1.0
 40
1.0
 40
1.0
 40
1.0
 10
108.6626501768467
 20
152.1119342101182
 30
0.0
 10
108.6490563602356
 20
152.1121106466628
 30
0.0
 10
108.6219739379312
 20
152.1124621542009
 30
0.0
 10
108.5820514292265
 20
152.1154115463229
 30
0.0
 10
108.5186270591767
 20
152.1231766944005
 30
0.0
 10
108.4400824141212
 20
152.1425538747487
 30
0.0
 10
108.3876585802677
 20
152.1742037437909
 30
0.0
 10
108.3656595078997
 20
152.2035213813345
 30
0.0
 10
108.3636566458134
 20
152.2193517326927
 30
0.0
 10
108.3626501768467
 20
152.2273067274384
 30
0.0
  0
SPLINE
  5
150
330
1F
100
AcDbEntity
  8
0
  6
Continuous
 62
     7
370
    18
100
AcDbSpline
210
0.0
220
0.0
230
1.0
 70
     8
 71
     3
 72
    11
 73
     7
 74
     0
 42
0.000000001
 43
0.00000001
 40
0.0
 40
0.0
 40
0.0
 40
0.0
 40
0.2516029273659005
 40
0.5007650754588964
 40
0.7508242773942502
 40
1.0
 40
1.0
 40
1.0
 40
1.0
 10
108.8708134408467
 20
152.1417629471402
 30
0.0
 10
108.8564442616163
 20
152.137238238691
 30
0.0
 10
108.8278452973795
 20
152.1282327156165
 30
0.0
 10
108.776182085799
 20
152.1190710249255
 30
0.0
 10
108.7207232292692
 20
152.1130112994813
 30
0.0
 10
108.6819850097442
 20
152.1122928160806
 30
0.0
 10
108.6626501768467
 20
152.1119342101182
 30
0.0
  0
SPLINE
  5
151
330
1F
100
AcDbEntity
  8
0
  6
Continuous
 62
     7
370
    18
100
AcDbSpline
210
0.0
220
0.0
230
1.0
 70
     8
 71
     3
 72
    17
 73
    13
 74
     0
 42
0.000000001
 43
0.00000001
 40
0.0
 40
0.0
 40
0.0
 40
0.0
 40
0.0809202995338427
 40
0.1495661054480844
 40
0.2059365193618305
 40
0.2500312875690208
 40
0.382580221188446
 40
0.5005759037234209
 40
0.6288999479137493
 40
0.7501308643011229
 40
0.8762035009060171
 40
0.9999999999999999
 40
0.9999999999999999
 40
0.9999999999999999
 40
0.9999999999999999
 10
108.8708134415807
 20
152.1417629492419
 30
0.0
 10
108.9028884907368
 20
152.152881764925
 30
0.0
 10
108.9621732463788
 20
152.1734328252707
 30
0.0
 10
109.0492072440284
 20
152.2014431232514
 30
0.0
 10
109.1231070107925
 20
152.224193377448
 30
0.0
 10
109.2278847140404
 20
152.2548981254828
 30
0.0
 10
109.3667455252122
 20
152.2915494772348
 30
0.0
 10
109.5552694222562
 20
152.3337192805298
 30
0.0
 10
109.7466173754687
 20
152.3677633608197
 30
0.0
 10
109.9490356736728
 20
152.3939096758251
 30
0.0
 10
110.1538787875702
 20
152.4106689470804
 30
0.0
 10
110.2934836159523
 20
152.412822724824
 30
0.0
 10
110.3626501777286
 20
152.4138898039723
 30
0.0
  0
SPLINE
  5
152
330
1F
100
AcDbEntity
  8
0
  6
Continuous
 62
     7
370
    18
100
AcDbSpline
210
0.0
220
0.0
230
1.0
 70
     8
 71
     3
 72
    16
 73
    12
 74
     0
 42
0.000000001
 43
0.00000001
 40
0.0
 40
0.0
 40
0.0
 40
0.0
 40
0.0825131279004401
 40
0.1659968509629866
 40
0.25054859036958
 40
0.3716103937905407
 40
0.4997548425967557
 40
0.6178132014559199
 40
0.7504583669370584
 40
0.8507320746232611
 40
1.0
 40
1.0
 40
1.0
 40
1.0
 10
110.3626501777286
 20
152.4138898039723
 30
0.0
 10
110.4087389230033
 20
152.4134163401827
 30
0.0
 10
110.5014585516866
 20
152.4124638432878
 30
0.0
 10
110.6406556378439
 20
152.4048559654069
 30
0.0
 10
110.7995253723309
 20
152.3910557937029
 30
0.0
 10
110.9793823333816
 20
152.3676071472856
 30
0.0
 10
111.1705356179861
 20
152.3336243074691
 30
0.0
 10
111.3590871581956
 20
152.291430620515
 30
0.0
 10
111.5242491894166
 20
152.2477517569333
 30
0.0
 10
111.6941813237811
 20
152.1965234637714
 30
0.0
 10
111.7944871398917
 20
152.1622589183665
 30
0.0
 10
111.8544869118347
 20
152.1417629492419
 30
0.0
  0
SPLINE
  5
153
330
1F
100
AcDbEntity
  8
0
  6
Continuous
 62
     7
370
    18
100
AcDbSpline
210
0.0
220
0.0
230
1.0
 70
     8
 71
     3
 72
    12
 73
     8
 74
     0
 42
0.000000001
 43
0.00000001
 40
0.0
 40
0.0
 40
0.0
 40
0.0
 40
0.1667610443292105
 40
0.3323554049059704
 40
0.4999001905056918
 40
0.7487321180604068
 40
0.9999999999999999
 40
0.9999999999999999
 40
0.9999999999999999
 40
0.9999999999999999
 10
112.0626501768467
 20
152.1119342101182
 30
0.0
 10
112.0497255471234
 20
152.1120949781468
 30
0.0
 10
112.0239667102068
 20
152.1124153894482
 30
0.0
 10
111.9859148941157
 20
152.1150742577217
 30
0.0
 10
111.9434079849407
 20
152.120047233539
 30
0.0
 10
111.8974058341497
 20
152.128255682276
 30
0.0
 10
111.8688396013824
 20
152.137245928546
 30
0.0
 10
111.8544869128467
 20
152.1417629471402
 30
0.0
  0
SPLINE
  5
154
330
1F
100
AcDbEntity
  8
0
  6
Continuous
 62
     7
370
    18
100
AcDbSpline
210
0.0
220
0.0
230
1.0
 70
     8
 71
     3
 72
    13
 73
     9
 74
     0
 42
0.000000001
 43
0.00000001
 40
0.0
 40
0.0
 40
0.0
 40
0.0
 40
0.1260238509681709
 40
0.2507860845933101
 40
0.500494016442946
 40
0.7497201447862532
 40
0.8751047801654462
 40
1.0
 40
1.0
 40
1.0
 40
1.0
 10
112.3626501768467
 20
152.2273067274384
 30
0.0
 10
112.361643532811
 20
152.2193514551307
 30
0.0
 10
112.3596403221936
 20
152.2035205502775
 30
0.0
 10
112.3376308935669
 20
152.1741907027725
 30
0.0
 10
112.2851275234326
 20
152.1424736375637
 30
0.0
 10
112.2010330243767
 20
152.1219168869527
 30
0.0
 10
112.1236707682656
 20
152.1131410721597
 30
0.0
 10
112.0829638402176
 20
152.1123359726819
 30
0.0
 10
112.0626501768467
 20
152.1119342101182
 30
0.0
  0
SPLINE
  5
155
330
1F
100
AcDbEntity
  8
0
  6
Continuous
 62
     7
370
    18
100
AcDbSpline
210
0.0
220
0.0
230
1.0
 70
    24
 71
     3
 72
     9
 73
     5
 74
     0
 42
0.000000001
 43
0.00000001
 40
0.0
 40
0.0
 40
0.0
 40
0.0
 40
0.0993365783986242
 40
1.0
 40
1.0
 40
1.0
 40
1.0
 10
177.3626531570789
 20
158.9573086747612
 30
0.0
 10
177.3626531570789
 20
158.9664876478943
 30
0.0
 10
177.3626531570789
 20
159.058890399037
 30
0.0
 10
177.3626531570789
 20
159.063185092504
 30
0.0
 10
177.3626531570789
 20
159.0670531658168
 30
0.0
  0
SPLINE
  5
156
330
1F
100
AcDbEntity
  8
0
  6
Continuous
 62
     7
370
    18
100
AcDbSpline
210
0.0
220
0.0
230
1.0
 70
    24
 71
     3
 72
    10
 73
     6
 74
     0
 42
0.000000001
 43
0.00000001
 40
0.0
 40
0.0
 40
0.0
 40
0.0
 40
0.5
 40
0.5
 40
1.0
 40
1.0
 40
1.0
 40
1.0
 10
178.3626501766541
 20
156.3670530957813
 30
0.0
 10
178.2919394984391
 20
156.3670530957813
 30
0.0
 10
178.2090967859696
 20
156.3670530957813
 30
0.0
 10
178.0919394984588
 20
156.3670530957813
 30
0.0
 10
178.062650176558
 20
156.3670530957813
 30
0.0
 10
178.0626501764608
 20
156.3670530957813
 30
0.0
  0
SPLINE
  5
157
330
1F
100
AcDbEntity
  8
0
  6
Continuous
 62
     7
370
    18
100
AcDbSpline
210
0.0
220
0.0
230
1.0
 70
    24
 71
     3
 72
    13
 73
     9
 74
     0
 42
0.000000001
 43
0.00000001
 40
0.0
 40
0.0
 40
0.0
 40
0.0
 40
0.3773395522478574
 40
0.7462491493055419
 40
0.8727509319512818
 40
0.9430073404955587
 40
0.9722816446134241
 40
1.0
 40
1.0
 40
1.0
 40
1.0
 10
178.1391303151485
 20
153.4670531326617
 30
0.0
 10
178.1420613404021
 20
153.4670531326617
 30
0.0
 10
178.1478579103322
 20
153.4670531326617
 30
0.0
 10
178.1907214587738
 20
153.4670531326617
 30
0.0
 10
178.2609024755234
 20
153.4670531326617
 30
0.0
 10
178.3060577069042
 20
153.4670531326617
 30
0.0
 10
178.3387916057886
 20
153.4670531326617
 30
0.0
 10
178.354841751572
 20
153.4670531326617
 30
0.0
 10
178.3626477330563
 20
153.4670531326617
 30
0.0
  0
SPLINE
  5
158
330
1F
100
AcDbEntity
  8
0
  6
Continuous
 62
     7
370
    18
100
AcDbSpline
210
0.0
220
0.0
230
1.0
 70
    24
 71
     3
 72
    10
 73
     6
 74
     0
 42
0.000000001
 43
0.00000001
 40
0.0
 40
0.0
 40
0.0
 40
0.0
 40
0.5000000000000002
 40
0.5000000000000002
 40
1.0
 40
1.0
 40
1.0
 40
1.0
 10
178.3626501768467
 20
153.467053096072
 30
0.0
 10
178.3626501768467
 20
153.6365131773028
 30
0.0
 10
178.3626501768467
 20
154.0128416412603
 30
0.0
 10
178.3626501768467
 20
155.0618503141396
 30
0.0
 10
178.3626501768467
 20
155.705198392592
 30
0.0
 10
178.3626501768467
 20
156.3670530945507
 30
0.0
  0
SPLINE
  5
159
330
1F
100
AcDbEntity
  8
0
  6
Continuous
 62
     7
370
    18
100
AcDbSpline
210
0.0
220
0.0
230
1.0
 70
    24
 71
     3
 72
    10
 73
     6
 74
     0
 42
0.000000001
 43
0.00000001
 40
0.0
 40
0.0
 40
0.0
 40
0.0
 40
0.5
 40
0.5
 40
1.0
 40
1.0
 40
1.0
 40
1.0
 10
178.0626501764608
 20
156.3670530957813
 30
0.0
 10
178.062650176558
 20
156.3670530957813
 30
0.0
 10
178.0919394984588
 20
156.3670530957813
 30
0.0
 10
178.2090967859696
 20
156.3670530957813
 30
0.0
 10
178.2919394984391
 20
156.3670530957813
 30
0.0
 10
178.3626501766541
 20
156.3670530957813
 30
0.0
  0
SPLINE
  5
15A
330
1F
100
AcDbEntity
  8
0
  6
Continuous
 62
     7
370
    18
100
AcDbSpline
210
0.0
220
0.0
230
1.0
 70
    24
 71
     3
 72
    16
 73
    12
 74
     0
 42
0.000000001
 43
0.00000001
 40
0.0
 40
0.0
 40
0.0
 40
0.0
 40
0.0274700328969562
 40
0.0564709495325146
 40
0.1259291317615032
 40
0.2509745053293483
 40
0.3654358015432474
 40
0.5001868620022942
 40
0.7489850814560797
 40
0.9980061049219094
 40
0.9999999999999999
 40
0.9999999999999999
 40
0.9999999999999999
 40
0.9999999999999999
 10
178.3626477330563
 20
159.267053058901
 30
0.0
 10
178.3549039938724
 20
159.267053058901
 30
0.0
 10
178.3389849628947
 20
159.267053058901
 30
0.0
 10
178.3065079228103
 20
159.267053058901
 30
0.0
 10
178.2616434759097
 20
159.267053058901
 30
0.0
 10
178.2226354114112
 20
159.267053058901
 30
0.0
 10
178.1909089404059
 20
159.267053058901
 30
0.0
 10
178.1622809182701
 20
159.267053058901
 30
0.0
 10
178.1453157894371
 20
159.267053058901
 30
0.0
 10
178.1353251808441
 20
159.267053058901
 30
0.0
 10
178.1391003278985
 20
159.267053058901
 30
0.0
 10
178.1391303151485
 20
159.267053058901
 30
0.0
  0
SPLINE
  5
15B
330
1F
100
AcDbEntity
  8
0
  6
Continuous
 62
     7
370
    18
100
AcDbSpline
210
0.0
220
0.0
230
1.0
 70
    24
 71
     3
 72
    10
 73
     6
 74
     0
 42
0.000000001
 43
0.00000001
 40
0.0
 40
0.0
 40
0.0
 40
0.0
 40
0.4999999999999999
 40
0.4999999999999999
 40
1.0
 40
1.0
 40
1.0
 40
1.0
 10
178.3626501768467
 20
156.3670530945507
 30
0.0
 10
178.3626501768467
 20
157.028907797023
 30
0.0
 10
178.3626501768467
 20
157.672255876125
 30
0.0
 10
178.3626501768467
 20
158.721264550077
 30
0.0
 10
178.3626501768467
 20
159.0975930143813
 30
0.0
 10
178.3626501768467
 20
159.2670530956285
 30
0.0
  0
LINE
  5
15C
330
1F
100
AcDbEntity
  8
0
  6
Continuous
 62
     7
370
    18
100
AcDbLine
 10
121.3626495659
 20
159.2670530589
 30
0.0
 11
121.5646031409
 21
159.2670530589
 31
0.0
  0
LINE
  5
15D
330
1F
100
AcDbEntity
  8
0
  6
Continuous
 62
     7
370
    18
100
AcDbLine
 10
122.568943268
 20
159.2670530589
 30
0.0
 11
126.5651795178
 21
159.2670530589
 31
0.0
  0
LINE
  5
15E
330
1F
100
AcDbEntity
  8
0
  6
Continuous
 62
     7
370
    18
100
AcDbLine
 10
127.5692532867
 20
159.2670530589
 30
0.0
 11
131.5661246985
 21
159.2670530589
 31
0.0
  0
LINE
  5
15F
330
1F
100
AcDbEntity
  8
0
  6
Continuous
 62
     7
370
    18
100
AcDbLine
 10
132.5688610881
 20
159.2670530589
 30
0.0
 11
136.5668426364
 21
159.2670530589
 31
0.0
  0
LINE
  5
160
330
1F
100
AcDbEntity
  8
0
  6
Continuous
 62
     7
370
    18
100
AcDbLine
 10
137.5682677239
 20
159.2670530589
 30
0.0
 11
141.5647181779
 21
159.2670530589
 31
0.0
  0
LINE
  5
161
330
1F
100
AcDbEntity
  8
0
  6
Continuous
 62
     7
370
    18
100
AcDbLine
 10
142.5701069742
 20
159.2670530589
 30
0.0
 11
146.5668517261
 21
159.2670530589
 31
0.0
  0
LINE
  5
162
330
1F
100
AcDbEntity
  8
0
  6
Continuous
 62
     7
370
    18
100
AcDbLine
 10
147.5683326929
 20
159.2670530589
 30
0.0
 11
151.3626488953
 21
159.2670530589
 31
0.0
  0
LINE
  5
163
330
1F
100
AcDbEntity
  8
0
  6
Continuous
 62
     7
370
    18
100
AcDbLine
 10
151.3626488953
 20
153.4670531327
 30
0.0
 11
148.4558793813
 21
153.4670531327
 31
0.0
  0
LINE
  5
164
330
1F
100
AcDbEntity
  8
0
  6
Continuous
 62
     7
370
    18
100
AcDbLine
 10
147.4537949174
 20
153.4670531327
 30
0.0
 11
143.457698366
 21
153.4670531327
 31
0.0
  0
LINE
  5
165
330
1F
100
AcDbEntity
  8
0
  6
Continuous
 62
     7
370
    18
100
AcDbLine
 10
142.4521456569
 20
153.4670531327
 30
0.0
 11
138.4558293134
 21
153.4670531327
 31
0.0
  0
LINE
  5
166
330
1F
100
AcDbEntity
  8
0
  6
Continuous
 62
     7
370
    18
100
AcDbLine
 10
137.4537299484
 20
153.4670531327
 30
0.0
 11
133.4563779741
 21
153.4670531327
 31
0.0
  0
LINE
  5
167
330
1F
100
AcDbEntity
  8
0
  6
Continuous
 62
     7
370
    18
100
AcDbLine
 10
132.4523340076
 20
153.4670531327
 30
0.0
 11
128.4568465411
 21
153.4670531327
 31
0.0
  0
LINE
  5
168
330
1F
100
AcDbEntity
  8
0
  6
Continuous
 62
     7
370
    18
100
AcDbLine
 10
127.4518116474
 20
153.4670531327
 30
0.0
 11
123.4575460761
 21
153.4670531327
 31
0.0
  0
LINE
  5
169
330
1F
100
AcDbEntity
  8
0
  6
Continuous
 62
     7
370
    18
100
AcDbLine
 10
122.4518350422
 20
153.4670531327
 30
0.0
 11
121.3626495659
 21
153.4670531327
 31
0.0
  0
LINE
  5
16A
330
1F
100
AcDbEntity
  8
0
  6
Continuous
 62
     7
370
    18
100
AcDbLine
 10
178.3626477331
 20
159.2670530589
 30
0.0
 11
178.8626487463
 21
159.2670530589
 31
0.0
  0
LINE
  5
16B
330
1F
100
AcDbEntity
  8
0
  6
Continuous
 62
     7
370
    18
100
AcDbLine
 10
178.8626487463
 20
153.4670531327
 30
0.0
 11
178.3626477331
 21
153.4670531327
 31
0.0
  0
SPLINE
  5
16C
330
1F
100
AcDbEntity
  8
0
  6
Continuous
 62
     7
370
    18
100
AcDbSpline
210
0.0
220
0.0
230
1.0
 70
    24
 71
     3
 72
    10
 73
     6
 74
     0
 42
0.000000001
 43
0.00000001
 40
0.0
 40
0.0
 40
0.0
 40
0.0
 40
0.4999999999999998
 40
0.4999999999999998
 40
1.0
 40
1.0
 40
1.0
 40
1.0
 10
178.8626501768467
 20
156.3670530945507
 30
0.0
 10
178.8626501768467
 20
155.705198392592
 30
0.0
 10
178.8626501768467
 20
155.0618503141396
 30
0.0
 10
178.8626501768467
 20
154.0128416412603
 30
0.0
 10
178.8626501768467
 20
153.6365131773028
 30
0.0
 10
178.8626501768467
 20
153.467053096072
 30
0.0
  0
SPLINE
  5
16D
330
1F
100
AcDbEntity
  8
0
  6
Continuous
 62
     7
370
    18
100
AcDbSpline
210
0.0
220
0.0
230
1.0
 70
    24
 71
     3
 72
    10
 73
     6
 74
     0
 42
0.000000001
 43
0.00000001
 40
0.0
 40
0.0
 40
0.0
 40
0.0
 40
0.5000000000000001
 40
0.5000000000000001
 40
1.0
 40
1.0
 40
1.0
 40
1.0
 10
178.8626501768467
 20
159.2670530956285
 30
0.0
 10
178.8626501768467
 20
159.0975930143813
 30
0.0
 10
178.8626501768467
 20
158.721264550077
 30
0.0
 10
178.8626501768467
 20
157.672255876125
 30
0.0
 10
178.8626501768467
 20
157.028907797023
 30
0.0
 10
178.8626501768467
 20
156.3670530945507
 30
0.0
  0
SPLINE
  5
16E
330
1F
100
AcDbEntity
  8
0
  6
Continuous
 62
     7
370
    18
100
AcDbSpline
210
0.0
220
0.0
230
1.0
 70
    24
 71
     3
 72
     9
 73
     5
 74
     0
 42
0.000000001
 43
0.00000001
 40
0.0
 40
0.0
 40
0.0
 40
0.0
 40
0.0002751562675091
 40
1.0
 40
1.0
 40
1.0
 40
1.0
 10
178.9626206367847
 20
153.4670531326617
 30
0.0
 10
178.9626305735211
 20
153.4670531326617
 30
0.0
 10
178.9987436393201
 20
153.4670531326624
 30
0.0
 10
178.9306868296988
 20
153.4670531326621
 30
0.0
 10
178.8626487463352
 20
153.4670531326617
 30
0.0
  0
SPLINE
  5
16F
330
1F
100
AcDbEntity
  8
0
  6
Continuous
 62
     7
370
    18
100
AcDbSpline
210
0.0
220
0.0
230
1.0
 70
    24
 71
     3
 72
     9
 73
     5
 74
     0
 42
0.000000001
 43
0.00000001
 40
0.0
 40
0.0
 40
0.0
 40
0.0
 40
0.9997248430840537
 40
1.0
 40
1.0
 40
1.0
 40
1.0
 10
178.8626487463352
 20
159.267053058901
 30
0.0
 10
178.9306867871555
 20
159.2670530589014
 30
0.0
 10
178.9987435542659
 20
159.2670530589018
 30
0.0
 10
178.9626305735211
 20
159.267053058901
 30
0.0
 10
178.9626206367847
 20
159.267053058901
 30
0.0
  0
SPLINE
  5
170
330
1F
100
AcDbEntity
  8
0
  6
Continuous
 62
     7
370
    18
100
AcDbSpline
210
0.0
220
0.0
230
1.0
 70
    24
 71
     3
 72
    10
 73
     6
 74
     0
 42
0.000000001
 43
0.00000001
 40
0.0
 40
0.0
 40
0.0
 40
0.0
 40
0.4999999999999999
 40
0.4999999999999999
 40
0.9999999999999999
 40
0.9999999999999999
 40
0.9999999999999999
 40
0.9999999999999999
 10
179.3626501768467
 20
156.3670530953324
 30
0.0
 10
179.3626501768467
 20
155.7040306354606
 30
0.0
 10
179.3626501768467
 20
155.0681138201973
 30
0.0
 10
179.3626501768467
 20
154.1304584653189
 30
0.0
 10
179.3626501768467
 20
153.8670530958578
 30
0.0
 10
179.3626501768467
 20
153.8670530957813
 30
0.0
  0
SPLINE
  5
171
330
1F
100
AcDbEntity
  8
0
  6
Continuous
 62
     7
370
    18
100
AcDbSpline
210
0.0
220
0.0
230
1.0
 70
    24
 71
     3
 72
    10
 73
     6
 74
     0
 42
0.000000001
 43
0.00000001
 40
0.0
 40
0.0
 40
0.0
 40
0.0
 40
0.5000000000000002
 40
0.5000000000000002
 40
1.0
 40
1.0
 40
1.0
 40
1.0
 10
179.3626501768467
 20
158.8670530957813
 30
0.0
 10
179.3626501768467
 20
158.8670530959173
 30
0.0
 10
179.3626501768467
 20
158.603647726489
 30
0.0
 10
179.3626501768467
 20
157.665992371369
 30
0.0
 10
179.3626501768467
 20
157.0300755558705
 30
0.0
 10
179.3626501768467
 20
156.3670530957813
 30
0.0
  0
SPLINE
  5
172
330
1F
100
AcDbEntity
  8
0
  6
Continuous
 62
     7
370
    18
100
AcDbSpline
210
0.0
220
0.0
230
1.0
 70
    24
 71
     3
 72
    10
 73
     6
 74
     0
 42
0.000000001
 43
0.00000001
 40
0.0
 40
0.0
 40
0.0
 40
0.0
 40
0.5000000000000002
 40
0.5000000000000002
 40
1.0
 40
1.0
 40
1.0
 40
1.0
 10
110.3626501778107
 20
147.0670530957813
 30
0.0
 10
110.9858912900901
 20
147.0670530957813
 30
0.0
 10
111.5836530963805
 20
147.0670530957813
 30
0.0
 10
112.4650491297629
 20
147.0670530957813
 30
0.0
 10
112.7126501769186
 20
147.0670530957813
 30
0.0
 10
112.7126501768467
 20
147.0670530957812
 30
0.0
  0
SPLINE
  5
173
330
1F
100
AcDbEntity
  8
0
  6
Continuous
 62
     7
370
    18
100
AcDbSpline
210
0.0
220
0.0
230
1.0
 70
    24
 71
     3
 72
    10
 73
     6
 74
     0
 42
0.000000001
 43
0.00000001
 40
0.0
 40
0.0
 40
0.0
 40
0.0
 40
0.4999999999999999
 40
0.4999999999999999
 40
1.0
 40
1.0
 40
1.0
 40
1.0
 10
108.0126501768467
 20
147.0670530957813
 30
0.0
 10
108.0126501769745
 20
147.0670530957813
 30
0.0
 10
108.2602512244824
 20
147.0670530957813
 30
0.0
 10
109.1416472586567
 20
147.0670530957813
 30
0.0
 10
109.7394090653268
 20
147.0670530957813
 30
0.0
 10
110.3626501778107
 20
147.0670530957812
 30
0.0
  0
SPLINE
  5
174
330
1F
100
AcDbEntity
  8
0
  6
Continuous
 62
     7
370
    18
100
AcDbSpline
210
0.0
220
0.0
230
1.0
 70
    24
 71
     3
 72
    10
 73
     6
 74
     0
 42
0.000000001
 43
0.00000001
 40
0.0
 40
0.0
 40
0.0
 40
0.0
 40
0.5000000000000002
 40
0.5000000000000002
 40
1.0
 40
1.0
 40
1.0
 40
1.0
 10
110.3626501778107
 20
144.5670530957813
 30
0.0
 10
110.9858912900901
 20
144.5670530957813
 30
0.0
 10
111.5836530963805
 20
144.5670530957813
 30
0.0
 10
112.4650491297629
 20
144.5670530957813
 30
0.0
 10
112.7126501769186
 20
144.5670530957813
 30
0.0
 10
112.7126501768467
 20
144.5670530957813
 30
0.0
  0
SPLINE
  5
175
330
1F
100
AcDbEntity
  8
0
  6
Continuous
 62
     7
370
    18
100
AcDbSpline
210
0.0
220
0.0
230
1.0
 70
    24
 71
     3
 72
    10
 73
     6
 74
     0
 42
0.000000001
 43
0.00000001
 40
0.0
 40
0.0
 40
0.0
 40
0.0
 40
0.4999999999999999
 40
0.4999999999999999
 40
1.0
 40
1.0
 40
1.0
 40
1.0
 10
108.0126501768467
 20
144.5670530957813
 30
0.0
 10
108.0126501769745
 20
144.5670530957813
 30
0.0
 10
108.2602512244824
 20
144.5670530957813
 30
0.0
 10
109.1416472586567
 20
144.5670530957813
 30
0.0
 10
109.7394090653268
 20
144.5670530957813
 30
0.0
 10
110.3626501778107
 20
144.5670530957813
 30
0.0
  0
SPLINE
  5
176
330
1F
100
AcDbEntity
  8
0
  6
Continuous
 62
     7
370
    18
100
AcDbSpline
210
0.0
220
0.0
230
1.0
 70
    24
 71
     3
 72
    10
 73
     6
 74
     0
 42
0.000000001
 43
0.00000001
 40
0.0
 40
0.0
 40
0.0
 40
0.0
 40
0.5000000000000001
 40
0.5000000000000001
 40
1.0
 40
1.0
 40
1.0
 40
1.0
 10
112.3626501768467
 20
142.0670530957813
 30
0.0
 10
112.3626501769078
 20
142.0670530957813
 30
0.0
 10
112.1519258814562
 20
142.0670530957813
 30
0.0
 10
111.4018015977265
 20
142.0670530957813
 30
0.0
 10
110.8930681455644
 20
142.0670530957813
 30
0.0
 10
110.3626501776671
 20
142.0670530957813
 30
0.0
  0
SPLINE
  5
177
330
1F
100
AcDbEntity
  8
0
  6
Continuous
 62
     7
370
    18
100
AcDbSpline
210
0.0
220
0.0
230
1.0
 70
    24
 71
     3
 72
    10
 73
     6
 74
     0
 42
0.000000001
 43
0.00000001
 40
0.0
 40
0.0
 40
0.0
 40
0.0
 40
0.5000000000000002
 40
0.5000000000000002
 40
1.0
 40
1.0
 40
1.0
 40
1.0
 10
110.3626501776671
 20
142.0670530957813
 30
0.0
 10
109.8322322095957
 20
142.0670530957813
 30
0.0
 10
109.3234987571105
 20
142.0670530957813
 30
0.0
 10
108.5733744727068
 20
142.0670530957813
 30
0.0
 10
108.3626501769555
 20
142.0670530957813
 30
0.0
 10
108.3626501768467
 20
142.0670530957813
 30
0.0
  0
SPLINE
  5
178
330
1F
100
AcDbEntity
  8
0
  6
Continuous
 62
     7
370
    18
100
AcDbSpline
210
0.0
220
0.0
230
1.0
 70
     8
 71
     3
 72
    14
 73
    10
 74
     0
 42
0.000000001
 43
0.00000001
 40
0.0
 40
0.0
 40
0.0
 40
0.0
 40
0.2500000000000002
 40
0.2500000000000002
 40
0.5000000000000001
 40
0.5000000000000001
 40
0.75
 40
0.75
 40
1.0
 40
1.0
 40
1.0
 40
1.0
 10
112.3810175238467
 20
149.1160186867813
 30
0.0
 10
112.3440483948467
 20
149.1293813797813
 30
0.0
 10
112.3000577978467
 20
149.1491801487813
 30
0.0
 10
112.1998716765134
 20
149.2130762047813
 30
0.0
 10
112.1440498298467
 20
149.2570450957813
 30
0.0
 10
112.0320621818467
 20
149.3799137237813
 30
0.0
 10
111.9756686718467
 20
149.4590135697813
 30
0.0
 10
111.8860302558467
 20
149.6592277617814
 30
0.0
 10
111.8544870478467
 20
149.7779765607813
 30
0.0
 10
111.8544869118467
 20
149.9035014407813
 30
0.0
  0
LINE
  5
179
330
1F
100
AcDbEntity
  8
0
  6
Continuous
 62
     7
370
    18
100
AcDbLine
 10
111.854486829
 20
152.141763181
 30
0.0
 11
111.854486829
 21
149.9035016676
 31
0.0
  0
LINE
  5
17A
330
1F
100
AcDbEntity
  8
0
  6
Continuous
 62
     7
370
    18
100
AcDbLine
 10
108.8708133533
 20
149.9035016676
 30
0.0
 11
108.8708133533
 21
152.141763181
 31
0.0
  0
SPLINE
  5
17B
330
1F
100
AcDbEntity
  8
0
  6
Continuous
 62
     7
370
    18
100
AcDbSpline
210
0.0
220
0.0
230
1.0
 70
     8
 71
     3
 72
    18
 73
    14
 74
     0
 42
0.000000001
 43
0.00000001
 40
0.0
 40
0.0
 40
0.0
 40
0.0
 40
0.0884096293516578
 40
0.1712958459353657
 40
0.2489654135437478
 40
0.3779336499071831
 40
0.4985113658609221
 40
0.6265384492203773
 40
0.7488730468569609
 40
0.8122711756634335
 40
0.8742355429967262
 40
0.9380760258737805
 40
0.9999999999999999
 40
0.9999999999999999
 40
0.9999999999999999
 40
0.9999999999999999
 10
108.3442828299225
 20
149.1160186875688
 30
0.0
 10
108.3586397497597
 20
149.1215546235798
 30
0.0
 10
108.3864566374289
 20
149.1322806366737
 30
0.0
 10
108.4334799748549
 20
149.1556653506236
 30
0.0
 10
108.4925233632166
 20
149.1907464616415
 30
0.0
 10
108.5651881692605
 20
149.2448000082524
 30
0.0
 10
108.6522221624623
 20
149.3306456892369
 30
0.0
 10
108.7349433717921
 20
149.4397861344397
 30
0.0
 10
108.7947961689243
 20
149.5536042672863
 30
0.0
 10
108.831923577368
 20
149.6534305560074
 30
0.0
 10
108.8534811608231
 20
149.7342844195366
 30
0.0
 10
108.8679989105455
 20
149.8178908404951
 30
0.0
 10
108.8698848444053
 20
149.8752559676121
 30
0.0
 10
108.8708134415807
 20
149.9035014411902
 30
0.0
  0
SPLINE
  5
17C
330
1F
100
AcDbEntity
  8
0
  6
Continuous
 62
     7
370
    18
100
AcDbSpline
210
0.0
220
0.0
230
1.0
 70
     8
 71
     3
 72
    12
 73
     8
 74
     0
 42
0.000000001
 43
0.00000001
 40
0.0
 40
0.0
 40
0.0
 40
0.0
 40
0.5000000000000018
 40
0.5000000000000018
 40
0.7500000000000009
 40
0.7500000000000009
 40
1.0
 40
1.0
 40
1.0
 40
1.0
 10
108.3626501768467
 20
149.9035013507557
 30
0.0
 10
108.3626501811461
 20
149.9035013659177
 30
0.0
 10
108.3827359823044
 20
149.9035013796876
 30
0.0
 10
108.4639443909304
 20
149.9035013818557
 30
0.0
 10
108.4990079348743
 20
149.9035013794092
 30
0.0
 10
108.5777457831839
 20
149.9035013678696
 30
0.0
 10
108.6211127945357
 20
149.903501358817
 30
0.0
 10
108.6626501826429
 20
149.9035013479669
 30
0.0
  0
LINE
  5
17D
330
1F
100
AcDbEntity
  8
0
  6
Continuous
 62
     7
370
    18
100
AcDbLine
 10
108.662650185
 20
149.9035016676
 30
0.0
 11
108.662650185
 21
152.1119343159
 31
0.0
  0
SPLINE
  5
17E
330
1F
100
AcDbEntity
  8
0
  6
Continuous
 62
     7
370
    18
100
AcDbSpline
210
0.0
220
0.0
230
1.0
 70
     8
 71
     3
 72
    10
 73
     6
 74
     0
 42
0.000000001
 43
0.00000001
 40
0.0
 40
0.0
 40
0.0
 40
0.0
 40
0.5
 40
0.5
 40
1.0
 40
1.0
 40
1.0
 40
1.0
 10
112.6626501634405
 20
149.4140064099366
 30
0.0
 10
112.5975527181841
 20
149.4112624685595
 30
0.0
 10
112.5219043708936
 20
149.3803663019836
 30
0.0
 10
112.412811276853
 20
149.2649379229835
 30
0.0
 10
112.3836108436297
 20
149.1848965010598
 30
0.0
 10
112.3810175003204
 20
149.116018695285
 30
0.0
  0
SPLINE
  5
17F
330
1F
100
AcDbEntity
  8
0
  6
Continuous
 62
     7
370
    18
100
AcDbSpline
210
0.0
220
0.0
230
1.0
 70
    24
 71
     3
 72
    12
 73
     8
 74
     0
 42
0.000000001
 43
0.00000001
 40
0.0
 40
0.0
 40
0.0
 40
0.0
 40
0.25
 40
0.25
 40
0.5
 40
0.5
 40
1.0
 40
1.0
 40
1.0
 40
1.0
 10
112.0626501772169
 20
149.9035014407813
 30
0.0
 10
112.1041875668075
 20
149.9035014407813
 30
0.0
 10
112.1475545796638
 20
149.9035014407813
 30
0.0
 10
112.2262924297114
 20
149.9035014407813
 30
0.0
 10
112.2613559738374
 20
149.9035014407813
 30
0.0
 10
112.3425643804172
 20
149.9035014407813
 30
0.0
 10
112.3626501768467
 20
149.9035014407813
 30
0.0
 10
112.3626501768467
 20
149.9035014407813
 30
0.0
  0
SPLINE
  5
180
330
1F
100
AcDbEntity
  8
0
  6
Continuous
 62
     7
370
    18
100
AcDbSpline
210
0.0
220
0.0
230
1.0
 70
    24
 71
     3
 72
    10
 73
     6
 74
     0
 42
0.000000001
 43
0.00000001
 40
0.0
 40
0.0
 40
0.0
 40
0.0
 40
0.5
 40
0.5
 40
1.0
 40
1.0
 40
1.0
 40
1.0
 10
111.8544869118467
 20
149.9035014407813
 30
0.0
 10
111.8774165011232
 20
149.9035014407813
 30
0.0
 10
111.9065005983552
 20
149.9035014407813
 30
0.0
 10
111.9770846218316
 20
149.9035014407813
 30
0.0
 10
112.018698437776
 20
149.9035014407813
 30
0.0
 10
112.0626501772169
 20
149.9035014407813
 30
0.0
  0
LINE
  5
181
330
1F
100
AcDbEntity
  8
0
  6
Continuous
 62
     7
370
    18
100
AcDbLine
 10
112.0626504629
 20
152.1119343159
 30
0.0
 11
112.0626504629
 21
149.9035016676
 31
0.0
  0
SPLINE
  5
182
330
1F
100
AcDbEntity
  8
0
  6
Continuous
 62
     7
370
    18
100
AcDbSpline
210
0.0
220
0.0
230
1.0
 70
     8
 71
     3
 72
    10
 73
     6
 74
     0
 42
0.000000001
 43
0.00000001
 40
0.0
 40
0.0
 40
0.0
 40
0.0
 40
0.5
 40
0.5
 40
1.0
 40
1.0
 40
1.0
 40
1.0
 10
108.3442827690505
 20
149.1160186648062
 30
0.0
 10
108.3416894287331
 20
149.1848964667293
 30
0.0
 10
108.3124890020514
 20
149.2649378821388
 30
0.0
 10
108.2033959248252
 20
149.3803662586982
 30
0.0
 10
108.1277475858266
 20
149.4112624308467
 30
0.0
 10
108.0626501422028
 20
149.4140063807067
 30
0.0
  0
SPLINE
  5
183
330
1F
100
AcDbEntity
  8
0
  6
Continuous
 62
     7
370
    18
100
AcDbSpline
210
0.0
220
0.0
230
1.0
 70
     8
 71
     3
 72
    10
 73
     6
 74
     0
 42
0.000000001
 43
0.00000001
 40
0.0
 40
0.0
 40
0.0
 40
0.0
 40
0.5
 40
0.5
 40
1.0
 40
1.0
 40
1.0
 40
1.0
 10
108.6626501826429
 20
149.9035013479669
 30
0.0
 10
108.7066019205142
 20
149.9035013364862
 30
0.0
 10
108.7482157349616
 20
149.9035013231254
 30
0.0
 10
108.818799756329
 20
149.9035012968614
 30
0.0
 10
108.8478838529202
 20
149.9035012839938
 30
0.0
 10
108.8708134418465
 20
149.9035012724383
 30
0.0
  0
SPLINE
  5
184
330
1F
100
AcDbEntity
  8
0
  6
Continuous
 62
     7
370
    18
100
AcDbSpline
210
0.0
220
0.0
230
1.0
 70
    24
 71
     3
 72
    22
 73
    18
 74
     0
 42
0.000000001
 43
0.00000001
 40
0.0
 40
0.0
 40
0.0
 40
0.0
 40
0.0675332362281048
 40
0.1350664738841968
 40
0.2025996994000575
 40
0.2701329356188947
 40
0.3376661716015465
 40
0.4051994029427495
 40
0.472732639175129
 40
0.5402658871150193
 40
0.6077991193100379
 40
0.675332344451857
 40
0.7428655968719085
 40
0.810398819231562
 40
0.8779320559488577
 40
0.9454652914003026
 40
1.0
 40
1.0
 40
1.0
 40
1.0
 10
178.0626501053211
 20
153.2226829366471
 30
0.0
 10
178.0626501053211
 20
153.4001791533631
 30
0.0
 10
178.0626501053211
 20
153.7551715905483
 30
0.0
 10
178.0626501053211
 20
154.3740757659539
 30
0.0
 10
178.0626501053211
 20
155.0371892963945
 30
0.0
 10
178.0626501053211
 20
155.735083782166
 30
0.0
 10
178.0626501053211
 20
156.4483821728322
 30
0.0
 10
178.0626501053211
 20
157.159755018609
 30
0.0
 10
178.0626501053211
 20
157.8512673188935
 30
0.0
 10
178.0626501053211
 20
158.5056626267223
 30
0.0
 10
178.0626501053211
 20
159.1065391662192
 30
0.0
 10
178.0626501053211
 20
159.6389493012558
 30
0.0
 10
178.0626501053211
 20
160.0892699711642
 30
0.0
 10
178.0626501053211
 20
160.4473687691158
 30
0.0
 10
178.0626501053211
 20
160.7000591206057
 30
0.0
 10
178.0626501053211
 20
160.8467465171651
 30
0.0
 10
178.0626501053211
 20
160.8547296300068
 30
0.0
 10
178.0626501053211
 20
160.8582961415584
 30
0.0
  0
SPLINE
  5
185
330
1F
100
AcDbEntity
  8
0
  6
Continuous
 62
     7
370
    18
100
AcDbSpline
210
0.0
220
0.0
230
1.0
 70
    24
 71
     3
 72
    13
 73
     9
 74
     0
 42
0.000000001
 43
0.00000001
 40
0.0
 40
0.0
 40
0.0
 40
0.0
 40
0.0068857253669851
 40
0.2055085655964871
 40
0.404131425574395
 40
0.602754278546575
 40
0.8013771345389593
 40
1.0
 40
1.0
 40
1.0
 40
1.0
 10
178.0626501053211
 20
151.8689373550649
 30
0.0
 10
178.0626501053211
 20
151.8683122030673
 30
0.0
 10
178.0626501053211
 20
151.8496541701881
 30
0.0
 10
178.0626501053211
 20
151.9169723224202
 30
0.0
 10
178.0626501053212
 20
152.0782431439678
 30
0.0
 10
178.0626501053211
 20
152.3614154388629
 30
0.0
 10
178.0626501053211
 20
152.735652566368
 30
0.0
 10
178.0626501053211
 20
153.0603394773077
 30
0.0
 10
178.0626501053211
 20
153.2226829366471
 30
0.0
  0
SPLINE
  5
186
330
1F
100
AcDbEntity
  8
0
  6
Continuous
 62
     7
370
    18
100
AcDbSpline
210
0.0
220
0.0
230
1.0
 70
    24
 71
     3
 72
    13
 73
     9
 74
     0
 42
0.000000001
 43
0.00000001
 40
0.0
 40
0.0
 40
0.0
 40
0.0
 40
0.0068857253669851
 40
0.2055085655964871
 40
0.404131425574395
 40
0.602754278546575
 40
0.8013771345389593
 40
1.0
 40
1.0
 40
1.0
 40
1.0
 10
177.4626473992703
 20
151.8689373550649
 30
0.0
 10
177.4626473992703
 20
151.8683122030673
 30
0.0
 10
177.4626473992701
 20
151.8496541701881
 30
0.0
 10
177.4626473992703
 20
151.9169723224202
 30
0.0
 10
177.4626473992703
 20
152.0782431439678
 30
0.0
 10
177.4626473992702
 20
152.3614154388629
 30
0.0
 10
177.4626473992703
 20
152.735652566368
 30
0.0
 10
177.4626473992702
 20
153.0603394773077
 30
0.0
 10
177.4626473992703
 20
153.2226829366471
 30
0.0
  0
SPLINE
  5
187
330
1F
100
AcDbEntity
  8
0
  6
Continuous
 62
     7
370
    18
100
AcDbSpline
210
0.0
220
0.0
230
1.0
 70
    24
 71
     3
 72
    22
 73
    18
 74
     0
 42
0.000000001
 43
0.00000001
 40
0.0
 40
0.0
 40
0.0
 40
0.0
 40
0.0675332362281048
 40
0.1350664738841968
 40
0.2025996994000575
 40
0.2701329356188947
 40
0.3376661716015465
 40
0.4051994029427495
 40
0.472732639175129
 40
0.5402658871150193
 40
0.6077991193100379
 40
0.675332344451857
 40
0.7428655968719085
 40
0.810398819231562
 40
0.8779320559488577
 40
0.9454652914003026
 40
1.0
 40
1.0
 40
1.0
 40
1.0
 10
177.4626473992703
 20
153.2226829366471
 30
0.0
 10
177.4626473992703
 20
153.4001791533631
 30
0.0
 10
177.4626473992703
 20
153.7551715905483
 30
0.0
 10
177.4626473992702
 20
154.3740757659539
 30
0.0
 10
177.4626473992703
 20
155.0371892963945
 30
0.0
 10
177.4626473992703
 20
155.735083782166
 30
0.0
 10
177.4626473992703
 20
156.4483821728322
 30
0.0
 10
177.4626473992702
 20
157.159755018609
 30
0.0
 10
177.4626473992703
 20
157.8512673188935
 30
0.0
 10
177.4626473992703
 20
158.5056626267223
 30
0.0
 10
177.4626473992703
 20
159.1065391662192
 30
0.0
 10
177.4626473992703
 20
159.6389493012558
 30
0.0
 10
177.4626473992702
 20
160.0892699711642
 30
0.0
 10
177.4626473992703
 20
160.4473687691158
 30
0.0
 10
177.4626473992702
 20
160.7000591206057
 30
0.0
 10
177.4626473992703
 20
160.8467465171651
 30
0.0
 10
177.4626473992703
 20
160.8547296300068
 30
0.0
 10
177.4626473992703
 20
160.8582961415584
 30
0.0
  0
LINE
  5
188
330
1F
100
AcDbEntity
  8
0
  6
Continuous
 62
     7
370
    18
100
AcDbLine
 10
153.7610727459
 20
150.3672625912
 30
0.0
 11
153.6199214965
 21
150.4686403131
 31
0.0
  0
LINE
  5
189
330
1F
100
AcDbEntity
  8
0
  6
Continuous
 62
     7
370
    18
100
AcDbLine
 10
153.6687526017
 20
150.3859025469
 30
0.0
 11
153.7610727459
 21
150.3672625912
 31
0.0
  0
SPLINE
  5
18A
330
1F
100
AcDbEntity
  8
0
  6
Continuous
 62
     7
370
    18
100
AcDbSpline
210
0.0
220
0.0
230
1.0
 70
     8
 71
     3
 72
    15
 73
    11
 74
     0
 42
0.000000001
 43
0.00000001
 40
0.0
 40
0.0
 40
0.0
 40
0.0
 40
0.0748334365430753
 40
0.2167565317678516
 40
0.3586763333604235
 40
0.5005960987074484
 40
0.6425158640544731
 40
0.784435948021984
 40
0.9263588557525079
 40
1.0
 40
1.0
 40
1.0
 40
1.0
 10
153.8514184862015
 20
150.3855058034594
 30
0.0
 10
153.8856029100902
 20
150.3904070683837
 30
0.0
 10
153.9846187712467
 20
150.4046036793552
 30
0.0
 10
154.1237466517383
 20
150.506479836846
 30
0.0
 10
154.2341392612501
 20
150.6707670340535
 30
0.0
 10
154.2745292108916
 20
150.8672426352727
 30
0.0
 10
154.2341417130098
 20
151.0637324233782
 30
0.0
 10
154.1237366164107
 20
151.2279774550635
 30
0.0
 10
153.9851120541541
 20
151.3296456757834
 30
0.0
 10
153.8866580224304
 20
151.3438183673968
 30
0.0
 10
153.8530240863201
 20
151.3486600523527
 30
0.0
  0
LINE
  5
18B
330
1F
100
AcDbEntity
  8
0
  6
Continuous
 62
     7
370
    18
100
AcDbLine
 10
116.2574847325
 20
162.3498800253
 30
0.0
 11
116.265093638
 21
162.346765217
 31
0.0
  0
LINE
  5
18C
330
1F
100
AcDbEntity
  8
0
  6
Continuous
 62
     7
370
    18
100
AcDbLine
 10
118.758289805
 20
150.3922755873
 30
0.0
 11
118.764725244
 21
150.390743096
 31
0.0
  0
LINE
  5
18D
330
1F
100
AcDbEntity
  8
0
  6
Continuous
 62
     7
370
    18
100
AcDbLine
 10
128.7568441689
 20
150.394343589
 30
0.0
 11
128.7638942808
 21
150.394609016
 31
0.0
  0
LINE
  5
18E
330
1F
100
AcDbEntity
  8
0
  6
Continuous
 62
     7
370
    18
100
AcDbLine
 10
133.7580706089
 20
150.3924753559
 30
0.0
 11
133.7654168814
 21
150.3937466113
 31
0.0
  0
SPLINE
  5
18F
330
1F
100
AcDbEntity
  8
0
  6
Continuous
 62
     7
370
    18
100
AcDbSpline
210
0.0
220
0.0
230
1.0
 70
     8
 71
     3
 72
    10
 73
     6
 74
     0
 42
0.000000001
 43
0.00000001
 40
0.0
 40
0.0
 40
0.0
 40
0.0
 40
0.1556787121945532
 40
0.9446547734799192
 40
1.0
 40
1.0
 40
1.0
 40
1.0
 10
114.4209529369709
 20
155.2946755472283
 30
0.0
 10
114.4136358008249
 20
155.296641147392
 30
0.0
 10
114.3692355903459
 20
155.3085683630741
 30
0.0
 10
114.3483758374083
 20
155.3254273427146
 30
0.0
 10
114.3628393437579
 20
155.3381687424047
 30
0.0
 10
114.3637874260184
 20
155.3390039406429
 30
0.0
  0
LINE
  5
190
330
1F
100
AcDbEntity
  8
0
  6
Continuous
 62
     7
370
    18
100
AcDbLine
 10
157.3626498788
 20
161.2745302772
 30
0.0
 11
157.3626498788
 21
151.4595759144
 31
0.0
  0
LINE
  5
191
330
1F
100
AcDbEntity
  8
0
  6
Continuous
 62
     7
370
    18
100
AcDbLine
 10
157.3626498788
 20
151.4595759144
 30
0.0
 11
154.3626512497
 21
151.4595759144
 31
0.0
  0
LINE
  5
192
330
1F
100
AcDbEntity
  8
0
  6
Continuous
 62
     7
370
    18
100
AcDbLine
 10
154.3626512497
 20
151.4595759144
 30
0.0
 11
154.3626512497
 21
161.2745302772
 31
0.0
  0
LINE
  5
193
330
1F
100
AcDbEntity
  8
0
  6
Continuous
 62
     7
370
    18
100
AcDbLine
 10
157.3626498788
 20
161.2745302772
 30
0.0
 11
154.3626512497
 21
161.2745302772
 31
0.0
  0
LINE
  5
194
330
1F
100
AcDbEntity
  8
0
  6
Continuous
 62
     7
370
    18
100
AcDbLine
 10
157.3626498788
 20
146.552098733
 30
0.0
 11
154.3626512497
 21
146.552098733
 31
0.0
  0
LINE
  5
195
330
1F
100
AcDbEntity
  8
0
  6
Continuous
 62
     7
370
    18
100
AcDbLine
 10
154.3626512497
 20
146.552098733
 30
0.0
 11
154.3626512497
 21
151.4595759144
 31
0.0
  0
LINE
  5
196
330
1F
100
AcDbEntity
  8
0
  6
Continuous
 62
     7
370
    18
100
AcDbLine
 10
157.3626498788
 20
151.4595759144
 30
0.0
 11
157.3626498788
 21
146.552098733
 31
0.0
  0
LINE
  5
197
330
1F
100
AcDbEntity
  8
0
  6
Continuous
 62
     7
370
    18
100
AcDbLine
 10
154.3626512497
 20
166.1820074586
 30
0.0
 11
157.3626498788
 21
166.1820074586
 31
0.0
  0
LINE
  5
198
330
1F
100
AcDbEntity
  8
0
  6
Continuous
 62
     7
370
    18
100
AcDbLine
 10
154.3626512497
 20
161.2745302772
 30
0.0
 11
154.3626512497
 21
166.1820074586
 31
0.0
  0
LINE
  5
199
330
1F
100
AcDbEntity
  8
0
  6
Continuous
 62
     7
370
    18
100
AcDbLine
 10
157.3626498788
 20
166.1820074586
 30
0.0
 11
157.3626498788
 21
161.2745302772
 31
0.0
  0
SPLINE
  5
19A
330
1F
100
AcDbEntity
  8
0
  6
Continuous
 62
     7
370
    18
100
AcDbSpline
210
0.0
220
0.0
230
1.0
 70
    24
 71
     3
 72
    13
 73
     9
 74
     0
 42
0.000000001
 43
0.00000001
 40
0.0
 40
0.0
 40
0.0
 40
0.0
 40
0.1875083591923677
 40
0.3750167283978081
 40
0.5625251011956593
 40
0.750033509869266
 40
0.9375418815706374
 40
1.0
 40
1.0
 40
1.0
 40
1.0
 10
176.362651130521
 20
159.3670531218584
 30
0.0
 10
176.362651130521
 20
159.6960322474464
 30
0.0
 10
176.362651130521
 20
160.3539905161902
 30
0.0
 10
176.362651130521
 20
161.1557524631426
 30
0.0
 10
176.362651130521
 20
161.786038676526
 30
0.0
 10
176.362651130521
 20
162.1898295247437
 30
0.0
 10
176.362651130521
 20
162.3768374335961
 30
0.0
 10
176.362651130521
 20
162.3484746537885
 30
0.0
 10
176.362651130521
 20
162.3413877604241
 30
0.0
  0
SPLINE
  5
19B
330
1F
100
AcDbEntity
  8
0
  6
Continuous
 62
     7
370
    18
100
AcDbSpline
210
0.0
220
0.0
230
1.0
 70
    24
 71
     3
 72
    18
 73
    14
 74
     0
 42
0.000000001
 43
0.00000001
 40
0.0
 40
0.0
 40
0.0
 40
0.0
 40
0.0625209355542605
 40
0.1562688440628139
 40
0.2500167585728801
 40
0.3437646534240583
 40
0.4375125532814372
 40
0.5312604549349011
 40
0.6250083745250402
 40
0.718756275630301
 40
0.8125041769813803
 40
0.9062520854899339
 40
1.0
 40
1.0
 40
1.0
 40
1.0
 10
176.362651130521
 20
150.3927184311385
 30
0.0
 10
176.362651130521
 20
150.3924869710639
 30
0.0
 10
176.362651130521
 20
150.3919084448793
 30
0.0
 10
176.362651130521
 20
150.6544534540745
 30
0.0
 10
176.362651130521
 20
151.1359028999493
 30
0.0
 10
176.362651130521
 20
151.8273397268174
 30
0.0
 10
176.362651130521
 20
152.6908241849541
 30
0.0
 10
176.362651130521
 20
153.6962701870318
 30
0.0
 10
176.362651130521
 20
154.8040208627661
 30
0.0
 10
176.362651130521
 20
155.9724788690328
 30
0.0
 10
176.362651130521
 20
157.1538696230273
 30
0.0
 10
176.362651130521
 20
158.313304212486
 30
0.0
 10
176.362651130521
 20
159.0158034779055
 30
0.0
 10
176.362651130521
 20
159.3670531218584
 30
0.0
  0
SPLINE
  5
19C
330
1F
100
AcDbEntity
  8
0
  6
Continuous
 62
     7
370
    18
100
AcDbSpline
210
0.0
220
0.0
230
1.0
 70
    24
 71
     3
 72
    18
 73
    14
 74
     0
 42
0.000000001
 43
0.00000001
 40
0.0
 40
0.0
 40
0.0
 40
0.0
 40
0.0625209355542605
 40
0.1562688440628139
 40
0.2500167585728801
 40
0.3437646534240583
 40
0.4375125532814372
 40
0.5312604549349011
 40
0.6250083745250402
 40
0.718756275630301
 40
0.8125041769813803
 40
0.9062520854899339
 40
1.0
 40
1.0
 40
1.0
 40
1.0
 10
158.8626491933701
 20
150.3927184311385
 30
0.0
 10
158.86264919337
 20
150.3924869710639
 30
0.0
 10
158.8626491933701
 20
150.3919084448793
 30
0.0
 10
158.8626491933701
 20
150.6544534540745
 30
0.0
 10
158.86264919337
 20
151.1359028999493
 30
0.0
 10
158.8626491933701
 20
151.8273397268174
 30
0.0
 10
158.86264919337
 20
152.6908241849541
 30
0.0
 10
158.86264919337
 20
153.6962701870318
 30
0.0
 10
158.8626491933701
 20
154.8040208627661
 30
0.0
 10
158.8626491933701
 20
155.9724788690328
 30
0.0
 10
158.86264919337
 20
157.1538696230273
 30
0.0
 10
158.8626491933701
 20
158.313304212486
 30
0.0
 10
158.8626491933701
 20
159.0158034779055
 30
0.0
 10
158.8626491933701
 20
159.3670531218584
 30
0.0
  0
SPLINE
  5
19D
330
1F
100
AcDbEntity
  8
0
  6
Continuous
 62
     7
370
    18
100
AcDbSpline
210
0.0
220
0.0
230
1.0
 70
    24
 71
     3
 72
    13
 73
     9
 74
     0
 42
0.000000001
 43
0.00000001
 40
0.0
 40
0.0
 40
0.0
 40
0.0
 40
0.1875083591923677
 40
0.3750167283978081
 40
0.5625251011956593
 40
0.750033509869266
 40
0.9375418815706374
 40
1.0
 40
1.0
 40
1.0
 40
1.0
 10
158.8626491933701
 20
159.3670531218584
 30
0.0
 10
158.86264919337
 20
159.6960322474464
 30
0.0
 10
158.86264919337
 20
160.3539905161902
 30
0.0
 10
158.8626491933701
 20
161.1557524631426
 30
0.0
 10
158.86264919337
 20
161.786038676526
 30
0.0
 10
158.8626491933701
 20
162.1898295247437
 30
0.0
 10
158.86264919337
 20
162.3768374335961
 30
0.0
 10
158.8626491933701
 20
162.3484746537885
 30
0.0
 10
158.8626491933701
 20
162.3413877604241
 30
0.0
  0
SPLINE
  5
19E
330
1F
100
AcDbEntity
  8
0
  6
Continuous
 62
     7
370
    18
100
AcDbSpline
210
0.0
220
0.0
230
1.0
 70
    24
 71
     3
 72
    18
 73
    14
 74
     0
 42
0.000000001
 43
0.00000001
 40
0.0
 40
0.0
 40
0.0
 40
0.0
 40
0.0625491621549888
 40
0.1562942410319675
 40
0.2500393209114023
 40
0.3437844164448012
 40
0.437529508103975
 40
0.5312745919348878
 40
0.6250196749912075
 40
0.7187647546134845
 40
0.8125098412435866
 40
0.9062549201205653
 40
1.0
 40
1.0
 40
1.0
 40
1.0
 10
177.3626531570789
 20
151.3884307859178
 30
0.0
 10
177.3626531570789
 20
151.3882358012537
 30
0.0
 10
177.3626531570789
 20
151.3877485848143
 30
0.0
 10
177.3626531570789
 20
151.6065506010502
 30
0.0
 10
177.3626531570789
 20
152.0077619208967
 30
0.0
 10
177.3626531570789
 20
152.5839582679392
 30
0.0
 10
177.3626531570789
 20
153.3035292021311
 30
0.0
 10
177.3626531570789
 20
154.1414006641895
 30
0.0
 10
177.3626531570789
 20
155.0645263759246
 30
0.0
 10
177.3626531570789
 20
156.0382412339432
 30
0.0
 10
177.3626531570789
 20
157.0227335255173
 30
0.0
 10
177.3626531570789
 20
157.9889290066892
 30
0.0
 10
177.3626531570789
 20
158.5743450277877
 30
0.0
 10
177.3626531570789
 20
158.867053039902
 30
0.0
  0
LINE
  5
19F
330
1F
100
AcDbEntity
  8
0
  6
Continuous
 62
     7
370
    18
100
AcDbLine
 10
177.3626531571
 20
158.8670530399
 30
0.0
 11
176.3626511305
 21
159.3670531219
 31
0.0
  0
SPLINE
  5
1A0
330
1F
100
AcDbEntity
  8
0
  6
Continuous
 62
     7
370
    18
100
AcDbSpline
210
0.0
220
0.0
230
1.0
 70
    24
 71
     3
 72
    13
 73
     9
 74
     0
 42
0.000000001
 43
0.00000001
 40
0.0
 40
0.0
 40
0.0
 40
0.0
 40
0.1875228409873459
 40
0.3750456742248919
 40
0.5625684918031899
 40
0.7500913078320315
 40
0.9376141169915921
 40
1.0
 40
1.0
 40
1.0
 40
1.0
 10
177.3626531570789
 20
158.867053039902
 30
0.0
 10
177.3626531570789
 20
159.1412024457629
 30
0.0
 10
177.3626531570789
 20
159.6895012461551
 30
0.0
 10
177.3626531570789
 20
160.3576355231188
 30
0.0
 10
177.3626531570789
 20
160.8828763605676
 30
0.0
 10
177.3626531570789
 20
161.2193605717411
 30
0.0
 10
177.3626531570789
 20
161.3751957588615
 30
0.0
 10
177.3626531570789
 20
161.3515748085977
 30
0.0
 10
177.3626531570789
 20
161.3456781996126
 30
0.0
  0
SPLINE
  5
1A1
330
1F
100
AcDbEntity
  8
0
  6
Continuous
 62
     7
370
    18
100
AcDbSpline
210
0.0
220
0.0
230
1.0
 70
    24
 71
     3
 72
    17
 73
    13
 74
     0
 42
0.000000001
 43
0.00000001
 40
0.0
 40
0.0
 40
0.0
 40
0.0
 40
0.0542514355738852
 40
0.163373271336363
 40
0.2724951042453544
 40
0.3816169574212511
 40
0.4907387834283289
 40
0.5998606172244696
 40
0.7089824684195515
 40
0.8181042771264894
 40
0.9272261139842926
 40
1.0
 40
1.0
 40
1.0
 40
1.0
 10
151.8626499086258
 20
157.3815392838503
 30
0.0
 10
151.8626499086258
 20
157.2398752663418
 30
0.0
 10
151.8626499086258
 20
156.8132669429641
 30
0.0
 10
151.8626499086258
 20
156.0695527870764
 30
0.0
 10
151.8626499086258
 20
155.1951995383599
 30
0.0
 10
151.8626499086258
 20
154.3638531294862
 30
0.0
 10
151.8626499086258
 20
153.6099116720979
 30
0.0
 10
151.8626499086258
 20
152.9622599857692
 30
0.0
 10
151.8626499086258
 20
152.4436923170401
 30
0.0
 10
151.8626499086258
 20
152.0826031175282
 30
0.0
 10
151.8626499086258
 20
151.8856949097256
 30
0.0
 10
151.8626499086258
 20
151.8861287548711
 30
0.0
 10
151.8626499086258
 20
151.8863023301299
 30
0.0
  0
SPLINE
  5
1A2
330
1F
100
AcDbEntity
  8
0
  6
Continuous
 62
     7
370
    18
100
AcDbSpline
210
0.0
220
0.0
230
1.0
 70
    24
 71
     3
 72
    18
 73
    14
 74
     0
 42
0.000000001
 43
0.00000001
 40
0.0
 40
0.0
 40
0.0
 40
0.0
 40
0.0625616411805383
 40
0.1563054773692317
 40
0.2500493244854328
 40
0.3437931419171238
 40
0.437536983303046
 40
0.5312808080415604
 40
0.6250246414688605
 40
0.7187684804043607
 40
0.8125123166951055
 40
0.9062561528837988
 40
1.0
 40
1.0
 40
1.0
 40
1.0
 10
151.3626488953468
 20
152.3841515226002
 30
0.0
 10
151.3626488953468
 20
152.3839947002207
 30
0.0
 10
151.3626488953468
 20
152.3836028914952
 30
0.0
 10
151.3626488953468
 20
152.5586502595321
 30
0.0
 10
151.3626488953468
 20
152.8796203638574
 30
0.0
 10
151.3626488953468
 20
153.3405771371745
 30
0.0
 10
151.3626488953468
 20
153.9162338660637
 30
0.0
 10
151.3626488953468
 20
154.5865310900014
 30
0.0
 10
151.3626488953468
 20
155.3250316863071
 30
0.0
 10
151.3626488953468
 20
156.1040035490684
 30
0.0
 10
151.3626488953468
 20
156.8915974902868
 30
0.0
 10
151.3626488953468
 20
157.6645538277231
 30
0.0
 10
151.3626488953468
 20
158.1328867273264
 30
0.0
 10
151.3626488953468
 20
158.3670531907762
 30
0.0
  0
SPLINE
  5
1A3
330
1F
100
AcDbEntity
  8
0
  6
Continuous
 62
     7
370
    18
100
AcDbSpline
210
0.0
220
0.0
230
1.0
 70
    24
 71
     3
 72
    13
 73
     9
 74
     0
 42
0.000000001
 43
0.00000001
 40
0.0
 40
0.0
 40
0.0
 40
0.0
 40
0.1875246330875115
 40
0.3750493140929393
 40
0.5625739617969814
 40
0.750098626882024
 40
0.9376233029856408
 40
1.0
 40
1.0
 40
1.0
 40
1.0
 10
151.3626488953468
 20
158.3670531907762
 30
0.0
 10
151.3626488953468
 20
158.5863726512553
 30
0.0
 10
151.3626488953468
 20
159.025011628256
 30
0.0
 10
151.3626488953468
 20
159.5595189660806
 30
0.0
 10
151.3626488953468
 20
159.9797116645647
 30
0.0
 10
151.3626488953468
 20
160.2488982792885
 30
0.0
 10
151.3626488953468
 20
160.3735657238418
 30
0.0
 10
151.3626488953468
 20
160.3546709130964
 30
0.0
 10
151.3626488953468
 20
160.3499546689625
 30
0.0
  0
SPLINE
  5
1A4
330
1F
100
AcDbEntity
  8
0
  6
Continuous
 62
     7
370
    18
100
AcDbSpline
210
0.0
220
0.0
230
1.0
 70
    24
 71
     3
 72
     8
 73
     4
 74
     0
 42
0.000000001
 43
0.00000001
 40
0.0
 40
0.0
 40
0.0
 40
0.0
 40
1.0
 40
1.0
 40
1.0
 40
1.0
 10
169.3669725828382
 20
158.8312973986677
 30
0.0
 10
169.3669725828382
 20
160.2060255133626
 30
0.0
 10
169.3669725828382
 20
161.463629316797
 30
0.0
 10
169.3669725828382
 20
162.4961468745647
 30
0.0
  0
SPLINE
  5
1A5
330
1F
100
AcDbEntity
  8
0
  6
Continuous
 62
     7
370
    18
100
AcDbSpline
210
0.0
220
0.0
230
1.0
 70
     8
 71
     3
 72
    12
 73
     8
 74
     0
 42
0.000000001
 43
0.00000001
 40
0.0
 40
0.0
 40
0.0
 40
0.0
 40
0.1687587900234349
 40
0.3347821315387713
 40
0.4984190143241716
 40
0.7514131734810588
 40
1.0
 40
1.0
 40
1.0
 40
1.0
 10
169.9240893679734
 20
161.2745303820961
 30
0.0
 10
169.8856179559603
 20
161.138825410238
 30
0.0
 10
169.8092987235503
 20
160.8696151383893
 30
0.0
 10
169.7045114706856
 20
160.4663875608978
 30
0.0
 10
169.590591224281
 20
159.9929084171515
 30
0.0
 10
169.4729381868864
 20
159.4493341593175
 30
0.0
 10
169.4020869303246
 20
159.0360993036608
 30
0.0
 10
169.3669725828382
 20
158.8312973986677
 30
0.0
  0
SPLINE
  5
1A6
330
1F
100
AcDbEntity
  8
0
  6
Continuous
 62
     7
370
    18
100
AcDbSpline
210
0.0
220
0.0
230
1.0
 70
     8
 71
     3
 72
    12
 73
     8
 74
     0
 42
0.000000001
 43
0.00000001
 40
0.0
 40
0.0
 40
0.0
 40
0.0
 40
0.1644443311766335
 40
0.3305519270847289
 40
0.4988651060719878
 40
0.7465204752708842
 40
0.9999999999999999
 40
0.9999999999999999
 40
0.9999999999999999
 40
0.9999999999999999
 10
169.3669725828382
 20
162.4961468745647
 30
0.0
 10
169.3897241029808
 20
162.4283644677857
 30
0.0
 10
169.435457262485
 20
162.2921140721478
 30
0.0
 10
169.5164179060832
 20
162.0875738576162
 30
0.0
 10
169.6205976016535
 20
161.8499811356781
 30
0.0
 10
169.7534952292892
 20
161.5781398951064
 30
0.0
 10
169.8667857701012
 20
161.3765146447319
 30
0.0
 10
169.9240893679734
 20
161.2745303820961
 30
0.0
  0
SPLINE
  5
1A7
330
1F
100
AcDbEntity
  8
0
  6
Continuous
 62
     7
370
    18
100
AcDbSpline
210
0.0
220
0.0
230
1.0
 70
     8
 71
     3
 72
    12
 73
     8
 74
     0
 42
0.000000001
 43
0.00000001
 40
0.0
 40
0.0
 40
0.0
 40
0.0
 40
0.1644443311832603
 40
0.3305519270955143
 40
0.4988651060842622
 40
0.7465204752802319
 40
1.0
 40
1.0
 40
1.0
 40
1.0
 10
172.3669725828467
 20
150.2379593169879
 30
0.0
 10
172.3442210627451
 20
150.3057417237671
 30
0.0
 10
172.2984879033237
 20
150.4419921194047
 30
0.0
 10
172.2175272598714
 20
150.6465323339381
 30
0.0
 10
172.1133475644889
 20
150.8841250558773
 30
0.0
 10
171.9804499370935
 20
151.1559662964497
 30
0.0
 10
171.8671593964833
 20
151.3575915468294
 30
0.0
 10
171.809855798714
 20
151.4595758094665
 30
0.0
  0
SPLINE
  5
1A8
330
1F
100
AcDbEntity
  8
0
  6
Continuous
 62
     7
370
    18
100
AcDbSpline
210
0.0
220
0.0
230
1.0
 70
     8
 71
     3
 72
    12
 73
     8
 74
     0
 42
0.000000001
 43
0.00000001
 40
0.0
 40
0.0
 40
0.0
 40
0.0
 40
0.1687587900164894
 40
0.3347821315277631
 40
0.4984190143118631
 40
0.7514131734719778
 40
1.0
 40
1.0
 40
1.0
 40
1.0
 10
171.809855798714
 20
151.4595758094665
 30
0.0
 10
171.848327210658
 20
151.5952807813246
 30
0.0
 10
171.9246464429315
 20
151.8644910531756
 30
0.0
 10
172.0294336956074
 20
152.2677186306655
 30
0.0
 10
172.1433539418075
 20
152.741197774413
 30
0.0
 10
172.2610069789908
 20
153.284772032249
 30
0.0
 10
172.3318582354237
 20
153.6980068878988
 30
0.0
 10
172.3669725828467
 20
153.9028087928909
 30
0.0
  0
SPLINE
  5
1A9
330
1F
100
AcDbEntity
  8
0
  6
Continuous
 62
   144
370
    18
100
AcDbSpline
210
0.0
220
0.0
230
1.0
 70
    24
 71
     3
 72
     8
 73
     4
 74
     0
 42
0.000000001
 43
0.00000001
 40
0.0
 40
0.0
 40
0.0
 40
0.0
 40
1.0
 40
1.0
 40
1.0
 40
1.0
 10
172.3669725828467
 20
153.9028087928909
 30
0.0
 10
172.3669725828467
 20
152.5280806781937
 30
0.0
 10
172.3669725828467
 20
151.2704768747573
 30
0.0
 10
172.3669725828467
 20
150.2379593169879
 30
0.0
  0
SPLINE
  5
1AA
330
1F
100
AcDbEntity
  8
0
  6
Continuous
 62
     7
370
    18
100
AcDbSpline
210
0.0
220
0.0
230
1.0
 70
    24
 71
     3
 72
     8
 73
     4
 74
     0
 42
0.000000001
 43
0.00000001
 40
0.0
 40
0.0
 40
0.0
 40
0.0
 40
1.0
 40
1.0
 40
1.0
 40
1.0
 10
169.3669725828467
 20
150.2379593155155
 30
0.0
 10
169.3669725828467
 20
151.2704768730564
 30
0.0
 10
169.3669725828467
 20
152.5280806763253
 30
0.0
 10
169.3669725828467
 20
153.9028087909306
 30
0.0
  0
SPLINE
  5
1AB
330
1F
100
AcDbEntity
  8
0
  6
Continuous
 62
     7
370
    18
100
AcDbSpline
210
0.0
220
0.0
230
1.0
 70
     8
 71
     3
 72
    12
 73
     8
 74
     0
 42
0.000000001
 43
0.00000001
 40
0.0
 40
0.0
 40
0.0
 40
0.0
 40
0.1689572582073187
 40
0.3351727945571805
 40
0.4989969118164033
 40
0.7516965879790618
 40
1.0
 40
1.0
 40
1.0
 40
1.0
 10
169.9240893679734
 20
151.4595758075063
 30
0.0
 10
169.8855734653405
 20
151.3916448717223
 30
0.0
 10
169.8091666695783
 20
151.2568853365287
 30
0.0
 10
169.7042712108817
 20
151.0550385217645
 30
0.0
 10
169.5903610224077
 20
150.8182471442196
 30
0.0
 10
169.4728092753939
 20
150.546651938352
 30
0.0
 10
169.4020444951674
 20
150.3402531452035
 30
0.0
 10
169.3669725828467
 20
150.2379593155155
 30
0.0
  0
SPLINE
  5
1AC
330
1F
100
AcDbEntity
  8
0
  6
Continuous
 62
     7
370
    18
100
AcDbSpline
210
0.0
220
0.0
230
1.0
 70
     8
 71
     3
 72
    12
 73
     8
 74
     0
 42
0.000000001
 43
0.00000001
 40
0.0
 40
0.0
 40
0.0
 40
0.0
 40
0.1650881909353321
 40
0.3318533786574374
 40
0.5008439396927505
 40
0.747531601917546
 40
1.0
 40
1.0
 40
1.0
 40
1.0
 10
169.3669725828467
 20
153.9028087909306
 30
0.0
 10
169.3898168411201
 20
153.7667245342677
 30
0.0
 10
169.4357374139244
 20
153.4931736515559
 30
0.0
 10
169.5170754835447
 20
153.0824820638793
 30
0.0
 10
169.6214191015019
 20
152.6069683638743
 30
0.0
 10
169.7541542763237
 20
152.0644057750602
 30
0.0
 10
169.8670086810853
 20
151.6627363770116
 30
0.0
 10
169.9240893679734
 20
151.4595758075063
 30
0.0
  0
SPLINE
  5
1AD
330
1F
100
AcDbEntity
  8
0
  6
Continuous
 62
     7
370
    18
100
AcDbSpline
210
0.0
220
0.0
230
1.0
 70
     8
 71
     3
 72
    12
 73
     8
 74
     0
 42
0.000000001
 43
0.00000001
 40
0.0
 40
0.0
 40
0.0
 40
0.0
 40
0.1650881909416596
 40
0.3318533786677294
 40
0.5008439397044382
 40
0.7475316019264279
 40
1.0
 40
1.0
 40
1.0
 40
1.0
 10
172.3669725828467
 20
158.831297400632
 30
0.0
 10
172.3441283246141
 20
158.9673816572945
 30
0.0
 10
172.2982077518924
 20
159.2409325400035
 30
0.0
 10
172.2168696824172
 20
159.6516241276802
 30
0.0
 10
172.1125260646466
 20
160.1271378276834
 30
0.0
 10
171.9797908900626
 20
160.6697004164947
 30
0.0
 10
171.8669364855006
 20
161.07136981455
 30
0.0
 10
171.809855798714
 20
161.2745303840564
 30
0.0
  0
SPLINE
  5
1AE
330
1F
100
AcDbEntity
  8
0
  6
Continuous
 62
     7
370
    18
100
AcDbSpline
210
0.0
220
0.0
230
1.0
 70
     8
 71
     3
 72
    12
 73
     8
 74
     0
 42
0.000000001
 43
0.00000001
 40
0.0
 40
0.0
 40
0.0
 40
0.0
 40
0.1689572582006941
 40
0.3351727945466875
 40
0.4989969118046789
 40
0.7516965879704236
 40
1.0
 40
1.0
 40
1.0
 40
1.0
 10
171.809855798714
 20
161.2745303840564
 30
0.0
 10
171.8483717012784
 20
161.3424613198406
 30
0.0
 10
171.924778496905
 20
161.4772208550358
 30
0.0
 10
172.0296739554143
 20
161.6790676697998
 30
0.0
 10
172.1435841436854
 20
161.9158590473455
 30
0.0
 10
172.2611358904897
 20
162.1874542532145
 30
0.0
 10
172.3319006705888
 20
162.3938530463597
 30
0.0
 10
172.3669725828467
 20
162.4961468760471
 30
0.0
  0
SPLINE
  5
1AF
330
1F
100
AcDbEntity
  8
0
  6
Continuous
 62
   144
370
    18
100
AcDbSpline
210
0.0
220
0.0
230
1.0
 70
    24
 71
     3
 72
     8
 73
     4
 74
     0
 42
0.000000001
 43
0.00000001
 40
0.0
 40
0.0
 40
0.0
 40
0.0
 40
1.0
 40
1.0
 40
1.0
 40
1.0
 10
172.3669725828467
 20
162.4961468760471
 30
0.0
 10
172.3669725828467
 20
161.4636293185063
 30
0.0
 10
172.3669725828467
 20
160.2060255152373
 30
0.0
 10
172.3669725828467
 20
158.831297400632
 30
0.0
  0
LINE
  5
1B0
330
1F
100
AcDbEntity
  8
0
  6
Continuous
 62
     7
370
    18
100
AcDbLine
 10
171.8098546475
 20
161.2745302772
 30
0.0
 11
169.9240903467
 21
161.2745302772
 31
0.0
  0
LINE
  5
1B1
330
1F
100
AcDbEntity
  8
0
  6
Continuous
 62
     7
370
    18
100
AcDbLine
 10
169.3669731825
 20
153.9028087208
 30
0.0
 11
169.3669731825
 21
158.8312974708
 31
0.0
  0
LINE
  5
1B2
330
1F
100
AcDbEntity
  8
0
  6
Continuous
 62
     7
370
    18
100
AcDbLine
 10
169.9240903467
 20
151.4595759144
 30
0.0
 11
171.8098546475
 21
151.4595759144
 31
0.0
  0
LINE
  5
1B3
330
1F
100
AcDbEntity
  8
0
  6
Continuous
 62
   144
370
    18
100
AcDbLine
 10
172.3669718116
 20
153.9028087208
 30
0.0
 11
172.3669718116
 21
158.8312974708
 31
0.0
  0
LINE
  5
1B4
330
1F
100
AcDbEntity
  8
0
  6
Continuous
 62
     7
370
    18
100
AcDbLine
 10
169.3669731825
 20
162.4961470296
 30
0.0
 11
169.3669731825
 21
164.9603916375
 31
0.0
  0
SPLINE
  5
1B5
330
1F
100
AcDbEntity
  8
0
  6
Continuous
 62
     7
370
    18
100
AcDbSpline
210
0.0
220
0.0
230
1.0
 70
    24
 71
     3
 72
     8
 73
     4
 74
     0
 42
0.000000001
 43
0.00000001
 40
0.0
 40
0.0
 40
0.0
 40
0.0
 40
1.0
 40
1.0
 40
1.0
 40
1.0
 10
169.3669725828467
 20
164.9603911818926
 30
0.0
 10
169.3669725828467
 20
165.1308734781933
 30
0.0
 10
169.3669725828467
 20
165.2170530958421
 30
0.0
 10
169.3669725828467
 20
165.2170530957813
 30
0.0
  0
SPLINE
  5
1B6
330
1F
100
AcDbEntity
  8
0
  6
Continuous
 62
     7
370
    18
100
AcDbSpline
210
0.0
220
0.0
230
1.0
 70
    24
 71
     3
 72
     8
 73
     4
 74
     0
 42
0.000000001
 43
0.00000001
 40
0.0
 40
0.0
 40
0.0
 40
0.0
 40
1.0
 40
1.0
 40
1.0
 40
1.0
 10
169.3669725828467
 20
147.5170530957813
 30
0.0
 10
169.3669725828467
 20
147.5170530959094
 30
0.0
 10
169.3669725828467
 20
147.6032327141075
 30
0.0
 10
169.3669725828467
 20
147.773715011298
 30
0.0
  0
LINE
  5
1B7
330
1F
100
AcDbEntity
  8
0
  6
Continuous
 62
     7
370
    18
100
AcDbLine
 10
169.3669731825
 20
147.7737145541
 30
0.0
 11
169.3669731825
 21
150.2379591619
 31
0.0
  0
SPLINE
  5
1B8
330
1F
100
AcDbEntity
  8
0
  6
Continuous
 62
     7
370
    18
100
AcDbSpline
210
0.0
220
0.0
230
1.0
 70
     8
 71
     3
 72
    12
 73
     8
 74
     0
 42
0.000000001
 43
0.00000001
 40
0.0
 40
0.0
 40
0.0
 40
0.0
 40
0.1644443311769531
 40
0.3305519270852464
 40
0.4988651060725701
 40
0.7465204752713274
 40
1.0
 40
1.0
 40
1.0
 40
1.0
 10
169.3669725828467
 20
147.773715011298
 30
0.0
 10
169.389724102989
 20
147.7059433514301
 30
0.0
 10
169.4354572624924
 20
147.5697145583133
 30
0.0
 10
169.5164179060894
 20
147.3651751646192
 30
0.0
 10
169.6205976016581
 20
147.1275327809078
 30
0.0
 10
169.7534952292917
 20
146.8557299877099
 30
0.0
 10
169.8667857701021
 20
146.654090157033
 30
0.0
 10
169.9240893679734
 20
146.5520985195204
 30
0.0
  0
LINE
  5
1B9
330
1F
100
AcDbEntity
  8
0
  6
Continuous
 62
     7
370
    18
100
AcDbLine
 10
169.9240903467
 20
146.552098733
 30
0.0
 11
171.8098546475
 21
146.552098733
 31
0.0
  0
SPLINE
  5
1BA
330
1F
100
AcDbEntity
  8
0
  6
Continuous
 62
     7
370
    18
100
AcDbSpline
210
0.0
220
0.0
230
1.0
 70
     8
 71
     3
 72
    12
 73
     8
 74
     0
 42
0.000000001
 43
0.00000001
 40
0.0
 40
0.0
 40
0.0
 40
0.0
 40
0.1689572569418498
 40
0.3351727927402772
 40
0.498996910170126
 40
0.7516965888233994
 40
0.9999999999999999
 40
0.9999999999999999
 40
0.9999999999999999
 40
0.9999999999999999
 10
171.809855798714
 20
146.5520985195204
 30
0.0
 10
171.8483717013128
 20
146.6200323811466
 30
0.0
 10
171.9247784971655
 20
146.7547977208251
 30
0.0
 10
172.0296739555899
 20
146.9566495683814
 30
0.0
 10
172.1435841443507
 20
147.1934128977477
 30
0.0
 10
172.2611358894356
 20
147.4650793307685
 30
0.0
 10
172.3319006703965
 20
147.6714400503855
 30
0.0
 10
172.3669725828467
 20
147.7737150096701
 30
0.0
  0
LINE
  5
1BB
330
1F
100
AcDbEntity
  8
0
  6
Continuous
 62
   144
370
    18
100
AcDbLine
 10
172.3669718116
 20
147.7737145541
 30
0.0
 11
172.3669718116
 21
150.2379591619
 31
0.0
  0
SPLINE
  5
1BC
330
1F
100
AcDbEntity
  8
0
  6
Continuous
 62
     7
370
    18
100
AcDbSpline
210
0.0
220
0.0
230
1.0
 70
     8
 71
     3
 72
    12
 73
     8
 74
     0
 42
0.000000001
 43
0.00000001
 40
0.0
 40
0.0
 40
0.0
 40
0.0
 40
0.1644443311832606
 40
0.3305519270955145
 40
0.498865106084259
 40
0.7465204752802324
 40
1.0
 40
1.0
 40
1.0
 40
1.0
 10
172.3669725828467
 20
164.9603911802647
 30
0.0
 10
172.3442210627451
 20
165.0281628401324
 30
0.0
 10
172.2984879033238
 20
165.1643916332477
 30
0.0
 10
172.2175272598713
 20
165.3689310269419
 30
0.0
 10
172.1133475644889
 20
165.6065734106524
 30
0.0
 10
171.9804499370934
 20
165.8783762038489
 30
0.0
 10
171.8671593964833
 20
166.0800160345292
 30
0.0
 10
171.809855798714
 20
166.1820076720423
 30
0.0
  0
LINE
  5
1BD
330
1F
100
AcDbEntity
  8
0
  6
Continuous
 62
     7
370
    18
100
AcDbLine
 10
169.9240903467
 20
166.1820074586
 30
0.0
 11
171.8098546475
 21
166.1820074586
 31
0.0
  0
SPLINE
  5
1BE
330
1F
100
AcDbEntity
  8
0
  6
Continuous
 62
     7
370
    18
100
AcDbSpline
210
0.0
220
0.0
230
1.0
 70
     8
 71
     3
 72
    12
 73
     8
 74
     0
 42
0.000000001
 43
0.00000001
 40
0.0
 40
0.0
 40
0.0
 40
0.0
 40
0.1689572569484744
 40
0.3351727927507702
 40
0.4989969101818506
 40
0.7516965888320377
 40
1.0
 40
1.0
 40
1.0
 40
1.0
 10
169.9240893679734
 20
166.1820076720423
 30
0.0
 10
169.885573465306
 20
166.1140738104162
 30
0.0
 10
169.8091666693178
 20
165.9793084707393
 30
0.0
 10
169.7042712107061
 20
165.7774566231828
 30
0.0
 10
169.5903610217424
 20
165.5406932938175
 30
0.0
 10
169.472809276448
 20
165.2690268607979
 30
0.0
 10
169.4020444953596
 20
165.0626661411776
 30
0.0
 10
169.3669725828467
 20
164.9603911818926
 30
0.0
  0
LINE
  5
1BF
330
1F
100
AcDbEntity
  8
0
  6
Continuous
 62
   144
370
    18
100
AcDbLine
 10
172.3669718116
 20
162.4961470296
 30
0.0
 11
172.3669718116
 21
164.9603916375
 31
0.0
  0
SPLINE
  5
1C0
330
1F
100
AcDbEntity
  8
0
  6
Continuous
 62
   144
370
    18
100
AcDbSpline
210
0.0
220
0.0
230
1.0
 70
    24
 71
     3
 72
     8
 73
     4
 74
     0
 42
0.000000001
 43
0.00000001
 40
0.0
 40
0.0
 40
0.0
 40
0.0
 40
1.0
 40
1.0
 40
1.0
 40
1.0
 10
172.3669725828467
 20
147.7737150096701
 30
0.0
 10
172.3669725828467
 20
147.6032327133694
 30
0.0
 10
172.3669725828467
 20
147.5170530957205
 30
0.0
 10
172.3669725828467
 20
147.5170530957813
 30
0.0
  0
SPLINE
  5
1C1
330
1F
100
AcDbEntity
  8
0
  6
Continuous
 62
   144
370
    18
100
AcDbSpline
210
0.0
220
0.0
230
1.0
 70
    24
 71
     3
 72
     8
 73
     4
 74
     0
 42
0.000000001
 43
0.00000001
 40
0.0
 40
0.0
 40
0.0
 40
0.0
 40
1.0
 40
1.0
 40
1.0
 40
1.0
 10
172.3669725828467
 20
165.2170530957813
 30
0.0
 10
172.3669725828467
 20
165.2170530956533
 30
0.0
 10
172.3669725828467
 20
165.1308734774552
 30
0.0
 10
172.3669725828467
 20
164.9603911802647
 30
0.0
  0
SPLINE
  5
1C2
330
1F
100
AcDbEntity
  8
0
  6
Continuous
 62
     7
370
    18
100
AcDbSpline
210
0.0
220
0.0
230
1.0
 70
     8
 71
     3
 72
    12
 73
     8
 74
     0
 42
0.000000001
 43
0.00000001
 40
0.0
 40
0.0
 40
0.0
 40
0.0
 40
0.1644443311832603
 40
0.3305519270955143
 40
0.4988651060842622
 40
0.7465204752802319
 40
1.0
 40
1.0
 40
1.0
 40
1.0
 10
175.3669725828467
 20
150.2379593169879
 30
0.0
 10
175.3442210627451
 20
150.3057417237671
 30
0.0
 10
175.2984879033237
 20
150.4419921194047
 30
0.0
 10
175.2175272598714
 20
150.6465323339381
 30
0.0
 10
175.1133475644889
 20
150.8841250558773
 30
0.0
 10
174.9804499370935
 20
151.1559662964497
 30
0.0
 10
174.8671593964833
 20
151.3575915468294
 30
0.0
 10
174.809855798714
 20
151.4595758094665
 30
0.0
  0
SPLINE
  5
1C3
330
1F
100
AcDbEntity
  8
0
  6
Continuous
 62
     7
370
    18
100
AcDbSpline
210
0.0
220
0.0
230
1.0
 70
    24
 71
     3
 72
    17
 73
    13
 74
     0
 42
0.000000001
 43
0.00000001
 40
0.0
 40
0.0
 40
0.0
 40
0.0
 40
0.0625338373402154
 40
0.1250106772911918
 40
0.1874875174435965
 40
0.2500213553875466
 40
0.375017796108582
 40
0.5000142374440407
 40
0.6250106770718454
 40
0.7500071163002331
 40
0.875003558602223
 40
1.0
 40
1.0
 40
1.0
 40
1.0
 10
175.3669725828467
 20
150.2379593242377
 30
0.0
 10
175.3669725828467
 20
150.3027440855319
 30
0.0
 10
175.3669725828467
 20
150.4322545590931
 30
0.0
 10
175.3669725828467
 20
150.6333885712793
 30
0.0
 10
175.3669725828467
 20
150.8393550604611
 30
0.0
 10
175.3669725828467
 20
151.1208465050806
 30
0.0
 10
175.3669725828467
 20
151.484824229521
 30
0.0
 10
175.3669725828467
 20
151.9393803610157
 30
0.0
 10
175.3669725828467
 20
152.409972899771
 30
0.0
 10
175.3669725828467
 20
152.8951868834015
 30
0.0
 10
175.3669725828467
 20
153.3923675906131
 30
0.0
 10
175.3669725828467
 20
153.7326617286507
 30
0.0
 10
175.3669725828467
 20
153.9028087970541
 30
0.0
  0
SPLINE
  5
1C4
330
1F
100
AcDbEntity
  8
0
  6
Continuous
 62
     7
370
    18
100
AcDbSpline
210
0.0
220
0.0
230
1.0
 70
     8
 71
     3
 72
    12
 73
     8
 74
     0
 42
0.000000001
 43
0.00000001
 40
0.0
 40
0.0
 40
0.0
 40
0.0
 40
0.168758790016488
 40
0.3347821315277631
 40
0.498419014311862
 40
0.7514131734719778
 40
1.0
 40
1.0
 40
1.0
 40
1.0
 10
174.809855798714
 20
151.4595758094665
 30
0.0
 10
174.848327210658
 20
151.5952807813246
 30
0.0
 10
174.9246464429315
 20
151.8644910531756
 30
0.0
 10
175.0294336956075
 20
152.2677186306655
 30
0.0
 10
175.1433539418075
 20
152.741197774413
 30
0.0
 10
175.2610069789908
 20
153.284772032249
 30
0.0
 10
175.3318582354237
 20
153.6980068878988
 30
0.0
 10
175.3669725828467
 20
153.9028087928909
 30
0.0
  0
SPLINE
  5
1C5
330
1F
100
AcDbEntity
  8
0
  6
Continuous
 62
     7
370
    18
100
AcDbSpline
210
0.0
220
0.0
230
1.0
 70
     8
 71
     3
 72
    12
 73
     8
 74
     0
 42
0.000000001
 43
0.00000001
 40
0.0
 40
0.0
 40
0.0
 40
0.0
 40
0.1687587900234336
 40
0.3347821315387703
 40
0.4984190143241709
 40
0.7514131734810595
 40
1.0
 40
1.0
 40
1.0
 40
1.0
 10
172.9240893679734
 20
161.2745303820961
 30
0.0
 10
172.8856179559603
 20
161.138825410238
 30
0.0
 10
172.8092987235503
 20
160.8696151383893
 30
0.0
 10
172.7045114706857
 20
160.4663875608978
 30
0.0
 10
172.5905912242811
 20
159.9929084171515
 30
0.0
 10
172.4729381868862
 20
159.4493341593175
 30
0.0
 10
172.4020869303245
 20
159.0360993036608
 30
0.0
 10
172.3669725828382
 20
158.8312973986677
 30
0.0
  0
SPLINE
  5
1C6
330
1F
100
AcDbEntity
  8
0
  6
Continuous
 62
     7
370
    18
100
AcDbSpline
210
0.0
220
0.0
230
1.0
 70
     8
 71
     3
 72
    12
 73
     8
 74
     0
 42
0.000000001
 43
0.00000001
 40
0.0
 40
0.0
 40
0.0
 40
0.0
 40
0.1644443311766337
 40
0.3305519270847294
 40
0.4988651060719885
 40
0.7465204752708853
 40
1.0
 40
1.0
 40
1.0
 40
1.0
 10
172.3669725828382
 20
162.4961468745647
 30
0.0
 10
172.3897241029808
 20
162.4283644677857
 30
0.0
 10
172.4354572624849
 20
162.2921140721478
 30
0.0
 10
172.5164179060832
 20
162.0875738576162
 30
0.0
 10
172.6205976016535
 20
161.8499811356781
 30
0.0
 10
172.7534952292892
 20
161.5781398951064
 30
0.0
 10
172.8667857701012
 20
161.3765146447319
 30
0.0
 10
172.9240893679734
 20
161.2745303820961
 30
0.0
  0
SPLINE
  5
1C7
330
1F
100
AcDbEntity
  8
0
  6
Continuous
 62
   144
370
    18
100
AcDbSpline
210
0.0
220
0.0
230
1.0
 70
    24
 71
     3
 72
     8
 73
     4
 74
     0
 42
0.000000001
 43
0.00000001
 40
0.0
 40
0.0
 40
0.0
 40
0.0
 40
1.0
 40
1.0
 40
1.0
 40
1.0
 10
172.3669725828382
 20
158.8312973986677
 30
0.0
 10
172.3669725828382
 20
160.2060255133626
 30
0.0
 10
172.3669725828382
 20
161.463629316797
 30
0.0
 10
172.3669725828382
 20
162.4961468745647
 30
0.0
  0
SPLINE
  5
1C8
330
1F
100
AcDbEntity
  8
0
  6
Continuous
 62
     7
370
    18
100
AcDbSpline
210
0.0
220
0.0
230
1.0
 70
     8
 71
     3
 72
    12
 73
     8
 74
     0
 42
0.000000001
 43
0.00000001
 40
0.0
 40
0.0
 40
0.0
 40
0.0
 40
0.1650881909416596
 40
0.3318533786677283
 40
0.5008439397044383
 40
0.7475316019264279
 40
1.0
 40
1.0
 40
1.0
 40
1.0
 10
175.3669725828467
 20
158.831297400632
 30
0.0
 10
175.3441283246141
 20
158.9673816572945
 30
0.0
 10
175.2982077518923
 20
159.2409325400035
 30
0.0
 10
175.2168696824172
 20
159.6516241276802
 30
0.0
 10
175.1125260646466
 20
160.1271378276834
 30
0.0
 10
174.9797908900626
 20
160.6697004164947
 30
0.0
 10
174.8669364855006
 20
161.07136981455
 30
0.0
 10
174.809855798714
 20
161.2745303840564
 30
0.0
  0
SPLINE
  5
1C9
330
1F
100
AcDbEntity
  8
0
  6
Continuous
 62
     7
370
    18
100
AcDbSpline
210
0.0
220
0.0
230
1.0
 70
    24
 71
     3
 72
    17
 73
    13
 74
     0
 42
0.000000001
 43
0.00000001
 40
0.0
 40
0.0
 40
0.0
 40
0.0
 40
0.0625338379618606
 40
0.1250106786040567
 40
0.1874875194723832
 40
0.2500213581120176
 40
0.3750177973432062
 40
0.5000142369738134
 40
0.625010678312074
 40
0.7500071190359112
 40
0.8750035599206748
 40
1.0
 40
1.0
 40
1.0
 40
1.0
 10
175.3669725828467
 20
158.8312973945085
 30
0.0
 10
175.3669725828467
 20
158.9166251997476
 30
0.0
 10
175.3669725828467
 20
159.0872030370337
 30
0.0
 10
175.3669725828467
 20
159.3399531409554
 30
0.0
 10
175.3669725828467
 20
159.5901547291454
 30
0.0
 10
175.3669725828467
 20
159.9198041039128
 30
0.0
 10
175.3669725828467
 20
160.3241173912585
 30
0.0
 10
175.3669725828467
 20
160.7947120022182
 30
0.0
 10
175.3669725828467
 20
161.2493531758911
 30
0.0
 10
175.3669725828467
 20
161.6857344268164
 30
0.0
 10
175.3669725828467
 20
162.1043983539317
 30
0.0
 10
175.3669725828467
 20
162.3655640298076
 30
0.0
 10
175.3669725828467
 20
162.4961468673249
 30
0.0
  0
SPLINE
  5
1CA
330
1F
100
AcDbEntity
  8
0
  6
Continuous
 62
     7
370
    18
100
AcDbSpline
210
0.0
220
0.0
230
1.0
 70
     8
 71
     3
 72
    12
 73
     8
 74
     0
 42
0.000000001
 43
0.00000001
 40
0.0
 40
0.0
 40
0.0
 40
0.0
 40
0.1689572582006941
 40
0.3351727945466875
 40
0.4989969118046789
 40
0.7516965879704236
 40
1.0
 40
1.0
 40
1.0
 40
1.0
 10
174.809855798714
 20
161.2745303840564
 30
0.0
 10
174.8483717012784
 20
161.3424613198406
 30
0.0
 10
174.924778496905
 20
161.4772208550358
 30
0.0
 10
175.0296739554143
 20
161.6790676697998
 30
0.0
 10
175.1435841436854
 20
161.9158590473455
 30
0.0
 10
175.2611358904897
 20
162.1874542532145
 30
0.0
 10
175.3319006705888
 20
162.3938530463597
 30
0.0
 10
175.3669725828467
 20
162.4961468760471
 30
0.0
  0
SPLINE
  5
1CB
330
1F
100
AcDbEntity
  8
0
  6
Continuous
 62
     7
370
    18
100
AcDbSpline
210
0.0
220
0.0
230
1.0
 70
     8
 71
     3
 72
    12
 73
     8
 74
     0
 42
0.000000001
 43
0.00000001
 40
0.0
 40
0.0
 40
0.0
 40
0.0
 40
0.1689572582073172
 40
0.3351727945571804
 40
0.4989969118164032
 40
0.7516965879790617
 40
1.0
 40
1.0
 40
1.0
 40
1.0
 10
172.9240893679734
 20
151.4595758075063
 30
0.0
 10
172.8855734653405
 20
151.3916448717223
 30
0.0
 10
172.8091666695783
 20
151.2568853365287
 30
0.0
 10
172.7042712108817
 20
151.0550385217645
 30
0.0
 10
172.5903610224078
 20
150.8182471442196
 30
0.0
 10
172.4728092753939
 20
150.546651938352
 30
0.0
 10
172.4020444951674
 20
150.3402531452035
 30
0.0
 10
172.3669725828467
 20
150.2379593155155
 30
0.0
  0
SPLINE
  5
1CC
330
1F
100
AcDbEntity
  8
0
  6
Continuous
 62
     7
370
    18
100
AcDbSpline
210
0.0
220
0.0
230
1.0
 70
     8
 71
     3
 72
    12
 73
     8
 74
     0
 42
0.000000001
 43
0.00000001
 40
0.0
 40
0.0
 40
0.0
 40
0.0
 40
0.1650881909353321
 40
0.3318533786574374
 40
0.5008439396927505
 40
0.747531601917546
 40
1.0
 40
1.0
 40
1.0
 40
1.0
 10
172.3669725828467
 20
153.9028087909306
 30
0.0
 10
172.3898168411201
 20
153.7667245342677
 30
0.0
 10
172.4357374139244
 20
153.4931736515559
 30
0.0
 10
172.5170754835447
 20
153.0824820638793
 30
0.0
 10
172.6214191015019
 20
152.6069683638743
 30
0.0
 10
172.7541542763237
 20
152.0644057750602
 30
0.0
 10
172.8670086810853
 20
151.6627363770116
 30
0.0
 10
172.9240893679734
 20
151.4595758075063
 30
0.0
  0
SPLINE
  5
1CD
330
1F
100
AcDbEntity
  8
0
  6
Continuous
 62
   144
370
    18
100
AcDbSpline
210
0.0
220
0.0
230
1.0
 70
    24
 71
     3
 72
     8
 73
     4
 74
     0
 42
0.000000001
 43
0.00000001
 40
0.0
 40
0.0
 40
0.0
 40
0.0
 40
1.0
 40
1.0
 40
1.0
 40
1.0
 10
172.3669725828467
 20
150.2379593155155
 30
0.0
 10
172.3669725828467
 20
151.2704768730564
 30
0.0
 10
172.3669725828467
 20
152.5280806763253
 30
0.0
 10
172.3669725828467
 20
153.9028087909306
 30
0.0
  0
LINE
  5
1CE
330
1F
100
AcDbEntity
  8
0
  6
Continuous
 62
     7
370
    18
100
AcDbLine
 10
172.9240889758
 20
161.2745302772
 30
0.0
 11
174.8098532766
 21
161.2745302772
 31
0.0
  0
LINE
  5
1CF
330
1F
100
AcDbEntity
  8
0
  6
Continuous
 62
     7
370
    18
100
AcDbLine
 10
172.9240889758
 20
151.4595759144
 30
0.0
 11
174.8098532766
 21
151.4595759144
 31
0.0
  0
LINE
  5
1D0
330
1F
100
AcDbEntity
  8
0
  6
Continuous
 62
     7
370
    18
100
AcDbLine
 10
175.3669704407
 20
153.9028087208
 30
0.0
 11
175.3669704407
 21
158.8312974708
 31
0.0
  0
LINE
  5
1D1
330
1F
100
AcDbEntity
  8
0
  6
Continuous
 62
   144
370
    18
100
AcDbLine
 10
172.3669718116
 20
158.8312974708
 30
0.0
 11
172.3669718116
 21
153.9028087208
 31
0.0
  0
LINE
  5
1D2
330
1F
100
AcDbEntity
  8
0
  6
Continuous
 62
     7
370
    18
100
AcDbLine
 10
175.3669704407
 20
147.7737145541
 30
0.0
 11
175.3669704407
 21
150.2379591619
 31
0.0
  0
SPLINE
  5
1D3
330
1F
100
AcDbEntity
  8
0
  6
Continuous
 62
     7
370
    18
100
AcDbSpline
210
0.0
220
0.0
230
1.0
 70
    24
 71
     3
 72
    13
 73
     9
 74
     0
 42
0.000000001
 43
0.00000001
 40
0.0
 40
0.0
 40
0.0
 40
0.0
 40
0.1250641151984633
 40
0.250014237981289
 40
0.3749643601757222
 40
0.5000284736106134
 40
0.7500142355488979
 40
1.0
 40
1.0
 40
1.0
 40
1.0
 10
175.3669725828467
 20
147.5170531001709
 30
0.0
 10
175.3669725828467
 20
147.5178259999141
 30
0.0
 10
175.3669725828467
 20
147.5193710949242
 30
0.0
 10
175.3669725828467
 20
147.5319152267605
 30
0.0
 10
175.3669725828467
 20
147.5518885406519
 30
0.0
 10
175.3669725828467
 20
147.5896958103556
 30
0.0
 10
175.3669725828467
 20
147.654987098018
 30
0.0
 10
175.3669725828467
 20
147.7341390376055
 30
0.0
 10
175.3669725828467
 20
147.7737150075981
 30
0.0
  0
SPLINE
  5
1D4
330
1F
100
AcDbEntity
  8
0
  6
Continuous
 62
     7
370
    18
100
AcDbSpline
210
0.0
220
0.0
230
1.0
 70
    24
 71
     3
 72
    13
 73
     9
 74
     0
 42
0.000000001
 43
0.00000001
 40
0.0
 40
0.0
 40
0.0
 40
0.0
 40
0.1250641152941324
 40
0.2500142381351566
 40
0.3749643603477608
 40
0.5000284737583537
 40
0.7500142357031316
 40
1.0
 40
1.0
 40
1.0
 40
1.0
 10
175.3669725828467
 20
164.9603911839645
 30
0.0
 10
175.3669725828467
 20
164.9809349839678
 30
0.0
 10
175.3669725828467
 20
165.0220038588737
 30
0.0
 10
175.3669725828467
 20
165.0736085752742
 30
0.0
 10
175.3669725828467
 20
165.1178868820267
 30
0.0
 10
175.3669725828467
 20
165.1658293709404
 30
0.0
 10
175.3669725828467
 20
165.2078065232315
 30
0.0
 10
175.3669725828467
 20
165.2139709019953
 30
0.0
 10
175.3669725828467
 20
165.2170530913917
 30
0.0
  0
LINE
  5
1D5
330
1F
100
AcDbEntity
  8
0
  6
Continuous
 62
     7
370
    18
100
AcDbLine
 10
175.3669704407
 20
162.4961470296
 30
0.0
 11
175.3669704407
 21
164.9603916375
 31
0.0
  0
SPLINE
  5
1D6
330
1F
100
AcDbEntity
  8
0
  6
Continuous
 62
     7
370
    18
100
AcDbSpline
210
0.0
220
0.0
230
1.0
 70
     8
 71
     3
 72
    12
 73
     8
 74
     0
 42
0.000000001
 43
0.00000001
 40
0.0
 40
0.0
 40
0.0
 40
0.0
 40
0.1644443311769531
 40
0.3305519270852464
 40
0.4988651060725701
 40
0.7465204752713274
 40
1.0
 40
1.0
 40
1.0
 40
1.0
 10
172.3669725828467
 20
147.773715011298
 30
0.0
 10
172.389724102989
 20
147.7059433514301
 30
0.0
 10
172.4354572624924
 20
147.5697145583133
 30
0.0
 10
172.5164179060894
 20
147.3651751646192
 30
0.0
 10
172.6205976016581
 20
147.1275327809078
 30
0.0
 10
172.7534952292917
 20
146.8557299877099
 30
0.0
 10
172.8667857701022
 20
146.654090157033
 30
0.0
 10
172.9240893679734
 20
146.5520985195204
 30
0.0
  0
LINE
  5
1D7
330
1F
100
AcDbEntity
  8
0
  6
Continuous
 62
     7
370
    18
100
AcDbLine
 10
172.9240889758
 20
146.552098733
 30
0.0
 11
174.8098532766
 21
146.552098733
 31
0.0
  0
SPLINE
  5
1D8
330
1F
100
AcDbEntity
  8
0
  6
Continuous
 62
     7
370
    18
100
AcDbSpline
210
0.0
220
0.0
230
1.0
 70
     8
 71
     3
 72
    12
 73
     8
 74
     0
 42
0.000000001
 43
0.00000001
 40
0.0
 40
0.0
 40
0.0
 40
0.0
 40
0.1689572569418498
 40
0.3351727927402772
 40
0.498996910170126
 40
0.7516965888233994
 40
0.9999999999999999
 40
0.9999999999999999
 40
0.9999999999999999
 40
0.9999999999999999
 10
174.809855798714
 20
146.5520985195204
 30
0.0
 10
174.8483717013129
 20
146.6200323811466
 30
0.0
 10
174.9247784971654
 20
146.7547977208251
 30
0.0
 10
175.0296739555899
 20
146.9566495683814
 30
0.0
 10
175.1435841443507
 20
147.1934128977477
 30
0.0
 10
175.2611358894356
 20
147.4650793307685
 30
0.0
 10
175.3319006703965
 20
147.6714400503855
 30
0.0
 10
175.3669725828467
 20
147.7737150096701
 30
0.0
  0
LINE
  5
1D9
330
1F
100
AcDbEntity
  8
0
  6
Continuous
 62
   144
370
    18
100
AcDbLine
 10
172.3669718116
 20
150.2379591619
 30
0.0
 11
172.3669718116
 21
147.7737145541
 31
0.0
  0
SPLINE
  5
1DA
330
1F
100
AcDbEntity
  8
0
  6
Continuous
 62
     7
370
    18
100
AcDbSpline
210
0.0
220
0.0
230
1.0
 70
     8
 71
     3
 72
    12
 73
     8
 74
     0
 42
0.000000001
 43
0.00000001
 40
0.0
 40
0.0
 40
0.0
 40
0.0
 40
0.1644443311832606
 40
0.3305519270955145
 40
0.498865106084259
 40
0.7465204752802324
 40
1.0
 40
1.0
 40
1.0
 40
1.0
 10
175.3669725828467
 20
164.9603911802647
 30
0.0
 10
175.3442210627451
 20
165.0281628401324
 30
0.0
 10
175.2984879033237
 20
165.1643916332477
 30
0.0
 10
175.2175272598714
 20
165.3689310269419
 30
0.0
 10
175.1133475644889
 20
165.6065734106524
 30
0.0
 10
174.9804499370935
 20
165.8783762038489
 30
0.0
 10
174.8671593964833
 20
166.0800160345292
 30
0.0
 10
174.809855798714
 20
166.1820076720423
 30
0.0
  0
LINE
  5
1DB
330
1F
100
AcDbEntity
  8
0
  6
Continuous
 62
     7
370
    18
100
AcDbLine
 10
174.8098532766
 20
166.1820074586
 30
0.0
 11
172.9240889758
 21
166.1820074586
 31
0.0
  0
SPLINE
  5
1DC
330
1F
100
AcDbEntity
  8
0
  6
Continuous
 62
     7
370
    18
100
AcDbSpline
210
0.0
220
0.0
230
1.0
 70
     8
 71
     3
 72
    12
 73
     8
 74
     0
 42
0.000000001
 43
0.00000001
 40
0.0
 40
0.0
 40
0.0
 40
0.0
 40
0.168957256948473
 40
0.3351727927507702
 40
0.4989969101818504
 40
0.7516965888320377
 40
1.0
 40
1.0
 40
1.0
 40
1.0
 10
172.9240893679734
 20
166.1820076720423
 30
0.0
 10
172.885573465306
 20
166.1140738104162
 30
0.0
 10
172.8091666693179
 20
165.9793084707393
 30
0.0
 10
172.704271210706
 20
165.7774566231828
 30
0.0
 10
172.5903610217424
 20
165.5406932938175
 30
0.0
 10
172.472809276448
 20
165.2690268607979
 30
0.0
 10
172.4020444953596
 20
165.0626661411776
 30
0.0
 10
172.3669725828467
 20
164.9603911818926
 30
0.0
  0
LINE
  5
1DD
330
1F
100
AcDbEntity
  8
0
  6
Continuous
 62
   144
370
    18
100
AcDbLine
 10
172.3669718116
 20
164.9603916375
 30
0.0
 11
172.3669718116
 21
162.4961470296
 31
0.0
  0
SPLINE
  5
1DE
330
1F
100
AcDbEntity
  8
0
  6
Continuous
 62
   144
370
    18
100
AcDbSpline
210
0.0
220
0.0
230
1.0
 70
    24
 71
     3
 72
     8
 73
     4
 74
     0
 42
0.000000001
 43
0.00000001
 40
0.0
 40
0.0
 40
0.0
 40
0.0
 40
1.0
 40
1.0
 40
1.0
 40
1.0
 10
172.3669725828467
 20
164.9603911818926
 30
0.0
 10
172.3669725828467
 20
165.1308734781933
 30
0.0
 10
172.3669725828467
 20
165.2170530958421
 30
0.0
 10
172.3669725828467
 20
165.2170530957813
 30
0.0
  0
SPLINE
  5
1DF
330
1F
100
AcDbEntity
  8
0
  6
Continuous
 62
   144
370
    18
100
AcDbSpline
210
0.0
220
0.0
230
1.0
 70
    24
 71
     3
 72
     8
 73
     4
 74
     0
 42
0.000000001
 43
0.00000001
 40
0.0
 40
0.0
 40
0.0
 40
0.0
 40
1.0
 40
1.0
 40
1.0
 40
1.0
 10
172.3669725828467
 20
147.5170530957813
 30
0.0
 10
172.3669725828467
 20
147.5170530959094
 30
0.0
 10
172.3669725828467
 20
147.6032327141075
 30
0.0
 10
172.3669725828467
 20
147.773715011298
 30
0.0
  0
LINE
  5
1E0
330
1F
100
AcDbEntity
  8
0
  6
Continuous
 62
   144
370
    18
100
AcDbLine
 10
172.3669718116
 20
153.9028087208
 30
0.0
 11
172.3669718116
 21
158.8312974708
 31
0.0
  0
SPLINE
  5
1E1
330
1F
100
AcDbEntity
  8
0
  6
Continuous
 62
   144
370
    18
100
AcDbSpline
210
0.0
220
0.0
230
1.0
 70
    24
 71
     3
 72
    17
 73
    13
 74
     0
 42
0.000000001
 43
0.00000001
 40
0.0
 40
0.0
 40
0.0
 40
0.0
 40
0.0625338373402154
 40
0.1250106772911918
 40
0.1874875174435965
 40
0.2500213553875466
 40
0.375017796108582
 40
0.5000142374440407
 40
0.6250106770718454
 40
0.7500071163002331
 40
0.875003558602223
 40
1.0
 40
1.0
 40
1.0
 40
1.0
 10
172.3669725828467
 20
150.2379593242377
 30
0.0
 10
172.3669725828467
 20
150.3027440855319
 30
0.0
 10
172.3669725828467
 20
150.4322545590931
 30
0.0
 10
172.3669725828467
 20
150.6333885712793
 30
0.0
 10
172.3669725828467
 20
150.8393550604611
 30
0.0
 10
172.3669725828467
 20
151.1208465050806
 30
0.0
 10
172.3669725828467
 20
151.484824229521
 30
0.0
 10
172.3669725828467
 20
151.9393803610157
 30
0.0
 10
172.3669725828467
 20
152.409972899771
 30
0.0
 10
172.3669725828467
 20
152.8951868834015
 30
0.0
 10
172.3669725828467
 20
153.3923675906131
 30
0.0
 10
172.3669725828467
 20
153.7326617286507
 30
0.0
 10
172.3669725828467
 20
153.9028087970541
 30
0.0
  0
LINE
  5
1E2
330
1F
100
AcDbEntity
  8
0
  6
Continuous
 62
   144
370
    18
100
AcDbLine
 10
172.3669718116
 20
147.7737145541
 30
0.0
 11
172.3669718116
 21
150.2379591619
 31
0.0
  0
SPLINE
  5
1E3
330
1F
100
AcDbEntity
  8
0
  6
Continuous
 62
   144
370
    18
100
AcDbSpline
210
0.0
220
0.0
230
1.0
 70
    24
 71
     3
 72
    13
 73
     9
 74
     0
 42
0.000000001
 43
0.00000001
 40
0.0
 40
0.0
 40
0.0
 40
0.0
 40
0.1250641151508136
 40
0.2500142378872862
 40
0.3749643600355365
 40
0.500028473424203
 40
0.7500142354556927
 40
1.0
 40
1.0
 40
1.0
 40
1.0
 10
172.3669725828467
 20
147.5170531001709
 30
0.0
 10
172.3669725828467
 20
147.5178259999209
 30
0.0
 10
172.3669725828467
 20
147.5193710949447
 30
0.0
 10
172.3669725828467
 20
147.5319152267863
 30
0.0
 10
172.3669725828467
 20
147.5518885406719
 30
0.0
 10
172.3669725828467
 20
147.5896958103654
 30
0.0
 10
172.3669725828467
 20
147.6549870980179
 30
0.0
 10
172.3669725828467
 20
147.7341390376055
 30
0.0
 10
172.3669725828467
 20
147.7737150075981
 30
0.0
  0
SPLINE
  5
1E4
330
1F
100
AcDbEntity
  8
0
  6
Continuous
 62
   144
370
    18
100
AcDbSpline
210
0.0
220
0.0
230
1.0
 70
    24
 71
     3
 72
    13
 73
     9
 74
     0
 42
0.000000001
 43
0.00000001
 40
0.0
 40
0.0
 40
0.0
 40
0.0
 40
0.1250641152941324
 40
0.2500142381351566
 40
0.3749643603477608
 40
0.5000284737583537
 40
0.7500142357031316
 40
1.0
 40
1.0
 40
1.0
 40
1.0
 10
172.3669725828467
 20
164.9603911839645
 30
0.0
 10
172.3669725828467
 20
164.9809349839678
 30
0.0
 10
172.3669725828467
 20
165.0220038588737
 30
0.0
 10
172.3669725828467
 20
165.0736085752742
 30
0.0
 10
172.3669725828467
 20
165.1178868820267
 30
0.0
 10
172.3669725828467
 20
165.1658293709404
 30
0.0
 10
172.3669725828467
 20
165.2078065232315
 30
0.0
 10
172.3669725828467
 20
165.2139709019953
 30
0.0
 10
172.3669725828467
 20
165.2170530913917
 30
0.0
  0
LINE
  5
1E5
330
1F
100
AcDbEntity
  8
0
  6
Continuous
 62
   144
370
    18
100
AcDbLine
 10
172.3669718116
 20
162.4961470296
 30
0.0
 11
172.3669718116
 21
164.9603916375
 31
0.0
  0
SPLINE
  5
1E6
330
1F
100
AcDbEntity
  8
0
  6
Continuous
 62
   144
370
    18
100
AcDbSpline
210
0.0
220
0.0
230
1.0
 70
    24
 71
     3
 72
    17
 73
    13
 74
     0
 42
0.000000001
 43
0.00000001
 40
0.0
 40
0.0
 40
0.0
 40
0.0
 40
0.0625338379618606
 40
0.1250106786040567
 40
0.1874875194723832
 40
0.2500213581120176
 40
0.3750177973432062
 40
0.5000142369738134
 40
0.625010678312074
 40
0.7500071190359112
 40
0.8750035599206748
 40
1.0
 40
1.0
 40
1.0
 40
1.0
 10
172.3669725828467
 20
158.8312973945085
 30
0.0
 10
172.3669725828467
 20
158.9166251997476
 30
0.0
 10
172.3669725828467
 20
159.0872030370337
 30
0.0
 10
172.3669725828467
 20
159.3399531409554
 30
0.0
 10
172.3669725828467
 20
159.5901547291454
 30
0.0
 10
172.3669725828467
 20
159.9198041039128
 30
0.0
 10
172.3669725828467
 20
160.3241173912585
 30
0.0
 10
172.3669725828467
 20
160.7947120022182
 30
0.0
 10
172.3669725828467
 20
161.2493531758911
 30
0.0
 10
172.3669725828467
 20
161.6857344268164
 30
0.0
 10
172.3669725828467
 20
162.1043983539317
 30
0.0
 10
172.3669725828467
 20
162.3655640298076
 30
0.0
 10
172.3669725828467
 20
162.4961468673249
 30
0.0
  0
SPLINE
  5
1E7
330
1F
100
AcDbEntity
  8
0
  6
Continuous
 62
   144
370
    18
100
AcDbSpline
210
0.0
220
0.0
230
1.0
 70
    24
 71
     3
 72
    17
 73
    13
 74
     0
 42
0.000000001
 43
0.00000001
 40
0.0
 40
0.0
 40
0.0
 40
0.0
 40
0.0625338379618606
 40
0.1250106786040567
 40
0.1874875194723832
 40
0.2500213581120176
 40
0.3750177973432062
 40
0.5000142369738134
 40
0.625010678312074
 40
0.7500071190359112
 40
0.8750035599206748
 40
1.0
 40
1.0
 40
1.0
 40
1.0
 10
172.3669725828467
 20
158.8312973945085
 30
0.0
 10
172.3669725828467
 20
158.9166251997476
 30
0.0
 10
172.3669725828467
 20
159.0872030370337
 30
0.0
 10
172.3669725828467
 20
159.3399531409554
 30
0.0
 10
172.3669725828467
 20
159.5901547291454
 30
0.0
 10
172.3669725828467
 20
159.9198041039128
 30
0.0
 10
172.3669725828467
 20
160.3241173912585
 30
0.0
 10
172.3669725828467
 20
160.7947120022182
 30
0.0
 10
172.3669725828467
 20
161.2493531758911
 30
0.0
 10
172.3669725828467
 20
161.6857344268164
 30
0.0
 10
172.3669725828467
 20
162.1043983539317
 30
0.0
 10
172.3669725828467
 20
162.3655640298076
 30
0.0
 10
172.3669725828467
 20
162.4961468673249
 30
0.0
  0
LINE
  5
1E8
330
1F
100
AcDbEntity
  8
0
  6
Continuous
 62
   144
370
    18
100
AcDbLine
 10
172.3669718116
 20
162.4961470296
 30
0.0
 11
172.3669718116
 21
164.9603916375
 31
0.0
  0
SPLINE
  5
1E9
330
1F
100
AcDbEntity
  8
0
  6
Continuous
 62
   144
370
    18
100
AcDbSpline
210
0.0
220
0.0
230
1.0
 70
    24
 71
     3
 72
    13
 73
     9
 74
     0
 42
0.000000001
 43
0.00000001
 40
0.0
 40
0.0
 40
0.0
 40
0.0
 40
0.1250641152941324
 40
0.2500142381351565
 40
0.3749643603477608
 40
0.5000284737583537
 40
0.7500142357026756
 40
1.0
 40
1.0
 40
1.0
 40
1.0
 10
172.3669725828467
 20
164.9603911839645
 30
0.0
 10
172.3669725828467
 20
164.9809349839678
 30
0.0
 10
172.3669725828467
 20
165.0220038588737
 30
0.0
 10
172.3669725828467
 20
165.0736085752742
 30
0.0
 10
172.3669725828467
 20
165.1178868820267
 30
0.0
 10
172.3669725828467
 20
165.1658293709404
 30
0.0
 10
172.3669725828467
 20
165.2078065232314
 30
0.0
 10
172.3669725828467
 20
165.2139709019953
 30
0.0
 10
172.3669725828467
 20
165.2170530913917
 30
0.0
  0
SPLINE
  5
1EA
330
1F
100
AcDbEntity
  8
0
  6
Continuous
 62
   144
370
    18
100
AcDbSpline
210
0.0
220
0.0
230
1.0
 70
    24
 71
     3
 72
    13
 73
     9
 74
     0
 42
0.000000001
 43
0.00000001
 40
0.0
 40
0.0
 40
0.0
 40
0.0
 40
0.1250641151514992
 40
0.2500142378877442
 40
0.3749643600357648
 40
0.5000284734242031
 40
0.7500142354556936
 40
1.0
 40
1.0
 40
1.0
 40
1.0
 10
172.3669725828467
 20
147.5170531001709
 30
0.0
 10
172.3669725828467
 20
147.517825999921
 30
0.0
 10
172.3669725828467
 20
147.5193710949447
 30
0.0
 10
172.3669725828467
 20
147.5319152267863
 30
0.0
 10
172.3669725828467
 20
147.551888540672
 30
0.0
 10
172.3669725828467
 20
147.5896958103654
 30
0.0
 10
172.3669725828467
 20
147.6549870980179
 30
0.0
 10
172.3669725828467
 20
147.7341390376055
 30
0.0
 10
172.3669725828467
 20
147.7737150075981
 30
0.0
  0
LINE
  5
1EB
330
1F
100
AcDbEntity
  8
0
  6
Continuous
 62
   144
370
    18
100
AcDbLine
 10
172.3669718116
 20
147.7737145541
 30
0.0
 11
172.3669718116
 21
150.2379591619
 31
0.0
  0
SPLINE
  5
1EC
330
1F
100
AcDbEntity
  8
0
  6
Continuous
 62
   144
370
    18
100
AcDbSpline
210
0.0
220
0.0
230
1.0
 70
    24
 71
     3
 72
    17
 73
    13
 74
     0
 42
0.000000001
 43
0.00000001
 40
0.0
 40
0.0
 40
0.0
 40
0.0
 40
0.0625338373402154
 40
0.1250106772911918
 40
0.1874875174435965
 40
0.2500213553875466
 40
0.375017796108582
 40
0.5000142374440407
 40
0.6250106770718454
 40
0.7500071163002331
 40
0.875003558602223
 40
1.0
 40
1.0
 40
1.0
 40
1.0
 10
172.3669725828467
 20
150.2379593242377
 30
0.0
 10
172.3669725828467
 20
150.3027440855319
 30
0.0
 10
172.3669725828467
 20
150.4322545590931
 30
0.0
 10
172.3669725828467
 20
150.6333885712793
 30
0.0
 10
172.3669725828467
 20
150.8393550604611
 30
0.0
 10
172.3669725828467
 20
151.1208465050806
 30
0.0
 10
172.3669725828467
 20
151.484824229521
 30
0.0
 10
172.3669725828467
 20
151.9393803610157
 30
0.0
 10
172.3669725828467
 20
152.409972899771
 30
0.0
 10
172.3669725828467
 20
152.8951868834015
 30
0.0
 10
172.3669725828467
 20
153.3923675906131
 30
0.0
 10
172.3669725828467
 20
153.7326617286507
 30
0.0
 10
172.3669725828467
 20
153.9028087970541
 30
0.0
  0
LINE
  5
1ED
330
1F
100
AcDbEntity
  8
0
  6
Continuous
 62
   144
370
    18
100
AcDbLine
 10
172.3669718116
 20
153.9028087208
 30
0.0
 11
172.3669718116
 21
158.8312974708
 31
0.0
  0
SPLINE
  5
1EE
330
1F
100
AcDbEntity
  8
0
  6
Continuous
 62
     8
370
    18
100
AcDbSpline
210
0.0
220
0.0
230
1.0
 70
     8
 71
     3
 72
    10
 73
     6
 74
     0
 42
0.000000001
 43
0.00000001
 40
0.0
 40
0.0
 40
0.0
 40
0.0
 40
0.0001366674884552
 40
0.4999060501423579
 40
1.0
 40
1.0
 40
1.0
 40
1.0
 10
112.812639875674
 20
149.3670566050048
 30
0.0
 10
112.8126432913347
 20
149.3670553629551
 30
0.0
 10
112.8251371879551
 20
149.3625121597057
 30
0.0
 10
112.7849873262548
 20
149.3764122415449
 30
0.0
 10
112.7034381827048
 20
149.4014723280079
 30
0.0
 10
112.6626503750321
 20
149.4140064386363
 30
0.0
  0
SPLINE
  5
1EF
330
1F
100
AcDbEntity
  8
0
  6
Continuous
 62
     8
370
    18
100
AcDbSpline
210
0.0
220
0.0
230
1.0
 70
     8
 71
     3
 72
     9
 73
     5
 74
     0
 42
0.000000001
 43
0.00000001
 40
0.0
 40
0.0
 40
0.0
 40
0.0
 40
0.4976554390089171
 40
1.0
 40
1.0
 40
1.0
 40
1.0
 10
107.9126603066561
 20
149.3670566050048
 30
0.0
 10
107.919099343576
 20
149.3691959745592
 30
0.0
 10
107.9320380887703
 20
149.3734948717212
 30
0.0
 10
108.0189769891932
 20
149.4004604347265
 30
0.0
 10
108.0626502729592
 20
149.4140064386363
 30
0.0
  0
SPLINE
  5
1F0
330
1F
100
AcDbEntity
  8
0
  6
Continuous
 62
     8
370
    18
100
AcDbSpline
210
0.0
220
0.0
230
1.0
 70
    24
 71
     3
 72
    10
 73
     6
 74
     0
 42
0.000000001
 43
0.00000001
 40
0.0
 40
0.0
 40
0.0
 40
0.0
 40
0.4999999999999999
 40
0.4999999999999999
 40
1.0
 40
1.0
 40
1.0
 40
1.0
 10
108.0626501768467
 20
163.3670530957813
 30
0.0
 10
108.0626501768467
 20
163.3670530954005
 30
0.0
 10
108.0626501768467
 20
162.6295180602708
 30
0.0
 10
108.0626501768467
 20
160.0040830648578
 30
0.0
 10
108.0626501768467
 20
158.2235159811597
 30
0.0
 10
108.0626501768467
 20
156.3670530929099
 30
0.0
  0
SPLINE
  5
1F1
330
1F
100
AcDbEntity
  8
0
  6
Continuous
 62
     8
370
    18
100
AcDbSpline
210
0.0
220
0.0
230
1.0
 70
    24
 71
     3
 72
    10
 73
     6
 74
     0
 42
0.000000001
 43
0.00000001
 40
0.0
 40
0.0
 40
0.0
 40
0.0
 40
0.5000000000000001
 40
0.5000000000000001
 40
1.0
 40
1.0
 40
1.0
 40
1.0
 10
106.6626501768467
 20
149.3670530957813
 30
0.0
 10
106.6626501768467
 20
149.3670530955673
 30
0.0
 10
106.6626501768467
 20
150.104588129648
 30
0.0
 10
106.6626501768467
 20
152.730023122702
 30
0.0
 10
106.6626501768467
 20
154.5105902052692
 30
0.0
 10
106.6626501768467
 20
156.3670530929099
 30
0.0
  0
SPLINE
  5
1F2
330
1F
100
AcDbEntity
  8
0
  6
Continuous
 62
     8
370
    18
100
AcDbSpline
210
0.0
220
0.0
230
1.0
 70
    24
 71
     3
 72
    10
 73
     6
 74
     0
 42
0.000000001
 43
0.00000001
 40
0.0
 40
0.0
 40
0.0
 40
0.0
 40
0.5000000000000002
 40
0.5000000000000002
 40
1.0
 40
1.0
 40
1.0
 40
1.0
 10
106.6626501768467
 20
156.3670530929099
 30
0.0
 10
106.6626501768467
 20
158.2235159811597
 30
0.0
 10
106.6626501768467
 20
160.0040830648579
 30
0.0
 10
106.6626501768467
 20
162.6295180602709
 30
0.0
 10
106.6626501768467
 20
163.3670530954006
 30
0.0
 10
106.6626501768467
 20
163.3670530957813
 30
0.0
  0
SPLINE
  5
1F3
330
1F
100
AcDbEntity
  8
0
  6
Continuous
 62
     8
370
    18
100
AcDbSpline
210
0.0
220
0.0
230
1.0
 70
    24
 71
     3
 72
    10
 73
     6
 74
     0
 42
0.000000001
 43
0.00000001
 40
0.0
 40
0.0
 40
0.0
 40
0.0
 40
0.4999999999999999
 40
0.4999999999999999
 40
1.0
 40
1.0
 40
1.0
 40
1.0
 10
99.06265017684669
 20
161.8670530957813
 30
0.0
 10
99.06265017684669
 20
161.8670530954821
 30
0.0
 10
99.06265017684669
 20
161.2875612821659
 30
0.0
 10
99.06265017684669
 20
159.2247195000557
 30
0.0
 10
99.06265017684669
 20
157.8257025057215
 30
0.0
 10
99.06265017684669
 20
156.3670530935252
 30
0.0
  0
SPLINE
  5
1F4
330
1F
100
AcDbEntity
  8
0
  6
Continuous
 62
     8
370
    18
100
AcDbSpline
210
0.0
220
0.0
230
1.0
 70
    24
 71
     3
 72
    10
 73
     6
 74
     0
 42
0.000000001
 43
0.00000001
 40
0.0
 40
0.0
 40
0.0
 40
0.0
 40
0.4999999999999999
 40
0.4999999999999999
 40
1.0
 40
1.0
 40
1.0
 40
1.0
 10
99.06265017684669
 20
156.3670530935252
 30
0.0
 10
99.06265017684669
 20
154.9084036818074
 30
0.0
 10
99.06265017684669
 20
153.5093866883617
 30
0.0
 10
99.06265017684669
 20
151.446544908105
 30
0.0
 10
99.06265017684669
 20
150.8670530956131
 30
0.0
 10
99.06265017684669
 20
150.8670530957813
 30
0.0
  0
SPLINE
  5
1F5
330
1F
100
AcDbEntity
  8
0
  6
Continuous
 62
     8
370
    18
100
AcDbSpline
210
0.0
220
0.0
230
1.0
 70
    24
 71
     3
 72
    10
 73
     6
 74
     0
 42
0.000000001
 43
0.00000001
 40
0.0
 40
0.0
 40
0.0
 40
0.0
 40
0.4999999999999999
 40
0.4999999999999999
 40
1.0
 40
1.0
 40
1.0
 40
1.0
 10
97.6626501768467
 20
156.3670530935252
 30
0.0
 10
97.6626501768467
 20
157.8257025057215
 30
0.0
 10
97.6626501768467
 20
159.2247195000558
 30
0.0
 10
97.6626501768467
 20
161.287561282166
 30
0.0
 10
97.66265017684668
 20
161.8670530954822
 30
0.0
 10
97.66265017684668
 20
161.8670530957813
 30
0.0
  0
SPLINE
  5
1F6
330
1F
100
AcDbEntity
  8
0
  6
Continuous
 62
     8
370
    18
100
AcDbSpline
210
0.0
220
0.0
230
1.0
 70
    24
 71
     3
 72
    10
 73
     6
 74
     0
 42
0.000000001
 43
0.00000001
 40
0.0
 40
0.0
 40
0.0
 40
0.0
 40
0.5000000000000001
 40
0.5000000000000001
 40
1.0
 40
1.0
 40
1.0
 40
1.0
 10
97.6626501768467
 20
150.8670530957813
 30
0.0
 10
97.6626501768467
 20
150.8670530956132
 30
0.0
 10
97.6626501768467
 20
151.4465449081051
 30
0.0
 10
97.6626501768467
 20
153.5093866883618
 30
0.0
 10
97.66265017684668
 20
154.9084036818075
 30
0.0
 10
97.66265017684668
 20
156.3670530935252
 30
0.0
  0
SPLINE
  5
1F7
330
1F
100
AcDbEntity
  8
0
  6
Continuous
 62
     8
370
    18
100
AcDbSpline
210
0.0
220
0.0
230
1.0
 70
     8
 71
     3
 72
    14
 73
    10
 74
     0
 42
0.000000001
 43
0.00000001
 40
0.0
 40
0.0
 40
0.0
 40
0.0
 40
0.1728443973603839
 40
0.343117515356785
 40
0.510885696748924
 40
0.6762183011457981
 40
0.8391877992886155
 40
0.9998698607396226
 40
1.0
 40
1.0
 40
1.0
 40
1.0
 10
112.3810175236379
 20
149.1160186875688
 30
0.0
 10
112.3952543945691
 20
149.1108536660891
 30
0.0
 10
112.4235163449417
 20
149.1006004593668
 30
0.0
 10
112.4563434130055
 20
149.0884738788843
 30
0.0
 10
112.4819088682942
 20
149.0788967927321
 30
0.0
 10
112.4997709208783
 20
149.0720844080353
 30
0.0
 10
112.5103268774885
 20
149.0679805195127
 30
0.0
 10
112.5126495397854
 20
149.0670533193769
 30
0.0
 10
112.5126501763314
 20
149.0670530971134
 30
0.0
 10
112.5126501768465
 20
149.0670530969335
 30
0.0
  0
SPLINE
  5
1F8
330
1F
100
AcDbEntity
  8
0
  6
Continuous
 62
     8
370
    18
100
AcDbSpline
210
0.0
220
0.0
230
1.0
 70
     8
 71
     3
 72
    12
 73
     8
 74
     0
 42
0.000000001
 43
0.00000001
 40
0.0
 40
0.0
 40
0.0
 40
0.0
 40
0.1931171764646107
 40
0.3895498845211238
 40
0.589427263416474
 40
0.7928718889554419
 40
1.0
 40
1.0
 40
1.0
 40
1.0
 10
108.2126501768468
 20
149.0670530969335
 30
0.0
 10
108.2136143016141
 20
149.0674377394362
 30
0.0
 10
108.2155591037215
 20
149.068213628175
 30
0.0
 10
108.2313793495502
 20
149.0743423944312
 30
0.0
 10
108.2573644034396
 20
149.0841582817159
 30
0.0
 10
108.2939086330856
 20
149.0977292990406
 30
0.0
 10
108.3273913001856
 20
149.1098858701823
 30
0.0
 10
108.3442828299225
 20
149.1160186875688
 30
0.0
  0
SPLINE
  5
1F9
330
1F
100
AcDbEntity
  8
0
  6
Continuous
 62
     8
370
    18
100
AcDbSpline
210
0.0
220
0.0
230
1.0
 70
     8
 71
     3
 72
     9
 73
     5
 74
     0
 42
0.000000001
 43
0.00000001
 40
0.0
 40
0.0
 40
0.0
 40
0.0
 40
0.7401846049063094
 40
1.0
 40
1.0
 40
1.0
 40
1.0
 10
134.3110713272926
 20
152.51462120057
 30
0.0
 10
134.3617200743414
 20
152.7253792167628
 30
0.0
 10
134.4301472568485
 20
153.0101163145027
 30
0.0
 10
134.4985896803402
 20
153.3728177229301
 30
0.0
 10
134.5163720756409
 20
153.4670531326617
 30
0.0
  0
SPLINE
  5
1FA
330
1F
100
AcDbEntity
  8
0
  6
Continuous
 62
     8
370
    18
100
AcDbSpline
210
0.0
220
0.0
230
1.0
 70
     8
 71
     3
 72
    12
 73
     8
 74
     0
 42
0.000000001
 43
0.00000001
 40
0.0
 40
0.0
 40
0.0
 40
0.0
 40
0.0361646261502366
 40
0.2853679751389138
 40
0.5345567451904406
 40
0.7837556065675371
 40
1.0
 40
1.0
 40
1.0
 40
1.0
 10
135.5046431630489
 20
159.267053058901
 30
0.0
 10
135.511994454049
 20
159.3065981909016
 30
0.0
 10
135.5700020501639
 20
159.6186410749827
 30
0.0
 10
135.6786449754472
 20
160.103688134335
 30
0.0
 10
135.8306060296468
 20
160.6782426294653
 30
0.0
 10
135.9758581907306
 20
161.0837616270579
 30
0.0
 10
136.07046369745
 20
161.2124095010881
 30
0.0
 10
136.1144173055527
 20
161.2721791533465
 30
0.0
  0
SPLINE
  5
1FB
330
1F
100
AcDbEntity
  8
0
  6
Continuous
 62
     8
370
    18
100
AcDbSpline
210
0.0
220
0.0
230
1.0
 70
     8
 71
     3
 72
    12
 73
     8
 74
     0
 42
0.000000001
 43
0.00000001
 40
0.0
 40
0.0
 40
0.0
 40
0.0
 40
0.1885157860618572
 40
0.4375580587181491
 40
0.6865732686244199
 40
0.9356119854757241
 40
1.0
 40
1.0
 40
1.0
 40
1.0
 10
138.9065819888947
 20
151.4670018149252
 30
0.0
 10
138.9449289228502
 20
151.5141714249607
 30
0.0
 10
139.0339347845337
 20
151.6236553224568
 30
0.0
 10
139.1735616297962
 20
152.0002019938686
 30
0.0
 10
139.3255353488718
 20
152.5537267939448
 30
0.0
 10
139.4399190321094
 20
153.0577459609237
 30
0.0
 10
139.5036725903406
 20
153.3972981101149
 30
0.0
 10
139.5167696386215
 20
153.4670531326617
 30
0.0
  0
SPLINE
  5
1FC
330
1F
100
AcDbEntity
  8
0
  6
Continuous
 62
     8
370
    18
100
AcDbSpline
210
0.0
220
0.0
230
1.0
 70
     8
 71
     3
 72
    12
 73
     8
 74
     0
 42
0.000000001
 43
0.00000001
 40
0.0
 40
0.0
 40
0.0
 40
0.0
 40
0.0589402238648907
 40
0.308236885056379
 40
0.5575522126852396
 40
0.8068443829113214
 40
1.0
 40
1.0
 40
1.0
 40
1.0
 10
140.5052269905445
 20
159.267053058901
 30
0.0
 10
140.5172011581833
 20
159.3309956014733
 30
0.0
 10
140.5798218930924
 20
159.6653928747218
 30
0.0
 10
140.6931163094812
 20
160.165052915349
 30
0.0
 10
140.845042410903
 20
160.7236829814517
 30
0.0
 10
140.9856103537894
 20
161.1044792352938
 30
0.0
 10
141.0754934315732
 20
161.2176914651058
 30
0.0
 10
141.1147329121468
 20
161.2671155525084
 30
0.0
  0
SPLINE
  5
1FD
330
1F
100
AcDbEntity
  8
0
  6
Continuous
 62
     8
370
    18
100
AcDbSpline
210
0.0
220
0.0
230
1.0
 70
     8
 71
     3
 72
    12
 73
     8
 74
     0
 42
0.000000001
 43
0.00000001
 40
0.0
 40
0.0
 40
0.0
 40
0.0
 40
0.209504397182322
 40
0.459102348364631
 40
0.7087049943402516
 40
0.9582979440092743
 40
1.0
 40
1.0
 40
1.0
 40
1.0
 10
143.9085292726395
 20
151.4648858500357
 30
0.0
 10
143.9510431013199
 20
151.5214063570639
 30
0.0
 10
144.0442067716182
 20
151.6452638887262
 30
0.0
 10
144.18803070924
 20
152.0455188465693
 30
0.0
 10
144.3399714088197
 20
152.6146517025165
 30
0.0
 10
144.4497449643363
 20
153.1043287313862
 30
0.0
 10
144.5088573552541
 20
153.4216282474804
 30
0.0
 10
144.5173199385044
 20
153.4670531326617
 30
0.0
  0
SPLINE
  5
1FE
330
1F
100
AcDbEntity
  8
0
  6
Continuous
 62
     8
370
    18
100
AcDbSpline
210
0.0
220
0.0
230
1.0
 70
     8
 71
     3
 72
    12
 73
     8
 74
     0
 42
0.000000001
 43
0.00000001
 40
0.0
 40
0.0
 40
0.0
 40
0.0
 40
0.0817141429554677
 40
0.3303751407630912
 40
0.5790752595866
 40
0.8277353335865861
 40
0.9999999999999999
 40
0.9999999999999999
 40
0.9999999999999999
 40
0.9999999999999999
 10
145.5056767075893
 20
159.267053058901
 30
0.0
 10
145.5223182816402
 20
159.3551780637448
 30
0.0
 10
145.5896011554576
 20
159.7114727004748
 30
0.0
 10
145.7075796667027
 20
160.2252877175427
 30
0.0
 10
145.8594867316643
 20
160.7674812637385
 30
0.0
 10
145.9959110834975
 20
161.1260265873699
 30
0.0
 10
146.0816321353249
 20
161.2252290887012
 30
0.0
 10
146.1167137235043
 20
161.265827999049
 30
0.0
  0
SPLINE
  5
1FF
330
1F
100
AcDbEntity
  8
0
  6
Continuous
 62
     8
370
    18
100
AcDbSpline
210
0.0
220
0.0
230
1.0
 70
     8
 71
     3
 72
    12
 73
     8
 74
     0
 42
0.000000001
 43
0.00000001
 40
0.0
 40
0.0
 40
0.0
 40
0.0
 40
0.2320767494886921
 40
0.48167386816084
 40
0.7313042378594925
 40
0.9808987001896595
 40
0.9999999999999999
 40
0.9999999999999999
 40
0.9999999999999999
 40
0.9999999999999999
 10
148.9092546611664
 20
151.4595451807315
 30
0.0
 10
148.9563425217759
 20
151.5269348976089
 30
0.0
 10
149.0540730872597
 20
151.6668018410838
 30
0.0
 10
149.2024980799588
 20
152.0919750993304
 30
0.0
 10
149.3544087265269
 20
152.6771996564195
 30
0.0
 10
149.4596200528979
 20
153.1513591453066
 30
0.0
 10
149.5141362968364
 20
153.4461002936719
 30
0.0
 10
149.5180117994186
 20
153.4670531326617
 30
0.0
  0
SPLINE
  5
200
330
1F
100
AcDbEntity
  8
0
  6
Continuous
 62
     8
370
    18
100
AcDbSpline
210
0.0
220
0.0
230
1.0
 70
     8
 71
     3
 72
    12
 73
     8
 74
     0
 42
0.000000001
 43
0.00000001
 40
0.0
 40
0.0
 40
0.0
 40
0.0
 40
0.1050178733443734
 40
0.3539711490572115
 40
0.6029579081284805
 40
0.8519143760041767
 40
1.0
 40
1.0
 40
1.0
 40
1.0
 10
150.5059662371513
 20
159.267053058901
 30
0.0
 10
150.5273287780215
 20
159.3791348939696
 30
0.0
 10
150.5993329321506
 20
159.7569156915067
 30
0.0
 10
150.7220294725539
 20
160.2842975737096
 30
0.0
 10
150.8739446033566
 20
160.8096200303186
 30
0.0
 10
151.0053999089245
 20
161.1453229947841
 30
0.0
 10
151.0861676196815
 20
161.2308668559001
 30
0.0
 10
151.1162917226193
 20
161.2627723296816
 30
0.0
  0
SPLINE
  5
201
330
1F
100
AcDbEntity
  8
0
  6
Continuous
 62
     8
370
    18
100
AcDbSpline
210
0.0
220
0.0
230
1.0
 70
     8
 71
     3
 72
    11
 73
     7
 74
     0
 42
0.000000001
 43
0.00000001
 40
0.0
 40
0.0
 40
0.0
 40
0.0
 40
0.2814919221440725
 40
0.5629822418303797
 40
0.8444715137882302
 40
1.0
 40
1.0
 40
1.0
 40
1.0
 10
134.3110713272926
 20
152.5146214334006
 30
0.0
 10
134.2455833491282
 20
152.5086327504165
 30
0.0
 10
134.1146077656047
 20
152.4966554185401
 30
0.0
 10
133.9501944139756
 20
152.4080872801614
 30
0.0
 10
133.8476791591173
 20
152.3005750626877
 30
0.0
 10
133.8334111082839
 20
152.2229112977508
 30
0.0
 10
133.8283333092567
 20
152.1952718538876
 30
0.0
  0
SPLINE
  5
202
330
1F
100
AcDbEntity
  8
0
  6
Continuous
 62
     8
370
    18
100
AcDbSpline
210
0.0
220
0.0
230
1.0
 70
     8
 71
     3
 72
    24
 73
    20
 74
     0
 42
0.000000001
 43
0.00000001
 40
0.0
 40
0.0
 40
0.0
 40
0.0
 40
0.0045740181568925
 40
0.0689106373655644
 40
0.1332566715365161
 40
0.1975932957450022
 40
0.2619387727048784
 40
0.3262763328596233
 40
0.3906209464349225
 40
0.4549595857067557
 40
0.5193032057495502
 40
0.5836430319675948
 40
0.6479854852545186
 40
0.7123266149619313
 40
0.7766677883096219
 40
0.8410102245391348
 40
0.905350062748017
 40
0.9696936860372596
 40
1.0
 40
1.0
 40
1.0
 40
1.0
 10
153.6199214964745
 20
150.4686403130825
 30
0.0
 10
153.6163203837775
 20
150.4710732123698
 30
0.0
 10
153.5620672167248
 20
150.5077264644534
 30
0.0
 10
153.4571529261135
 20
150.7801628182556
 30
0.0
 10
153.3052286520573
 20
151.2906379210944
 30
0.0
 10
153.1532461234168
 20
152.008398227467
 30
0.0
 10
153.0013226990532
 20
152.8791366911329
 30
0.0
 10
152.8493376258411
 20
153.877565794456
 30
0.0
 10
152.6974147577158
 20
154.9666678344642
 30
0.0
 10
152.5454374883161
 20
156.1064288446722
 30
0.0
 10
152.3934986808137
 20
157.2556604553904
 30
0.0
 10
152.2415383069654
 20
158.3729751109526
 30
0.0
 10
152.0895880489739
 20
159.4165365442782
 30
0.0
 10
151.937637546431
 20
160.3506494067413
 30
0.0
 10
151.7856792348099
 20
161.1375651518799
 30
0.0
 10
151.6337306805509
 20
161.7560855840015
 30
0.0
 10
151.4817709526216
 20
162.1647227437193
 30
0.0
 10
151.356617525814
 20
162.366302974529
 30
0.0
 10
151.2821058152926
 20
162.3460701332305
 30
0.0
 10
151.2582476347324
 20
162.339591704839
 30
0.0
  0
SPLINE
  5
203
330
1F
100
AcDbEntity
  8
0
  6
Continuous
 62
     8
370
    18
100
AcDbSpline
210
0.0
220
0.0
230
1.0
 70
     8
 71
     3
 72
    25
 73
    21
 74
     0
 42
0.000000001
 43
0.00000001
 40
0.0
 40
0.0
 40
0.0
 40
0.0
 40
0.005136478201682
 40
0.0659136706604165
 40
0.1266861828322526
 40
0.1874623372236441
 40
0.2482360627031512
 40
0.3090110389852306
 40
0.3697860302037671
 40
0.4305597522876972
 40
0.4913358993536276
 40
0.552108443880884
 40
0.6128856078698421
 40
0.6736570575873579
 40
0.7344351084893229
 40
0.7952056417377651
 40
0.8559843893197109
 40
0.9167542353264663
 40
0.9775334192086979
 40
0.9999999999999999
 40
0.9999999999999999
 40
0.9999999999999999
 40
0.9999999999999999
 10
148.7594644635555
 20
150.3755839584107
 30
0.0
 10
148.7551828211389
 20
150.3728691628607
 30
0.0
 10
148.7002387997578
 20
150.3380316471988
 30
0.0
 10
148.5946762750128
 20
150.4772518216135
 30
0.0
 10
148.4427076157779
 20
150.8029476094772
 30
0.0
 10
148.2907631701531
 20
151.3561224129187
 30
0.0
 10
148.1388074801587
 20
152.0833783795074
 30
0.0
 10
147.9868541124457
 20
152.9696385779973
 30
0.0
 10
147.834900939091
 20
153.9776500595763
 30
0.0
 10
147.6829448950724
 20
155.0735607417162
 30
0.0
 10
147.5310015910118
 20
156.2159516279806
 30
0.0
 10
147.3790285369903
 20
157.3639335776755
 30
0.0
 10
147.2271021782833
 20
158.4759749167047
 30
0.0
 10
147.0751186413496
 20
159.5106878433263
 30
0.0
 10
146.9232001315285
 20
160.4322165880098
 30
0.0
 10
146.7712115051274
 20
161.2040048623966
 30
0.0
 10
146.6192912242762
 20
161.8047513267714
 30
0.0
 10
146.4673049680985
 20
162.1926737177442
 30
0.0
 10
146.3473045407366
 20
162.3744618620317
 30
0.0
 10
146.2779175228663
 20
162.3484040196988
 30
0.0
 10
146.2591911762592
 20
162.3413714622791
 30
0.0
  0
SPLINE
  5
204
330
1F
100
AcDbEntity
  8
0
  6
Continuous
 62
     8
370
    18
100
AcDbSpline
210
0.0
220
0.0
230
1.0
 70
     8
 71
     3
 72
    25
 73
    21
 74
     0
 42
0.000000001
 43
0.00000001
 40
0.0
 40
0.0
 40
0.0
 40
0.0
 40
0.0103988848516651
 40
0.0712043539351463
 40
0.1320133443427105
 40
0.1928176483624184
 40
0.2536276060402101
 40
0.3144309020320852
 40
0.3752416724355532
 40
0.4360441391002586
 40
0.4968554646485062
 40
0.5576574334186005
 40
0.6184690483351386
 40
0.6792707853857713
 40
0.7400824648749356
 40
0.8008842745572026
 40
0.861695789549997
 40
0.9224979677193026
 40
0.983309041889401
 40
1.0
 40
1.0
 40
1.0
 40
1.0
 10
143.7581504791615
 20
150.3826517654295
 30
0.0
 10
143.7494892906509
 20
150.3779587432004
 30
0.0
 10
143.690183476518
 20
150.3458241806396
 30
0.0
 10
143.5802010444086
 20
150.4989822155945
 30
0.0
 10
143.4282731119278
 20
150.847121457805
 30
0.0
 10
143.2762929232512
 20
151.417806087631
 30
0.0
 10
143.1243708668119
 20
152.1614654853356
 30
0.0
 10
142.9723855061839
 20
153.060673180857
 30
0.0
 10
142.8204624327226
 20
154.0787959778667
 30
0.0
 10
142.6684784691331
 20
155.1807711504492
 30
0.0
 10
142.5165604445366
 20
156.3255395437186
 30
0.0
 10
142.3645650474397
 20
157.4719275156075
 30
0.0
 10
142.2126577449812
 20
158.5781647224734
 30
0.0
 10
142.0606586588382
 20
159.6039433845057
 30
0.0
 10
141.9087519548036
 20
160.5122863254161
 30
0.0
 10
141.7567553680417
 20
161.26900817663
 30
0.0
 10
141.6048390957916
 20
161.8515276845149
 30
0.0
 10
141.4528527635078
 20
162.2187108257152
 30
0.0
 10
141.3376702459933
 20
162.3823880111391
 30
0.0
 10
141.2731076880259
 20
162.3516411455565
 30
0.0
 10
141.2592033952114
 20
162.3450194528039
 30
0.0
  0
SPLINE
  5
205
330
1F
100
AcDbEntity
  8
0
  6
Continuous
 62
     8
370
    18
100
AcDbSpline
210
0.0
220
0.0
230
1.0
 70
     8
 71
     3
 72
    25
 73
    21
 74
     0
 42
0.000000001
 43
0.00000001
 40
0.0
 40
0.0
 40
0.0
 40
0.0
 40
0.0163707835194805
 40
0.0771716159154074
 40
0.1379817465869237
 40
0.1987822084566568
 40
0.2595925443103065
 40
0.3203928840560978
 40
0.3812031781058343
 40
0.4420037479511111
 40
0.5028137131857027
 40
0.5636148479091347
 40
0.6244242216486414
 40
0.6852261592135327
 40
0.7460347527285683
 40
0.8068376922114526
 40
0.8676453385747286
 40
0.9284494223622366
 40
0.989255959571495
 40
1.0
 40
1.0
 40
1.0
 40
1.0
 10
138.7586209088203
 20
150.388764501148
 30
0.0
 10
138.74498547657
 20
150.3826988967303
 30
0.0
 10
138.6807082634967
 20
150.3541057329477
 30
0.0
 10
138.5657371833916
 20
150.5223807577391
 30
0.0
 10
138.413829638493
 20
150.8934238249131
 30
0.0
 10
138.2618329034252
 20
151.4808732772792
 30
0.0
 10
138.1099182376792
 20
152.2411284876575
 30
0.0
 10
137.9579290534838
 20
153.1526614021236
 30
0.0
 10
137.8060118733206
 20
154.1807633931097
 30
0.0
 10
137.6540244307371
 20
155.2883363486838
 30
0.0
 10
137.5021062734523
 20
156.4351380835849
 30
0.0
 10
137.3501149278161
 20
157.5795759536488
 30
0.0
 10
137.1981996266341
 20
158.6796179634033
 30
0.0
 10
137.0462124252992
 20
159.6961447437449
 30
0.0
 10
136.8942901246373
 20
160.5910395804423
 30
0.0
 10
136.7423127426664
 20
161.3323279349999
 30
0.0
 10
136.5903737515086
 20
161.8967120600657
 30
0.0
 10
136.4384141278923
 20
162.2423492087405
 30
0.0
 10
136.3281624304314
 20
162.3899792013867
 30
0.0
 10
136.2685635872565
 20
162.3559387041513
 30
0.0
 10
136.2596142202255
 20
162.3508271803792
 30
0.0
  0
SPLINE
  5
206
330
1F
100
AcDbEntity
  8
0
  6
Continuous
 62
     8
370
    18
100
AcDbSpline
210
0.0
220
0.0
230
1.0
 70
     8
 71
     3
 72
    12
 73
     8
 74
     0
 42
0.000000001
 43
0.00000001
 40
0.0
 40
0.0
 40
0.0
 40
0.0
 40
0.2267686266069199
 40
0.4535316270747676
 40
0.680291482298318
 40
0.9070507017041353
 40
1.0
 40
1.0
 40
1.0
 40
1.0
 10
134.3110713272926
 20
152.51462120057
 30
0.0
 10
134.3763095740995
 20
152.5086146384927
 30
0.0
 10
134.5067844491496
 20
152.4966016633612
 30
0.0
 10
134.6749636418582
 20
152.4083052018887
 30
0.0
 10
134.7811421273123
 20
152.2809125317937
 30
0.0
 10
134.8247127089767
 20
152.1579666087416
 30
0.0
 10
134.8018957999698
 20
152.0890518582077
 30
0.0
 10
134.7952622085449
 20
152.0690161777372
 30
0.0
  0
SPLINE
  5
207
330
1F
100
AcDbEntity
  8
0
  6
Continuous
 62
     8
370
    18
100
AcDbSpline
210
0.0
220
0.0
230
1.0
 70
     8
 71
     3
 72
    24
 73
    20
 74
     0
 42
0.000000001
 43
0.00000001
 40
0.0
 40
0.0
 40
0.0
 40
0.0
 40
0.0463292320012883
 40
0.1072773882099669
 40
0.1682243361726587
 40
0.2291712626299635
 40
0.2901194367271729
 40
0.3510651436841972
 40
0.4120144165979805
 40
0.4729589593546102
 40
0.5339091990634421
 40
0.5948527281571928
 40
0.6558037437754167
 40
0.7167464827277382
 40
0.7776980454373636
 40
0.8386402528981645
 40
0.8995921635476731
 40
0.9605341331857493
 40
1.0
 40
1.0
 40
1.0
 40
1.0
 10
116.2650936379668
 20
162.34676521697
 30
0.0
 10
116.3035973181969
 20
162.3412198733453
 30
0.0
 10
116.3927542947564
 20
162.3283793846282
 30
0.0
 10
116.5325554548712
 20
162.050542104754
 30
0.0
 10
116.6845099957207
 20
161.5705030121973
 30
0.0
 10
116.8364650868732
 20
160.892248787605
 30
0.0
 10
116.9884118353901
 20
160.0531216968554
 30
0.0
 10
117.140376167943
 20
159.0781051327337
 30
0.0
 10
117.292313576398
 20
158.0056774389773
 30
0.0
 10
117.444286986957
 20
156.8730456406601
 30
0.0
 10
117.5962157611818
 20
155.7222576285273
 30
0.0
 10
117.7481974972423
 20
154.5949996585958
 30
0.0
 10
117.9001173300142
 20
153.5318484706845
 30
0.0
 10
118.0521069433095
 20
152.5721079604572
 30
0.0
 10
118.2040218900992
 20
151.7503727568676
 30
0.0
 10
118.356013156227
 20
151.094645577039
 30
0.0
 10
118.5079289550059
 20
150.6389383246355
 30
0.0
 10
118.642059778673
 20
150.3918328182117
 30
0.0
 10
118.7254950864086
 20
150.3921506583816
 30
0.0
 10
118.7582898050186
 20
150.3922755872543
 30
0.0
  0
SPLINE
  5
208
330
1F
100
AcDbEntity
  8
0
  6
Continuous
 62
     8
370
    18
100
AcDbSpline
210
0.0
220
0.0
230
1.0
 70
     8
 71
     3
 72
    24
 73
    20
 74
     0
 42
0.000000001
 43
0.00000001
 40
0.0
 40
0.0
 40
0.0
 40
0.0
 40
0.0531462996214957
 40
0.1138866419468861
 40
0.1746335780751052
 40
0.235373006066226
 40
0.2961206269374667
 40
0.3568593903519753
 40
0.4176074581536928
 40
0.4783458293764263
 40
0.539094085769547
 40
0.5998323803752637
 40
0.6605805876746842
 40
0.7213191075093633
 40
0.7820669806024805
 40
0.8428060475861653
 40
0.9035533615792576
 40
0.9642932155983073
 40
1.0
 40
1.0
 40
1.0
 40
1.0
 10
121.2621151566145
 20
162.3547564303215
 30
0.0
 10
121.3064278518779
 20
162.3431560639554
 30
0.0
 10
121.4013850567089
 20
162.3182977618687
 30
0.0
 10
121.5470238594638
 20
162.0140004806393
 30
0.0
 10
121.6989476658936
 20
161.5136002541175
 30
0.0
 10
121.8509330987304
 20
160.8192264314875
 30
0.0
 10
122.0028496025014
 20
159.9655083449904
 30
0.0
 10
122.1548432406391
 20
158.9798840803822
 30
0.0
 10
122.306755681098
 20
157.8998244857574
 30
0.0
 10
122.4587492173278
 20
156.7637784679534
 30
0.0
 10
122.610660908236
 20
155.6134501102304
 30
0.0
 10
122.7626540348836
 20
154.4903903780687
 30
0.0
 10
122.9145693229873
 20
153.435788154759
 30
0.0
 10
123.0665606350621
 20
152.4871987658787
 30
0.0
 10
123.2184761248304
 20
151.6809351886328
 30
0.0
 10
123.3704633269712
 20
151.0415299456947
 30
0.0
 10
123.5223866994888
 20
150.6066498709976
 30
0.0
 10
123.6534849694281
 20
150.379446896519
 30
0.0
 10
123.733900215579
 20
150.3899342605158
 30
0.0
 10
123.7636718064186
 20
150.3938169261153
 30
0.0
  0
SPLINE
  5
209
330
1F
100
AcDbEntity
  8
0
  6
Continuous
 62
     8
370
    18
100
AcDbSpline
210
0.0
220
0.0
230
1.0
 70
     8
 71
     3
 72
    24
 73
    20
 74
     0
 42
0.000000001
 43
0.00000001
 40
0.0
 40
0.0
 40
0.0
 40
0.0
 40
0.0608032657241801
 40
0.1215966124097085
 40
0.1823999355980561
 40
0.2431933453686775
 40
0.303996476453106
 40
0.3647902939740373
 40
0.4255929799405439
 40
0.4863874503104483
 40
0.5471894603878655
 40
0.607984852940375
 40
0.6687859926601673
 40
0.7295824555134718
 40
0.790382552570311
 40
0.8511802471929669
 40
0.9119791701739969
 40
0.9727780899497361
 40
0.9999999999999999
 40
0.9999999999999999
 40
0.9999999999999999
 40
0.9999999999999999
 10
126.257556220853
 20
162.3667225284214
 30
0.0
 10
126.3082048902326
 20
162.347325598987
 30
0.0
 10
126.409493966506
 20
162.3085349044037
 30
0.0
 10
126.5614832518556
 20
161.9757899092543
 30
0.0
 10
126.7133959275307
 20
161.4548223568981
 30
0.0
 10
126.8653892525249
 20
160.7448897495237
 30
0.0
 10
127.0173017240001
 20
159.876627687554
 30
0.0
 10
127.169295384438
 20
158.8808623367003
 30
0.0
 10
127.32121176048
 20
157.7934551419466
 30
0.0
 10
127.4731976119342
 20
156.6543833861394
 30
0.0
 10
127.62512005452
 20
155.5048902882333
 30
0.0
 10
127.7771016706868
 20
154.3864007710231
 30
0.0
 10
127.9290319396816
 20
153.3406498981998
 30
0.0
 10
128.0810020546006
 20
152.4036097726649
 30
0.0
 10
128.2329424517126
 20
151.612981744156
 30
0.0
 10
128.3849018652109
 20
150.9900439509731
 30
0.0
 10
128.5368553043418
 20
150.5771075162077
 30
0.0
 10
128.6608333525535
 20
150.3720608822074
 30
0.0
 10
128.7341651019819
 20
150.389080109167
 30
0.0
 10
128.7568441688654
 20
150.3943435890312
 30
0.0
  0
SPLINE
  5
20A
330
1F
100
AcDbEntity
  8
0
  6
Continuous
 62
     8
370
    18
100
AcDbSpline
210
0.0
220
0.0
230
1.0
 70
     8
 71
     3
 72
    25
 73
    21
 74
     0
 42
0.000000001
 43
0.00000001
 40
0.0
 40
0.0
 40
0.0
 40
0.0
 40
0.0038201316636403
 40
0.0647123761376907
 40
0.1255971202679994
 40
0.1864885735848517
 40
0.2473743251956002
 40
0.3082648069112847
 40
0.3691517553540395
 40
0.4300411224311098
 40
0.4909292837256318
 40
0.5518174442175131
 40
0.6127068267479167
 40
0.6735937499565997
 40
0.7344842171098946
 40
0.7953699938638271
 40
0.8562614437746677
 40
0.9171462154401686
 40
0.9780384435546202
 40
1.0
 40
1.0
 40
1.0
 40
1.0
 10
131.262476286256
 20
162.3605064158971
 30
0.0
 10
131.2656539632262
 20
162.3625860023413
 30
0.0
 10
131.3194832668838
 20
162.3978138405502
 30
0.0
 10
131.4239506976308
 20
162.2619157659221
 30
0.0
 10
131.5759298717422
 20
161.9415515799725
 30
0.0
 10
131.7278576451396
 20
161.3928685755705
 30
0.0
 10
131.8798319782653
 20
160.6694822954616
 30
0.0
 10
132.0317667909489
 20
159.7865597175446
 30
0.0
 10
132.1837350897145
 20
158.7809784835011
 30
0.0
 10
132.335679399018
 20
157.6866550203814
 30
0.0
 10
132.4876350831484
 20
156.5448809086807
 30
0.0
 10
132.6395894279463
 20
155.396570526655
 30
0.0
 10
132.7915377970538
 20
154.2831679365765
 30
0.0
 10
132.9435020977364
 20
153.2463359968825
 30
0.0
 10
133.0954379428068
 20
152.3215959770521
 30
0.0
 10
133.2474122995828
 20
151.546268008157
 30
0.0
 10
133.399338622153
 20
150.9408453361024
 30
0.0
 10
133.5513238030306
 20
150.5486517544228
 30
0.0
 10
133.6708714227055
 20
150.3627875772397
 30
0.0
 10
133.7398000978457
 20
150.3862549895235
 30
0.0
 10
133.7580706089375
 20
150.3924753559465
 30
0.0
  0
SPLINE
  5
20B
330
1F
100
AcDbEntity
  8
0
  6
Continuous
 62
     8
370
    18
100
AcDbSpline
210
0.0
220
0.0
230
1.0
 70
     8
 71
     3
 72
    10
 73
     6
 74
     0
 42
0.000000001
 43
0.00000001
 40
0.0
 40
0.0
 40
0.0
 40
0.0
 40
0.3760198765697301
 40
0.7519822200745572
 40
1.0
 40
1.0
 40
1.0
 40
1.0
 10
134.3110713272926
 20
152.5146214334006
 30
0.0
 10
134.2604241857294
 20
152.3266869429507
 30
0.0
 10
134.1591376518883
 20
151.9508467170395
 30
0.0
 10
134.0243947144415
 20
151.6051012193327
 30
0.0
 10
133.940347499187
 20
151.5091760137655
 30
0.0
 10
133.9069406598446
 20
151.4710479458506
 30
0.0
  0
SPLINE
  5
20C
330
1F
100
AcDbEntity
  8
0
  6
Continuous
 62
     8
370
    18
100
AcDbSpline
210
0.0
220
0.0
230
1.0
 70
     8
 71
     3
 72
    12
 73
     8
 74
     0
 42
0.000000001
 43
0.00000001
 40
0.0
 40
0.0
 40
0.0
 40
0.0
 40
0.2370026995571697
 40
0.4867778232237528
 40
0.7365923463497738
 40
0.9863665451054359
 40
0.9999999999999999
 40
0.9999999999999999
 40
0.9999999999999999
 40
0.9999999999999999
 10
131.1122651308415
 20
161.2753377338584
 30
0.0
 10
131.0642140114212
 20
161.2053166997804
 30
0.0
 10
130.9655222270723
 20
161.0615010950972
 30
0.0
 10
130.8161311968539
 20
160.6306473823271
 30
0.0
 10
130.6642215245852
 20
160.0413692687331
 30
0.0
 10
130.5601205957123
 20
159.5712207652107
 30
0.0
 10
130.5067154461799
 20
159.2820214393198
 30
0.0
 10
130.5039513021347
 20
159.267053058901
 30
0.0
  0
SPLINE
  5
20D
330
1F
100
AcDbEntity
  8
0
  6
Continuous
 62
     8
370
    18
100
AcDbSpline
210
0.0
220
0.0
230
1.0
 70
     8
 71
     3
 72
    12
 73
     8
 74
     0
 42
0.000000001
 43
0.00000001
 40
0.0
 40
0.0
 40
0.0
 40
0.0
 40
0.1103650598350625
 40
0.35851987547165
 40
0.6066980423434668
 40
0.854857309560189
 40
1.0
 40
1.0
 40
1.0
 40
1.0
 10
129.516145876014
 20
153.4670531326617
 30
0.0
 10
129.4936220223601
 20
153.3491663030248
 30
0.0
 10
129.4204534922187
 20
152.966212027964
 30
0.0
 10
129.2966090949762
 20
152.4356156461408
 30
0.0
 10
129.1446744380646
 20
151.9143330545628
 30
0.0
 10
129.0137361267769
 20
151.582721357776
 30
0.0
 10
128.9334665206828
 20
151.499817876909
 30
0.0
 10
128.9038441240427
 20
151.4692234849269
 30
0.0
  0
SPLINE
  5
20E
330
1F
100
AcDbEntity
  8
0
  6
Continuous
 62
     8
370
    18
100
AcDbSpline
210
0.0
220
0.0
230
1.0
 70
     8
 71
     3
 72
    12
 73
     8
 74
     0
 42
0.000000001
 43
0.00000001
 40
0.0
 40
0.0
 40
0.0
 40
0.0
 40
0.0094468233540891
 40
0.259606115494759
 40
0.509729345377646
 40
0.7598863724303511
 40
1.0
 40
1.0
 40
1.0
 40
1.0
 10
126.1113423019287
 20
161.2754005981321
 30
0.0
 10
126.1094293592713
 20
161.2742424418783
 30
0.0
 10
126.0568601946075
 20
161.2424153996091
 30
0.0
 10
125.9536691973385
 20
161.0137693705965
 30
0.0
 10
125.8016813797108
 20
160.5844976400799
 30
0.0
 10
125.6517862107964
 20
159.9967352808057
 30
0.0
 10
125.5525001743464
 20
159.5069358843484
 30
0.0
 10
125.5038741141197
 20
159.267053058901
 30
0.0
  0
SPLINE
  5
20F
330
1F
100
AcDbEntity
  8
0
  6
Continuous
 62
     8
370
    18
100
AcDbSpline
210
0.0
220
0.0
230
1.0
 70
     8
 71
     3
 72
    12
 73
     8
 74
     0
 42
0.000000001
 43
0.00000001
 40
0.0
 40
0.0
 40
0.0
 40
0.0
 40
0.1342856487227706
 40
0.38323425491497
 40
0.6321730554489757
 40
0.8811262711241221
 40
0.9999999999999999
 40
0.9999999999999999
 40
0.9999999999999999
 40
0.9999999999999999
 10
124.5160854518053
 20
153.4670531326617
 30
0.0
 10
124.4887633986847
 20
153.3254797289264
 30
0.0
 10
124.4107897151971
 20
152.9214471430742
 30
0.0
 10
124.2821725707951
 20
152.3784677070892
 30
0.0
 10
124.130204717251
 20
151.8739390586877
 30
0.0
 10
124.0047283203228
 20
151.5652063458109
 30
0.0
 10
123.9298859406674
 20
151.4947078972485
 30
0.0
 10
123.9056984990475
 20
151.4719243203933
 30
0.0
  0
SPLINE
  5
210
330
1F
100
AcDbEntity
  8
0
  6
Continuous
 62
     8
370
    18
100
AcDbSpline
210
0.0
220
0.0
230
1.0
 70
     8
 71
     3
 72
    10
 73
     6
 74
     0
 42
0.000000001
 43
0.00000001
 40
0.0
 40
0.0
 40
0.0
 40
0.0
 40
0.0964930928273251
 40
0.842752590249323
 40
1.0
 40
1.0
 40
1.0
 40
1.0
 10
121.1107994526264
 20
161.2679681783254
 30
0.0
 10
121.1042497306269
 20
161.2634724514102
 30
0.0
 10
121.0470456860806
 20
161.2242076150177
 30
0.0
 10
120.9791791321794
 20
161.0878621086036
 30
0.0
 10
120.9178506321682
 20
160.8997859065171
 30
0.0
 10
120.9071769475576
 20
160.8670529020662
 30
0.0
  0
SPLINE
  5
211
330
1F
100
AcDbEntity
  8
0
  6
Continuous
 62
     8
370
    18
100
AcDbSpline
210
0.0
220
0.0
230
1.0
 70
     8
 71
     3
 72
    10
 73
     6
 74
     0
 42
0.000000001
 43
0.00000001
 40
0.0
 40
0.0
 40
0.0
 40
0.0
 40
0.0161862767341431
 40
0.7215104916928157
 40
1.0
 40
1.0
 40
1.0
 40
1.0
 10
119.1192480831978
 20
151.8670532894964
 30
0.0
 10
119.1180851634614
 20
151.8632867893433
 30
0.0
 10
119.0662474984704
 20
151.6953933681409
 30
0.0
 10
118.994469887436
 20
151.5492476509496
 30
0.0
 10
118.9238033253313
 20
151.4866229265411
 30
0.0
 10
118.9037996440765
 20
151.4688956593807
 30
0.0
  0
SPLINE
  5
212
330
1F
100
AcDbEntity
  8
0
  6
Continuous
 62
     8
370
    18
100
AcDbSpline
210
0.0
220
0.0
230
1.0
 70
     8
 71
     3
 72
    10
 73
     6
 74
     0
 42
0.000000001
 43
0.00000001
 40
0.0
 40
0.0
 40
0.0
 40
0.0
 40
0.1831121662113616
 40
0.9081379093836757
 40
1.0
 40
1.0
 40
1.0
 40
1.0
 10
116.1150715410349
 20
161.266043600225
 30
0.0
 10
116.1022803018646
 20
161.2562456795059
 30
0.0
 10
116.038842631726
 20
161.2076532597762
 30
0.0
 10
115.9689744819369
 20
161.0668902239348
 30
0.0
 10
115.9119103078014
 20
160.8872537006325
 30
0.0
 10
115.9054932281014
 20
160.8670529020662
 30
0.0
  0
DIMENSION
  5
213
330
1F
100
AcDbEntity
  8
0
  6
Continuous
 62
     7
370
    18
100
AcDbDimension
  2
_D
 10
87.3576491765
 20
150.8670530958
 30
0.0
 11
87.3576491765
 21
156.3670530958
 31
0.0
 70
   160
  1
%%c<>
 71
     2
 42
-1.0
  3
SLDDIMSTYLE1
100
AcDbAlignedDimension
 13
97.6626501768
 23
161.8670530958
 33
0.0
 14
97.6626501768
 24
150.8670530958
 34
0.0
 50
90.0
100
AcDbRotatedDimension
  0
DIMENSION
  5
221
330
1F
100
AcDbEntity
  8
0
  6
Continuous
 62
     7
370
    18
100
AcDbDimension
  2
_D_1
 10
75.3576491765
 20
149.3670530958
 30
0.0
 11
75.3576491765
 21
156.3670530958
 31
0.0
 70
   160
  1
%%c<>
 71
     2
 42
-1.0
  3
SLDDIMSTYLE1
100
AcDbAlignedDimension
 13
106.6626501768
 23
163.3670530958
 33
0.0
 14
106.6626501768
 24
149.3670530958
 34
0.0
 50
90.0
100
AcDbRotatedDimension
  0
DIMENSION
  5
22E
330
1F
100
AcDbEntity
  8
0
  6
Continuous
 62
     7
370
    18
100
AcDbDimension
  2
_D_2
 10
97.3626501772
 20
171.874635637
 30
0.0
 11
101.8626501772
 21
171.8746356368
 31
0.0
 70
   160
  1
<>
 71
     2
 42
-1.0
  3
SLDDIMSTYLE1
100
AcDbAlignedDimension
 13
106.3626501768
 23
163.0670530925
 33
0.0
 14
97.3626501768
 24
161.5670530932
 34
0.0
 50
-0.0000000022
100
AcDbRotatedDimension
  0
DIMENSION
  5
23A
330
1F
100
AcDbEntity
  8
0
  6
Continuous
 62
     7
370
    18
100
AcDbDimension
  2
_D_3
 10
151.3626501768
 20
136.4592772431
 30
0.0
 11
136.3626501768
 21
136.4592772431
 31
0.0
 70
   160
  1
<>st
 71
     2
 42
-1.0
  3
SLDDIMSTYLE2
100
AcDbAlignedDimension
 13
121.3626501768
 23
153.4670530955
 33
0.0
 14
151.3626501768
 24
152.3670162644
 34
0.0
 50
0.0
100
AcDbRotatedDimension
  0
DIMENSION
  5
246
330
1F
100
AcDbEntity
  8
0
  6
Continuous
 62
     7
370
    18
100
AcDbDimension
  2
_D_4
 10
157.3626501768
 20
140.979092205
 30
0.0
 11
162.2555739536
 21
140.979092205
 31
0.0
 70
   160
  1
<>
 71
     2
 42
-1.0
  3
SLDDIMSTYLE1
100
AcDbAlignedDimension
 13
154.3626501768
 23
146.5520985205
 33
0.0
 14
157.3626501768
 24
146.5520985205
 34
0.0
 50
0.0
100
AcDbRotatedDimension
  0
DIMENSION
  5
252
330
1F
100
AcDbEntity
  8
0
  6
Continuous
 62
     7
370
    18
100
AcDbDimension
  2
_D_5
 10
151.3626501768
 20
171.6513511658
 30
0.0
 11
154.3626501768
 21
171.6513511658
 31
0.0
 70
   160
  1
<>
 71
     2
 42
-1.0
  3
SLDDIMSTYLE1
100
AcDbAlignedDimension
 13
157.3626501768
 23
166.1820076711
 33
0.0
 14
151.3626501768
 24
158.3670530957
 34
0.0
100
AcDbRotatedDimension
  0
DIMENSION
  5
25E
330
1F
100
AcDbEntity
  8
0
  6
Continuous
 62
     7
370
    18
100
AcDbDimension
  2
_D_6
 10
177.3626501768
 20
171.6513511659
 30
0.0
 11
167.3626501768
 21
171.6513511658
 31
0.0
 70
   160
  1
<>
 71
     2
 42
-1.0
  3
SLDDIMSTYLE2
100
AcDbAlignedDimension
 13
157.3626501768
 23
166.1820076711
 33
0.0
 14
177.3626501768
 24
161.3670991344
 34
0.0
 50
0.0000000001
100
AcDbRotatedDimension
  0
DIMENSION
  5
268
330
1F
100
AcDbEntity
  8
0
  6
Continuous
 62
     7
370
    18
100
AcDbDimension
  2
_D_7
 10
157.3626501768
 20
179.772053096
 30
0.0
 11
168.3626501768
 21
179.772053096
 31
0.0
 70
   160
  1
<>
 71
     2
 42
-1.0
  3
SLDDIMSTYLE2
100
AcDbAlignedDimension
 13
179.3626501768
 23
158.8670530958
 33
0.0
 14
157.3626501768
 24
166.1820076711
 34
0.0
 50
0.0
100
AcDbRotatedDimension
  0
DIMENSION
  5
272
330
1F
100
AcDbEntity
  8
0
  6
Continuous
 62
     7
370
    18
100
AcDbDimension
  2
_D_8
 10
179.3626501784
 20
189.6977620686
 30
0.0
 11
138.3626501784
 21
189.6977620706
 31
0.0
 70
   160
  1
<>
 71
     2
 42
-1.0
  3
SLDDIMSTYLE2
100
AcDbAlignedDimension
 13
97.3626501768
 23
161.5670530932
 33
0.0
 14
179.3626501768
 24
158.8670530958
 34
0.0
 50
-0.0000000028
100
AcDbRotatedDimension
  0
DIMENSION
  5
27C
330
1F
100
AcDbEntity
  8
0
  6
Continuous
 62
     7
370
    18
100
AcDbDimension
  2
_D_9
 10
185.2173817742
 20
153.4670530961
 30
0.0
 11
185.2173817742
 21
167.8854279245
 31
0.0
 70
   160
  1
%%c<>
 71
     2
 42
-1.0
  3
SLDDIMSTYLE1
100
AcDbAlignedDimension
 13
178.8626501768
 23
159.2670530956
 33
0.0
 14
178.8626501768
 24
153.4670530961
 34
0.0
 50
90.0
100
AcDbRotatedDimension
  0
DIMENSION
  5
289
330
1F
100
AcDbEntity
  8
0
  6
Continuous
 62
     7
370
    18
100
AcDbDimension
  2
_D_10
 10
192.8186270229
 20
146.5520985198
 30
0.0
 11
192.8186270229
 21
156.3670530958
 31
0.0
 70
   160
  1
<>
 71
     2
 42
-1.0
  3
SLDDIMSTYLE2
100
AcDbAlignedDimension
 13
174.8098557978
 23
166.1820076718
 33
0.0
 14
174.8098557978
 24
146.5520985198
 34
0.0
 50
90.0
100
AcDbRotatedDimension
  0
INSERT
  5
298
330
1F
100
AcDbEntity
  8
0
  6
Continuous
 62
     7
370
     0
100
AcDbBlockReference
  2
SW_NOTE_2
 10
171.1136631331
 20
135.7826857061
 30
0.0
  0
LEADER
  5
299
330
1F
100
AcDbEntity
  8
0
  6
Continuous
 62
     7
370
     0
100
AcDbLeader
  3
SLDDIMSTYLE0
 76
     2
 10
164.2228586891
 20
150.3670530955
 30
0.0
 10
171.1136631331
 20
135.7826857061
 30
0.0
  0
LINE
  5
29A
330
1F
100
AcDbEntity
  8
0
  6
CENTERX2
 62
     7
370
    18
100
AcDbLine
 10
95.3237028074
 20
156.3670530958
 30
0.0
 11
183.120145901
 21
156.3670530958
 31
0.0
  0
ENDSEC
  0
SECTION
  2
OBJECTS
  0
DICTIONARY
  5
C
330
0
100
AcDbDictionary
281
     1
  3
ACAD_GROUP
350
D
  3
ACAD_LAYOUT
350
1A
  3
ACAD_MLINESTYLE
350
17
  3
ACAD_PLOTSETTINGS
350
19
  3
ACAD_PLOTSTYLENAME
350
E
  3
ACAD_SCALELIST
350
47
  0
DICTIONARY
  5
D
102
{ACAD_REACTORS
330
C
102
}
330
C
100
AcDbDictionary
281
     1
  0
DICTIONARY
  5
1A
102
{ACAD_REACTORS
330
C
102
}
330
C
100
AcDbDictionary
281
     1
  3
Layout1
350
1E
  3
Layout2
350
26
  3
Model
350
22
  0
DICTIONARY
  5
17
102
{ACAD_REACTORS
330
C
102
}
330
C
100
AcDbDictionary
281
     1
  3
Standard
350
18
  0
DICTIONARY
  5
19
102
{ACAD_REACTORS
330
C
102
}
330
C
100
AcDbDictionary
281
     1
  0
ACDBDICTIONARYWDFLT
  5
E
102
{ACAD_REACTORS
330
C
102
}
330
C
100
AcDbDictionary
281
     1
  3
Normal
350
F
100
AcDbDictionaryWithDefault
340
F
  0
DICTIONARY
  5
47
102
{ACAD_REACTORS
330
C
102
}
330
C
100
AcDbDictionary
281
     1
  3
A0
350
48
  3
A1
350
49
  3
A2
350
4A
  3
A3
350
4B
  3
A4
350
4C
  3
A5
350
4D
  3
A6
350
4E
  3
A7
350
4F
  3
A8
350
50
  3
A9
350
51
  3
B0
350
52
  3
B1
350
53
  3
B2
350
54
  3
B3
350
55
  3
B4
350
56
  3
B5
350
57
  3
B6
350
58
  3
B7
350
59
  3
B8
350
5A
  3
B9
350
5B
  3
C0
350
5C
  3
C1
350
5D
  3
C2
350
5E
  3
C3
350
5F
  3
C4
350
60
  3
C5
350
61
  3
C6
350
62
  3
C7
350
63
  3
C8
350
64
  3
C9
350
65
  3
D0
350
66
  3
D1
350
67
  3
D2
350
68
  0
LAYOUT
  5
1E
102
{ACAD_REACTORS
330
1A
102
}
330
1A
100
AcDbPlotSettings
  1

  2
none_device
  4

  6

 40
0.0
 41
0.0
 42
0.0
 43
0.0
 44
0.0
 45
0.0
 46
0.0
 47
0.0
 48
0.0
 49
0.0
140
0.0
141
0.0
142
1.0
143
1.0
 70
   688
 72
     1
 73
     0
 74
     5
  7

 75
    16
147
1.0
148
0.0
149
0.0
100
AcDbLayout
  1
Layout1
 70
     1
 71
     1
 10
0.0
 20
0.0
 11
420.0
 21
297.0
 12
0.0
 22
0.0
 32
0.0
 14
1.0000000000E+20
 24
1.0000000000E+20
 34
1.0000000000E+20
 15
-1.0000000000E+20
 25
-1.0000000000E+20
 35
-1.0000000000E+20
146
0.0
 13
0.0
 23
0.0
 33
0.0
 16
1.0
 26
0.0
 36
0.0
 17
0.0
 27
1.0
 37
0.0
 76
     0
330
1B
  0
LAYOUT
  5
26
102
{ACAD_REACTORS
330
1A
102
}
330
1A
100
AcDbPlotSettings
  1

  2
none_device
  4

  6

 40
0.0
 41
0.0
 42
0.0
 43
0.0
 44
0.0
 45
0.0
 46
0.0
 47
0.0
 48
0.0
 49
0.0
140
0.0
141
0.0
142
1.0
143
1.0
 70
   688
 72
     1
 73
     0
 74
     5
  7

 75
    16
147
1.0
148
0.0
149
0.0
100
AcDbLayout
  1
Layout2
 70
     1
 71
     2
 10
0.0
 20
0.0
 11
0.0
 21
0.0
 12
0.0
 22
0.0
 32
0.0
 14
0.0
 24
0.0
 34
0.0
 15
0.0
 25
0.0
 35
0.0
146
0.0
 13
0.0
 23
0.0
 33
0.0
 16
1.0
 26
0.0
 36
0.0
 17
0.0
 27
1.0
 37
0.0
 76
     0
330
23
  0
LAYOUT
  5
22
102
{ACAD_REACTORS
330
1A
102
}
330
1A
100
AcDbPlotSettings
  1

  2
none_device
  4
Letter_(8.50_x_11.00_Inches)
  6

 40
6.35
 41
6.35
 42
6.35000508
 43
6.35000508
 44
215.9
 45
279.4
 46
0.0
 47
0.0
 48
0.0
 49
0.0
140
0.0
141
0.0
142
1.0
143
1.0
 70
  1712
 72
     1
 73
     0
 74
     0
  7

 75
     0
147
1.0
148
0.0
149
0.0
100
AcDbLayout
  1
Model
 70
     1
 71
     0
 10
0.0
 20
0.0
 11
210.0
 21
297.0
 12
0.0
 22
0.0
 32
0.0
 14
0.0
 24
0.0
 34
0.0
 15
210.0
 25
297.0
 35
0.0
146
0.0
 13
0.0
 23
0.0
 33
0.0
 16
1.0
 26
0.0
 36
0.0
 17
0.0
 27
1.0
 37
0.0
 76
     0
330
1F
331
29
  0
MLINESTYLE
  5
18
102
{ACAD_REACTORS
330
17
102
}
330
17
100
AcDbMlineStyle
  2
Standard
 70
     0
  3

 62
   256
 51
90.0
 52
90.0
 71
     2
 49
0.5
 62
   256
  6
BYLAYER
 49
-0.5
 62
   256
  6
BYLAYER
  0
ACDBPLACEHOLDER
  5
F
102
{ACAD_REACTORS
330
E
102
}
330
E
  0
SCALE
  5
48
102
{ACAD_REACTORS
330
47
102
}
330
47
100
AcDbScale
 70
     0
300
1:1
140
1.0
141
1.0
290
     1
  0
SCALE
  5
49
102
{ACAD_REACTORS
330
47
102
}
330
47
100
AcDbScale
 70
     0
300
1:2
140
1.0
141
2.0
290
     0
  0
SCALE
  5
4A
102
{ACAD_REACTORS
330
47
102
}
330
47
100
AcDbScale
 70
     0
300
1:4
140
1.0
141
4.0
290
     0
  0
SCALE
  5
4B
102
{ACAD_REACTORS
330
47
102
}
330
47
100
AcDbScale
 70
     0
300
1:5
140
1.0
141
5.0
290
     0
  0
SCALE
  5
4C
102
{ACAD_REACTORS
330
47
102
}
330
47
100
AcDbScale
 70
     0
300
1:8
140
1.0
141
8.0
290
     0
  0
SCALE
  5
4D
102
{ACAD_REACTORS
330
47
102
}
330
47
100
AcDbScale
 70
     0
300
1:10
140
1.0
141
10.0
290
     0
  0
SCALE
  5
4E
102
{ACAD_REACTORS
330
47
102
}
330
47
100
AcDbScale
 70
     0
300
1:16
140
1.0
141
16.0
290
     0
  0
SCALE
  5
4F
102
{ACAD_REACTORS
330
47
102
}
330
47
100
AcDbScale
 70
     0
300
1:20
140
1.0
141
20.0
290
     0
  0
SCALE
  5
50
102
{ACAD_REACTORS
330
47
102
}
330
47
100
AcDbScale
 70
     0
300
1:30
140
1.0
141
30.0
290
     0
  0
SCALE
  5
51
102
{ACAD_REACTORS
330
47
102
}
330
47
100
AcDbScale
 70
     0
300
1:40
140
1.0
141
40.0
290
     0
  0
SCALE
  5
52
102
{ACAD_REACTORS
330
47
102
}
330
47
100
AcDbScale
 70
     0
300
1:50
140
1.0
141
50.0
290
     0
  0
SCALE
  5
53
102
{ACAD_REACTORS
330
47
102
}
330
47
100
AcDbScale
 70
     0
300
1:100
140
1.0
141
100.0
290
     0
  0
SCALE
  5
54
102
{ACAD_REACTORS
330
47
102
}
330
47
100
AcDbScale
 70
     0
300
2:1
140
2.0
141
1.0
290
     0
  0
SCALE
  5
55
102
{ACAD_REACTORS
330
47
102
}
330
47
100
AcDbScale
 70
     0
300
4:1
140
4.0
141
1.0
290
     0
  0
SCALE
  5
56
102
{ACAD_REACTORS
330
47
102
}
330
47
100
AcDbScale
 70
     0
300
8:1
140
8.0
141
1.0
290
     0
  0
SCALE
  5
57
102
{ACAD_REACTORS
330
47
102
}
330
47
100
AcDbScale
 70
     0
300
10:1
140
10.0
141
1.0
290
     0
  0
SCALE
  5
58
102
{ACAD_REACTORS
330
47
102
}
330
47
100
AcDbScale
 70
     0
300
100:1
140
100.0
141
1.0
290
     0
  0
SCALE
  5
59
102
{ACAD_REACTORS
330
47
102
}
330
47
100
AcDbScale
 70
     0
300
1/128" = 1'-0"
140
0.0078125
141
12.0
290
     0
  0
SCALE
  5
5A
102
{ACAD_REACTORS
330
47
102
}
330
47
100
AcDbScale
 70
     0
300
1/64" = 1'-0"
140
0.015625
141
12.0
290
     0
  0
SCALE
  5
5B
102
{ACAD_REACTORS
330
47
102
}
330
47
100
AcDbScale
 70
     0
300
1/32" = 1'-0"
140
0.03125
141
12.0
290
     0
  0
SCALE
  5
5C
102
{ACAD_REACTORS
330
47
102
}
330
47
100
AcDbScale
 70
     0
300
1/16" = 1'-0"
140
0.0625
141
12.0
290
     0
  0
SCALE
  5
5D
102
{ACAD_REACTORS
330
47
102
}
330
47
100
AcDbScale
 70
     0
300
3/32" = 1'-0"
140
0.09375
141
12.0
290
     0
  0
SCALE
  5
5E
102
{ACAD_REACTORS
330
47
102
}
330
47
100
AcDbScale
 70
     0
300
1/8" = 1'-0"
140
0.125
141
12.0
290
     0
  0
SCALE
  5
5F
102
{ACAD_REACTORS
330
47
102
}
330
47
100
AcDbScale
 70
     0
300
3/16" = 1'-0"
140
0.1875
141
12.0
290
     0
  0
SCALE
  5
60
102
{ACAD_REACTORS
330
47
102
}
330
47
100
AcDbScale
 70
     0
300
1/4" = 1'-0"
140
0.25
141
12.0
290
     0
  0
SCALE
  5
61
102
{ACAD_REACTORS
330
47
102
}
330
47
100
AcDbScale
 70
     0
300
3/8" = 1'-0"
140
0.375
141
12.0
290
     0
  0
SCALE
  5
62
102
{ACAD_REACTORS
330
47
102
}
330
47
100
AcDbScale
 70
     0
300
1/2" = 1'-0"
140
0.5
141
12.0
290
     0
  0
SCALE
  5
63
102
{ACAD_REACTORS
330
47
102
}
330
47
100
AcDbScale
 70
     0
300
3/4" = 1'-0"
140
0.75
141
12.0
290
     0
  0
SCALE
  5
64
102
{ACAD_REACTORS
330
47
102
}
330
47
100
AcDbScale
 70
     0
300
1" = 1'-0"
140
1.0
141
12.0
290
     0
  0
SCALE
  5
65
102
{ACAD_REACTORS
330
47
102
}
330
47
100
AcDbScale
 70
     0
300
1-1/2" = 1'-0"
140
1.5
141
12.0
290
     0
  0
SCALE
  5
66
102
{ACAD_REACTORS
330
47
102
}
330
47
100
AcDbScale
 70
     0
300
3" = 1'-0"
140
3.0
141
12.0
290
     0
  0
SCALE
  5
67
102
{ACAD_REACTORS
330
47
102
}
330
47
100
AcDbScale
 70
     0
300
6" = 1'-0"
140
6.0
141
12.0
290
     0
  0
SCALE
  5
68
102
{ACAD_REACTORS
330
47
102
}
330
47
100
AcDbScale
 70
     0
300
1'-0" = 1'-0"
140
12.0
141
12.0
290
     0
  0
ENDSEC
  0
EOF
