  0
SECTION
  2
HEADER
  9
$ACADVER
  1
AC1015
  9
$ACADMAINTVER
 70
     6
  9
$DWGCODEPAGE
  3
DOS932
  9
$INSBASE
 10
0.0
 20
0.0
 30
0.0
  9
$EXTMIN
 10
0.0
 20
0.0
 30
0.0
  9
$EXTMAX
 10
105.0
 20
148.5
 30
0.0
  9
$LIMMIN
 10
0.0
 20
0.0
  9
$LIMMAX
 10
105.0
 20
148.5
  9
$ORTHOMODE
 70
     0
  9
$REGENMODE
 70
     1
  9
$FILLMODE
 70
     1
  9
$QTEXTMODE
 70
     0
  9
$MIRRTEXT
 70
     1
  9
$LTSCALE
 40
0.5
  9
$ATTMODE
 70
     1
  9
$TEXTSIZE
 40
1.75
  9
$TRACEWID
 40
1.0
  9
$TEXTSTYLE
  7
STANDARD
  9
$CLAYER
  8
0
  9
$CELTYPE
  6
ByLayer
  9
$CECOLOR
 62
   256
  9
$CELTSCALE
 40
1.0
  9
$DISPSILH
 70
     0
  9
$DIMSCALE
 40
1.0
  9
$DIMASZ
 40
1.5
  9
$DIMEXO
 40
0.5
  9
$DIMDLI
 40
3.75
  9
$DIMRND
 40
0.0
  9
$DIMDLE
 40
0.0
  9
$DIMEXE
 40
0.5
  9
$DIMTP
 40
0.0
  9
$DIMTM
 40
0.0
  9
$DIMTXT
 40
1.75
  9
$DIMCEN
 40
2.5
  9
$DIMTSZ
 40
0.0
  9
$DIMTOL
 70
     0
  9
$DIMLIM
 70
     0
  9
$DIMTIH
 70
     1
  9
$DIMTOH
 70
     1
  9
$DIMSE1
 70
     0
  9
$DIMSE2
 70
     0
  9
$DIMTAD
 70
     1
  9
$DIMZIN
 70
     0
  9
$DIMBLK
  1

  9
$DIMASO
 70
     1
  9
$DIMSHO
 70
     1
  9
$DIMPOST
  1

  9
$DIMAPOST
  1

  9
$DIMALT
 70
     0
  9
$DIMALTD
 70
     3
  9
$DIMALTF
 40
0.0393700787
  9
$DIMLFAC
 40
1.0
  9
$DIMTOFL
 70
     1
  9
$DIMTVP
 40
0.0
  9
$DIMTIX
 70
     0
  9
$DIMSOXD
 70
     0
  9
$DIMSAH
 70
     0
  9
$DIMBLK1
  1

  9
$DIMBLK2
  1

  9
$DIMSTYLE
  2
ISO-25
  9
$DIMCLRD
 70
     0
  9
$DIMCLRE
 70
     0
  9
$DIMCLRT
 70
     0
  9
$DIMTFAC
 40
1.0
  9
$DIMGAP
 40
0.762
  9
$DIMJUST
 70
     0
  9
$DIMSD1
 70
     0
  9
$DIMSD2
 70
     0
  9
$DIMTOLJ
 70
     0
  9
$DIMTZIN
 70
     0
  9
$DIMALTZ
 70
     0
  9
$DIMALTTZ
 70
     0
  9
$DIMUPT
 70
     0
  9
$DIMDEC
 70
     1
  9
$DIMTDEC
 70
     3
  9
$DIMALTU
 70
     2
  9
$DIMALTTD
 70
     3
  9
$DIMTXSTY
  7
STANDARD
  9
$DIMAUNIT
 70
     0
  9
$DIMADEC
 70
     2
  9
$DIMALTRND
 40
0.0
  9
$DIMAZIN
 70
     0
  9
$DIMDSEP
 70
    44
  9
$DIMATFIT
 70
     3
  9
$DIMFRAC
 70
     0
  9
$DIMLDRBLK
  1

  9
$DIMLUNIT
 70
     2
  9
$DIMLWD
 70
    -2
  9
$DIMLWE
 70
    -2
  9
$DIMTMOVE
 70
     0
  9
$LUNITS
 70
     2
  9
$LUPREC
 70
     1
  9
$SKETCHINC
 40
1.0
  9
$FILLETRAD
 40
10.0
  9
$AUNITS
 70
     0
  9
$AUPREC
 70
     2
  9
$MENU
  1
.
  9
$ELEVATION
 40
0.0
  9
$PELEVATION
 40
0.0
  9
$THICKNESS
 40
0.0
  9
$LIMCHECK
 70
     0
  9
$CHAMFERA
 40
0.0
  9
$CHAMFERB
 40
0.0
  9
$CHAMFERC
 40
0.0
  9
$CHAMFERD
 40
0.0
  9
$SKPOLY
 70
     0
  9
$TDCREATE
 40
2459136.436405741
  9
$TDUCREATE
 40
2459136.061405741
  9
$TDUPDATE
 40
2459136.436407547
  9
$TDUUPDATE
 40
2459136.061407547
  9
$TDINDWG
 40
0.0000000116
  9
$TDUSRTIMER
 40
0.0000000116
  9
$USRTIMER
 70
     1
  9
$ANGBASE
 50
0.0
  9
$ANGDIR
 70
     0
  9
$PDMODE
 70
     0
  9
$PDSIZE
 40
-1.0
  9
$PLINEWID
 40
0.0
  9
$SPLFRAME
 70
     0
  9
$SPLINETYPE
 70
     6
  9
$SPLINESEGS
 70
     8
  9
$HANDSEED
  5
163
  9
$SURFTAB1
 70
     6
  9
$SURFTAB2
 70
     6
  9
$SURFTYPE
 70
     6
  9
$SURFU
 70
     6
  9
$SURFV
 70
     6
  9
$UCSBASE
  2

  9
$UCSNAME
  2

  9
$UCSORG
 10
0.0
 20
0.0
 30
0.0
  9
$UCSXDIR
 10
1.0
 20
0.0
 30
0.0
  9
$UCSYDIR
 10
0.0
 20
1.0
 30
0.0
  9
$UCSORTHOREF
  2

  9
$UCSORTHOVIEW
 70
     0
  9
$UCSORGTOP
 10
0.0
 20
0.0
 30
0.0
  9
$UCSORGBOTTOM
 10
0.0
 20
0.0
 30
0.0
  9
$UCSORGLEFT
 10
0.0
 20
0.0
 30
0.0
  9
$UCSORGRIGHT
 10
0.0
 20
0.0
 30
0.0
  9
$UCSORGFRONT
 10
0.0
 20
0.0
 30
0.0
  9
$UCSORGBACK
 10
0.0
 20
0.0
 30
0.0
  9
$PUCSBASE
  2

  9
$PUCSNAME
  2

  9
$PUCSORG
 10
0.0
 20
0.0
 30
0.0
  9
$PUCSXDIR
 10
1.0
 20
0.0
 30
0.0
  9
$PUCSYDIR
 10
0.0
 20
1.0
 30
0.0
  9
$PUCSORTHOREF
  2

  9
$PUCSORTHOVIEW
 70
     0
  9
$PUCSORGTOP
 10
0.0
 20
0.0
 30
0.0
  9
$PUCSORGBOTTOM
 10
0.0
 20
0.0
 30
0.0
  9
$PUCSORGLEFT
 10
0.0
 20
0.0
 30
0.0
  9
$PUCSORGRIGHT
 10
0.0
 20
0.0
 30
0.0
  9
$PUCSORGFRONT
 10
0.0
 20
0.0
 30
0.0
  9
$PUCSORGBACK
 10
0.0
 20
0.0
 30
0.0
  9
$USERI1
 70
     0
  9
$USERI2
 70
     0
  9
$USERI3
 70
     0
  9
$USERI4
 70
     0
  9
$USERI5
 70
     0
  9
$USERR1
 40
0.0
  9
$USERR2
 40
0.0
  9
$USERR3
 40
0.0
  9
$USERR4
 40
0.0
  9
$USERR5
 40
0.0
  9
$WORLDVIEW
 70
     1
  9
$SHADEDGE
 70
     3
  9
$SHADEDIF
 70
    70
  9
$TILEMODE
 70
     1
  9
$MAXACTVP
 70
    64
  9
$PINSBASE
 10
0.0
 20
0.0
 30
0.0
  9
$PLIMCHECK
 70
     0
  9
$PEXTMIN
 10
1.0000000000E+20
 20
1.0000000000E+20
 30
1.0000000000E+20
  9
$PEXTMAX
 10
-1.0000000000E+20
 20
-1.0000000000E+20
 30
-1.0000000000E+20
  9
$PLIMMIN
 10
0.0
 20
0.0
  9
$PLIMMAX
 10
420.0
 20
297.0
  9
$UNITMODE
 70
     0
  9
$VISRETAIN
 70
     1
  9
$PLINEGEN
 70
     0
  9
$PSLTSCALE
 70
     1
  9
$TREEDEPTH
 70
  3020
  9
$CMLSTYLE
  2
Standard
  9
$CMLJUST
 70
     0
  9
$CMLSCALE
 40
20.0
  9
$PROXYGRAPHICS
 70
     1
  9
$MEASUREMENT
 70
     1
  9
$CELWEIGHT
370
    -1
  9
$ENDCAPS
280
     0
  9
$JOINSTYLE
280
     0
  9
$LWDISPLAY
290
     1
  9
$INSUNITS
 70
     4
  9
$HYPERLINKBASE
  1

  9
$STYLESHEET
  1

  9
$XEDIT
290
     1
  9
$CEPSNTYPE
380
     0
  9
$PSTYLEMODE
290
     1
  9
$FINGERPRINTGUID
  2
{667999CD-7313-4358-A4BA-170B62288B48}
  9
$VERSIONGUID
  2
{FAEB1C32-E019-11D5-929B-00C0DF256EC4}
  9
$EXTNAMES
290
     1
  9
$PSVPSCALE
 40
0.0
  9
$OLESTARTUP
290
     0
  0
ENDSEC
  0
SECTION
  2
CLASSES
  0
CLASS
  1
ACDBDICTIONARYWDFLT
  2
AcDbDictionaryWithDefault
  3
ObjectDBX Classes
 90
        0
280
     0
281
     0
  0
CLASS
  1
VISUALSTYLE
  2
AcDbVisualStyle
  3
ObjectDBX Classes
 90
     4095
280
     0
281
     0
  0
CLASS
  1
MATERIAL
  2
AcDbMaterial
  3
ObjectDBX Classes
 90
     1153
280
     0
281
     0
  0
CLASS
  1
SCALE
  2
AcDbScale
  3
ObjectDBX Classes
 90
     1153
280
     0
281
     0
  0
CLASS
  1
TABLESTYLE
  2
AcDbTableStyle
  3
ObjectDBX Classes
 90
     4095
280
     0
281
     0
  0
CLASS
  1
MLEADERSTYLE
  2
AcDbMLeaderStyle
  3
ACDB_MLEADERSTYLE_CLASS
 90
     4095
280
     0
281
     0
  0
CLASS
  1
SUN
  2
AcDbSun
  3
SCENEOE
 90
     1153
280
     0
281
     0
  0
CLASS
  1
ACDBPLACEHOLDER
  2
AcDbPlaceHolder
  3
ObjectDBX Classes
 90
        0
280
     0
281
     0
  0
CLASS
  1
LAYOUT
  2
AcDbLayout
  3
ObjectDBX Classes
 90
        0
280
     0
281
     0
  0
ENDSEC
  0
SECTION
  2
TABLES
  0
TABLE
  2
VPORT
  5
8
330
0
100
AcDbSymbolTable
 70
     1
  0
VPORT
  5
29
330
8
100
AcDbSymbolTableRecord
100
AcDbViewportTableRecord
  2
*Active
 70
     0
 10
0.0
 20
0.0
 11
1.0
 21
1.0
 12
52.5
 22
74.25
 13
0.0
 23
0.0
 14
10.0
 24
10.0
 15
10.0
 25
10.0
 16
0.0
 26
0.0
 36
1.0
 17
0.0
 27
0.0
 37
0.0
 40
148.5
 41
0.7070707071
 42
50.0
 43
0.0
 44
0.0
 50
0.0
 51
0.0
 71
     0
 72
  2000
 73
     1
 74
     3
 75
     0
 76
     0
 77
     0
 78
     0
281
     0
 65
     1
110
0.0
120
0.0
130
0.0
111
1.0
121
0.0
131
0.0
112
0.0
122
1.0
132
0.0
 79
     0
146
0.0
  0
ENDTAB
  0
TABLE
  2
LTYPE
  5
5
330
0
100
AcDbSymbolTable
 70
     8
  0
LTYPE
  5
14
330
5
100
AcDbSymbolTableRecord
100
AcDbLinetypeTableRecord
  2
ByBlock
 70
     0
  3

 72
    65
 73
     0
 40
0.0
  0
LTYPE
  5
15
330
5
100
AcDbSymbolTableRecord
100
AcDbLinetypeTableRecord
  2
ByLayer
 70
     0
  3

 72
    65
 73
     0
 40
0.0
  0
LTYPE
  5
16
330
5
100
AcDbSymbolTableRecord
100
AcDbLinetypeTableRecord
  2
Continuous
 70
     0
  3
Solid line
 72
    65
 73
     0
 40
0.0
  0
LTYPE
  5
6E
330
5
100
AcDbSymbolTableRecord
100
AcDbLinetypeTableRecord
  2
SLD-実線
 70
     0
  3
SolidWorks Line Style
 72
    65
 73
     0
 40
0.0
  0
LTYPE
  5
6F
330
5
100
AcDbSymbolTableRecord
100
AcDbLinetypeTableRecord
  2
SLD-破線
 70
     0
  3
SolidWorks Line Style
 72
    65
 73
     2
 40
1.905
 49
1.27
 74
     0
 49
-0.635
 74
     0
  0
LTYPE
  5
70
330
5
100
AcDbSymbolTableRecord
100
AcDbLinetypeTableRecord
  2
SLD-2点鎖線
 70
     0
  3
SolidWorks Line Style
 72
    65
 73
     6
 40
12.7
 49
6.35
 74
     0
 49
-1.27
 74
     0
 49
1.27
 74
     0
 49
-1.27
 74
     0
 49
1.27
 74
     0
 49
-1.27
 74
     0
  0
LTYPE
  5
71
330
5
100
AcDbSymbolTableRecord
100
AcDbLinetypeTableRecord
  2
SLD-鎖線
 70
     0
  3
SolidWorks Line Style
 72
    65
 73
     4
 40
10.16
 49
6.35
 74
     0
 49
-1.27
 74
     0
 49
1.27
 74
     0
 49
-1.27
 74
     0
  0
LTYPE
  5
72
330
5
100
AcDbSymbolTableRecord
100
AcDbLinetypeTableRecord
  2
SLD-1点鎖線(中心線)
 70
     0
  3
SolidWorks Line Style
 72
    65
 73
     4
 40
34.29
 49
30.48
 74
     0
 49
-1.27
 74
     0
 49
1.27
 74
     0
 49
-1.27
 74
     0
  0
LTYPE
  5
73
330
5
100
AcDbSymbolTableRecord
100
AcDbLinetypeTableRecord
  2
SLD-点線
 70
     0
  3
SolidWorks Line Style
 72
    65
 73
     2
 40
0.635
 49
0.0
 74
     0
 49
-0.635
 74
     0
  0
LTYPE
  5
74
330
5
100
AcDbSymbolTableRecord
100
AcDbLinetypeTableRecord
  2
SLD-細-太鎖線(切断面)
 70
     0
  3
SolidWorks Line Style
 72
    65
 73
     4
 40
10.16
 49
6.35
 74
     0
 49
-1.27
 74
     0
 49
1.27
 74
     0
 49
-1.27
 74
     0
  0
ENDTAB
  0
TABLE
  2
LAYER
  5
2
330
0
100
AcDbSymbolTable
 70
     1
  0
LAYER
  5
10
330
2
100
AcDbSymbolTableRecord
100
AcDbLayerTableRecord
  2
0
 70
     0
 62
     7
  6
Continuous
370
    -3
390
F
  0
ENDTAB
  0
TABLE
  2
STYLE
  5
3
330
0
100
AcDbSymbolTable
 70
     3
  0
STYLE
  5
11
330
3
100
AcDbSymbolTableRecord
100
AcDbTextStyleTableRecord
  2
STANDARD
 70
     0
 40
0.0
 41
1.0
 50
0.0
 71
     0
 42
1.75
  3
MSGOTHIC.TTC
  4

1001
ACAD
1000
ＭＳ ゴシック
1071
    32817
  0
STYLE
  5
7D
330
3
100
AcDbSymbolTableRecord
100
AcDbTextStyleTableRecord
  2
SLDTEXTSTYLE0
 70
     0
 40
0.0
 41
1.0
 50
0.0
 71
     0
 42
1.75
  3
MSGOTHIC.TTC
  4

1001
ACAD
1000
ＭＳ ゴシック
1071
      305
  0
STYLE
  5
7F
330
3
100
AcDbSymbolTableRecord
100
AcDbTextStyleTableRecord
  2
SLDTEXTSTYLE1
 70
     0
 40
0.0
 41
1.0
 50
0.0
 71
     0
 42
1.75
  3
MSGOTHIC.TTC
  4
bigfont
1001
ACAD
1000
ＭＳ Ｐゴシック
1071
      306
  0
ENDTAB
  0
TABLE
  2
VIEW
  5
6
330
0
100
AcDbSymbolTable
 70
     0
  0
ENDTAB
  0
TABLE
  2
UCS
  5
7
330
0
100
AcDbSymbolTable
 70
     0
  0
ENDTAB
  0
TABLE
  2
APPID
  5
9
330
0
100
AcDbSymbolTable
 70
     1
  0
APPID
  5
12
330
9
100
AcDbSymbolTableRecord
100
AcDbRegAppTableRecord
  2
ACAD
 70
     0
  0
ENDTAB
  0
TABLE
  2
DIMSTYLE
  5
A
330
0
100
AcDbSymbolTable
 70
     5
100
AcDbDimStyleTable
  0
DIMSTYLE
105
27
330
A
100
AcDbSymbolTableRecord
100
AcDbDimStyleTableRecord
  2
ISO-25
 70
     0
 41
2.5
 42
0.625
 43
3.75
 44
1.25
 73
     0
 74
     0
 77
     1
 78
     8
140
2.5
141
2.5
143
0.0393700787
147
0.625
171
     3
172
     1
178
     0
271
     2
272
     2
274
     3
278
    44
283
     0
284
     8
340
11
  0
DIMSTYLE
105
AD
102
{ACAD_REACTORS
330
AC
330
B7
330
C1
330
CB
330
D6
330
10A
330
121
330
143
102
}
330
A
100
AcDbSymbolTableRecord
100
AcDbDimStyleTableRecord
  2
SLDDIMSTYLE0
 70
     0
 41
1.5
 44
0.0
 45
0.000000001
 73
     0
 74
     0
 77
     3
 78
    12
 79
     3
140
1.75
147
0.4375
173
     1
178
     0
271
     1
272
     3
276
     2
284
    12
340
7D
  0
DIMSTYLE
105
115
102
{ACAD_REACTORS
330
114
102
}
330
A
100
AcDbSymbolTableRecord
100
AcDbDimStyleTableRecord
  2
SLDDIMSTYLE1
 70
     0
 41
1.5
 44
0.0
 45
0.000000001
 73
     0
 74
     0
 77
     3
 78
    12
 79
     3
140
1.75
147
0.4375
172
     1
173
     1
178
     0
271
     1
272
     3
276
     2
284
    12
289
     0
340
7D
  0
DIMSTYLE
105
132
330
A
100
AcDbSymbolTableRecord
100
AcDbDimStyleTableRecord
  2
SLDDIMSTYLE2
 70
     0
 41
1.5
 44
0.0
 45
0.000000001
146
1.5
147
0.0
173
     1
178
     0
271
     0
272
     0
276
     2
340
11
  0
DIMSTYLE
105
14E
102
{ACAD_REACTORS
330
14D
102
}
330
A
100
AcDbSymbolTableRecord
100
AcDbDimStyleTableRecord
  2
SLDDIMSTYLE3
 70
     0
 41
1.5
 44
0.0
 45
0.000000001
 78
    12
 79
     3
140
1.75
141
0.0
147
0.4375
173
     1
178
     0
271
     1
272
     3
276
     2
284
    12
340
7D
  0
ENDTAB
  0
TABLE
  2
BLOCK_RECORD
  5
1
330
0
100
AcDbSymbolTable
 70
    14
  0
BLOCK_RECORD
  5
1F
330
1
100
AcDbSymbolTableRecord
100
AcDbBlockTableRecord
  2
*Model_Space
340
22
  0
BLOCK_RECORD
  5
1B
330
1
100
AcDbSymbolTableRecord
100
AcDbBlockTableRecord
  2
*Paper_Space
340
1E
  0
BLOCK_RECORD
  5
23
330
1
100
AcDbSymbolTableRecord
100
AcDbBlockTableRecord
  2
*Paper_Space0
340
26
  0
BLOCK_RECORD
  5
AE
330
1
100
AcDbSymbolTableRecord
100
AcDbBlockTableRecord
  2
_D
340
0
  0
BLOCK_RECORD
  5
B8
330
1
100
AcDbSymbolTableRecord
100
AcDbBlockTableRecord
  2
_D_1
340
0
  0
BLOCK_RECORD
  5
C2
330
1
100
AcDbSymbolTableRecord
100
AcDbBlockTableRecord
  2
_D_2
340
0
  0
BLOCK_RECORD
  5
CC
330
1
100
AcDbSymbolTableRecord
100
AcDbBlockTableRecord
  2
_D_3
340
0
  0
BLOCK_RECORD
  5
D7
330
1
100
AcDbSymbolTableRecord
100
AcDbBlockTableRecord
  2
_D_4
340
0
  0
BLOCK_RECORD
  5
10B
330
1
100
AcDbSymbolTableRecord
100
AcDbBlockTableRecord
  2
_D_5
340
0
  0
BLOCK_RECORD
  5
116
330
1
100
AcDbSymbolTableRecord
100
AcDbBlockTableRecord
  2
_D_6
340
0
  0
BLOCK_RECORD
  5
122
330
1
100
AcDbSymbolTableRecord
100
AcDbBlockTableRecord
  2
_D_7
340
0
  0
BLOCK_RECORD
  5
12C
330
1
100
AcDbSymbolTableRecord
100
AcDbBlockTableRecord
  2
SW_NOTE_0
340
0
102
{BLKREFS
331
131
102
}
  0
BLOCK_RECORD
  5
134
330
1
100
AcDbSymbolTableRecord
100
AcDbBlockTableRecord
  2
SW_NOTE_1
340
0
102
{BLKREFS
331
139
102
}
  0
BLOCK_RECORD
  5
144
330
1
100
AcDbSymbolTableRecord
100
AcDbBlockTableRecord
  2
_D_8
340
0
  0
BLOCK_RECORD
  5
14F
330
1
100
AcDbSymbolTableRecord
100
AcDbBlockTableRecord
  2
_D_9
340
0
  0
BLOCK_RECORD
  5
157
330
1
100
AcDbSymbolTableRecord
100
AcDbBlockTableRecord
  2
SW_CENTERMARKSYMBOL_0
340
0
102
{BLKREFS
331
162
102
}
  0
ENDTAB
  0
ENDSEC
  0
SECTION
  2
BLOCKS
  0
BLOCK
  5
20
330
1F
100
AcDbEntity
  8
0
100
AcDbBlockBegin
  2
*Model_Space
 70
     0
 10
0.0
 20
0.0
 30
0.0
  3
*Model_Space
  1

  0
ENDBLK
  5
21
330
1F
100
AcDbEntity
  8
0
100
AcDbBlockEnd
  0
BLOCK
  5
1C
330
1B
100
AcDbEntity
 67
     1
  8
0
100
AcDbBlockBegin
  2
*Paper_Space
 70
     0
 10
0.0
 20
0.0
 30
0.0
  3
*Paper_Space
  1

  0
ENDBLK
  5
1D
330
1B
100
AcDbEntity
 67
     1
  8
0
100
AcDbBlockEnd
  0
BLOCK
  5
24
330
23
100
AcDbEntity
  8
0
100
AcDbBlockBegin
  2
*Paper_Space0
 70
     0
 10
0.0
 20
0.0
 30
0.0
  3
*Paper_Space0
  1

  0
ENDBLK
  5
25
330
23
100
AcDbEntity
  8
0
100
AcDbBlockEnd
  0
BLOCK
  5
AF
330
AE
100
AcDbEntity
  8
0
100
AcDbBlockBegin
  2
_D
 70
     0
 10
0.0
 20
0.0
 30
0.0
  3
_D
  1

  0
SOLID
  5
B1
330
AE
100
AcDbEntity
  8
0
  6
SLD-実線
 62
     7
370
    18
100
AcDbTrace
 10
58.7782679208
 20
85.9934034023
 30
0.0
 11
58.4032679208
 21
84.4934034023
 31
0.0
 12
59.1532679208
 22
84.4934034023
 32
0.0
 13
59.1532679208
 23
84.4934034023
 33
0.0
  0
SOLID
  5
B2
330
AE
100
AcDbEntity
  8
0
  6
SLD-実線
 62
     7
370
    18
100
AcDbTrace
 10
58.7782679208
 20
78.9934034023
 30
0.0
 11
59.1532679208
 21
80.4934034023
 31
0.0
 12
58.4032679208
 22
80.4934034023
 32
0.0
 13
58.4032679208
 23
80.4934034023
 33
0.0
  0
LINE
  5
B3
330
AE
100
AcDbEntity
  8
0
  6
SLD-実線
 62
     7
370
    18
100
AcDbLine
 10
63.2782679208
 20
85.9934034023
 30
0.0
 11
58.2782679208
 21
85.9934034023
 31
0.0
  0
LINE
  5
B4
330
AE
100
AcDbEntity
  8
0
  6
SLD-実線
 62
     7
370
    18
100
AcDbLine
 10
72.7989404318
 20
78.9934034023
 30
0.0
 11
58.2782679208
 21
78.9934034023
 31
0.0
  0
LINE
  5
B5
330
AE
100
AcDbEntity
  8
0
  6
SLD-実線
 62
     7
370
    18
100
AcDbLine
 10
58.7782679208
 20
85.9934034023
 30
0.0
 11
58.7782679208
 21
78.9934034023
 31
0.0
  0
MTEXT
  5
B6
330
AE
100
AcDbEntity
  8
0
  6
SLD-実線
 62
     7
370
    18
100
AcDbMText
 10
56.7419044008
 20
81.9842020279
 30
0.0
 40
1.75
 41
0.0
 71
     1
 72
     1
  1
7
  7
SLDTEXTSTYLE0
 11
-7.044195017643634E-15
 21
1.0
 31
0.0
 73
     1
 44
1.0
  0
ENDBLK
  5
B0
330
AE
100
AcDbEntity
  8
0
100
AcDbBlockEnd
  0
BLOCK
  5
B9
330
B8
100
AcDbEntity
  8
0
100
AcDbBlockBegin
  2
_D_1
 70
     0
 10
0.0
 20
0.0
 30
0.0
  3
_D_1
  1

  0
SOLID
  5
BB
330
B8
100
AcDbEntity
  8
0
  6
SLD-実線
 62
     7
370
    18
100
AcDbTrace
 10
58.7782679208
 20
85.9934034023
 30
0.0
 11
59.1532679208
 21
87.4934034023
 31
0.0
 12
58.4032679208
 22
87.4934034023
 32
0.0
 13
58.4032679208
 23
87.4934034023
 33
0.0
  0
SOLID
  5
BC
330
B8
100
AcDbEntity
  8
0
  6
SLD-実線
 62
     7
370
    18
100
AcDbTrace
 10
58.7782679208
 20
92.9934034023
 30
0.0
 11
58.4032679208
 21
91.4934034023
 31
0.0
 12
59.1532679208
 22
91.4934034023
 32
0.0
 13
59.1532679208
 23
91.4934034023
 33
0.0
  0
LINE
  5
BD
330
B8
100
AcDbEntity
  8
0
  6
SLD-実線
 62
     7
370
    18
100
AcDbLine
 10
63.2782679208
 20
85.9934034023
 30
0.0
 11
58.2782679208
 21
85.9934034023
 31
0.0
  0
LINE
  5
BE
330
B8
100
AcDbEntity
  8
0
  6
SLD-実線
 62
     7
370
    18
100
AcDbLine
 10
63.2782679208
 20
92.9934034023
 30
0.0
 11
58.2782679208
 21
92.9934034023
 31
0.0
  0
LINE
  5
BF
330
B8
100
AcDbEntity
  8
0
  6
SLD-実線
 62
     7
370
    18
100
AcDbLine
 10
58.7782679208
 20
85.9934034023
 30
0.0
 11
58.7782679208
 21
92.9934034023
 31
0.0
  0
MTEXT
  5
C0
330
B8
100
AcDbEntity
  8
0
  6
SLD-実線
 62
     7
370
    18
100
AcDbMText
 10
56.7419044008
 20
88.9842020279
 30
0.0
 40
1.75
 41
0.0
 71
     1
 72
     1
  1
7
  7
SLDTEXTSTYLE0
 11
6.123233995736766E-17
 21
1.0
 31
0.0
 73
     1
 44
1.0
  0
ENDBLK
  5
BA
330
B8
100
AcDbEntity
  8
0
100
AcDbBlockEnd
  0
BLOCK
  5
C3
330
C2
100
AcDbEntity
  8
0
100
AcDbBlockBegin
  2
_D_2
 70
     0
 10
0.0
 20
0.0
 30
0.0
  3
_D_2
  1

  0
SOLID
  5
C5
330
C2
100
AcDbEntity
  8
0
  6
SLD-実線
 62
     7
370
    18
100
AcDbTrace
 10
58.7782679208
 20
92.9934034023
 30
0.0
 11
59.1532679208
 21
94.4934034023
 31
0.0
 12
58.4032679208
 22
94.4934034023
 32
0.0
 13
58.4032679208
 23
94.4934034023
 33
0.0
  0
SOLID
  5
C6
330
C2
100
AcDbEntity
  8
0
  6
SLD-実線
 62
     7
370
    18
100
AcDbTrace
 10
58.7782679208
 20
100.9934034023
 30
0.0
 11
58.4032679208
 21
99.4934034023
 31
0.0
 12
59.1532679208
 22
99.4934034023
 32
0.0
 13
59.1532679208
 23
99.4934034023
 33
0.0
  0
LINE
  5
C7
330
C2
100
AcDbEntity
  8
0
  6
SLD-実線
 62
     7
370
    18
100
AcDbLine
 10
63.2782679208
 20
92.9934034023
 30
0.0
 11
58.2782679208
 21
92.9934034023
 31
0.0
  0
LINE
  5
C8
330
C2
100
AcDbEntity
  8
0
  6
SLD-実線
 62
     7
370
    18
100
AcDbLine
 10
64.4782679208
 20
100.9934034023
 30
0.0
 11
58.2782679208
 21
100.9934034023
 31
0.0
  0
LINE
  5
C9
330
C2
100
AcDbEntity
  8
0
  6
SLD-実線
 62
     7
370
    18
100
AcDbLine
 10
58.7782679208
 20
92.9934034023
 30
0.0
 11
58.7782679208
 21
100.9934034023
 31
0.0
  0
MTEXT
  5
CA
330
C2
100
AcDbEntity
  8
0
  6
SLD-実線
 62
     7
370
    18
100
AcDbMText
 10
56.7419044008
 20
96.4842020279
 30
0.0
 40
1.75
 41
0.0
 71
     1
 72
     1
  1
8
  7
SLDTEXTSTYLE0
 11
6.123233995736766E-17
 21
1.0
 31
0.0
 73
     1
 44
1.0
  0
ENDBLK
  5
C4
330
C2
100
AcDbEntity
  8
0
100
AcDbBlockEnd
  0
BLOCK
  5
CD
330
CC
100
AcDbEntity
  8
0
100
AcDbBlockBegin
  2
_D_3
 70
     0
 10
0.0
 20
0.0
 30
0.0
  3
_D_3
  1

  0
SOLID
  5
CF
330
CC
100
AcDbEntity
  8
0
  6
SLD-実線
 62
     7
370
    18
100
AcDbTrace
 10
66.7782679208
 20
107.7548924888
 30
0.0
 11
68.2782679208
 21
107.3798924888
 31
0.0
 12
68.2782679208
 22
108.1298924888
 32
0.0
 13
68.2782679208
 23
108.1298924888
 33
0.0
  0
SOLID
  5
D0
330
CC
100
AcDbEntity
  8
0
  6
SLD-実線
 62
     7
370
    18
100
AcDbTrace
 10
87.7782679208
 20
107.7548924888
 30
0.0
 11
86.2782679208
 21
108.1298924888
 31
0.0
 12
86.2782679208
 22
107.3798924888
 32
0.0
 13
86.2782679208
 23
107.3798924888
 33
0.0
  0
LINE
  5
D1
330
CC
100
AcDbEntity
  8
0
  6
SLD-実線
 62
     7
370
    18
100
AcDbLine
 10
66.7782679208
 20
99.4934034023
 30
0.0
 11
66.7782679208
 21
108.2548924888
 31
0.0
  0
LINE
  5
D2
330
CC
100
AcDbEntity
  8
0
  6
SLD-実線
 62
     7
370
    18
100
AcDbLine
 10
87.7782679208
 20
99.4934034023
 30
0.0
 11
87.7782679208
 21
108.2548924888
 31
0.0
  0
LINE
  5
D3
330
CC
100
AcDbEntity
  8
0
  6
SLD-実線
 62
     7
370
    18
100
AcDbLine
 10
66.7782679208
 20
107.7548924888
 30
0.0
 11
87.7782679208
 21
107.7548924888
 31
0.0
  0
MTEXT
  5
D4
330
CC
100
AcDbEntity
  8
0
  6
SLD-実線
 62
     7
370
    18
100
AcDbMText
 10
75.2923824851
 20
109.7912562416
 30
0.0
 40
1.75
 41
0.0
 71
     1
 72
     1
  1
%%c
  7
SLDTEXTSTYLE0
 73
     1
 44
1.0
  0
MTEXT
  5
D5
330
CC
100
AcDbEntity
  8
0
  6
SLD-実線
 62
     7
370
    18
100
AcDbMText
 10
77.2273477426
 20
109.7912562416
 30
0.0
 40
1.75
 41
0.0
 71
     1
 72
     1
  1
21
  7
SLDTEXTSTYLE0
 73
     1
 44
1.0
  0
ENDBLK
  5
CE
330
CC
100
AcDbEntity
  8
0
100
AcDbBlockEnd
  0
BLOCK
  5
D8
330
D7
100
AcDbEntity
  8
0
100
AcDbBlockBegin
  2
_D_4
 70
     0
 10
0.0
 20
0.0
 30
0.0
  3
_D_4
  1

  0
SOLID
  5
DA
330
D7
100
AcDbEntity
  8
0
  6
SLD-実線
 62
     7
370
    18
100
AcDbTrace
 10
64.7782679208
 20
113.9211993861
 30
0.0
 11
66.2782679208
 21
113.5461993861
 31
0.0
 12
66.2782679208
 22
114.2961993861
 32
0.0
 13
66.2782679208
 23
114.2961993861
 33
0.0
  0
SOLID
  5
DB
330
D7
100
AcDbEntity
  8
0
  6
SLD-実線
 62
     7
370
    18
100
AcDbTrace
 10
89.7782679208
 20
113.9211993861
 30
0.0
 11
88.2782679208
 21
114.2961993861
 31
0.0
 12
88.2782679208
 22
113.5461993861
 32
0.0
 13
88.2782679208
 23
113.5461993861
 33
0.0
  0
LINE
  5
DC
330
D7
100
AcDbEntity
  8
0
  6
SLD-実線
 62
     7
370
    18
100
AcDbLine
 10
64.7782679208
 20
101.2934034023
 30
0.0
 11
64.7782679208
 21
114.4211993861
 31
0.0
  0
LINE
  5
DD
330
D7
100
AcDbEntity
  8
0
  6
SLD-実線
 62
     7
370
    18
100
AcDbLine
 10
89.7782679208
 20
101.2934034023
 30
0.0
 11
89.7782679208
 21
114.4211993861
 31
0.0
  0
LINE
  5
DE
330
D7
100
AcDbEntity
  8
0
  6
SLD-実線
 62
     7
370
    18
100
AcDbLine
 10
64.7782679208
 20
113.9211993861
 30
0.0
 11
89.7782679208
 21
113.9211993861
 31
0.0
  0
MTEXT
  5
DF
330
D7
100
AcDbEntity
  8
0
  6
SLD-実線
 62
     7
370
    18
100
AcDbMText
 10
75.2923824851
 20
115.9575631389
 30
0.0
 40
1.75
 41
0.0
 71
     1
 72
     1
  1
%%c
  7
SLDTEXTSTYLE0
 73
     1
 44
1.0
  0
MTEXT
  5
E0
330
D7
100
AcDbEntity
  8
0
  6
SLD-実線
 62
     7
370
    18
100
AcDbMText
 10
77.2273477426
 20
115.9575631389
 30
0.0
 40
1.75
 41
0.0
 71
     1
 72
     1
  1
25
  7
SLDTEXTSTYLE0
 73
     1
 44
1.0
  0
ENDBLK
  5
D9
330
D7
100
AcDbEntity
  8
0
100
AcDbBlockEnd
  0
BLOCK
  5
10C
330
10B
100
AcDbEntity
  8
0
100
AcDbBlockBegin
  2
_D_5
 70
     0
 10
0.0
 20
0.0
 30
0.0
  3
_D_5
  1

  0
SOLID
  5
10E
330
10B
100
AcDbEntity
  8
0
  6
SLD-実線
 62
     7
370
    18
100
AcDbTrace
 10
14.5298527369
 20
100.9934034023
 30
0.0
 11
14.1548527369
 21
99.4934034023
 31
0.0
 12
14.9048527369
 22
99.4934034023
 32
0.0
 13
14.9048527369
 23
99.4934034023
 33
0.0
  0
SOLID
  5
10F
330
10B
100
AcDbEntity
  8
0
  6
SLD-実線
 62
     7
370
    18
100
AcDbTrace
 10
14.5298527369
 20
78.9934034023
 30
0.0
 11
14.9048527369
 21
80.4934034023
 31
0.0
 12
14.1548527369
 22
80.4934034023
 32
0.0
 13
14.1548527369
 23
80.4934034023
 33
0.0
  0
LINE
  5
110
330
10B
100
AcDbEntity
  8
0
  6
SLD-実線
 62
     7
370
    18
100
AcDbLine
 10
24.7298527369
 20
100.9934034023
 30
0.0
 11
14.0298527369
 21
100.9934034023
 31
0.0
  0
LINE
  5
111
330
10B
100
AcDbEntity
  8
0
  6
SLD-実線
 62
     7
370
    18
100
AcDbLine
 10
33.050525248
 20
78.9934034023
 30
0.0
 11
14.0298527369
 21
78.9934034023
 31
0.0
  0
LINE
  5
112
330
10B
100
AcDbEntity
  8
0
  6
SLD-実線
 62
     7
370
    18
100
AcDbLine
 10
14.5298527369
 20
100.9934034023
 30
0.0
 11
14.5298527369
 21
78.9934034023
 31
0.0
  0
MTEXT
  5
113
330
10B
100
AcDbEntity
  8
0
  6
SLD-実線
 62
     7
370
    18
100
AcDbMText
 10
12.493489217
 20
88.9750006536
 30
0.0
 40
1.75
 41
0.0
 71
     1
 72
     1
  1
22
  7
SLDTEXTSTYLE0
 11
-7.044195017643634E-15
 21
1.0
 31
0.0
 73
     1
 44
1.0
  0
ENDBLK
  5
10D
330
10B
100
AcDbEntity
  8
0
100
AcDbBlockEnd
  0
BLOCK
  5
117
330
116
100
AcDbEntity
  8
0
100
AcDbBlockBegin
  2
_D_6
 70
     0
 10
0.0
 20
0.0
 30
0.0
  3
_D_6
  1

  0
SOLID
  5
119
330
116
100
AcDbEntity
  8
0
  6
SLD-実線
 62
     7
370
    18
100
AcDbTrace
 10
19.7333010835
 20
100.9934034023
 30
0.0
 11
20.1083010835
 21
102.4934034023
 31
0.0
 12
19.3583010835
 22
102.4934034023
 32
0.0
 13
19.3583010835
 23
102.4934034023
 33
0.0
  0
SOLID
  5
11A
330
116
100
AcDbEntity
  8
0
  6
SLD-実線
 62
     7
370
    18
100
AcDbTrace
 10
19.7333010835
 20
95.9934034023
 30
0.0
 11
19.3583010835
 21
94.4934034023
 31
0.0
 12
20.1083010835
 22
94.4934034023
 32
0.0
 13
20.1083010835
 23
94.4934034023
 33
0.0
  0
LINE
  5
11B
330
116
100
AcDbEntity
  8
0
  6
SLD-実線
 62
     7
370
    18
100
AcDbLine
 10
24.7298527369
 20
100.9934034023
 30
0.0
 11
19.2333010835
 21
100.9934034023
 31
0.0
  0
LINE
  5
11C
330
116
100
AcDbEntity
  8
0
  6
SLD-実線
 62
     7
370
    18
100
AcDbLine
 10
28.5298527369
 20
95.9934034023
 30
0.0
 11
19.2333010835
 21
95.9934034023
 31
0.0
  0
LINE
  5
11D
330
116
100
AcDbEntity
  8
0
  6
SLD-実線
 62
     7
370
    18
100
AcDbLine
 10
19.7333010835
 20
100.9934034023
 30
0.0
 11
19.7333010835
 21
103.4934034023
 31
0.0
  0
LINE
  5
11E
330
116
100
AcDbEntity
  8
0
  6
SLD-実線
 62
     7
370
    18
100
AcDbLine
 10
19.7333010835
 20
100.9934034023
 30
0.0
 11
19.7333010835
 21
95.9934034023
 31
0.0
  0
LINE
  5
11F
330
116
100
AcDbEntity
  8
0
  6
SLD-実線
 62
     7
370
    18
100
AcDbLine
 10
19.7333010835
 20
95.9934034023
 30
0.0
 11
19.7333010835
 21
93.4934034023
 31
0.0
  0
MTEXT
  5
120
330
116
100
AcDbEntity
  8
0
  6
SLD-実線
 62
     7
370
    18
100
AcDbMText
 10
17.6969375635
 20
97.9842020279
 30
0.0
 40
1.75
 41
0.0
 71
     1
 72
     1
  1
5
  7
SLDTEXTSTYLE0
 11
-7.044195017643634E-15
 21
1.0
 31
0.0
 73
     1
 44
1.0
  0
ENDBLK
  5
118
330
116
100
AcDbEntity
  8
0
100
AcDbBlockEnd
  0
BLOCK
  5
123
330
122
100
AcDbEntity
  8
0
100
AcDbBlockBegin
  2
_D_7
 70
     0
 10
0.0
 20
0.0
 30
0.0
  3
_D_7
  1

  0
SOLID
  5
125
330
122
100
AcDbEntity
  8
0
  6
SLD-実線
 62
     7
370
    18
100
AcDbTrace
 10
29.0298527369
 20
107.2082945469
 30
0.0
 11
30.5298527369
 21
106.8332945469
 31
0.0
 12
30.5298527369
 22
107.5832945469
 32
0.0
 13
30.5298527369
 23
107.5832945469
 33
0.0
  0
SOLID
  5
126
330
122
100
AcDbEntity
  8
0
  6
SLD-実線
 62
     7
370
    18
100
AcDbTrace
 10
46.0298527369
 20
107.2082945469
 30
0.0
 11
44.5298527369
 21
107.5832945469
 31
0.0
 12
44.5298527369
 22
106.8332945469
 32
0.0
 13
44.5298527369
 23
106.8332945469
 33
0.0
  0
LINE
  5
127
330
122
100
AcDbEntity
  8
0
  6
SLD-実線
 62
     7
370
    18
100
AcDbLine
 10
29.0298527369
 20
99.7613525947
 30
0.0
 11
29.0298527369
 21
107.7082945469
 31
0.0
  0
LINE
  5
128
330
122
100
AcDbEntity
  8
0
  6
SLD-実線
 62
     7
370
    18
100
AcDbLine
 10
46.0298527369
 20
99.7613525947
 30
0.0
 11
46.0298527369
 21
107.7082945469
 31
0.0
  0
LINE
  5
129
330
122
100
AcDbEntity
  8
0
  6
SLD-実線
 62
     7
370
    18
100
AcDbLine
 10
29.0298527369
 20
107.2082945469
 30
0.0
 11
46.0298527369
 21
107.2082945469
 31
0.0
  0
MTEXT
  5
12A
330
122
100
AcDbEntity
  8
0
  6
SLD-実線
 62
     7
370
    18
100
AcDbMText
 10
35.5439673012
 20
109.2446582997
 30
0.0
 40
1.75
 41
0.0
 71
     1
 72
     1
  1
%%c
  7
SLDTEXTSTYLE0
 73
     1
 44
1.0
  0
MTEXT
  5
12B
330
122
100
AcDbEntity
  8
0
  6
SLD-実線
 62
     7
370
    18
100
AcDbMText
 10
37.4789325587
 20
109.2446582997
 30
0.0
 40
1.75
 41
0.0
 71
     1
 72
     1
  1
17
  7
SLDTEXTSTYLE0
 73
     1
 44
1.0
  0
ENDBLK
  5
124
330
122
100
AcDbEntity
  8
0
100
AcDbBlockEnd
  0
BLOCK
  5
12D
330
12C
100
AcDbEntity
  8
0
100
AcDbBlockBegin
  2
SW_NOTE_0
 70
     0
 10
0.0
 20
0.0
 30
0.0
  3
SW_NOTE_0
  1

  0
LINE
  5
12F
330
12C
100
AcDbEntity
  8
0
  6
SLD-実線
 62
     0
370
     0
100
AcDbLine
 10
-2.0989945522
 20
0.0
 30
0.0
 11
0.0
 21
0.0
 31
0.0
  0
MTEXT
  5
130
330
12C
100
AcDbEntity
  8
0
  6
Continuous
 62
     0
370
     0
100
AcDbMText
 10
-2.3373554541
 20
2.085030127
 30
0.0
 40
1.75
 41
0.0
 71
     1
 72
     1
  1
M5
  7
SLDTEXTSTYLE0
 73
     1
 44
1.0
  0
ENDBLK
  5
12E
330
12C
100
AcDbEntity
  8
0
100
AcDbBlockEnd
  0
BLOCK
  5
135
330
134
100
AcDbEntity
  8
0
100
AcDbBlockBegin
  2
SW_NOTE_1
 70
     0
 10
0.0
 20
0.0
 30
0.0
  3
SW_NOTE_1
  1

  0
LINE
  5
137
330
134
100
AcDbEntity
  8
0
  6
SLD-実線
 62
     0
370
     0
100
AcDbLine
 10
5.0298245726
 20
0.0
 30
0.0
 11
0.0
 21
0.0
 31
0.0
  0
MTEXT
  5
138
330
134
100
AcDbEntity
  8
0
  6
Continuous
 62
     0
370
     0
100
AcDbMText
 10
0.2133691596
 20
2.085030127
 30
0.0
 40
1.75
 41
0.0
 71
     1
 72
     1
  1
PT1/8
  7
SLDTEXTSTYLE0
 73
     1
 44
1.0
  0
ENDBLK
  5
136
330
134
100
AcDbEntity
  8
0
100
AcDbBlockEnd
  0
BLOCK
  5
145
330
144
100
AcDbEntity
  8
0
100
AcDbBlockBegin
  2
_D_8
 70
     0
 10
0.0
 20
0.0
 30
0.0
  3
_D_8
  1

  0
SOLID
  5
147
330
144
100
AcDbEntity
  8
0
  6
SLD-実線
 62
     7
370
    18
100
AcDbTrace
 10
63.7782679208
 20
31.2230465123
 30
0.0
 11
65.2782679208
 21
30.8480465123
 31
0.0
 12
65.2782679208
 22
31.5980465123
 32
0.0
 13
65.2782679208
 23
31.5980465123
 33
0.0
  0
SOLID
  5
148
330
144
100
AcDbEntity
  8
0
  6
SLD-実線
 62
     7
370
    18
100
AcDbTrace
 10
90.7782679208
 20
31.2230465123
 30
0.0
 11
89.2782679208
 21
31.5980465123
 31
0.0
 12
89.2782679208
 22
30.8480465123
 32
0.0
 13
89.2782679208
 23
30.8480465123
 33
0.0
  0
LINE
  5
149
330
144
100
AcDbEntity
  8
0
  6
SLD-実線
 62
     7
370
    18
100
AcDbLine
 10
63.7782679208
 20
45.5461665101
 30
0.0
 11
63.7782679208
 21
30.7230465123
 31
0.0
  0
LINE
  5
14A
330
144
100
AcDbEntity
  8
0
  6
SLD-実線
 62
     7
370
    18
100
AcDbLine
 10
90.7782679208
 20
45.5461665101
 30
0.0
 11
90.7782679208
 21
30.7230465123
 31
0.0
  0
LINE
  5
14B
330
144
100
AcDbEntity
  8
0
  6
SLD-実線
 62
     7
370
    18
100
AcDbLine
 10
63.7782679208
 20
31.2230465123
 30
0.0
 11
90.7782679208
 21
31.2230465123
 31
0.0
  0
MTEXT
  5
14C
330
144
100
AcDbEntity
  8
0
  6
SLD-実線
 62
     7
370
    18
100
AcDbMText
 10
76.259865172
 20
33.2594100323
 30
0.0
 40
1.75
 41
0.0
 71
     1
 72
     1
  1
27
  7
SLDTEXTSTYLE0
 73
     1
 44
1.0
  0
ENDBLK
  5
146
330
144
100
AcDbEntity
  8
0
100
AcDbBlockEnd
  0
BLOCK
  5
150
330
14F
100
AcDbEntity
  8
0
100
AcDbBlockBegin
  2
_D_9
 70
     0
 10
0.0
 20
0.0
 30
0.0
  3
_D_9
  1

  0
SOLID
  5
152
330
14F
100
AcDbEntity
  8
0
  6
SLD-実線
 62
     7
370
    18
100
AcDbTrace
 10
84.8202774185
 20
65.5505510481
 30
0.0
 11
85.8986292714
 21
66.6586044229
 31
0.0
 12
85.2503274653
 22
67.0357048978
 32
0.0
 13
85.2503274653
 23
67.0357048978
 33
0.0
  0
LINE
  5
153
330
14F
100
AcDbEntity
  8
0
  6
SLD-実線
 62
     7
370
    18
100
AcDbLine
 10
84.8202774185
 20
65.5505510481
 30
0.0
 11
88.4158768611
 21
71.7320166468
 31
0.0
  0
LINE
  5
154
330
14F
100
AcDbEntity
  8
0
  6
SLD-実線
 62
     7
370
    18
100
AcDbLine
 10
88.4158768611
 20
71.7320166468
 30
0.0
 11
93.1813977326
 21
71.7320166468
 31
0.0
  0
MTEXT
  5
155
330
14F
100
AcDbEntity
  8
0
  6
SLD-実線
 62
     7
370
    18
100
AcDbMText
 10
89.2096268611
 20
73.7683803996
 30
0.0
 40
1.75
 41
0.0
 71
     1
 72
     1
  1
%%c
  7
SLDTEXTSTYLE0
 73
     1
 44
1.0
  0
MTEXT
  5
156
330
14F
100
AcDbEntity
  8
0
  6
SLD-実線
 62
     7
370
    18
100
AcDbMText
 10
91.1445921187
 20
73.7683803996
 30
0.0
 40
1.75
 41
0.0
 71
     1
 72
     1
  1
30
  7
SLDTEXTSTYLE0
 73
     1
 44
1.0
  0
ENDBLK
  5
151
330
14F
100
AcDbEntity
  8
0
100
AcDbBlockEnd
  0
BLOCK
  5
158
330
157
100
AcDbEntity
  8
0
100
AcDbBlockBegin
  2
SW_CENTERMARKSYMBOL_0
 70
     0
 10
0.0
 20
0.0
 30
0.0
  3
SW_CENTERMARKSYMBOL_0
  1

  0
LINE
  5
15A
330
157
100
AcDbEntity
  8
0
  6
SLD-実線
 62
     0
370
    18
100
AcDbLine
 10
0.0
 20
0.0
 30
0.0
 11
0.0
 21
2.5
 31
0.0
  0
LINE
  5
15B
330
157
100
AcDbEntity
  8
0
  6
SLD-実線
 62
     0
370
    18
100
AcDbLine
 10
0.0
 20
0.0
 30
0.0
 11
-2.5
 21
0.0
 31
0.0
  0
LINE
  5
15C
330
157
100
AcDbEntity
  8
0
  6
SLD-実線
 62
     0
370
    18
100
AcDbLine
 10
0.0
 20
0.0
 30
0.0
 11
0.0
 21
-2.5
 31
0.0
  0
LINE
  5
15D
330
157
100
AcDbEntity
  8
0
  6
SLD-実線
 62
     0
370
    18
100
AcDbLine
 10
0.0
 20
0.0
 30
0.0
 11
2.5
 21
0.0
 31
0.0
  0
LINE
  5
15E
330
157
100
AcDbEntity
  8
0
  6
SLD-実線
 62
     0
370
    18
100
AcDbLine
 10
0.0
 20
5.0
 30
0.0
 11
0.0
 21
16.6458370227
 31
0.0
  0
LINE
  5
15F
330
157
100
AcDbEntity
  8
0
  6
SLD-実線
 62
     0
370
    18
100
AcDbLine
 10
-5.0
 20
0.0
 30
0.0
 11
-16.7836841989
 21
0.0
 31
0.0
  0
LINE
  5
160
330
157
100
AcDbEntity
  8
0
  6
SLD-実線
 62
     0
370
    18
100
AcDbLine
 10
0.0
 20
-5.0
 30
0.0
 11
0.0
 21
-17.2648726176
 31
0.0
  0
LINE
  5
161
330
157
100
AcDbEntity
  8
0
  6
SLD-実線
 62
     0
370
    18
100
AcDbLine
 10
5.0
 20
0.0
 30
0.0
 11
15.306316199
 21
0.0
 31
0.0
  0
ENDBLK
  5
159
330
157
100
AcDbEntity
  8
0
100
AcDbBlockEnd
  0
ENDSEC
  0
SECTION
  2
ENTITIES
  0
LINE
  5
75
330
1F
100
AcDbEntity
  8
0
  6
SLD-実線
 62
     7
370
    18
100
AcDbLine
 10
10.1302371952
 20
142.5
 30
0.0
 11
98.3802371952
 21
142.5
 31
0.0
  0
LINE
  5
76
330
1F
100
AcDbEntity
  8
0
  6
SLD-実線
 62
     7
370
    18
100
AcDbLine
 10
10.1302371952
 20
142.5
 30
0.0
 11
10.1302371952
 21
5.0
 31
0.0
  0
LINE
  5
77
330
1F
100
AcDbEntity
  8
0
  6
SLD-実線
 62
     7
370
    18
100
AcDbLine
 10
10.1302371952
 20
5.0
 30
0.0
 11
98.3802371952
 21
5.0
 31
0.0
  0
LINE
  5
78
330
1F
100
AcDbEntity
  8
0
  6
SLD-実線
 62
     7
370
    18
100
AcDbLine
 10
98.3802371952
 20
142.5
 30
0.0
 11
98.3802371952
 21
5.0
 31
0.0
  0
LINE
  5
79
330
1F
100
AcDbEntity
  8
0
  6
SLD-実線
 62
     7
370
    18
100
AcDbLine
 10
63.5052371952
 20
25.375
 30
0.0
 11
98.3802371952
 21
25.375
 31
0.0
  0
LINE
  5
7A
330
1F
100
AcDbEntity
  8
0
  6
SLD-実線
 62
     7
370
    18
100
AcDbLine
 10
63.5052371952
 20
25.375
 30
0.0
 11
63.5052371952
 21
5.0
 31
0.0
  0
LINE
  5
7B
330
1F
100
AcDbEntity
  8
0
  6
SLD-実線
 62
     7
370
    18
100
AcDbLine
 10
63.5052371952
 20
11.375
 30
0.0
 11
98.3802371952
 21
11.375
 31
0.0
  0
LINE
  5
7C
330
1F
100
AcDbEntity
  8
0
  6
SLD-実線
 62
     7
370
    18
100
AcDbLine
 10
63.5052371952
 20
18.375
 30
0.0
 11
98.3802371952
 21
18.375
 31
0.0
  0
MTEXT
  5
7E
330
1F
100
AcDbEntity
  8
0
  6
Continuous
 62
     7
370
     0
100
AcDbMText
 10
81.0858061258
 20
14.9430827044
 30
0.0
 40
2.1166666667
 41
0.0
 71
     2
 72
     1
  1
VFILA-PHC-1/8
  7
SLDTEXTSTYLE0
 73
     1
 44
1.0
  0
MTEXT
  5
80
330
1F
100
AcDbEntity
  8
0
  6
Continuous
 62
     7
370
     0
100
AcDbMText
 10
79.3932127093
 20
22.9628117305
 30
0.0
 40
1.8520833333
 41
0.0
 71
     2
 72
     1
  1
中金具アタッチヘッド・PT1/8用C
  7
SLDTEXTSTYLE1
 73
     1
 44
1.0
  0
MTEXT
  5
81
330
1F
100
AcDbEntity
  8
0
  6
Continuous
 62
     7
370
     0
100
AcDbMText
 10
81.4703110908
 20
8.1459130398
 30
0.0
 40
2.1166666667
 41
0.0
 71
     2
 72
     1
  1
999999
  7
SLDTEXTSTYLE0
 73
     1
 44
1.0
  0
LINE
  5
82
330
1F
100
AcDbEntity
  8
0
  6
SLD-実線
 62
     7
370
    18
100
AcDbLine
 10
89.778268107
 20
99.1934033308
 30
0.0
 11
89.778268107
 21
100.7934034068
 31
0.0
  0
LINE
  5
83
330
1F
100
AcDbEntity
  8
0
  6
SLD-実線
 62
     7
370
    18
100
AcDbLine
 10
64.7782677345
 20
100.7934034068
 30
0.0
 11
64.7782677345
 21
99.1934033308
 31
0.0
  0
ARC
  5
84
330
1F
100
AcDbEntity
  8
0
  6
SLD-実線
 62
     7
370
    18
100
AcDbCircle
 10
64.9782679208
 20
100.7934034023
 30
0.0
 40
0.1999999999999886
100
AcDbArc
 50
90.0
 51
180.0
  0
ARC
  5
85
330
1F
100
AcDbEntity
  8
0
  6
SLD-実線
 62
     7
370
    18
100
AcDbCircle
 10
89.578268107
 20
100.7934034023
 30
0.0
 40
0.1999999999999887
100
AcDbArc
 50
0.0000012806
 51
90.0000533609
  0
ARC
  5
86
330
1F
100
AcDbEntity
  8
0
  6
SLD-実線
 62
     7
370
    18
100
AcDbCircle
 10
64.9782677345
 20
99.1934034023
 30
0.0
 40
0.1999999999999872
100
AcDbArc
 50
180.0000204905
 51
270.0000533609
  0
ARC
  5
87
330
1F
100
AcDbEntity
  8
0
  6
SLD-実線
 62
     7
370
    18
100
AcDbCircle
 10
89.5782679208
 20
99.1934034023
 30
0.0
 40
0.1999999999999886
100
AcDbArc
 50
270.0
 51
0.0
  0
LINE
  5
88
330
1F
100
AcDbEntity
  8
0
  6
SLD-実線
 62
     7
370
    18
100
AcDbLine
 10
87.7782677792
 20
92.9934036184
 30
0.0
 11
87.7782677792
 21
98.9934036705
 31
0.0
  0
LINE
  5
89
330
1F
100
AcDbEntity
  8
0
  6
SLD-実線
 62
     7
370
    18
100
AcDbLine
 10
66.7782680623
 20
98.9934036705
 30
0.0
 11
66.7782680623
 21
92.9934036184
 31
0.0
  0
LINE
  5
8A
330
1F
100
AcDbEntity
  8
0
  6
SLD-実線
 62
     7
370
    18
100
AcDbLine
 10
72.6782678187
 20
85.3934033738
 30
0.0
 11
72.7812539347
 21
79.4933273654
 31
0.0
  0
LINE
  5
8B
330
1F
100
AcDbEntity
  8
0
  6
SLD-実線
 62
     7
370
    18
100
AcDbLine
 10
81.7752819069
 20
79.4933273654
 30
0.0
 11
81.8782680228
 21
85.3934033738
 31
0.0
  0
LINE
  5
8C
330
1F
100
AcDbEntity
  8
0
  6
SLD-実線
 62
     7
370
    18
100
AcDbLine
 10
72.6782678187
 20
85.9934034023
 30
0.0
 11
72.6782678187
 21
85.3934033738
 31
0.0
  0
LINE
  5
8D
330
1F
100
AcDbEntity
  8
0
  6
SLD-実線
 62
     7
370
    18
100
AcDbLine
 10
81.8782680228
 20
85.3934033738
 30
0.0
 11
81.8782680228
 21
85.9934034023
 31
0.0
  0
LINE
  5
8E
330
1F
100
AcDbEntity
  8
0
  6
SLD-実線
 62
     7
370
    18
100
AcDbLine
 10
72.7812539347
 20
79.4933273654
 30
0.0
 11
73.298940298
 21
78.9934031862
 31
0.0
  0
LINE
  5
8F
330
1F
100
AcDbEntity
  8
0
  6
SLD-実線
 62
     7
370
    18
100
AcDbLine
 10
81.2575955436
 20
78.9934031862
 30
0.0
 11
81.7752819069
 21
79.4933273654
 31
0.0
  0
LINE
  5
90
330
1F
100
AcDbEntity
  8
0
  6
SLD-実線
 62
     7
370
    18
100
AcDbLine
 10
90.778268271
 20
85.9934034023
 30
0.0
 11
90.778268271
 21
92.9934036184
 31
0.0
  0
LINE
  5
91
330
1F
100
AcDbEntity
  8
0
  6
SLD-実線
 62
     7
370
    18
100
AcDbLine
 10
63.7782675706
 20
85.9934034023
 30
0.0
 11
90.778268271
 21
85.9934034023
 31
0.0
  0
LINE
  5
92
330
1F
100
AcDbEntity
  8
0
  6
SLD-実線
 62
     7
370
    18
100
AcDbLine
 10
63.7782675706
 20
85.9934034023
 30
0.0
 11
63.7782675706
 21
92.9934036184
 31
0.0
  0
LINE
  5
93
330
1F
100
AcDbEntity
  8
0
  6
SLD-実線
 62
     7
370
    18
100
AcDbLine
 10
63.7782675706
 20
92.9934036184
 30
0.0
 11
90.778268271
 21
92.9934036184
 31
0.0
  0
LINE
  5
94
330
1F
100
AcDbEntity
  8
0
  6
SLD-実線
 62
     7
370
    18
100
AcDbLine
 10
77.2782679208
 20
100.993403067
 30
0.0
 11
89.5782679208
 21
100.9934034023
 31
0.0
  0
LINE
  5
95
330
1F
100
AcDbEntity
  8
0
  6
SLD-実線
 62
     7
370
    18
100
AcDbLine
 10
64.9782679208
 20
100.9934034023
 30
0.0
 11
77.2782679208
 21
100.993403067
 31
0.0
  0
LINE
  5
96
330
1F
100
AcDbEntity
  8
0
  6
SLD-実線
 62
     7
370
    18
100
AcDbLine
 10
77.2782679208
 20
98.9934036705
 30
0.0
 11
64.9782679208
 21
98.9934034023
 31
0.0
  0
LINE
  5
97
330
1F
100
AcDbEntity
  8
0
  6
SLD-実線
 62
     7
370
    18
100
AcDbLine
 10
89.5782679208
 20
98.9934034023
 30
0.0
 11
77.2782679208
 21
98.9934036705
 31
0.0
  0
LINE
  5
98
330
1F
100
AcDbEntity
  8
0
  6
SLD-実線
 62
     7
370
    18
100
AcDbLine
 10
81.8782680228
 20
85.3934033738
 30
0.0
 11
72.6782678187
 21
85.3934033738
 31
0.0
  0
LINE
  5
99
330
1F
100
AcDbEntity
  8
0
  6
SLD-実線
 62
     7
370
    18
100
AcDbLine
 10
77.2782679208
 20
79.4933273654
 30
0.0
 11
81.7752819069
 21
79.4933273654
 31
0.0
  0
LINE
  5
9A
330
1F
100
AcDbEntity
  8
0
  6
SLD-実線
 62
     7
370
    18
100
AcDbLine
 10
72.7812539347
 20
79.4933273654
 30
0.0
 11
77.2782679208
 21
79.4933273654
 31
0.0
  0
LINE
  5
9B
330
1F
100
AcDbEntity
  8
0
  6
SLD-実線
 62
     7
370
    18
100
AcDbLine
 10
81.2575955436
 20
78.9934031862
 30
0.0
 11
73.298940298
 21
78.9934031862
 31
0.0
  0
LINE
  5
9C
330
1F
100
AcDbEntity
  8
0
  6
SLD-実線
 62
     8
370
    18
100
AcDbLine
 10
77.2782679208
 20
100.7934034068
 30
0.0
 11
64.7782677345
 21
100.7934034068
 31
0.0
  0
LINE
  5
9D
330
1F
100
AcDbEntity
  8
0
  6
SLD-実線
 62
     8
370
    18
100
AcDbLine
 10
89.778268107
 20
100.7934034068
 30
0.0
 11
77.2782679208
 21
100.7934034068
 31
0.0
  0
LINE
  5
9E
330
1F
100
AcDbEntity
  8
0
  6
SLD-実線
 62
     8
370
    18
100
AcDbLine
 10
77.2782679208
 20
99.1934033308
 30
0.0
 11
89.778268107
 21
99.1934033308
 31
0.0
  0
LINE
  5
9F
330
1F
100
AcDbEntity
  8
0
  6
SLD-実線
 62
     8
370
    18
100
AcDbLine
 10
64.7782677345
 20
99.1934033308
 30
0.0
 11
77.2782679208
 21
99.1934033308
 31
0.0
  0
LINE
  5
A0
330
1F
100
AcDbEntity
  8
0
  6
SLD-破線
 62
     7
370
    18
100
AcDbLine
 10
77.2782679208
 20
99.2613526258
 30
0.0
 11
85.7782683827
 21
99.2613526258
 31
0.0
  0
LINE
  5
A1
330
1F
100
AcDbEntity
  8
0
  6
SLD-破線
 62
     7
370
    18
100
AcDbLine
 10
68.7782674588
 20
99.2613526258
 30
0.0
 11
77.2782679208
 21
99.2613526258
 31
0.0
  0
LINE
  5
A2
330
1F
100
AcDbEntity
  8
0
  6
SLD-破線
 62
     7
370
    18
100
AcDbLine
 10
77.2782679208
 20
95.9934031788
 30
0.0
 11
85.7782683827
 21
95.9934031788
 31
0.0
  0
LINE
  5
A3
330
1F
100
AcDbEntity
  8
0
  6
SLD-破線
 62
     7
370
    18
100
AcDbLine
 10
68.7782674588
 20
95.9934031788
 30
0.0
 11
77.2782679208
 21
95.9934031788
 31
0.0
  0
LINE
  5
A4
330
1F
100
AcDbEntity
  8
0
  6
SLD-破線
 62
     7
370
    18
100
AcDbLine
 10
67.7782682262
 20
100.993403067
 30
0.0
 11
68.7782674588
 21
99.2613526258
 31
0.0
  0
LINE
  5
A5
330
1F
100
AcDbEntity
  8
0
  6
SLD-破線
 62
     7
370
    18
100
AcDbLine
 10
85.7782683827
 20
99.2613526258
 30
0.0
 11
86.7782676153
 21
100.993403067
 31
0.0
  0
LINE
  5
A6
330
1F
100
AcDbEntity
  8
0
  6
SLD-破線
 62
     7
370
    18
100
AcDbLine
 10
68.7782674588
 20
99.2613526258
 30
0.0
 11
68.7782674588
 21
95.9934031788
 31
0.0
  0
LINE
  5
A7
330
1F
100
AcDbEntity
  8
0
  6
SLD-破線
 62
     7
370
    18
100
AcDbLine
 10
85.7782683827
 20
95.9934031788
 30
0.0
 11
85.7782683827
 21
99.2613526258
 31
0.0
  0
LINE
  5
A8
330
1F
100
AcDbEntity
  8
0
  6
SLD-破線
 62
     7
370
    18
100
AcDbLine
 10
75.1782679957
 20
95.9934031788
 30
0.0
 11
75.1782679957
 21
78.9934031862
 31
0.0
  0
LINE
  5
A9
330
1F
100
AcDbEntity
  8
0
  6
SLD-破線
 62
     7
370
    18
100
AcDbLine
 10
79.3782678459
 20
78.9934031862
 30
0.0
 11
79.3782678459
 21
95.9934031788
 31
0.0
  0
LINE
  5
AA
330
1F
100
AcDbEntity
  8
0
  6
SLD-破線
 62
     7
370
    18
100
AcDbLine
 10
64.7782677345
 20
100.7934034068
 30
0.0
 11
89.778268107
 21
100.7934034068
 31
0.0
  0
LINE
  5
AB
330
1F
100
AcDbEntity
  8
0
  6
SLD-破線
 62
     7
370
    18
100
AcDbLine
 10
89.778268107
 20
99.1934033308
 30
0.0
 11
64.7782677345
 21
99.1934033308
 31
0.0
  0
DIMENSION
  5
AC
330
1F
100
AcDbEntity
  8
0
  6
SLD-実線
 62
     7
370
    18
100
AcDbDimension
  2
_D
 10
58.7782679208
 20
78.9934034023
 30
0.0
 11
58.7782679208
 21
82.4934034023
 31
0.0
 70
   160
  1
<>
 71
     2
 42
-1.0
  3
SLDDIMSTYLE0
100
AcDbAlignedDimension
 13
63.7782679208
 23
85.9934034023
 33
0.0
 14
73.2989404318
 24
78.9934034023
 34
0.0
 50
90.0
100
AcDbRotatedDimension
  0
DIMENSION
  5
B7
330
1F
100
AcDbEntity
  8
0
  6
SLD-実線
 62
     7
370
    18
100
AcDbDimension
  2
_D_1
 10
58.7782679208
 20
92.9934034023
 30
0.0
 11
58.7782679208
 21
89.4934034023
 31
0.0
 70
   160
  1
<>
 71
     2
 42
-1.0
  3
SLDDIMSTYLE0
100
AcDbAlignedDimension
 13
63.7782679208
 23
85.9934034023
 33
0.0
 14
63.7782679208
 24
92.9934034023
 34
0.0
 50
90.0
100
AcDbRotatedDimension
  0
DIMENSION
  5
C1
330
1F
100
AcDbEntity
  8
0
  6
SLD-実線
 62
     7
370
    18
100
AcDbDimension
  2
_D_2
 10
58.7782679208
 20
100.9934034023
 30
0.0
 11
58.7782679208
 21
96.9934034023
 31
0.0
 70
   160
  1
<>
 71
     2
 42
-1.0
  3
SLDDIMSTYLE0
100
AcDbAlignedDimension
 13
63.7782679208
 23
92.9934034023
 33
0.0
 14
64.9782679208
 24
100.9934034023
 34
0.0
 50
90.0
100
AcDbRotatedDimension
  0
DIMENSION
  5
CB
330
1F
100
AcDbEntity
  8
0
  6
SLD-実線
 62
     7
370
    18
100
AcDbDimension
  2
_D_3
 10
87.7782679208
 20
107.7548924888
 30
0.0
 11
77.2782679208
 21
107.7548924888
 31
0.0
 70
   160
  1
%%c<>
 71
     2
 42
-1.0
  3
SLDDIMSTYLE0
100
AcDbAlignedDimension
 13
66.7782679208
 23
98.9934034023
 33
0.0
 14
87.7782679208
 24
98.9934034023
 34
0.0
100
AcDbRotatedDimension
  0
DIMENSION
  5
D6
330
1F
100
AcDbEntity
  8
0
  6
SLD-実線
 62
     7
370
    18
100
AcDbDimension
  2
_D_4
 10
89.7782679208
 20
113.9211993861
 30
0.0
 11
77.2782679208
 21
113.9211993861
 31
0.0
 70
   160
  1
%%c<>
 71
     2
 42
-1.0
  3
SLDDIMSTYLE0
100
AcDbAlignedDimension
 13
64.7782679208
 23
100.7934034023
 33
0.0
 14
89.7782679208
 24
100.7934034023
 34
0.0
100
AcDbRotatedDimension
  0
LINE
  5
E1
330
1F
100
AcDbEntity
  8
0
  6
SLD-実線
 62
     7
370
    18
100
AcDbLine
 10
22.5298530722
 20
92.9934036184
 30
0.0
 11
22.5298530722
 21
85.9934034023
 31
0.0
  0
LINE
  5
E2
330
1F
100
AcDbEntity
  8
0
  6
SLD-実線
 62
     7
370
    18
100
AcDbLine
 10
52.5298524017
 20
85.9934034023
 30
0.0
 11
52.5298524017
 21
92.9934036184
 31
0.0
  0
ARC
  5
E3
330
1F
100
AcDbEntity
  8
0
  6
SLD-実線
 62
     7
370
    18
100
AcDbCircle
 10
25.2298527369
 20
100.7934034023
 30
0.0
 40
0.2000000000000028
100
AcDbArc
 50
90.0
 51
180.0
  0
ARC
  5
E4
330
1F
100
AcDbEntity
  8
0
  6
SLD-実線
 62
     7
370
    18
100
AcDbCircle
 10
49.8298529232
 20
100.7934034023
 30
0.0
 40
0.2000000000000029
100
AcDbArc
 50
0.0000012806
 51
90.0000533608
  0
ARC
  5
E5
330
1F
100
AcDbEntity
  8
0
  6
SLD-実線
 62
     7
370
    18
100
AcDbCircle
 10
25.2298525507
 20
99.1934034023
 30
0.0
 40
0.2000000000000014
100
AcDbArc
 50
180.0000204905
 51
270.0000533609
  0
ARC
  5
E6
330
1F
100
AcDbEntity
  8
0
  6
SLD-実線
 62
     7
370
    18
100
AcDbCircle
 10
49.8298527369
 20
99.1934034023
 30
0.0
 40
0.2000000000000028
100
AcDbArc
 50
270.0
 51
0.0
  0
LINE
  5
E7
330
1F
100
AcDbEntity
  8
0
  6
SLD-実線
 62
     7
370
    18
100
AcDbLine
 10
50.0298529232
 20
99.1934033308
 30
0.0
 11
50.0298529232
 21
100.7934034068
 31
0.0
  0
LINE
  5
E8
330
1F
100
AcDbEntity
  8
0
  6
SLD-実線
 62
     7
370
    18
100
AcDbLine
 10
25.0298525507
 20
100.7934034068
 30
0.0
 11
25.0298525507
 21
99.1934033308
 31
0.0
  0
LINE
  5
E9
330
1F
100
AcDbEntity
  8
0
  6
SLD-実線
 62
     7
370
    18
100
AcDbLine
 10
48.0298525954
 20
92.9934036184
 30
0.0
 11
48.0298525954
 21
98.9934036705
 31
0.0
  0
LINE
  5
EA
330
1F
100
AcDbEntity
  8
0
  6
SLD-実線
 62
     7
370
    18
100
AcDbLine
 10
27.0298528785
 20
98.9934036705
 30
0.0
 11
27.0298528785
 21
92.9934036184
 31
0.0
  0
LINE
  5
EB
330
1F
100
AcDbEntity
  8
0
  6
SLD-実線
 62
     7
370
    18
100
AcDbLine
 10
32.9298526349
 20
85.3934033738
 30
0.0
 11
33.0328387508
 21
79.4933273654
 31
0.0
  0
LINE
  5
EC
330
1F
100
AcDbEntity
  8
0
  6
SLD-実線
 62
     7
370
    18
100
AcDbLine
 10
42.026866723
 20
79.4933273654
 30
0.0
 11
42.129852839
 21
85.3934033738
 31
0.0
  0
LINE
  5
ED
330
1F
100
AcDbEntity
  8
0
  6
SLD-実線
 62
     7
370
    18
100
AcDbLine
 10
32.9298526349
 20
85.9934034023
 30
0.0
 11
32.9298526349
 21
85.3934033738
 31
0.0
  0
LINE
  5
EE
330
1F
100
AcDbEntity
  8
0
  6
SLD-実線
 62
     7
370
    18
100
AcDbLine
 10
42.129852839
 20
85.3934033738
 30
0.0
 11
42.129852839
 21
85.9934034023
 31
0.0
  0
LINE
  5
EF
330
1F
100
AcDbEntity
  8
0
  6
SLD-実線
 62
     7
370
    18
100
AcDbLine
 10
33.0328387508
 20
79.4933273654
 30
0.0
 11
33.5505251141
 21
78.9934031862
 31
0.0
  0
LINE
  5
F0
330
1F
100
AcDbEntity
  8
0
  6
SLD-実線
 62
     7
370
    18
100
AcDbLine
 10
41.5091803597
 20
78.9934031862
 30
0.0
 11
42.026866723
 21
79.4933273654
 31
0.0
  0
LINE
  5
F1
330
1F
100
AcDbEntity
  8
0
  6
SLD-実線
 62
     7
370
    18
100
AcDbLine
 10
30.9915044645
 20
85.9934034023
 30
0.0
 11
30.9915044645
 21
92.9934036184
 31
0.0
  0
LINE
  5
F2
330
1F
100
AcDbEntity
  8
0
  6
SLD-実線
 62
     7
370
    18
100
AcDbLine
 10
22.5298530722
 20
85.9934034023
 30
0.0
 11
30.9915044645
 21
85.9934034023
 31
0.0
  0
LINE
  5
F3
330
1F
100
AcDbEntity
  8
0
  6
SLD-実線
 62
     7
370
    18
100
AcDbLine
 10
22.5298530722
 20
92.9934036184
 30
0.0
 11
30.9915044645
 21
92.9934036184
 31
0.0
  0
LINE
  5
F4
330
1F
100
AcDbEntity
  8
0
  6
SLD-実線
 62
     7
370
    18
100
AcDbLine
 10
44.0682010094
 20
85.9934034023
 30
0.0
 11
44.0682010094
 21
92.9934036184
 31
0.0
  0
LINE
  5
F5
330
1F
100
AcDbEntity
  8
0
  6
SLD-実線
 62
     7
370
    18
100
AcDbLine
 10
30.9915044645
 20
85.9934034023
 30
0.0
 11
44.0682010094
 21
85.9934034023
 31
0.0
  0
LINE
  5
F6
330
1F
100
AcDbEntity
  8
0
  6
SLD-実線
 62
     7
370
    18
100
AcDbLine
 10
44.0682010094
 20
92.9934036184
 30
0.0
 11
30.9915044645
 21
92.9934036184
 31
0.0
  0
LINE
  5
F7
330
1F
100
AcDbEntity
  8
0
  6
SLD-実線
 62
     7
370
    18
100
AcDbLine
 10
44.0682010094
 20
85.9934034023
 30
0.0
 11
52.5298524017
 21
85.9934034023
 31
0.0
  0
LINE
  5
F8
330
1F
100
AcDbEntity
  8
0
  6
SLD-実線
 62
     7
370
    18
100
AcDbLine
 10
44.0682010094
 20
92.9934036184
 30
0.0
 11
52.5298524017
 21
92.9934036184
 31
0.0
  0
LINE
  5
F9
330
1F
100
AcDbEntity
  8
0
  6
SLD-実線
 62
     7
370
    18
100
AcDbLine
 10
25.2298527369
 20
100.9934034023
 30
0.0
 11
49.8298523316
 21
100.993403067
 31
0.0
  0
LINE
  5
FA
330
1F
100
AcDbEntity
  8
0
  6
SLD-実線
 62
     7
370
    18
100
AcDbLine
 10
49.8298527369
 20
98.9934034023
 30
0.0
 11
25.2298531422
 21
98.9934036705
 31
0.0
  0
LINE
  5
FB
330
1F
100
AcDbEntity
  8
0
  6
SLD-実線
 62
     7
370
    18
100
AcDbLine
 10
42.129852839
 20
85.3934033738
 30
0.0
 11
32.9298526349
 21
85.3934033738
 31
0.0
  0
LINE
  5
FC
330
1F
100
AcDbEntity
  8
0
  6
SLD-実線
 62
     7
370
    18
100
AcDbLine
 10
33.0328387508
 20
79.4933273654
 30
0.0
 11
42.026866723
 21
79.4933273654
 31
0.0
  0
LINE
  5
FD
330
1F
100
AcDbEntity
  8
0
  6
SLD-実線
 62
     7
370
    18
100
AcDbLine
 10
41.5091803597
 20
78.9934031862
 30
0.0
 11
33.5505251141
 21
78.9934031862
 31
0.0
  0
LINE
  5
FE
330
1F
100
AcDbEntity
  8
0
  6
SLD-実線
 62
     8
370
    18
100
AcDbLine
 10
50.0298529232
 20
100.7934034068
 30
0.0
 11
25.0298525507
 21
100.7934034068
 31
0.0
  0
LINE
  5
FF
330
1F
100
AcDbEntity
  8
0
  6
SLD-実線
 62
     8
370
    18
100
AcDbLine
 10
25.0298525507
 20
99.1934033308
 30
0.0
 11
50.0298529232
 21
99.1934033308
 31
0.0
  0
LINE
  5
100
330
1F
100
AcDbEntity
  8
0
  6
SLD-破線
 62
     7
370
    18
100
AcDbLine
 10
29.029852275
 20
99.2613526258
 30
0.0
 11
46.0298531989
 21
99.2613526258
 31
0.0
  0
LINE
  5
101
330
1F
100
AcDbEntity
  8
0
  6
SLD-破線
 62
     7
370
    18
100
AcDbLine
 10
29.029852275
 20
95.9934031788
 30
0.0
 11
46.0298531989
 21
95.9934031788
 31
0.0
  0
LINE
  5
102
330
1F
100
AcDbEntity
  8
0
  6
SLD-破線
 62
     7
370
    18
100
AcDbLine
 10
28.0298530424
 20
100.993403067
 30
0.0
 11
29.029852275
 21
99.2613526258
 31
0.0
  0
LINE
  5
103
330
1F
100
AcDbEntity
  8
0
  6
SLD-破線
 62
     7
370
    18
100
AcDbLine
 10
46.0298531989
 20
99.2613526258
 30
0.0
 11
47.0298524315
 21
100.993403067
 31
0.0
  0
LINE
  5
104
330
1F
100
AcDbEntity
  8
0
  6
SLD-破線
 62
     7
370
    18
100
AcDbLine
 10
29.029852275
 20
99.2613526258
 30
0.0
 11
29.029852275
 21
95.9934031788
 31
0.0
  0
LINE
  5
105
330
1F
100
AcDbEntity
  8
0
  6
SLD-破線
 62
     7
370
    18
100
AcDbLine
 10
46.0298531989
 20
95.9934031788
 30
0.0
 11
46.0298531989
 21
99.2613526258
 31
0.0
  0
LINE
  5
106
330
1F
100
AcDbEntity
  8
0
  6
SLD-破線
 62
     7
370
    18
100
AcDbLine
 10
35.4298528118
 20
95.9934031788
 30
0.0
 11
35.4298528118
 21
78.9934031862
 31
0.0
  0
LINE
  5
107
330
1F
100
AcDbEntity
  8
0
  6
SLD-破線
 62
     7
370
    18
100
AcDbLine
 10
39.629852662
 20
78.9934031862
 30
0.0
 11
39.629852662
 21
95.9934031788
 31
0.0
  0
LINE
  5
108
330
1F
100
AcDbEntity
  8
0
  6
SLD-破線
 62
     7
370
    18
100
AcDbLine
 10
25.0298525507
 20
100.7934034068
 30
0.0
 11
50.0298529232
 21
100.7934034068
 31
0.0
  0
LINE
  5
109
330
1F
100
AcDbEntity
  8
0
  6
SLD-破線
 62
     7
370
    18
100
AcDbLine
 10
50.0298529232
 20
99.1934033308
 30
0.0
 11
25.0298525507
 21
99.1934033308
 31
0.0
  0
DIMENSION
  5
10A
330
1F
100
AcDbEntity
  8
0
  6
SLD-実線
 62
     7
370
    18
100
AcDbDimension
  2
_D_5
 10
14.5298527369
 20
78.9934034023
 30
0.0
 11
14.5298527369
 21
89.9934034023
 31
0.0
 70
   160
  1
<>
 71
     2
 42
-1.0
  3
SLDDIMSTYLE0
100
AcDbAlignedDimension
 13
25.2298527369
 23
100.9934034023
 33
0.0
 14
33.550525248
 24
78.9934034023
 34
0.0
 50
90.0
100
AcDbRotatedDimension
  0
DIMENSION
  5
114
330
1F
100
AcDbEntity
  8
0
  6
SLD-実線
 62
     7
370
    18
100
AcDbDimension
  2
_D_6
 10
19.7333010835
 20
95.9934034023
 30
0.0
 11
19.7333010835
 21
98.4934034023
 31
0.0
 70
   160
  1
<>
 71
     2
 42
-1.0
  3
SLDDIMSTYLE1
100
AcDbAlignedDimension
 13
25.2298527369
 23
100.9934034023
 33
0.0
 14
29.0298527369
 24
95.9934034023
 34
0.0
 50
90.0
100
AcDbRotatedDimension
  0
DIMENSION
  5
121
330
1F
100
AcDbEntity
  8
0
  6
SLD-実線
 62
     7
370
    18
100
AcDbDimension
  2
_D_7
 10
46.0298527369
 20
107.2082945469
 30
0.0
 11
37.5298527369
 21
107.2082945469
 31
0.0
 70
   160
  1
%%c<>
 71
     2
 42
-1.0
  3
SLDDIMSTYLE0
100
AcDbAlignedDimension
 13
29.0298527369
 23
99.2613525947
 33
0.0
 14
46.0298527369
 24
99.2613525947
 34
0.0
100
AcDbRotatedDimension
  0
INSERT
  5
131
330
1F
100
AcDbEntity
  8
0
  6
Continuous
 62
     7
370
     0
100
AcDbBlockReference
  2
SW_NOTE_0
 10
28.4062084826
 20
69.5161692511
 30
0.0
  0
LEADER
  5
133
330
1F
100
AcDbEntity
  8
0
  6
Continuous
 62
     7
370
     0
100
AcDbLeader
  3
SLDDIMSTYLE2
 76
     2
 10
37.3565913045
 20
78.9934034023
 30
0.0
 10
28.4062084826
 20
69.5161692511
 30
0.0
  0
INSERT
  5
139
330
1F
100
AcDbEntity
  8
0
  6
Continuous
 62
     7
370
     0
100
AcDbBlockReference
  2
SW_NOTE_1
 10
47.5111940299
 20
69.5161692511
 30
0.0
  0
LEADER
  5
13A
330
1F
100
AcDbEntity
  8
0
  6
Continuous
 62
     7
370
     0
100
AcDbLeader
  3
SLDDIMSTYLE2
 76
     2
 10
42.0792246668
 20
82.4929232063
 30
0.0
 10
47.5111940299
 20
69.5161692511
 30
0.0
  0
CIRCLE
  5
13B
330
1F
100
AcDbEntity
  8
0
  6
SLD-実線
 62
     7
370
    18
100
AcDbCircle
 10
77.2782679208
 20
52.5845149254
 30
0.0
 40
3.979327488924014
  0
CIRCLE
  5
13C
330
1F
100
AcDbEntity
  8
0
  6
SLD-実線
 62
     7
370
    18
100
AcDbCircle
 10
77.2782679208
 20
52.5845149254
 30
0.0
 40
4.49701378767805
  0
CIRCLE
  5
13D
330
1F
100
AcDbEntity
  8
0
  6
SLD-実線
 62
     7
370
    18
100
AcDbCircle
 10
77.2782679208
 20
52.5845149254
 30
0.0
 40
2.099999999999987
  0
CIRCLE
  5
13E
330
1F
100
AcDbEntity
  8
0
  6
SLD-実線
 62
     7
370
    18
100
AcDbCircle
 10
77.2782679208
 20
52.5845149254
 30
0.0
 40
4.599999999999994
  0
LINE
  5
13F
330
1F
100
AcDbEntity
  8
0
  6
SLD-実線
 62
     7
370
    18
100
AcDbLine
 10
90.778268271
 20
59.1228631978
 30
0.0
 11
90.778268271
 21
46.0461666529
 31
0.0
  0
ARC
  5
140
330
1F
100
AcDbEntity
  8
0
  6
SLD-実線
 62
     7
370
    18
100
AcDbCircle
 10
77.2782679208
 20
52.5845149254
 30
0.0
 40
15.0
100
AcDbArc
 50
205.8419327632
 51
334.1580672368
  0
LINE
  5
141
330
1F
100
AcDbEntity
  8
0
  6
SLD-実線
 62
     7
370
    18
100
AcDbLine
 10
63.7782679208
 20
46.0461665101
 30
0.0
 11
63.7782675706
 21
59.1228631978
 31
0.0
  0
ARC
  5
142
330
1F
100
AcDbEntity
  8
0
  6
SLD-実線
 62
     7
370
    18
100
AcDbCircle
 10
77.2782680613
 20
52.5845152155
 30
0.0
 40
15.0
100
AcDbArc
 50
25.8419309257
 51
154.158068468
  0
DIMENSION
  5
143
330
1F
100
AcDbEntity
  8
0
  6
SLD-実線
 62
     7
370
    18
100
AcDbDimension
  2
_D_8
 10
90.7782679208
 20
31.2230465123
 30
0.0
 11
77.2782679208
 21
31.2230465123
 31
0.0
 70
   160
  1
<>
 71
     2
 42
-1.0
  3
SLDDIMSTYLE0
100
AcDbAlignedDimension
 13
63.7782679208
 23
46.0461665101
 33
0.0
 14
90.7782679208
 24
46.0461665101
 34
0.0
100
AcDbRotatedDimension
  0
DIMENSION
  5
14D
330
1F
100
AcDbEntity
  8
0
  6
SLD-実線
 62
     7
370
    18
100
AcDbDimension
  2
_D_9
 10
69.736258423
 20
39.6184788027
 30
0.0
 11
91.1955122969
 21
73.0004194365
 31
0.0
 70
   163
  1
<>
 71
     1
 42
-1.0
  3
SLDDIMSTYLE3
100
AcDbDiametricDimension
 15
84.8202774185
 25
65.5505510481
 35
0.0
 40
0.0
  0
INSERT
  5
162
330
1F
100
AcDbEntity
  8
0
  6
SLD-実線
 62
     7
370
    18
100
AcDbBlockReference
  2
SW_CENTERMARKSYMBOL_0
 10
77.2782679208
 20
52.5845149254
 30
0.0
  0
ENDSEC
  0
SECTION
  2
OBJECTS
  0
DICTIONARY
  5
C
330
0
100
AcDbDictionary
281
     1
  3
ACAD_GROUP
350
D
  3
ACAD_LAYOUT
350
1A
  3
ACAD_MLINESTYLE
350
17
  3
ACAD_PLOTSETTINGS
350
19
  3
ACAD_PLOTSTYLENAME
350
E
  3
ACAD_SCALELIST
350
47
  0
DICTIONARY
  5
D
102
{ACAD_REACTORS
330
C
102
}
330
C
100
AcDbDictionary
281
     1
  0
DICTIONARY
  5
1A
102
{ACAD_REACTORS
330
C
102
}
330
C
100
AcDbDictionary
281
     1
  3
Layout1
350
1E
  3
Layout2
350
26
  3
Model
350
22
  0
DICTIONARY
  5
17
102
{ACAD_REACTORS
330
C
102
}
330
C
100
AcDbDictionary
281
     1
  3
Standard
350
18
  0
DICTIONARY
  5
19
102
{ACAD_REACTORS
330
C
102
}
330
C
100
AcDbDictionary
281
     1
  0
ACDBDICTIONARYWDFLT
  5
E
102
{ACAD_REACTORS
330
C
102
}
330
C
100
AcDbDictionary
281
     1
  3
Normal
350
F
100
AcDbDictionaryWithDefault
340
F
  0
DICTIONARY
  5
47
102
{ACAD_REACTORS
330
C
102
}
330
C
100
AcDbDictionary
281
     1
  3
A0
350
48
  3
A1
350
49
  3
A2
350
4A
  3
A3
350
4B
  3
A4
350
4C
  3
A5
350
4D
  3
A6
350
4E
  3
A7
350
4F
  3
A8
350
50
  3
A9
350
51
  3
B0
350
52
  3
B1
350
53
  3
B2
350
54
  3
B3
350
55
  3
B4
350
56
  3
B5
350
57
  3
B6
350
58
  3
B7
350
59
  3
B8
350
5A
  3
B9
350
5B
  3
C0
350
5C
  3
C1
350
5D
  3
C2
350
5E
  3
C3
350
5F
  3
C4
350
60
  3
C5
350
61
  3
C6
350
62
  3
C7
350
63
  3
C8
350
64
  3
C9
350
65
  3
D0
350
66
  3
D1
350
67
  3
D2
350
68
  0
LAYOUT
  5
1E
102
{ACAD_REACTORS
330
1A
102
}
330
1A
100
AcDbPlotSettings
  1

  2
none_device
  4

  6

 40
0.0
 41
0.0
 42
0.0
 43
0.0
 44
0.0
 45
0.0
 46
0.0
 47
0.0
 48
0.0
 49
0.0
140
0.0
141
0.0
142
1.0
143
1.0
 70
   688
 72
     1
 73
     0
 74
     5
  7

 75
    16
147
1.0
148
0.0
149
0.0
100
AcDbLayout
  1
Layout1
 70
     1
 71
     1
 10
0.0
 20
0.0
 11
420.0
 21
297.0
 12
0.0
 22
0.0
 32
0.0
 14
1.0000000000E+20
 24
1.0000000000E+20
 34
1.0000000000E+20
 15
-1.0000000000E+20
 25
-1.0000000000E+20
 35
-1.0000000000E+20
146
0.0
 13
0.0
 23
0.0
 33
0.0
 16
1.0
 26
0.0
 36
0.0
 17
0.0
 27
1.0
 37
0.0
 76
     0
330
1B
  0
LAYOUT
  5
26
102
{ACAD_REACTORS
330
1A
102
}
330
1A
100
AcDbPlotSettings
  1

  2
none_device
  4

  6

 40
0.0
 41
0.0
 42
0.0
 43
0.0
 44
0.0
 45
0.0
 46
0.0
 47
0.0
 48
0.0
 49
0.0
140
0.0
141
0.0
142
1.0
143
1.0
 70
   688
 72
     1
 73
     0
 74
     5
  7

 75
    16
147
1.0
148
0.0
149
0.0
100
AcDbLayout
  1
Layout2
 70
     1
 71
     2
 10
0.0
 20
0.0
 11
0.0
 21
0.0
 12
0.0
 22
0.0
 32
0.0
 14
0.0
 24
0.0
 34
0.0
 15
0.0
 25
0.0
 35
0.0
146
0.0
 13
0.0
 23
0.0
 33
0.0
 16
1.0
 26
0.0
 36
0.0
 17
0.0
 27
1.0
 37
0.0
 76
     0
330
23
  0
LAYOUT
  5
22
102
{ACAD_REACTORS
330
1A
102
}
330
1A
100
AcDbPlotSettings
  1

  2
none_device
  4
Letter_(8.50_x_11.00_Inches)
  6

 40
6.35
 41
6.35
 42
6.35000508
 43
6.35000508
 44
215.9
 45
279.4
 46
0.0
 47
0.0
 48
0.0
 49
0.0
140
0.0
141
0.0
142
1.0
143
1.0
 70
  1712
 72
     1
 73
     0
 74
     0
  7

 75
     0
147
1.0
148
0.0
149
0.0
100
AcDbLayout
  1
Model
 70
     1
 71
     0
 10
0.0
 20
0.0
 11
105.0
 21
148.5
 12
0.0
 22
0.0
 32
0.0
 14
0.0
 24
0.0
 34
0.0
 15
105.0
 25
148.5
 35
0.0
146
0.0
 13
0.0
 23
0.0
 33
0.0
 16
1.0
 26
0.0
 36
0.0
 17
0.0
 27
1.0
 37
0.0
 76
     0
330
1F
331
29
  0
MLINESTYLE
  5
18
102
{ACAD_REACTORS
330
17
102
}
330
17
100
AcDbMlineStyle
  2
Standard
 70
     0
  3

 62
   256
 51
90.0
 52
90.0
 71
     2
 49
0.5
 62
   256
  6
BYLAYER
 49
-0.5
 62
   256
  6
BYLAYER
  0
ACDBPLACEHOLDER
  5
F
102
{ACAD_REACTORS
330
E
102
}
330
E
  0
SCALE
  5
48
102
{ACAD_REACTORS
330
47
102
}
330
47
100
AcDbScale
 70
     0
300
1:1
140
1.0
141
1.0
290
     1
  0
SCALE
  5
49
102
{ACAD_REACTORS
330
47
102
}
330
47
100
AcDbScale
 70
     0
300
1:2
140
1.0
141
2.0
290
     0
  0
SCALE
  5
4A
102
{ACAD_REACTORS
330
47
102
}
330
47
100
AcDbScale
 70
     0
300
1:4
140
1.0
141
4.0
290
     0
  0
SCALE
  5
4B
102
{ACAD_REACTORS
330
47
102
}
330
47
100
AcDbScale
 70
     0
300
1:5
140
1.0
141
5.0
290
     0
  0
SCALE
  5
4C
102
{ACAD_REACTORS
330
47
102
}
330
47
100
AcDbScale
 70
     0
300
1:8
140
1.0
141
8.0
290
     0
  0
SCALE
  5
4D
102
{ACAD_REACTORS
330
47
102
}
330
47
100
AcDbScale
 70
     0
300
1:10
140
1.0
141
10.0
290
     0
  0
SCALE
  5
4E
102
{ACAD_REACTORS
330
47
102
}
330
47
100
AcDbScale
 70
     0
300
1:16
140
1.0
141
16.0
290
     0
  0
SCALE
  5
4F
102
{ACAD_REACTORS
330
47
102
}
330
47
100
AcDbScale
 70
     0
300
1:20
140
1.0
141
20.0
290
     0
  0
SCALE
  5
50
102
{ACAD_REACTORS
330
47
102
}
330
47
100
AcDbScale
 70
     0
300
1:30
140
1.0
141
30.0
290
     0
  0
SCALE
  5
51
102
{ACAD_REACTORS
330
47
102
}
330
47
100
AcDbScale
 70
     0
300
1:40
140
1.0
141
40.0
290
     0
  0
SCALE
  5
52
102
{ACAD_REACTORS
330
47
102
}
330
47
100
AcDbScale
 70
     0
300
1:50
140
1.0
141
50.0
290
     0
  0
SCALE
  5
53
102
{ACAD_REACTORS
330
47
102
}
330
47
100
AcDbScale
 70
     0
300
1:100
140
1.0
141
100.0
290
     0
  0
SCALE
  5
54
102
{ACAD_REACTORS
330
47
102
}
330
47
100
AcDbScale
 70
     0
300
2:1
140
2.0
141
1.0
290
     0
  0
SCALE
  5
55
102
{ACAD_REACTORS
330
47
102
}
330
47
100
AcDbScale
 70
     0
300
4:1
140
4.0
141
1.0
290
     0
  0
SCALE
  5
56
102
{ACAD_REACTORS
330
47
102
}
330
47
100
AcDbScale
 70
     0
300
8:1
140
8.0
141
1.0
290
     0
  0
SCALE
  5
57
102
{ACAD_REACTORS
330
47
102
}
330
47
100
AcDbScale
 70
     0
300
10:1
140
10.0
141
1.0
290
     0
  0
SCALE
  5
58
102
{ACAD_REACTORS
330
47
102
}
330
47
100
AcDbScale
 70
     0
300
100:1
140
100.0
141
1.0
290
     0
  0
SCALE
  5
59
102
{ACAD_REACTORS
330
47
102
}
330
47
100
AcDbScale
 70
     0
300
1/128" = 1'-0"
140
0.0078125
141
12.0
290
     0
  0
SCALE
  5
5A
102
{ACAD_REACTORS
330
47
102
}
330
47
100
AcDbScale
 70
     0
300
1/64" = 1'-0"
140
0.015625
141
12.0
290
     0
  0
SCALE
  5
5B
102
{ACAD_REACTORS
330
47
102
}
330
47
100
AcDbScale
 70
     0
300
1/32" = 1'-0"
140
0.03125
141
12.0
290
     0
  0
SCALE
  5
5C
102
{ACAD_REACTORS
330
47
102
}
330
47
100
AcDbScale
 70
     0
300
1/16" = 1'-0"
140
0.0625
141
12.0
290
     0
  0
SCALE
  5
5D
102
{ACAD_REACTORS
330
47
102
}
330
47
100
AcDbScale
 70
     0
300
3/32" = 1'-0"
140
0.09375
141
12.0
290
     0
  0
SCALE
  5
5E
102
{ACAD_REACTORS
330
47
102
}
330
47
100
AcDbScale
 70
     0
300
1/8" = 1'-0"
140
0.125
141
12.0
290
     0
  0
SCALE
  5
5F
102
{ACAD_REACTORS
330
47
102
}
330
47
100
AcDbScale
 70
     0
300
3/16" = 1'-0"
140
0.1875
141
12.0
290
     0
  0
SCALE
  5
60
102
{ACAD_REACTORS
330
47
102
}
330
47
100
AcDbScale
 70
     0
300
1/4" = 1'-0"
140
0.25
141
12.0
290
     0
  0
SCALE
  5
61
102
{ACAD_REACTORS
330
47
102
}
330
47
100
AcDbScale
 70
     0
300
3/8" = 1'-0"
140
0.375
141
12.0
290
     0
  0
SCALE
  5
62
102
{ACAD_REACTORS
330
47
102
}
330
47
100
AcDbScale
 70
     0
300
1/2" = 1'-0"
140
0.5
141
12.0
290
     0
  0
SCALE
  5
63
102
{ACAD_REACTORS
330
47
102
}
330
47
100
AcDbScale
 70
     0
300
3/4" = 1'-0"
140
0.75
141
12.0
290
     0
  0
SCALE
  5
64
102
{ACAD_REACTORS
330
47
102
}
330
47
100
AcDbScale
 70
     0
300
1" = 1'-0"
140
1.0
141
12.0
290
     0
  0
SCALE
  5
65
102
{ACAD_REACTORS
330
47
102
}
330
47
100
AcDbScale
 70
     0
300
1-1/2" = 1'-0"
140
1.5
141
12.0
290
     0
  0
SCALE
  5
66
102
{ACAD_REACTORS
330
47
102
}
330
47
100
AcDbScale
 70
     0
300
3" = 1'-0"
140
3.0
141
12.0
290
     0
  0
SCALE
  5
67
102
{ACAD_REACTORS
330
47
102
}
330
47
100
AcDbScale
 70
     0
300
6" = 1'-0"
140
6.0
141
12.0
290
     0
  0
SCALE
  5
68
102
{ACAD_REACTORS
330
47
102
}
330
47
100
AcDbScale
 70
     0
300
1'-0" = 1'-0"
140
12.0
141
12.0
290
     0
  0
ENDSEC
  0
EOF
