  0
SECTION
  2
HEADER
  9
$ACADVER
  1
AC1015
  9
$ACADMAINTVER
 70
     6
  9
$DWGCODEPAGE
  3
DOS932
  9
$INSBASE
 10
0.0
 20
0.0
 30
0.0
  9
$EXTMIN
 10
0.0
 20
0.0
 30
0.0
  9
$EXTMAX
 10
315.0
 20
445.5
 30
0.0
  9
$LIMMIN
 10
0.0
 20
0.0
  9
$LIMMAX
 10
315.0
 20
445.5
  9
$ORTHOMODE
 70
     0
  9
$REGENMODE
 70
     1
  9
$FILLMODE
 70
     1
  9
$QTEXTMODE
 70
     0
  9
$MIRRTEXT
 70
     1
  9
$LTSCALE
 40
1.5
  9
$ATTMODE
 70
     1
  9
$TEXTSIZE
 40
5.25
  9
$TRACEWID
 40
1.0
  9
$TEXTSTYLE
  7
STANDARD
  9
$CLAYER
  8
0
  9
$CELTYPE
  6
ByLayer
  9
$CECOLOR
 62
   256
  9
$CELTSCALE
 40
1.0
  9
$DISPSILH
 70
     0
  9
$DIMSCALE
 40
1.0
  9
$DIMASZ
 40
4.5
  9
$DIMEXO
 40
1.5
  9
$DIMDLI
 40
3.75
  9
$DIMRND
 40
0.0
  9
$DIMDLE
 40
0.0
  9
$DIMEXE
 40
1.5
  9
$DIMTP
 40
0.0
  9
$DIMTM
 40
0.0
  9
$DIMTXT
 40
5.25
  9
$DIMCEN
 40
2.5
  9
$DIMTSZ
 40
0.0
  9
$DIMTOL
 70
     0
  9
$DIMLIM
 70
     0
  9
$DIMTIH
 70
     1
  9
$DIMTOH
 70
     1
  9
$DIMSE1
 70
     0
  9
$DIMSE2
 70
     0
  9
$DIMTAD
 70
     1
  9
$DIMZIN
 70
     0
  9
$DIMBLK
  1

  9
$DIMASO
 70
     1
  9
$DIMSHO
 70
     1
  9
$DIMPOST
  1

  9
$DIMAPOST
  1

  9
$DIMALT
 70
     0
  9
$DIMALTD
 70
     3
  9
$DIMALTF
 40
0.0393700787
  9
$DIMLFAC
 40
1.0
  9
$DIMTOFL
 70
     1
  9
$DIMTVP
 40
0.0
  9
$DIMTIX
 70
     0
  9
$DIMSOXD
 70
     0
  9
$DIMSAH
 70
     0
  9
$DIMBLK1
  1

  9
$DIMBLK2
  1

  9
$DIMSTYLE
  2
ISO-25
  9
$DIMCLRD
 70
     0
  9
$DIMCLRE
 70
     0
  9
$DIMCLRT
 70
     0
  9
$DIMTFAC
 40
1.0
  9
$DIMGAP
 40
2.286
  9
$DIMJUST
 70
     0
  9
$DIMSD1
 70
     0
  9
$DIMSD2
 70
     0
  9
$DIMTOLJ
 70
     0
  9
$DIMTZIN
 70
     0
  9
$DIMALTZ
 70
     0
  9
$DIMALTTZ
 70
     0
  9
$DIMUPT
 70
     0
  9
$DIMDEC
 70
     1
  9
$DIMTDEC
 70
     3
  9
$DIMALTU
 70
     2
  9
$DIMALTTD
 70
     3
  9
$DIMTXSTY
  7
STANDARD
  9
$DIMAUNIT
 70
     0
  9
$DIMADEC
 70
     2
  9
$DIMALTRND
 40
0.0
  9
$DIMAZIN
 70
     0
  9
$DIMDSEP
 70
    44
  9
$DIMATFIT
 70
     3
  9
$DIMFRAC
 70
     0
  9
$DIMLDRBLK
  1

  9
$DIMLUNIT
 70
     2
  9
$DIMLWD
 70
    -2
  9
$DIMLWE
 70
    -2
  9
$DIMTMOVE
 70
     0
  9
$LUNITS
 70
     2
  9
$LUPREC
 70
     1
  9
$SKETCHINC
 40
1.0
  9
$FILLETRAD
 40
10.0
  9
$AUNITS
 70
     0
  9
$AUPREC
 70
     2
  9
$MENU
  1
.
  9
$ELEVATION
 40
0.0
  9
$PELEVATION
 40
0.0
  9
$THICKNESS
 40
0.0
  9
$LIMCHECK
 70
     0
  9
$CHAMFERA
 40
0.0
  9
$CHAMFERB
 40
0.0
  9
$CHAMFERC
 40
0.0
  9
$CHAMFERD
 40
0.0
  9
$SKPOLY
 70
     0
  9
$TDCREATE
 40
2459290.580672894
  9
$TDUCREATE
 40
2459290.205672894
  9
$TDUPDATE
 40
2459290.580674884
  9
$TDUUPDATE
 40
2459290.205674884
  9
$TDINDWG
 40
0.0000000116
  9
$TDUSRTIMER
 40
0.0000000116
  9
$USRTIMER
 70
     1
  9
$ANGBASE
 50
0.0
  9
$ANGDIR
 70
     0
  9
$PDMODE
 70
     0
  9
$PDSIZE
 40
-1.0
  9
$PLINEWID
 40
0.0
  9
$SPLFRAME
 70
     0
  9
$SPLINETYPE
 70
     6
  9
$SPLINESEGS
 70
     8
  9
$HANDSEED
  5
24D
  9
$SURFTAB1
 70
     6
  9
$SURFTAB2
 70
     6
  9
$SURFTYPE
 70
     6
  9
$SURFU
 70
     6
  9
$SURFV
 70
     6
  9
$UCSBASE
  2

  9
$UCSNAME
  2

  9
$UCSORG
 10
0.0
 20
0.0
 30
0.0
  9
$UCSXDIR
 10
1.0
 20
0.0
 30
0.0
  9
$UCSYDIR
 10
0.0
 20
1.0
 30
0.0
  9
$UCSORTHOREF
  2

  9
$UCSORTHOVIEW
 70
     0
  9
$UCSORGTOP
 10
0.0
 20
0.0
 30
0.0
  9
$UCSORGBOTTOM
 10
0.0
 20
0.0
 30
0.0
  9
$UCSORGLEFT
 10
0.0
 20
0.0
 30
0.0
  9
$UCSORGRIGHT
 10
0.0
 20
0.0
 30
0.0
  9
$UCSORGFRONT
 10
0.0
 20
0.0
 30
0.0
  9
$UCSORGBACK
 10
0.0
 20
0.0
 30
0.0
  9
$PUCSBASE
  2

  9
$PUCSNAME
  2

  9
$PUCSORG
 10
0.0
 20
0.0
 30
0.0
  9
$PUCSXDIR
 10
1.0
 20
0.0
 30
0.0
  9
$PUCSYDIR
 10
0.0
 20
1.0
 30
0.0
  9
$PUCSORTHOREF
  2

  9
$PUCSORTHOVIEW
 70
     0
  9
$PUCSORGTOP
 10
0.0
 20
0.0
 30
0.0
  9
$PUCSORGBOTTOM
 10
0.0
 20
0.0
 30
0.0
  9
$PUCSORGLEFT
 10
0.0
 20
0.0
 30
0.0
  9
$PUCSORGRIGHT
 10
0.0
 20
0.0
 30
0.0
  9
$PUCSORGFRONT
 10
0.0
 20
0.0
 30
0.0
  9
$PUCSORGBACK
 10
0.0
 20
0.0
 30
0.0
  9
$USERI1
 70
     0
  9
$USERI2
 70
     0
  9
$USERI3
 70
     0
  9
$USERI4
 70
     0
  9
$USERI5
 70
     0
  9
$USERR1
 40
0.0
  9
$USERR2
 40
0.0
  9
$USERR3
 40
0.0
  9
$USERR4
 40
0.0
  9
$USERR5
 40
0.0
  9
$WORLDVIEW
 70
     1
  9
$SHADEDGE
 70
     3
  9
$SHADEDIF
 70
    70
  9
$TILEMODE
 70
     1
  9
$MAXACTVP
 70
    64
  9
$PINSBASE
 10
0.0
 20
0.0
 30
0.0
  9
$PLIMCHECK
 70
     0
  9
$PEXTMIN
 10
1.0000000000E+20
 20
1.0000000000E+20
 30
1.0000000000E+20
  9
$PEXTMAX
 10
-1.0000000000E+20
 20
-1.0000000000E+20
 30
-1.0000000000E+20
  9
$PLIMMIN
 10
0.0
 20
0.0
  9
$PLIMMAX
 10
420.0
 20
297.0
  9
$UNITMODE
 70
     0
  9
$VISRETAIN
 70
     1
  9
$PLINEGEN
 70
     0
  9
$PSLTSCALE
 70
     1
  9
$TREEDEPTH
 70
  3020
  9
$CMLSTYLE
  2
Standard
  9
$CMLJUST
 70
     0
  9
$CMLSCALE
 40
20.0
  9
$PROXYGRAPHICS
 70
     1
  9
$MEASUREMENT
 70
     1
  9
$CELWEIGHT
370
    -1
  9
$ENDCAPS
280
     0
  9
$JOINSTYLE
280
     0
  9
$LWDISPLAY
290
     1
  9
$INSUNITS
 70
     4
  9
$HYPERLINKBASE
  1

  9
$STYLESHEET
  1

  9
$XEDIT
290
     1
  9
$CEPSNTYPE
380
     0
  9
$PSTYLEMODE
290
     1
  9
$FINGERPRINTGUID
  2
{50ECCED7-51D0-482A-97E5-2EEE57233D5C}
  9
$VERSIONGUID
  2
{FAEB1C32-E019-11D5-929B-00C0DF256EC4}
  9
$EXTNAMES
290
     1
  9
$PSVPSCALE
 40
0.0
  9
$OLESTARTUP
290
     0
  0
ENDSEC
  0
SECTION
  2
CLASSES
  0
CLASS
  1
ACDBDICTIONARYWDFLT
  2
AcDbDictionaryWithDefault
  3
ObjectDBX Classes
 90
        0
280
     0
281
     0
  0
CLASS
  1
VISUALSTYLE
  2
AcDbVisualStyle
  3
ObjectDBX Classes
 90
     4095
280
     0
281
     0
  0
CLASS
  1
MATERIAL
  2
AcDbMaterial
  3
ObjectDBX Classes
 90
     1153
280
     0
281
     0
  0
CLASS
  1
SCALE
  2
AcDbScale
  3
ObjectDBX Classes
 90
     1153
280
     0
281
     0
  0
CLASS
  1
TABLESTYLE
  2
AcDbTableStyle
  3
ObjectDBX Classes
 90
     4095
280
     0
281
     0
  0
CLASS
  1
MLEADERSTYLE
  2
AcDbMLeaderStyle
  3
ACDB_MLEADERSTYLE_CLASS
 90
     4095
280
     0
281
     0
  0
CLASS
  1
SUN
  2
AcDbSun
  3
SCENEOE
 90
     1153
280
     0
281
     0
  0
CLASS
  1
ACDBPLACEHOLDER
  2
AcDbPlaceHolder
  3
ObjectDBX Classes
 90
        0
280
     0
281
     0
  0
CLASS
  1
LAYOUT
  2
AcDbLayout
  3
ObjectDBX Classes
 90
        0
280
     0
281
     0
  0
ENDSEC
  0
SECTION
  2
TABLES
  0
TABLE
  2
VPORT
  5
8
330
0
100
AcDbSymbolTable
 70
     1
  0
VPORT
  5
29
330
8
100
AcDbSymbolTableRecord
100
AcDbViewportTableRecord
  2
*Active
 70
     0
 10
0.0
 20
0.0
 11
1.0
 21
1.0
 12
157.5
 22
222.75
 13
0.0
 23
0.0
 14
10.0
 24
10.0
 15
10.0
 25
10.0
 16
0.0
 26
0.0
 36
1.0
 17
0.0
 27
0.0
 37
0.0
 40
445.5
 41
0.7070707071
 42
50.0
 43
0.0
 44
0.0
 50
0.0
 51
0.0
 71
     0
 72
  2000
 73
     1
 74
     3
 75
     0
 76
     0
 77
     0
 78
     0
281
     0
 65
     1
110
0.0
120
0.0
130
0.0
111
1.0
121
0.0
131
0.0
112
0.0
122
1.0
132
0.0
 79
     0
146
0.0
  0
ENDTAB
  0
TABLE
  2
LTYPE
  5
5
330
0
100
AcDbSymbolTable
 70
     8
  0
LTYPE
  5
14
330
5
100
AcDbSymbolTableRecord
100
AcDbLinetypeTableRecord
  2
ByBlock
 70
     0
  3

 72
    65
 73
     0
 40
0.0
  0
LTYPE
  5
15
330
5
100
AcDbSymbolTableRecord
100
AcDbLinetypeTableRecord
  2
ByLayer
 70
     0
  3

 72
    65
 73
     0
 40
0.0
  0
LTYPE
  5
16
330
5
100
AcDbSymbolTableRecord
100
AcDbLinetypeTableRecord
  2
Continuous
 70
     0
  3
Solid line
 72
    65
 73
     0
 40
0.0
  0
LTYPE
  5
6E
330
5
100
AcDbSymbolTableRecord
100
AcDbLinetypeTableRecord
  2
SLD-実線
 70
     0
  3
SolidWorks Line Style
 72
    65
 73
     0
 40
0.0
  0
LTYPE
  5
6F
330
5
100
AcDbSymbolTableRecord
100
AcDbLinetypeTableRecord
  2
SLD-破線
 70
     0
  3
SolidWorks Line Style
 72
    65
 73
     2
 40
1.905
 49
1.27
 74
     0
 49
-0.635
 74
     0
  0
LTYPE
  5
70
330
5
100
AcDbSymbolTableRecord
100
AcDbLinetypeTableRecord
  2
SLD-2点鎖線
 70
     0
  3
SolidWorks Line Style
 72
    65
 73
     6
 40
12.7
 49
6.35
 74
     0
 49
-1.27
 74
     0
 49
1.27
 74
     0
 49
-1.27
 74
     0
 49
1.27
 74
     0
 49
-1.27
 74
     0
  0
LTYPE
  5
71
330
5
100
AcDbSymbolTableRecord
100
AcDbLinetypeTableRecord
  2
SLD-鎖線
 70
     0
  3
SolidWorks Line Style
 72
    65
 73
     4
 40
10.16
 49
6.35
 74
     0
 49
-1.27
 74
     0
 49
1.27
 74
     0
 49
-1.27
 74
     0
  0
LTYPE
  5
72
330
5
100
AcDbSymbolTableRecord
100
AcDbLinetypeTableRecord
  2
SLD-1点鎖線(中心線)
 70
     0
  3
SolidWorks Line Style
 72
    65
 73
     4
 40
34.29
 49
30.48
 74
     0
 49
-1.27
 74
     0
 49
1.27
 74
     0
 49
-1.27
 74
     0
  0
LTYPE
  5
73
330
5
100
AcDbSymbolTableRecord
100
AcDbLinetypeTableRecord
  2
SLD-点線
 70
     0
  3
SolidWorks Line Style
 72
    65
 73
     2
 40
0.635
 49
0.0
 74
     0
 49
-0.635
 74
     0
  0
LTYPE
  5
74
330
5
100
AcDbSymbolTableRecord
100
AcDbLinetypeTableRecord
  2
SLD-細-太鎖線(切断面)
 70
     0
  3
SolidWorks Line Style
 72
    65
 73
     4
 40
10.16
 49
6.35
 74
     0
 49
-1.27
 74
     0
 49
1.27
 74
     0
 49
-1.27
 74
     0
  0
ENDTAB
  0
TABLE
  2
LAYER
  5
2
330
0
100
AcDbSymbolTable
 70
     1
  0
LAYER
  5
10
330
2
100
AcDbSymbolTableRecord
100
AcDbLayerTableRecord
  2
0
 70
     0
 62
     7
  6
Continuous
370
    -3
390
F
  0
ENDTAB
  0
TABLE
  2
STYLE
  5
3
330
0
100
AcDbSymbolTable
 70
     3
  0
STYLE
  5
11
330
3
100
AcDbSymbolTableRecord
100
AcDbTextStyleTableRecord
  2
STANDARD
 70
     0
 40
0.0
 41
1.0
 50
0.0
 71
     0
 42
5.25
  3
MSGOTHIC.TTC
  4

1001
ACAD
1000
ＭＳ ゴシック
1071
    32817
  0
STYLE
  5
7D
330
3
100
AcDbSymbolTableRecord
100
AcDbTextStyleTableRecord
  2
SLDTEXTSTYLE0
 70
     0
 40
0.0
 41
1.0
 50
0.0
 71
     0
 42
5.25
  3
MSGOTHIC.TTC
  4
bigfont
1001
ACAD
1000
ＭＳ ゴシック
1071
      305
  0
STYLE
  5
7F
330
3
100
AcDbSymbolTableRecord
100
AcDbTextStyleTableRecord
  2
SLDTEXTSTYLE1
 70
     0
 40
0.0
 41
1.0
 50
0.0
 71
     0
 42
5.25
  3
MSGOTHIC.TTC
  4

1001
ACAD
1000
ＭＳ ゴシック
1071
      305
  0
ENDTAB
  0
TABLE
  2
VIEW
  5
6
330
0
100
AcDbSymbolTable
 70
     0
  0
ENDTAB
  0
TABLE
  2
UCS
  5
7
330
0
100
AcDbSymbolTable
 70
     0
  0
ENDTAB
  0
TABLE
  2
APPID
  5
9
330
0
100
AcDbSymbolTable
 70
     1
  0
APPID
  5
12
330
9
100
AcDbSymbolTableRecord
100
AcDbRegAppTableRecord
  2
ACAD
 70
     0
  0
ENDTAB
  0
TABLE
  2
DIMSTYLE
  5
A
330
0
100
AcDbSymbolTable
 70
     5
100
AcDbDimStyleTable
  0
DIMSTYLE
105
27
330
A
100
AcDbSymbolTableRecord
100
AcDbDimStyleTableRecord
  2
ISO-25
 70
     0
 41
2.5
 42
0.625
 43
3.75
 44
1.25
 73
     0
 74
     0
 77
     1
 78
     8
140
2.5
141
2.5
143
0.0393700787
147
0.625
171
     3
172
     1
178
     0
271
     2
272
     2
274
     3
278
    44
283
     0
284
     8
340
11
  0
DIMSTYLE
105
155
102
{ACAD_REACTORS
330
154
330
162
330
17A
330
190
330
235
102
}
330
A
100
AcDbSymbolTableRecord
100
AcDbDimStyleTableRecord
  2
SLDDIMSTYLE0
 70
     0
 41
4.5
 44
0.0
 45
0.000000001
 73
     0
 74
     0
 77
     3
 78
    12
 79
     3
140
5.25
147
1.3125
172
     1
173
     1
178
     0
271
     1
272
     3
276
     2
284
    12
289
     0
340
7F
  0
DIMSTYLE
105
170
102
{ACAD_REACTORS
330
16F
330
186
330
19C
102
}
330
A
100
AcDbSymbolTableRecord
100
AcDbDimStyleTableRecord
  2
SLDDIMSTYLE1
 70
     0
 41
4.5
 44
0.0
 45
0.000000001
 73
     0
 74
     0
 77
     3
 78
    12
 79
     3
140
5.25
147
1.3125
173
     1
178
     0
271
     1
272
     3
276
     2
284
    12
340
7F
  0
DIMSTYLE
105
1AE
330
A
100
AcDbSymbolTableRecord
100
AcDbDimStyleTableRecord
  2
SLDDIMSTYLE2
 70
     0
 41
4.5
 44
0.0
 45
0.000000001
146
4.5
147
0.0
173
     1
178
     0
271
     0
272
     0
276
     2
340
11
  0
DIMSTYLE
105
22D
102
{ACAD_REACTORS
330
22C
102
}
330
A
100
AcDbSymbolTableRecord
100
AcDbDimStyleTableRecord
  2
SLDDIMSTYLE3
 70
     0
  3
<>
 41
4.5
 44
0.0
 45
0.000000001
 78
    12
 79
     3
140
5.25
141
0.0
147
1.3125
173
     1
178
     0
271
     1
272
     3
276
     2
284
    12
340
7F
  0
ENDTAB
  0
TABLE
  2
BLOCK_RECORD
  5
1
330
0
100
AcDbSymbolTable
 70
    13
  0
BLOCK_RECORD
  5
1F
330
1
100
AcDbSymbolTableRecord
100
AcDbBlockTableRecord
  2
*Model_Space
340
22
  0
BLOCK_RECORD
  5
1B
330
1
100
AcDbSymbolTableRecord
100
AcDbBlockTableRecord
  2
*Paper_Space
340
1E
  0
BLOCK_RECORD
  5
23
330
1
100
AcDbSymbolTableRecord
100
AcDbBlockTableRecord
  2
*Paper_Space0
340
26
  0
BLOCK_RECORD
  5
156
330
1
100
AcDbSymbolTableRecord
100
AcDbBlockTableRecord
  2
_D
340
0
  0
BLOCK_RECORD
  5
163
330
1
100
AcDbSymbolTableRecord
100
AcDbBlockTableRecord
  2
_D_1
340
0
  0
BLOCK_RECORD
  5
171
330
1
100
AcDbSymbolTableRecord
100
AcDbBlockTableRecord
  2
_D_2
340
0
  0
BLOCK_RECORD
  5
17B
330
1
100
AcDbSymbolTableRecord
100
AcDbBlockTableRecord
  2
_D_3
340
0
  0
BLOCK_RECORD
  5
187
330
1
100
AcDbSymbolTableRecord
100
AcDbBlockTableRecord
  2
_D_4
340
0
  0
BLOCK_RECORD
  5
191
330
1
100
AcDbSymbolTableRecord
100
AcDbBlockTableRecord
  2
_D_5
340
0
  0
BLOCK_RECORD
  5
19D
330
1
100
AcDbSymbolTableRecord
100
AcDbBlockTableRecord
  2
_D_6
340
0
  0
BLOCK_RECORD
  5
1A8
330
1
100
AcDbSymbolTableRecord
100
AcDbBlockTableRecord
  2
SW_NOTE_0
340
0
102
{BLKREFS
331
1AD
102
}
  0
BLOCK_RECORD
  5
1B0
330
1
100
AcDbSymbolTableRecord
100
AcDbBlockTableRecord
  2
SW_NOTE_1
340
0
102
{BLKREFS
331
1B5
102
}
  0
BLOCK_RECORD
  5
22E
330
1
100
AcDbSymbolTableRecord
100
AcDbBlockTableRecord
  2
_D_7
340
0
  0
BLOCK_RECORD
  5
236
330
1
100
AcDbSymbolTableRecord
100
AcDbBlockTableRecord
  2
_D_8
340
0
  0
BLOCK_RECORD
  5
241
330
1
100
AcDbSymbolTableRecord
100
AcDbBlockTableRecord
  2
SW_CENTERMARKSYMBOL_0
340
0
102
{BLKREFS
331
24C
102
}
  0
ENDTAB
  0
ENDSEC
  0
SECTION
  2
BLOCKS
  0
BLOCK
  5
20
330
1F
100
AcDbEntity
  8
0
100
AcDbBlockBegin
  2
*Model_Space
 70
     0
 10
0.0
 20
0.0
 30
0.0
  3
*Model_Space
  1

  0
ENDBLK
  5
21
330
1F
100
AcDbEntity
  8
0
100
AcDbBlockEnd
  0
BLOCK
  5
1C
330
1B
100
AcDbEntity
 67
     1
  8
0
100
AcDbBlockBegin
  2
*Paper_Space
 70
     0
 10
0.0
 20
0.0
 30
0.0
  3
*Paper_Space
  1

  0
ENDBLK
  5
1D
330
1B
100
AcDbEntity
 67
     1
  8
0
100
AcDbBlockEnd
  0
BLOCK
  5
24
330
23
100
AcDbEntity
  8
0
100
AcDbBlockBegin
  2
*Paper_Space0
 70
     0
 10
0.0
 20
0.0
 30
0.0
  3
*Paper_Space0
  1

  0
ENDBLK
  5
25
330
23
100
AcDbEntity
  8
0
100
AcDbBlockEnd
  0
BLOCK
  5
157
330
156
100
AcDbEntity
  8
0
100
AcDbBlockBegin
  2
_D
 70
     0
 10
0.0
 20
0.0
 30
0.0
  3
_D
  1

  0
SOLID
  5
159
330
156
100
AcDbEntity
  8
0
  6
SLD-実線
 62
     7
370
    18
100
AcDbTrace
 10
126.5006969771
 20
245.0244124198
 30
0.0
 11
127.6256969771
 21
249.5244124198
 31
0.0
 12
125.3756969771
 22
249.5244124198
 32
0.0
 13
125.3756969771
 23
249.5244124198
 33
0.0
  0
SOLID
  5
15A
330
156
100
AcDbEntity
  8
0
  6
SLD-実線
 62
     7
370
    18
100
AcDbTrace
 10
126.5006969771
 20
225.0244124198
 30
0.0
 11
125.3756969771
 21
220.5244124198
 31
0.0
 12
127.6256969771
 22
220.5244124198
 32
0.0
 13
127.6256969771
 23
220.5244124198
 33
0.0
  0
LINE
  5
15B
330
156
100
AcDbEntity
  8
0
  6
SLD-実線
 62
     7
370
    18
100
AcDbLine
 10
220.8937341631
 20
245.0244124198
 30
0.0
 11
125.0006969771
 21
245.0244124198
 31
0.0
  0
LINE
  5
15C
330
156
100
AcDbEntity
  8
0
  6
SLD-実線
 62
     7
370
    18
100
AcDbLine
 10
220.8937341631
 20
225.0244124198
 30
0.0
 11
125.0006969771
 21
225.0244124198
 31
0.0
  0
LINE
  5
15D
330
156
100
AcDbEntity
  8
0
  6
SLD-実線
 62
     7
370
    18
100
AcDbLine
 10
126.5006969771
 20
245.0244124198
 30
0.0
 11
126.5006969771
 21
252.5244124198
 31
0.0
  0
LINE
  5
15E
330
156
100
AcDbEntity
  8
0
  6
SLD-実線
 62
     7
370
    18
100
AcDbLine
 10
126.5006969771
 20
245.0244124198
 30
0.0
 11
126.5006969771
 21
225.0244124198
 31
0.0
  0
LINE
  5
15F
330
156
100
AcDbEntity
  8
0
  6
SLD-実線
 62
     7
370
    18
100
AcDbLine
 10
126.5006969771
 20
225.0244124198
 30
0.0
 11
126.5006969771
 21
217.5244124198
 31
0.0
  0
MTEXT
  5
160
330
156
100
AcDbEntity
  8
0
  6
SLD-実線
 62
     7
370
    18
100
AcDbMText
 10
120.3916057187
 20
229.0667561126
 30
0.0
 40
5.25
 41
0.0
 71
     1
 72
     1
  1
%%c
  7
SLDTEXTSTYLE1
 11
-7.044195017643634E-15
 21
1.0
 31
0.0
 73
     1
 44
1.0
  0
MTEXT
  5
161
330
156
100
AcDbEntity
  8
0
  6
SLD-実線
 62
     7
370
    18
100
AcDbMText
 10
120.3916057187
 20
234.8716518852
 30
0.0
 40
5.25
 41
0.0
 71
     1
 72
     1
  1
20
  7
SLDTEXTSTYLE1
 11
-7.044195017643634E-15
 21
1.0
 31
0.0
 73
     1
 44
1.0
  0
ENDBLK
  5
158
330
156
100
AcDbEntity
  8
0
100
AcDbBlockEnd
  0
BLOCK
  5
164
330
163
100
AcDbEntity
  8
0
100
AcDbBlockBegin
  2
_D_1
 70
     0
 10
0.0
 20
0.0
 30
0.0
  3
_D_1
  1

  0
SOLID
  5
166
330
163
100
AcDbEntity
  8
0
  6
SLD-実線
 62
     7
370
    18
100
AcDbTrace
 10
286.6937341631
 20
241.0244124198
 30
0.0
 11
287.8187341631
 21
245.5244124198
 31
0.0
 12
285.5687341631
 22
245.5244124198
 32
0.0
 13
285.5687341631
 23
245.5244124198
 33
0.0
  0
SOLID
  5
167
330
163
100
AcDbEntity
  8
0
  6
SLD-実線
 62
     7
370
    18
100
AcDbTrace
 10
286.6937341631
 20
229.0244124198
 30
0.0
 11
285.5687341631
 21
224.5244124198
 31
0.0
 12
287.8187341631
 22
224.5244124198
 32
0.0
 13
287.8187341631
 23
224.5244124198
 33
0.0
  0
LINE
  5
168
330
163
100
AcDbEntity
  8
0
  6
SLD-実線
 62
     7
370
    18
100
AcDbLine
 10
261.8937341631
 20
241.0244124198
 30
0.0
 11
288.1937341631
 21
241.0244124198
 31
0.0
  0
LINE
  5
169
330
163
100
AcDbEntity
  8
0
  6
SLD-実線
 62
     7
370
    18
100
AcDbLine
 10
261.8937341631
 20
229.0244124198
 30
0.0
 11
288.1937341631
 21
229.0244124198
 31
0.0
  0
LINE
  5
16A
330
163
100
AcDbEntity
  8
0
  6
SLD-実線
 62
     7
370
    18
100
AcDbLine
 10
286.6937341631
 20
241.0244124198
 30
0.0
 11
286.6937341631
 21
257.2674430609
 31
0.0
  0
LINE
  5
16B
330
163
100
AcDbEntity
  8
0
  6
SLD-実線
 62
     7
370
    18
100
AcDbLine
 10
286.6937341631
 20
241.0244124198
 30
0.0
 11
286.6937341631
 21
229.0244124198
 31
0.0
  0
LINE
  5
16C
330
163
100
AcDbEntity
  8
0
  6
SLD-実線
 62
     7
370
    18
100
AcDbLine
 10
286.6937341631
 20
229.0244124198
 30
0.0
 11
286.6937341631
 21
221.5244124198
 31
0.0
  0
MTEXT
  5
16D
330
163
100
AcDbEntity
  8
0
  6
SLD-実線
 62
     7
370
    18
100
AcDbMText
 10
280.5846429048
 20
245.3521304466
 30
0.0
 40
5.25
 41
0.0
 71
     1
 72
     1
  1
%%c
  7
SLDTEXTSTYLE1
 11
-7.044195017643634E-15
 21
1.0
 31
0.0
 73
     1
 44
1.0
  0
MTEXT
  5
16E
330
163
100
AcDbEntity
  8
0
  6
SLD-実線
 62
     7
370
    18
100
AcDbMText
 10
280.5846429048
 20
251.1570262192
 30
0.0
 40
5.25
 41
0.0
 71
     1
 72
     1
  1
12
  7
SLDTEXTSTYLE1
 11
-7.044195017643634E-15
 21
1.0
 31
0.0
 73
     1
 44
1.0
  0
ENDBLK
  5
165
330
163
100
AcDbEntity
  8
0
100
AcDbBlockEnd
  0
BLOCK
  5
172
330
171
100
AcDbEntity
  8
0
100
AcDbBlockBegin
  2
_D_2
 70
     0
 10
0.0
 20
0.0
 30
0.0
  3
_D_2
  1

  0
SOLID
  5
174
330
171
100
AcDbEntity
  8
0
  6
SLD-実線
 62
     7
370
    18
100
AcDbTrace
 10
271.6937341631
 20
274.684256735
 30
0.0
 11
267.1937341631
 21
275.809256735
 31
0.0
 12
267.1937341631
 22
273.559256735
 32
0.0
 13
267.1937341631
 23
273.559256735
 33
0.0
  0
SOLID
  5
175
330
171
100
AcDbEntity
  8
0
  6
SLD-実線
 62
     7
370
    18
100
AcDbTrace
 10
136.8937341631
 20
274.684256735
 30
0.0
 11
141.3937341631
 21
273.559256735
 31
0.0
 12
141.3937341631
 22
275.809256735
 32
0.0
 13
141.3937341631
 23
275.809256735
 33
0.0
  0
LINE
  5
176
330
171
100
AcDbEntity
  8
0
  6
SLD-実線
 62
     7
370
    18
100
AcDbLine
 10
271.6937341631
 20
238.5244124198
 30
0.0
 11
271.6937341631
 21
276.184256735
 31
0.0
  0
LINE
  5
177
330
171
100
AcDbEntity
  8
0
  6
SLD-実線
 62
     7
370
    18
100
AcDbLine
 10
136.8937341631
 20
240.0244124198
 30
0.0
 11
136.8937341631
 21
276.184256735
 31
0.0
  0
LINE
  5
178
330
171
100
AcDbEntity
  8
0
  6
SLD-実線
 62
     7
370
    18
100
AcDbLine
 10
271.6937341631
 20
274.684256735
 30
0.0
 11
136.8937341631
 21
274.684256735
 31
0.0
  0
MTEXT
  5
179
330
171
100
AcDbEntity
  8
0
  6
SLD-実線
 62
     7
370
    18
100
AcDbMText
 10
199.7109216192
 20
280.7933472949
 30
0.0
 40
5.25
 41
0.0
 71
     1
 72
     1
  1
135
  7
SLDTEXTSTYLE1
 73
     1
 44
1.0
  0
ENDBLK
  5
173
330
171
100
AcDbEntity
  8
0
100
AcDbBlockEnd
  0
BLOCK
  5
17C
330
17B
100
AcDbEntity
  8
0
100
AcDbBlockBegin
  2
_D_3
 70
     0
 10
0.0
 20
0.0
 30
0.0
  3
_D_3
  1

  0
SOLID
  5
17E
330
17B
100
AcDbEntity
  8
0
  6
SLD-実線
 62
     7
370
    18
100
AcDbTrace
 10
136.8937341631
 20
263.9440849991
 30
0.0
 11
132.3937341631
 21
265.0690849991
 31
0.0
 12
132.3937341631
 22
262.8190849991
 32
0.0
 13
132.3937341631
 23
262.8190849991
 33
0.0
  0
SOLID
  5
17F
330
17B
100
AcDbEntity
  8
0
  6
SLD-実線
 62
     7
370
    18
100
AcDbTrace
 10
139.8937341631
 20
263.9440849991
 30
0.0
 11
144.3937341631
 21
262.8190849991
 31
0.0
 12
144.3937341631
 22
265.0690849991
 32
0.0
 13
144.3937341631
 23
265.0690849991
 33
0.0
  0
LINE
  5
180
330
17B
100
AcDbEntity
  8
0
  6
SLD-実線
 62
     7
370
    18
100
AcDbLine
 10
136.8937341631
 20
240.0244124198
 30
0.0
 11
136.8937341631
 21
265.4440849991
 31
0.0
  0
LINE
  5
181
330
17B
100
AcDbEntity
  8
0
  6
SLD-実線
 62
     7
370
    18
100
AcDbLine
 10
139.8937341631
 20
245.5244124198
 30
0.0
 11
139.8937341631
 21
265.4440849991
 31
0.0
  0
LINE
  5
182
330
17B
100
AcDbEntity
  8
0
  6
SLD-実線
 62
     7
370
    18
100
AcDbLine
 10
136.8937341631
 20
263.9440849991
 30
0.0
 11
125.3387472444
 21
263.9440849991
 31
0.0
  0
LINE
  5
183
330
17B
100
AcDbEntity
  8
0
  6
SLD-実線
 62
     7
370
    18
100
AcDbLine
 10
136.8937341631
 20
263.9440849991
 30
0.0
 11
139.8937341631
 21
263.9440849991
 31
0.0
  0
LINE
  5
184
330
17B
100
AcDbEntity
  8
0
  6
SLD-実線
 62
     7
370
    18
100
AcDbLine
 10
139.8937341631
 20
263.9440849991
 30
0.0
 11
147.3937341631
 21
263.9440849991
 31
0.0
  0
MTEXT
  5
185
330
17B
100
AcDbEntity
  8
0
  6
SLD-実線
 62
     7
370
    18
100
AcDbMText
 10
125.3387472444
 20
270.0531755589
 30
0.0
 40
5.25
 41
0.0
 71
     1
 72
     1
  1
3
  7
SLDTEXTSTYLE1
 73
     1
 44
1.0
  0
ENDBLK
  5
17D
330
17B
100
AcDbEntity
  8
0
100
AcDbBlockEnd
  0
BLOCK
  5
188
330
187
100
AcDbEntity
  8
0
100
AcDbBlockBegin
  2
_D_4
 70
     0
 10
0.0
 20
0.0
 30
0.0
  3
_D_4
  1

  0
SOLID
  5
18A
330
187
100
AcDbEntity
  8
0
  6
SLD-実線
 62
     7
370
    18
100
AcDbTrace
 10
139.8937341631
 20
263.9440849991
 30
0.0
 11
144.3937341631
 21
262.8190849991
 31
0.0
 12
144.3937341631
 22
265.0690849991
 32
0.0
 13
144.3937341631
 23
265.0690849991
 33
0.0
  0
SOLID
  5
18B
330
187
100
AcDbEntity
  8
0
  6
SLD-実線
 62
     7
370
    18
100
AcDbTrace
 10
244.8937341631
 20
263.9440849991
 30
0.0
 11
240.3937341631
 21
265.0690849991
 31
0.0
 12
240.3937341631
 22
262.8190849991
 32
0.0
 13
240.3937341631
 23
262.8190849991
 33
0.0
  0
LINE
  5
18C
330
187
100
AcDbEntity
  8
0
  6
SLD-実線
 62
     7
370
    18
100
AcDbLine
 10
139.8937341631
 20
245.5244124198
 30
0.0
 11
139.8937341631
 21
265.4440849991
 31
0.0
  0
LINE
  5
18D
330
187
100
AcDbEntity
  8
0
  6
SLD-実線
 62
     7
370
    18
100
AcDbLine
 10
244.8937341631
 20
245.0244124198
 30
0.0
 11
244.8937341631
 21
265.4440849991
 31
0.0
  0
LINE
  5
18E
330
187
100
AcDbEntity
  8
0
  6
SLD-実線
 62
     7
370
    18
100
AcDbLine
 10
139.8937341631
 20
263.9440849991
 30
0.0
 11
244.8937341631
 21
263.9440849991
 31
0.0
  0
MTEXT
  5
18F
330
187
100
AcDbEntity
  8
0
  6
SLD-実線
 62
     7
370
    18
100
AcDbMText
 10
187.8109216192
 20
270.0531755589
 30
0.0
 40
5.25
 41
0.0
 71
     1
 72
     1
  1
105
  7
SLDTEXTSTYLE1
 73
     1
 44
1.0
  0
ENDBLK
  5
189
330
187
100
AcDbEntity
  8
0
100
AcDbBlockEnd
  0
BLOCK
  5
192
330
191
100
AcDbEntity
  8
0
100
AcDbBlockBegin
  2
_D_5
 70
     0
 10
0.0
 20
0.0
 30
0.0
  3
_D_5
  1

  0
SOLID
  5
194
330
191
100
AcDbEntity
  8
0
  6
SLD-実線
 62
     7
370
    18
100
AcDbTrace
 10
260.8937341631
 20
263.9440849991
 30
0.0
 11
265.3937341631
 21
262.8190849991
 31
0.0
 12
265.3937341631
 22
265.0690849991
 32
0.0
 13
265.3937341631
 23
265.0690849991
 33
0.0
  0
SOLID
  5
195
330
191
100
AcDbEntity
  8
0
  6
SLD-実線
 62
     7
370
    18
100
AcDbTrace
 10
244.8937341631
 20
263.9440849991
 30
0.0
 11
240.3937341631
 21
265.0690849991
 31
0.0
 12
240.3937341631
 22
262.8190849991
 32
0.0
 13
240.3937341631
 23
262.8190849991
 33
0.0
  0
LINE
  5
196
330
191
100
AcDbEntity
  8
0
  6
SLD-実線
 62
     7
370
    18
100
AcDbLine
 10
260.8937341631
 20
242.0244124198
 30
0.0
 11
260.8937341631
 21
265.4440849991
 31
0.0
  0
LINE
  5
197
330
191
100
AcDbEntity
  8
0
  6
SLD-実線
 62
     7
370
    18
100
AcDbLine
 10
244.8937341631
 20
245.0244124198
 30
0.0
 11
244.8937341631
 21
265.4440849991
 31
0.0
  0
LINE
  5
198
330
191
100
AcDbEntity
  8
0
  6
SLD-実線
 62
     7
370
    18
100
AcDbLine
 10
260.8937341631
 20
263.9440849991
 30
0.0
 11
268.3937341631
 21
263.9440849991
 31
0.0
  0
LINE
  5
199
330
191
100
AcDbEntity
  8
0
  6
SLD-実線
 62
     7
370
    18
100
AcDbLine
 10
260.8937341631
 20
263.9440849991
 30
0.0
 11
244.8937341631
 21
263.9440849991
 31
0.0
  0
LINE
  5
19A
330
191
100
AcDbEntity
  8
0
  6
SLD-実線
 62
     7
370
    18
100
AcDbLine
 10
244.8937341631
 20
263.9440849991
 30
0.0
 11
237.3937341631
 21
263.9440849991
 31
0.0
  0
MTEXT
  5
19B
330
191
100
AcDbEntity
  8
0
  6
SLD-実線
 62
     7
370
    18
100
AcDbMText
 10
249.8385259169
 20
270.0531755589
 30
0.0
 40
5.25
 41
0.0
 71
     1
 72
     1
  1
16
  7
SLDTEXTSTYLE1
 73
     1
 44
1.0
  0
ENDBLK
  5
193
330
191
100
AcDbEntity
  8
0
100
AcDbBlockEnd
  0
BLOCK
  5
19E
330
19D
100
AcDbEntity
  8
0
100
AcDbBlockBegin
  2
_D_6
 70
     0
 10
0.0
 20
0.0
 30
0.0
  3
_D_6
  1

  0
ARC
  5
1A0
330
19D
100
AcDbEntity
  8
0
  6
SLD-実線
 62
     7
370
    18
100
AcDbCircle
 10
109.8385259169
 20
235.7511547027
 30
0.0
 40
6.83165332397393
100
AcDbArc
 50
243.4349488229
 51
296.5650511771
  0
ARC
  5
1A1
330
19D
100
AcDbEntity
  8
0
  6
SLD-実線
 62
     7
370
    18
100
AcDbCircle
 10
109.8385259169
 20
235.7511547027
 30
0.0
 40
6.83165332397398
100
AcDbArc
 50
63.4349488229
 51
116.5650511771
  0
SOLID
  5
1A2
330
19D
100
AcDbEntity
  8
0
  6
SLD-実線
 62
     7
370
    18
100
AcDbTrace
 10
112.8937341631
 20
253.8244124198
 30
0.0
 11
111.7687341631
 21
249.3244124198
 31
0.0
 12
114.0187341631
 22
249.3244124198
 32
0.0
 13
114.0187341631
 23
249.3244124198
 33
0.0
  0
SOLID
  5
1A3
330
19D
100
AcDbEntity
  8
0
  6
SLD-実線
 62
     7
370
    18
100
AcDbTrace
 10
112.8937341631
 20
217.6778971603
 30
0.0
 11
114.0187341631
 21
222.1778971603
 31
0.0
 12
111.7687341631
 22
222.1778971603
 32
0.0
 13
111.7687341631
 23
222.1778971603
 33
0.0
  0
LINE
  5
1A4
330
19D
100
AcDbEntity
  8
0
  6
SLD-実線
 62
     7
370
    18
100
AcDbLine
 10
236.8937341631
 20
253.8244124198
 30
0.0
 11
111.3937341631
 21
253.8244124198
 31
0.0
  0
LINE
  5
1A5
330
19D
100
AcDbEntity
  8
0
  6
SLD-実線
 62
     7
370
    18
100
AcDbLine
 10
183.8264247795
 20
217.6778971603
 30
0.0
 11
111.3937341631
 21
217.6778971603
 31
0.0
  0
LINE
  5
1A6
330
19D
100
AcDbEntity
  8
0
  6
SLD-実線
 62
     7
370
    18
100
AcDbLine
 10
112.8937341631
 20
253.8244124198
 30
0.0
 11
112.8937341631
 21
217.6778971603
 31
0.0
  0
MTEXT
  5
1A7
330
19D
100
AcDbEntity
  8
0
  6
SLD-実線
 62
     7
370
    18
100
AcDbMText
 10
106.7846436033
 20
229.6407382103
 30
0.0
 40
5.25
 41
0.0
 71
     1
 72
     1
  1
36.5
  7
SLDTEXTSTYLE1
 11
-7.044195017643634E-15
 21
1.0
 31
0.0
 73
     1
 44
1.0
  0
ENDBLK
  5
19F
330
19D
100
AcDbEntity
  8
0
100
AcDbBlockEnd
  0
BLOCK
  5
1A9
330
1A8
100
AcDbEntity
  8
0
100
AcDbBlockBegin
  2
SW_NOTE_0
 70
     0
 10
0.0
 20
0.0
 30
0.0
  3
SW_NOTE_0
  1

  0
LINE
  5
1AB
330
1A8
100
AcDbEntity
  8
0
  6
SLD-実線
 62
     0
370
     0
100
AcDbLine
 10
12.0304776549
 20
0.0
 30
0.0
 11
0.0
 21
0.0
 31
0.0
  0
MTEXT
  5
1AC
330
1A8
100
AcDbEntity
  8
0
  6
Continuous
 62
     0
370
     0
100
AcDbMText
 10
0.6165840011
 20
6.1498231359
 30
0.0
 40
5.25
 41
0.0
 71
     1
 72
     1
  1
BF-5
  7
SLDTEXTSTYLE1
 73
     1
 44
1.0
  0
ENDBLK
  5
1AA
330
1A8
100
AcDbEntity
  8
0
100
AcDbBlockEnd
  0
BLOCK
  5
1B1
330
1B0
100
AcDbEntity
  8
0
100
AcDbBlockBegin
  2
SW_NOTE_1
 70
     0
 10
0.0
 20
0.0
 30
0.0
  3
SW_NOTE_1
  1

  0
LINE
  5
1B3
330
1B0
100
AcDbEntity
  8
0
  6
SLD-実線
 62
     0
370
     0
100
AcDbLine
 10
12.0304776549
 20
0.0
 30
0.0
 11
0.0
 21
0.0
 31
0.0
  0
MTEXT
  5
1B4
330
1B0
100
AcDbEntity
  8
0
  6
Continuous
 62
     0
370
     0
100
AcDbMText
 10
0.7405586583
 20
6.1645667171
 30
0.0
 40
5.25
 41
0.0
 71
     1
 72
     1
  1
BF-6
  7
SLDTEXTSTYLE1
 73
     1
 44
1.0
  0
ENDBLK
  5
1B2
330
1B0
100
AcDbEntity
  8
0
100
AcDbBlockEnd
  0
BLOCK
  5
22F
330
22E
100
AcDbEntity
  8
0
100
AcDbBlockBegin
  2
_D_7
 70
     0
 10
0.0
 20
0.0
 30
0.0
  3
_D_7
  1

  0
SOLID
  5
231
330
22E
100
AcDbEntity
  8
0
  6
SLD-実線
 62
     7
370
    18
100
AcDbTrace
 10
59.7469033709
 20
233.2057590718
 30
0.0
 11
61.0226247916
 21
228.7461447548
 31
0.0
 12
62.9711819501
 22
229.8711447548
 32
0.0
 13
62.9711819501
 23
229.8711447548
 33
0.0
  0
LINE
  5
232
330
22E
100
AcDbEntity
  8
0
  6
SLD-実線
 62
     7
370
    18
100
AcDbLine
 10
59.7469033709
 20
233.2057590718
 30
0.0
 11
77.3721726633
 21
202.6778971603
 31
0.0
  0
LINE
  5
233
330
22E
100
AcDbEntity
  8
0
  6
SLD-実線
 62
     7
370
    18
100
AcDbLine
 10
77.3721726633
 20
202.6778971603
 30
0.0
 11
98.0846714421
 21
202.6778971603
 31
0.0
  0
MTEXT
  5
234
330
22E
100
AcDbEntity
  8
0
  6
SLD-実線
 62
     7
370
    18
100
AcDbMText
 10
79.7534226633
 20
208.7869877202
 30
0.0
 40
5.25
 41
0.0
 71
     1
 72
     1
  1
M5深10
  7
SLDTEXTSTYLE0
 73
     1
 44
1.0
  0
ENDBLK
  5
230
330
22E
100
AcDbEntity
  8
0
100
AcDbBlockEnd
  0
BLOCK
  5
237
330
236
100
AcDbEntity
  8
0
100
AcDbBlockBegin
  2
_D_8
 70
     0
 10
0.0
 20
0.0
 30
0.0
  3
_D_8
  1

  0
SOLID
  5
239
330
236
100
AcDbEntity
  8
0
  6
SLD-実線
 62
     7
370
    18
100
AcDbTrace
 10
50.1969033709
 20
202.6778971603
 30
0.0
 11
45.6969033709
 21
203.8028971603
 31
0.0
 12
45.6969033709
 22
201.5528971603
 32
0.0
 13
45.6969033709
 23
201.5528971603
 33
0.0
  0
SOLID
  5
23A
330
236
100
AcDbEntity
  8
0
  6
SLD-実線
 62
     7
370
    18
100
AcDbTrace
 10
67.1969033709
 20
202.6778971603
 30
0.0
 11
71.6969033709
 21
201.5528971603
 31
0.0
 12
71.6969033709
 22
203.8028971603
 32
0.0
 13
71.6969033709
 23
203.8028971603
 33
0.0
  0
LINE
  5
23B
330
236
100
AcDbEntity
  8
0
  6
SLD-実線
 62
     7
370
    18
100
AcDbLine
 10
50.1969033709
 20
230.5663725282
 30
0.0
 11
50.1969033709
 21
201.1778971603
 31
0.0
  0
LINE
  5
23C
330
236
100
AcDbEntity
  8
0
  6
SLD-実線
 62
     7
370
    18
100
AcDbLine
 10
67.1969033709
 20
230.5663725282
 30
0.0
 11
67.1969033709
 21
201.1778971603
 31
0.0
  0
LINE
  5
23D
330
236
100
AcDbEntity
  8
0
  6
SLD-実線
 62
     7
370
    18
100
AcDbLine
 10
50.1969033709
 20
202.6778971603
 30
0.0
 11
42.6969033709
 21
202.6778971603
 31
0.0
  0
LINE
  5
23E
330
236
100
AcDbEntity
  8
0
  6
SLD-実線
 62
     7
370
    18
100
AcDbLine
 10
50.1969033709
 20
202.6778971603
 30
0.0
 11
67.1969033709
 21
202.6778971603
 31
0.0
  0
LINE
  5
23F
330
236
100
AcDbEntity
  8
0
  6
SLD-実線
 62
     7
370
    18
100
AcDbLine
 10
67.1969033709
 20
202.6778971603
 30
0.0
 11
74.6969033709
 21
202.6778971603
 31
0.0
  0
MTEXT
  5
240
330
236
100
AcDbEntity
  8
0
  6
SLD-実線
 62
     7
370
    18
100
AcDbMText
 10
55.6416951247
 20
208.7869877202
 30
0.0
 40
5.25
 41
0.0
 71
     1
 72
     1
  1
17
  7
SLDTEXTSTYLE1
 73
     1
 44
1.0
  0
ENDBLK
  5
238
330
236
100
AcDbEntity
  8
0
100
AcDbBlockEnd
  0
BLOCK
  5
242
330
241
100
AcDbEntity
  8
0
100
AcDbBlockBegin
  2
SW_CENTERMARKSYMBOL_0
 70
     0
 10
0.0
 20
0.0
 30
0.0
  3
SW_CENTERMARKSYMBOL_0
  1

  0
LINE
  5
244
330
241
100
AcDbEntity
  8
0
  6
SLD-実線
 62
     0
370
    18
100
AcDbLine
 10
0.0
 20
0.0
 30
0.0
 11
0.0
 21
2.5
 31
0.0
  0
LINE
  5
245
330
241
100
AcDbEntity
  8
0
  6
SLD-実線
 62
     0
370
    18
100
AcDbLine
 10
0.0
 20
0.0
 30
0.0
 11
-2.5
 21
0.0
 31
0.0
  0
LINE
  5
246
330
241
100
AcDbEntity
  8
0
  6
SLD-実線
 62
     0
370
    18
100
AcDbLine
 10
0.0
 20
0.0
 30
0.0
 11
0.0
 21
-2.5
 31
0.0
  0
LINE
  5
247
330
241
100
AcDbEntity
  8
0
  6
SLD-実線
 62
     0
370
    18
100
AcDbLine
 10
0.0
 20
0.0
 30
0.0
 11
2.5
 21
0.0
 31
0.0
  0
LINE
  5
248
330
241
100
AcDbEntity
  8
0
  6
SLD-実線
 62
     0
370
    18
100
AcDbLine
 10
0.0
 20
5.0
 30
0.0
 11
0.0
 21
11.5
 31
0.0
  0
LINE
  5
249
330
241
100
AcDbEntity
  8
0
  6
SLD-実線
 62
     0
370
    18
100
AcDbLine
 10
-5.0
 20
0.0
 30
0.0
 11
-11.5
 21
0.0
 31
0.0
  0
LINE
  5
24A
330
241
100
AcDbEntity
  8
0
  6
SLD-実線
 62
     0
370
    18
100
AcDbLine
 10
0.0
 20
-5.0
 30
0.0
 11
0.0
 21
-11.5
 31
0.0
  0
LINE
  5
24B
330
241
100
AcDbEntity
  8
0
  6
SLD-実線
 62
     0
370
    18
100
AcDbLine
 10
5.0
 20
0.0
 30
0.0
 11
11.5
 21
0.0
 31
0.0
  0
ENDBLK
  5
243
330
241
100
AcDbEntity
  8
0
100
AcDbBlockEnd
  0
ENDSEC
  0
SECTION
  2
ENTITIES
  0
LINE
  5
75
330
1F
100
AcDbEntity
  8
0
  6
SLD-実線
 62
     7
370
    18
100
AcDbLine
 10
30.3907115855
 20
427.5
 30
0.0
 11
295.1407115855
 21
427.5
 31
0.0
  0
LINE
  5
76
330
1F
100
AcDbEntity
  8
0
  6
SLD-実線
 62
     7
370
    18
100
AcDbLine
 10
30.3907115855
 20
427.5
 30
0.0
 11
30.3907115855
 21
15.0
 31
0.0
  0
LINE
  5
77
330
1F
100
AcDbEntity
  8
0
  6
SLD-実線
 62
     7
370
    18
100
AcDbLine
 10
30.3907115855
 20
15.0
 30
0.0
 11
295.1407115855
 21
15.0
 31
0.0
  0
LINE
  5
78
330
1F
100
AcDbEntity
  8
0
  6
SLD-実線
 62
     7
370
    18
100
AcDbLine
 10
295.1407115855
 20
427.5
 30
0.0
 11
295.1407115855
 21
15.0
 31
0.0
  0
LINE
  5
79
330
1F
100
AcDbEntity
  8
0
  6
SLD-実線
 62
     7
370
    18
100
AcDbLine
 10
190.5157115855
 20
76.125
 30
0.0
 11
295.1407115855
 21
76.125
 31
0.0
  0
LINE
  5
7A
330
1F
100
AcDbEntity
  8
0
  6
SLD-実線
 62
     7
370
    18
100
AcDbLine
 10
190.5157115855
 20
76.125
 30
0.0
 11
190.5157115855
 21
15.0
 31
0.0
  0
LINE
  5
7B
330
1F
100
AcDbEntity
  8
0
  6
SLD-実線
 62
     7
370
    18
100
AcDbLine
 10
190.5157115855
 20
34.125
 30
0.0
 11
295.1407115855
 21
34.125
 31
0.0
  0
LINE
  5
7C
330
1F
100
AcDbEntity
  8
0
  6
SLD-実線
 62
     7
370
    18
100
AcDbLine
 10
190.5157115855
 20
55.125
 30
0.0
 11
295.1407115855
 21
55.125
 31
0.0
  0
MTEXT
  5
7E
330
1F
100
AcDbEntity
  8
0
  6
Continuous
 62
     7
370
     0
100
AcDbMText
 10
192.0497724955
 20
68.7078228422
 30
0.0
 40
5.159375
 41
0.0
 71
     1
 72
     1
  1
吸着複合シリンダー(センサー付)
  7
SLDTEXTSTYLE0
 73
     1
 44
1.0
  0
MTEXT
  5
80
330
1F
100
AcDbEntity
  8
0
  6
Continuous
 62
     7
370
     0
100
AcDbMText
 10
226.4969559512
 20
48.1917800964
 30
0.0
 40
6.35
 41
0.0
 71
     1
 72
     1
  1
VMCP-30-C
  7
SLDTEXTSTYLE1
 73
     1
 44
1.0
  0
MTEXT
  5
81
330
1F
100
AcDbEntity
  8
0
  6
Continuous
 62
     7
370
     0
100
AcDbMText
 10
232.8469558745
 20
27.4485550498
 30
0.0
 40
6.35
 41
0.0
 71
     1
 72
     1
  1
211139
  7
SLDTEXTSTYLE1
 73
     1
 44
1.0
  0
LINE
  5
82
330
1F
100
AcDbEntity
  8
0
  6
SLD-実線
 62
     7
370
    18
100
AcDbLine
 10
137.3937341631
 20
239.0244124198
 30
0.0
 11
136.8937341631
 21
238.5244124198
 31
0.0
  0
LINE
  5
83
330
1F
100
AcDbEntity
  8
0
  6
SLD-実線
 62
     7
370
    18
100
AcDbLine
 10
136.8937341631
 20
231.5244124198
 30
0.0
 11
137.3937341631
 21
231.0244124198
 31
0.0
  0
LINE
  5
84
330
1F
100
AcDbEntity
  8
0
  6
SLD-実線
 62
     7
370
    18
100
AcDbLine
 10
137.3937341631
 20
231.0244124198
 30
0.0
 11
139.8937341631
 21
231.0244124198
 31
0.0
  0
LINE
  5
85
330
1F
100
AcDbEntity
  8
0
  6
SLD-実線
 62
     7
370
    18
100
AcDbLine
 10
139.8937341631
 20
239.0244124198
 30
0.0
 11
137.3937341631
 21
239.0244124198
 31
0.0
  0
LINE
  5
86
330
1F
100
AcDbEntity
  8
0
  6
SLD-実線
 62
     7
370
    18
100
AcDbLine
 10
140.8937341631
 20
225.0244124198
 30
0.0
 11
185.3264247795
 21
225.0244124198
 31
0.0
  0
LINE
  5
87
330
1F
100
AcDbEntity
  8
0
  6
SLD-実線
 62
     7
370
    18
100
AcDbLine
 10
195.3264247795
 20
225.2778971603
 30
0.0
 11
195.6264247795
 21
225.0244124198
 31
0.0
  0
LINE
  5
88
330
1F
100
AcDbEntity
  8
0
  6
SLD-実線
 62
     7
370
    18
100
AcDbLine
 10
201.6264247795
 20
224.8244124198
 30
0.0
 11
201.9264247795
 21
225.0244124198
 31
0.0
  0
LINE
  5
89
330
1F
100
AcDbEntity
  8
0
  6
SLD-実線
 62
     7
370
    18
100
AcDbLine
 10
211.9264247795
 20
225.0244124198
 30
0.0
 11
222.3937341631
 21
225.0244124198
 31
0.0
  0
LINE
  5
8A
330
1F
100
AcDbEntity
  8
0
  6
SLD-実線
 62
     7
370
    18
100
AcDbLine
 10
222.3937341631
 20
245.0244124198
 30
0.0
 11
203.1264247795
 21
245.1778971603
 31
0.0
  0
LINE
  5
8B
330
1F
100
AcDbEntity
  8
0
  6
SLD-実線
 62
     7
370
    18
100
AcDbLine
 10
194.1264247795
 20
245.1778971603
 30
0.0
 11
140.8937341631
 21
245.0244124198
 31
0.0
  0
LINE
  5
8C
330
1F
100
AcDbEntity
  8
0
  6
SLD-実線
 62
     7
370
    18
100
AcDbLine
 10
139.8937341631
 20
226.0244124198
 30
0.0
 11
140.8937341631
 21
225.0244124198
 31
0.0
  0
LINE
  5
8D
330
1F
100
AcDbEntity
  8
0
  6
SLD-実線
 62
     7
370
    18
100
AcDbLine
 10
140.8937341631
 20
245.0244124198
 30
0.0
 11
139.8937341631
 21
244.0244124198
 31
0.0
  0
LINE
  5
8E
330
1F
100
AcDbEntity
  8
0
  6
SLD-実線
 62
     7
370
    18
100
AcDbLine
 10
235.3937341631
 20
245.0244124198
 30
0.0
 11
222.3937341631
 21
245.0244124198
 31
0.0
  0
LINE
  5
8F
330
1F
100
AcDbEntity
  8
0
  6
SLD-実線
 62
     7
370
    18
100
AcDbLine
 10
222.3937341631
 20
225.0244124198
 30
0.0
 11
235.3937341631
 21
225.0244124198
 31
0.0
  0
ARC
  5
90
330
1F
100
AcDbEntity
  8
0
  6
SLD-実線
 62
     7
370
    18
100
AcDbCircle
 10
245.3937341631
 20
228.5244124198
 30
0.0
 40
0.5
100
AcDbArc
 50
90.0
 51
180.0
  0
ARC
  5
91
330
1F
100
AcDbEntity
  8
0
  6
SLD-実線
 62
     7
370
    18
100
AcDbCircle
 10
245.3937341631
 20
241.5244124198
 30
0.0
 40
0.5
100
AcDbArc
 50
180.0
 51
270.0
  0
LINE
  5
92
330
1F
100
AcDbEntity
  8
0
  6
SLD-実線
 62
     7
370
    18
100
AcDbLine
 10
245.3937341631
 20
229.0244124198
 30
0.0
 11
260.3937341631
 21
229.0244124198
 31
0.0
  0
LINE
  5
93
330
1F
100
AcDbEntity
  8
0
  6
SLD-実線
 62
     7
370
    18
100
AcDbLine
 10
260.3937341631
 20
241.0244124198
 30
0.0
 11
245.3937341631
 21
241.0244124198
 31
0.0
  0
LINE
  5
94
330
1F
100
AcDbEntity
  8
0
  6
SLD-実線
 62
     7
370
    18
100
AcDbLine
 10
260.3937341631
 20
229.0244124198
 30
0.0
 11
260.8937341631
 21
229.5244124198
 31
0.0
  0
LINE
  5
95
330
1F
100
AcDbEntity
  8
0
  6
SLD-実線
 62
     7
370
    18
100
AcDbLine
 10
260.8937341631
 20
240.5244124198
 30
0.0
 11
260.3937341631
 21
241.0244124198
 31
0.0
  0
LINE
  5
96
330
1F
100
AcDbEntity
  8
0
  6
SLD-実線
 62
     7
370
    18
100
AcDbLine
 10
241.6437341631
 20
248.8244124198
 30
0.0
 11
241.6437341631
 21
251.3244124198
 31
0.0
  0
LINE
  5
97
330
1F
100
AcDbEntity
  8
0
  6
SLD-実線
 62
     7
370
    18
100
AcDbLine
 10
238.2406418663
 20
251.3244124198
 30
0.0
 11
238.1437341631
 21
248.8244124198
 31
0.0
  0
LINE
  5
98
330
1F
100
AcDbEntity
  8
0
  6
SLD-実線
 62
     7
370
    18
100
AcDbLine
 10
241.6437341631
 20
251.3244124198
 30
0.0
 11
241.3937341631
 21
253.8244124198
 31
0.0
  0
LINE
  5
99
330
1F
100
AcDbEntity
  8
0
  6
SLD-実線
 62
     7
370
    18
100
AcDbLine
 10
238.3937341631
 20
253.8244124198
 30
0.0
 11
238.1437341631
 21
251.3244124198
 31
0.0
  0
LINE
  5
9A
330
1F
100
AcDbEntity
  8
0
  6
SLD-実線
 62
     7
370
    18
100
AcDbLine
 10
238.2406418663
 20
248.8244124198
 30
0.0
 11
238.2937341631
 21
246.8244124198
 31
0.0
  0
LINE
  5
9B
330
1F
100
AcDbEntity
  8
0
  6
SLD-実線
 62
     7
370
    18
100
AcDbLine
 10
241.4937341631
 20
246.8244124198
 30
0.0
 11
241.6437341631
 21
248.8244124198
 31
0.0
  0
LINE
  5
9C
330
1F
100
AcDbEntity
  8
0
  6
SLD-実線
 62
     7
370
    18
100
AcDbLine
 10
266.6937341631
 20
232.6744124198
 30
0.0
 11
269.1937341631
 21
233.0244124198
 31
0.0
  0
LINE
  5
9D
330
1F
100
AcDbEntity
  8
0
  6
SLD-実線
 62
     7
370
    18
100
AcDbLine
 10
269.1937341631
 20
237.0595721187
 30
0.0
 11
266.6937341631
 21
237.3744124198
 31
0.0
  0
LINE
  5
9E
330
1F
100
AcDbEntity
  8
0
  6
SLD-実線
 62
     7
370
    18
100
AcDbLine
 10
269.1937341631
 20
232.6744124198
 30
0.0
 11
271.6937341631
 21
233.0244124198
 31
0.0
  0
LINE
  5
9F
330
1F
100
AcDbEntity
  8
0
  6
SLD-実線
 62
     7
370
    18
100
AcDbLine
 10
271.6937341631
 20
237.0244124198
 30
0.0
 11
269.1937341631
 21
237.3744124198
 31
0.0
  0
LINE
  5
A0
330
1F
100
AcDbEntity
  8
0
  6
SLD-実線
 62
     7
370
    18
100
AcDbLine
 10
266.6937341631
 20
237.0595721187
 30
0.0
 11
264.1937341631
 21
237.1244124198
 31
0.0
  0
LINE
  5
A1
330
1F
100
AcDbEntity
  8
0
  6
SLD-実線
 62
     7
370
    18
100
AcDbLine
 10
264.1937341631
 20
232.9244124198
 30
0.0
 11
266.6937341631
 21
232.6744124198
 31
0.0
  0
LINE
  5
A2
330
1F
100
AcDbEntity
  8
0
  6
SLD-実線
 62
     7
370
    18
100
AcDbLine
 10
235.8937341631
 20
244.3244124198
 30
0.0
 11
235.3937341631
 21
243.5244124198
 31
0.0
  0
LINE
  5
A3
330
1F
100
AcDbEntity
  8
0
  6
SLD-実線
 62
     7
370
    18
100
AcDbLine
 10
244.3937341631
 20
243.5244124198
 30
0.0
 11
243.8937341631
 21
244.3244124198
 31
0.0
  0
LINE
  5
A4
330
1F
100
AcDbEntity
  8
0
  6
SLD-実線
 62
     7
370
    18
100
AcDbLine
 10
261.6937341631
 20
239.0244124198
 30
0.0
 11
260.8937341631
 21
239.0244124198
 31
0.0
  0
LINE
  5
A5
330
1F
100
AcDbEntity
  8
0
  6
SLD-実線
 62
     7
370
    18
100
AcDbLine
 10
260.8937341631
 20
231.0244124198
 30
0.0
 11
261.6937341631
 21
231.0244124198
 31
0.0
  0
LINE
  5
A6
330
1F
100
AcDbEntity
  8
0
  6
SLD-実線
 62
     7
370
    18
100
AcDbLine
 10
212.3264247795
 20
222.0778971603
 30
0.0
 11
217.3264247795
 21
222.0778971603
 31
0.0
  0
LINE
  5
A7
330
1F
100
AcDbEntity
  8
0
  6
SLD-実線
 62
     7
370
    18
100
AcDbLine
 10
217.3264247795
 20
222.8278971603
 30
0.0
 11
212.3264247795
 21
223.2778971603
 31
0.0
  0
LINE
  5
A8
330
1F
100
AcDbEntity
  8
0
  6
SLD-実線
 62
     7
370
    18
100
AcDbLine
 10
212.3264247795
 20
220.0778971603
 30
0.0
 11
217.3264247795
 21
220.5278971603
 31
0.0
  0
LINE
  5
A9
330
1F
100
AcDbEntity
  8
0
  6
SLD-実線
 62
     7
370
    18
100
AcDbLine
 10
217.3264247795
 20
221.2778971603
 30
0.0
 11
212.3264247795
 21
221.2778971603
 31
0.0
  0
LINE
  5
AA
330
1F
100
AcDbEntity
  8
0
  6
SLD-実線
 62
     7
370
    18
100
AcDbLine
 10
212.3264247795
 20
221.2778971603
 30
0.0
 11
217.3264247795
 21
221.3028971603
 31
0.0
  0
LINE
  5
AB
330
1F
100
AcDbEntity
  8
0
  6
SLD-実線
 62
     7
370
    18
100
AcDbLine
 10
217.3264247795
 20
222.0528971603
 30
0.0
 11
212.3264247795
 21
222.0778971603
 31
0.0
  0
LINE
  5
AC
330
1F
100
AcDbEntity
  8
0
  6
SLD-実線
 62
     7
370
    18
100
AcDbLine
 10
217.3264247795
 20
222.0778971603
 30
0.0
 11
222.3264247795
 21
222.2028971603
 31
0.0
  0
LINE
  5
AD
330
1F
100
AcDbEntity
  8
0
  6
SLD-実線
 62
     7
370
    18
100
AcDbLine
 10
222.3264247795
 20
222.7028971603
 30
0.0
 11
217.3264247795
 21
222.8278971603
 31
0.0
  0
LINE
  5
AE
330
1F
100
AcDbEntity
  8
0
  6
SLD-実線
 62
     7
370
    18
100
AcDbLine
 10
217.3264247795
 20
221.3028971603
 30
0.0
 11
222.3264247795
 21
221.4278971603
 31
0.0
  0
LINE
  5
AF
330
1F
100
AcDbEntity
  8
0
  6
SLD-実線
 62
     7
370
    18
100
AcDbLine
 10
222.3264247795
 20
221.9278971603
 30
0.0
 11
217.3264247795
 21
222.0528971603
 31
0.0
  0
LINE
  5
B0
330
1F
100
AcDbEntity
  8
0
  6
SLD-実線
 62
     7
370
    18
100
AcDbLine
 10
217.3264247795
 20
220.5278971603
 30
0.0
 11
222.3264247795
 21
220.6528971603
 31
0.0
  0
LINE
  5
B1
330
1F
100
AcDbEntity
  8
0
  6
SLD-実線
 62
     7
370
    18
100
AcDbLine
 10
222.3264247795
 20
221.1528971603
 30
0.0
 11
217.3264247795
 21
221.2778971603
 31
0.0
  0
LINE
  5
B2
330
1F
100
AcDbEntity
  8
0
  6
SLD-実線
 62
     7
370
    18
100
AcDbLine
 10
197.4119178739
 20
241.0918707633
 30
0.0
 11
195.6264247795
 21
241.0918707633
 31
0.0
  0
LINE
  5
B3
330
1F
100
AcDbEntity
  8
0
  6
SLD-実線
 62
     7
370
    18
100
AcDbLine
 10
201.6264247795
 20
241.0918707633
 30
0.0
 11
199.8409316851
 21
241.0918707633
 31
0.0
  0
LINE
  5
B4
330
1F
100
AcDbEntity
  8
0
  6
SLD-実線
 62
     7
370
    18
100
AcDbLine
 10
199.8336433987
 20
236.3918707633
 30
0.0
 11
201.6264247795
 21
236.3918707633
 31
0.0
  0
LINE
  5
B5
330
1F
100
AcDbEntity
  8
0
  6
SLD-実線
 62
     7
370
    18
100
AcDbLine
 10
195.6264247795
 20
236.3918707633
 30
0.0
 11
197.4372938587
 21
236.3918707633
 31
0.0
  0
LINE
  5
B6
330
1F
100
AcDbEntity
  8
0
  6
SLD-実線
 62
     7
370
    18
100
AcDbLine
 10
195.6264247795
 20
224.8244124198
 30
0.0
 11
201.6264247795
 21
224.8244124198
 31
0.0
  0
LINE
  5
B7
330
1F
100
AcDbEntity
  8
0
  6
SLD-実線
 62
     7
370
    18
100
AcDbLine
 10
197.3735266692
 20
236.9981830406
 30
0.0
 11
197.4372531574
 21
236.9441341193
 31
0.0
  0
LINE
  5
B8
330
1F
100
AcDbEntity
  8
0
  6
SLD-実線
 62
     7
370
    18
100
AcDbLine
 10
199.8155964017
 20
236.9441341193
 30
0.0
 11
199.8770158934
 21
236.996226387
 31
0.0
  0
LINE
  5
B9
330
1F
100
AcDbEntity
  8
0
  6
SLD-実線
 62
     7
370
    18
100
AcDbLine
 10
199.8409316851
 20
241.0918707633
 30
0.0
 11
200.1264247795
 21
249.4724355396
 31
0.0
  0
LINE
  5
BA
330
1F
100
AcDbEntity
  8
0
  6
SLD-実線
 62
     7
370
    18
100
AcDbLine
 10
197.1264247795
 20
249.4724355396
 30
0.0
 11
197.4119178739
 21
241.0918707633
 31
0.0
  0
LINE
  5
BB
330
1F
100
AcDbEntity
  8
0
  6
SLD-実線
 62
     7
370
    18
100
AcDbLine
 10
197.1264247795
 20
249.4724355396
 30
0.0
 11
197.1264247795
 21
249.3538682905
 31
0.0
  0
LINE
  5
BC
330
1F
100
AcDbEntity
  8
0
  6
SLD-実線
 62
     7
370
    18
100
AcDbLine
 10
200.1264247795
 20
249.3538682905
 30
0.0
 11
200.1264247795
 21
249.4724355396
 31
0.0
  0
LINE
  5
BD
330
1F
100
AcDbEntity
  8
0
  6
SLD-実線
 62
     7
370
    18
100
AcDbLine
 10
197.0264247795
 20
247.302183321
 30
0.0
 11
197.0264247795
 21
246.9315370947
 31
0.0
  0
LINE
  5
BE
330
1F
100
AcDbEntity
  8
0
  6
SLD-実線
 62
     7
370
    18
100
AcDbLine
 10
197.0264247795
 20
248.2819792181
 30
0.0
 11
197.0264247795
 21
247.302183321
 31
0.0
  0
LINE
  5
BF
330
1F
100
AcDbEntity
  8
0
  6
SLD-実線
 62
     7
370
    18
100
AcDbLine
 10
197.0264247795
 20
248.2819792181
 30
0.0
 11
197.0264247795
 21
253.2778971603
 31
0.0
  0
LINE
  5
C0
330
1F
100
AcDbEntity
  8
0
  6
SLD-実線
 62
     7
370
    18
100
AcDbLine
 10
200.2264247795
 20
253.2778971603
 30
0.0
 11
200.2264247795
 21
248.2819792181
 31
0.0
  0
LINE
  5
C1
330
1F
100
AcDbEntity
  8
0
  6
SLD-実線
 62
     7
370
    18
100
AcDbLine
 10
200.2264247795
 20
247.302183321
 30
0.0
 11
200.2264247795
 21
248.2819792181
 31
0.0
  0
LINE
  5
C2
330
1F
100
AcDbEntity
  8
0
  6
SLD-実線
 62
     7
370
    18
100
AcDbLine
 10
200.2264247795
 20
246.9315370947
 30
0.0
 11
200.2264247795
 21
247.302183321
 31
0.0
  0
LINE
  5
C3
330
1F
100
AcDbEntity
  8
0
  6
SLD-実線
 62
     7
370
    18
100
AcDbLine
 10
197.0264247795
 20
253.2778971603
 30
0.0
 11
195.1264247795
 21
253.2778971603
 31
0.0
  0
LINE
  5
C4
330
1F
100
AcDbEntity
  8
0
  6
SLD-実線
 62
     7
370
    18
100
AcDbLine
 10
194.616171067
 20
253.2778971603
 30
0.0
 11
195.1264247795
 21
253.2778971603
 31
0.0
  0
LINE
  5
C5
330
1F
100
AcDbEntity
  8
0
  6
SLD-実線
 62
     7
370
    18
100
AcDbLine
 10
195.1264247795
 20
253.2778971603
 30
0.0
 11
195.1264247795
 21
248.2819792181
 31
0.0
  0
LINE
  5
C6
330
1F
100
AcDbEntity
  8
0
  6
SLD-実線
 62
     7
370
    18
100
AcDbLine
 10
195.1264247795
 20
248.2819792181
 30
0.0
 11
194.1466288824
 21
247.302183321
 31
0.0
  0
SPLINE
  5
C7
330
1F
100
AcDbEntity
  8
0
  6
SLD-実線
 62
     7
370
    18
100
AcDbSpline
210
0.0
220
0.0
230
1.0
 70
     8
 71
     3
 72
     8
 73
     4
 74
     0
 42
0.000000001
 43
0.00000001
 40
0.0
 40
0.0
 40
0.0
 40
0.0
 40
1.0
 40
1.0
 40
1.0
 40
1.0
 10
194.1466288823965
 20
247.3021833209577
 30
0.0
 10
194.1331670607953
 20
247.2887214993565
 30
0.0
 10
194.1264247795098
 20
247.2754438651575
 30
0.0
 10
194.1264247795098
 20
247.2623690322481
 30
0.0
  0
LINE
  5
C8
330
1F
100
AcDbEntity
  8
0
  6
SLD-実線
 62
     7
370
    18
100
AcDbLine
 10
194.1264247795
 20
247.2623690322
 30
0.0
 11
194.1264247795
 21
252.652925
 31
0.0
  0
SPLINE
  5
C9
330
1F
100
AcDbEntity
  8
0
  6
SLD-実線
 62
     7
370
    18
100
AcDbSpline
210
0.0
220
0.0
230
1.0
 70
     8
 71
     3
 72
    14
 73
    10
 74
     0
 42
0.000000001
 43
0.00000001
 40
0.0
 40
0.0
 40
0.0
 40
0.0
 40
0.25
 40
0.25
 40
0.5
 40
0.5
 40
0.75
 40
0.75
 40
1.0
 40
1.0
 40
1.0
 40
1.0
 10
194.1264247795098
 20
252.6529250000146
 30
0.0
 10
194.1264247795098
 20
252.7095127216671
 30
0.0
 10
194.1370087620828
 20
252.7660089907343
 30
0.0
 10
194.1781202742617
 20
252.8787412103204
 30
0.0
 10
194.2092390852428
 20
252.9357015537827
 30
0.0
 10
194.2909824472392
 20
253.0447102234566
 30
0.0
 10
194.3411779435207
 20
253.096725427751
 30
0.0
 10
194.4628684290025
 20
253.194299213086
 30
0.0
 10
194.5346468329718
 20
253.2397498411794
 30
0.0
 10
194.6161710669695
 20
253.2778971603364
 30
0.0
  0
LINE
  5
CA
330
1F
100
AcDbEntity
  8
0
  6
SLD-実線
 62
     7
370
    18
100
AcDbLine
 10
197.0264247795
 20
247.302183321
 30
0.0
 11
194.1466288824
 21
247.302183321
 31
0.0
  0
LINE
  5
CB
330
1F
100
AcDbEntity
  8
0
  6
SLD-実線
 62
     7
370
    18
100
AcDbLine
 10
195.1264247795
 20
248.2819792181
 30
0.0
 11
197.0264247795
 21
248.2819792181
 31
0.0
  0
LINE
  5
CC
330
1F
100
AcDbEntity
  8
0
  6
SLD-実線
 62
     7
370
    18
100
AcDbLine
 10
200.2264247795
 20
248.2819792181
 30
0.0
 11
202.1264247795
 21
248.2819792181
 31
0.0
  0
LINE
  5
CD
330
1F
100
AcDbEntity
  8
0
  6
SLD-実線
 62
     7
370
    18
100
AcDbLine
 10
203.1062206766
 20
247.302183321
 30
0.0
 11
202.1264247795
 21
248.2819792181
 31
0.0
  0
LINE
  5
CE
330
1F
100
AcDbEntity
  8
0
  6
SLD-実線
 62
     7
370
    18
100
AcDbLine
 10
203.1062206766
 20
247.302183321
 30
0.0
 11
200.2264247795
 21
247.302183321
 31
0.0
  0
LINE
  5
CF
330
1F
100
AcDbEntity
  8
0
  6
SLD-実線
 62
     7
370
    18
100
AcDbLine
 10
202.1264247795
 20
253.2778971603
 30
0.0
 11
200.2264247795
 21
253.2778971603
 31
0.0
  0
LINE
  5
D0
330
1F
100
AcDbEntity
  8
0
  6
SLD-実線
 62
     7
370
    18
100
AcDbLine
 10
202.1264247795
 20
248.2819792181
 30
0.0
 11
202.1264247795
 21
253.2778971603
 31
0.0
  0
LINE
  5
D1
330
1F
100
AcDbEntity
  8
0
  6
SLD-実線
 62
     7
370
    18
100
AcDbLine
 10
202.1264247795
 20
253.2778971603
 30
0.0
 11
202.6366784921
 21
253.2778971603
 31
0.0
  0
SPLINE
  5
D2
330
1F
100
AcDbEntity
  8
0
  6
SLD-実線
 62
     7
370
    18
100
AcDbSpline
210
0.0
220
0.0
230
1.0
 70
     8
 71
     3
 72
    14
 73
    10
 74
     0
 42
0.000000001
 43
0.00000001
 40
0.0
 40
0.0
 40
0.0
 40
0.0
 40
0.25
 40
0.25
 40
0.5
 40
0.5
 40
0.75
 40
0.75
 40
1.0
 40
1.0
 40
1.0
 40
1.0
 10
202.6366784920501
 20
253.2778971603364
 30
0.0
 10
202.7180943668495
 20
253.2398005452795
 30
0.0
 10
202.7881199601853
 20
253.1955643362536
 30
0.0
 10
202.910129397868
 20
253.0981829486278
 30
0.0
 10
202.9615842952246
 20
253.0450155277206
 30
0.0
 10
203.0433170453804
 20
252.9361641946074
 30
0.0
 10
203.0745001082258
 20
252.8792786289612
 30
0.0
 10
203.1158704428456
 20
252.7660182684522
 30
0.0
 10
203.1264247795098
 20
252.7094276615391
 30
0.0
 10
203.1264247795098
 20
252.6529250000146
 30
0.0
  0
LINE
  5
D3
330
1F
100
AcDbEntity
  8
0
  6
SLD-実線
 62
     7
370
    18
100
AcDbLine
 10
203.1264247795
 20
252.652925
 30
0.0
 11
203.1264247795
 21
247.2623690322
 31
0.0
  0
SPLINE
  5
D4
330
1F
100
AcDbEntity
  8
0
  6
SLD-実線
 62
     7
370
    18
100
AcDbSpline
210
0.0
220
0.0
230
1.0
 70
     8
 71
     3
 72
     8
 73
     4
 74
     0
 42
0.000000001
 43
0.00000001
 40
0.0
 40
0.0
 40
0.0
 40
0.0
 40
1.0
 40
1.0
 40
1.0
 40
1.0
 10
203.1264247795098
 20
247.2623690322481
 30
0.0
 10
203.1264247795098
 20
247.2754438651575
 30
0.0
 10
203.1196824982242
 20
247.2887214993565
 30
0.0
 10
203.1062206766231
 20
247.3021833209577
 30
0.0
  0
SPLINE
  5
D5
330
1F
100
AcDbEntity
  8
0
  6
SLD-実線
 62
     7
370
    18
100
AcDbSpline
210
0.0
220
0.0
230
1.0
 70
     8
 71
     3
 72
     9
 73
     5
 74
     0
 42
0.000000001
 43
0.00000001
 40
0.0
 40
0.0
 40
0.0
 40
0.0
 40
0.9621326159081706
 40
1.0
 40
1.0
 40
1.0
 40
1.0
 10
197.0264247795097
 20
246.9315370946829
 30
0.0
 10
197.0291066897667
 20
246.9188011669368
 30
0.0
 10
197.0318941540026
 20
246.9055639816097
 30
0.0
 10
197.1229757574484
 20
246.8999480915705
 30
0.0
 10
197.1264247795098
 20
246.8997354325053
 30
0.0
  0
LINE
  5
D6
330
1F
100
AcDbEntity
  8
0
  6
SLD-実線
 62
     7
370
    18
100
AcDbLine
 10
197.1264247795
 20
246.8997354325
 30
0.0
 11
194.1264247795
 21
246.8778971603
 31
0.0
  0
LINE
  5
D7
330
1F
100
AcDbEntity
  8
0
  6
SLD-実線
 62
     7
370
    18
100
AcDbLine
 10
194.1264247795
 20
247.2623690322
 30
0.0
 11
194.1264247795
 21
246.8778971603
 31
0.0
  0
LINE
  5
D8
330
1F
100
AcDbEntity
  8
0
  6
SLD-実線
 62
     7
370
    18
100
AcDbLine
 10
203.1264247795
 20
246.8778971603
 30
0.0
 11
200.1264247795
 21
246.8778971603
 31
0.0
  0
SPLINE
  5
D9
330
1F
100
AcDbEntity
  8
0
  6
SLD-実線
 62
     7
370
    18
100
AcDbSpline
210
0.0
220
0.0
230
1.0
 70
     8
 71
     3
 72
     9
 73
     5
 74
     0
 42
0.000000001
 43
0.00000001
 40
0.0
 40
0.0
 40
0.0
 40
0.0
 40
0.6559500988627438
 40
1.0
 40
1.0
 40
1.0
 40
1.0
 10
200.1264247795098
 20
246.8778971603364
 30
0.0
 10
200.1645545042908
 20
246.908344964184
 30
0.0
 10
200.2226835065537
 20
246.9155950623996
 30
0.0
 10
200.2254670884377
 20
246.9274562531708
 30
0.0
 10
200.2264247795097
 20
246.9315370946829
 30
0.0
  0
LINE
  5
DA
330
1F
100
AcDbEntity
  8
0
  6
SLD-実線
 62
     7
370
    18
100
AcDbLine
 10
203.1264247795
 20
246.8778971603
 30
0.0
 11
203.1264247795
 21
247.2623690322
 31
0.0
  0
LINE
  5
DB
330
1F
100
AcDbEntity
  8
0
  6
SLD-実線
 62
     7
370
    18
100
AcDbLine
 10
194.1264247795
 20
246.8778971603
 30
0.0
 11
194.1264247795
 21
245.1778971603
 31
0.0
  0
LINE
  5
DC
330
1F
100
AcDbEntity
  8
0
  6
SLD-実線
 62
     7
370
    18
100
AcDbLine
 10
203.1264247795
 20
245.1778971603
 30
0.0
 11
203.1264247795
 21
246.8778971603
 31
0.0
  0
ARC
  5
DD
330
1F
100
AcDbEntity
  8
0
  6
SLD-実線
 62
     7
370
    18
100
AcDbCircle
 10
194.4264247795
 20
245.1778971603
 30
0.0
 40
0.3000000000000114
100
AcDbArc
 50
180.0
 51
270.0
  0
ARC
  5
DE
330
1F
100
AcDbEntity
  8
0
  6
SLD-実線
 62
     7
370
    18
100
AcDbCircle
 10
202.8264247795
 20
245.1778971603
 30
0.0
 40
0.3000000000000114
100
AcDbArc
 50
270.0
 51
0.0
  0
LINE
  5
DF
330
1F
100
AcDbEntity
  8
0
  6
SLD-実線
 62
     7
370
    18
100
AcDbLine
 10
202.8264247795
 20
244.8778971603
 30
0.0
 11
200.1264247795
 21
244.8778971603
 31
0.0
  0
LINE
  5
E0
330
1F
100
AcDbEntity
  8
0
  6
SLD-実線
 62
     7
370
    18
100
AcDbLine
 10
197.1264247795
 20
244.8778971603
 30
0.0
 11
194.4264247795
 21
244.8778971603
 31
0.0
  0
LINE
  5
E1
330
1F
100
AcDbEntity
  8
0
  6
SLD-実線
 62
     7
370
    18
100
AcDbLine
 10
190.3264247795
 20
217.6778971603
 30
0.0
 11
185.3264247795
 21
217.6778971603
 31
0.0
  0
LINE
  5
E2
330
1F
100
AcDbEntity
  8
0
  6
SLD-実線
 62
     7
370
    18
100
AcDbLine
 10
185.3264247795
 20
217.6778971603
 30
0.0
 11
185.3264247795
 21
218.1778971603
 31
0.0
  0
LINE
  5
E3
330
1F
100
AcDbEntity
  8
0
  6
SLD-実線
 62
     7
370
    18
100
AcDbLine
 10
185.3264247795
 20
218.1778971603
 30
0.0
 11
190.3264247795
 21
218.1778971603
 31
0.0
  0
LINE
  5
E4
330
1F
100
AcDbEntity
  8
0
  6
SLD-実線
 62
     7
370
    18
100
AcDbLine
 10
190.3264247795
 20
218.1778971603
 30
0.0
 11
190.3264247795
 21
217.6778971603
 31
0.0
  0
LINE
  5
E5
330
1F
100
AcDbEntity
  8
0
  6
SLD-実線
 62
     7
370
    18
100
AcDbLine
 10
195.3264247795
 20
224.4778971603
 30
0.0
 11
201.9264247795
 21
224.4778971603
 31
0.0
  0
LINE
  5
E6
330
1F
100
AcDbEntity
  8
0
  6
SLD-実線
 62
     7
370
    18
100
AcDbLine
 10
201.9264247795
 20
224.4778971603
 30
0.0
 11
201.9264247795
 21
225.6666564447
 31
0.0
  0
LINE
  5
E7
330
1F
100
AcDbEntity
  8
0
  6
SLD-実線
 62
     7
370
    18
100
AcDbLine
 10
211.9264247795
 20
219.3778971603
 30
0.0
 11
211.9264247795
 21
225.6778971603
 31
0.0
  0
LINE
  5
E8
330
1F
100
AcDbEntity
  8
0
  6
SLD-実線
 62
     7
370
    18
100
AcDbLine
 10
190.3264247795
 20
219.3778971603
 30
0.0
 11
211.9264247795
 21
219.3778971603
 31
0.0
  0
LINE
  5
E9
330
1F
100
AcDbEntity
  8
0
  6
SLD-実線
 62
     7
370
    18
100
AcDbLine
 10
190.3264247795
 20
219.3778971603
 30
0.0
 11
190.3264247795
 21
218.1778971603
 31
0.0
  0
LINE
  5
EA
330
1F
100
AcDbEntity
  8
0
  6
SLD-実線
 62
     7
370
    18
100
AcDbLine
 10
185.3264247795
 20
218.1778971603
 30
0.0
 11
185.3264247795
 21
225.6666564447
 31
0.0
  0
LINE
  5
EB
330
1F
100
AcDbEntity
  8
0
  6
SLD-実線
 62
     7
370
    18
100
AcDbLine
 10
195.3264247795
 20
225.2778971603
 30
0.0
 11
195.3264247795
 21
224.4778971603
 31
0.0
  0
LINE
  5
EC
330
1F
100
AcDbEntity
  8
0
  6
SLD-実線
 62
     7
370
    18
100
AcDbLine
 10
211.9264247795
 20
218.8778971603
 30
0.0
 11
190.3264247795
 21
219.3778971603
 31
0.0
  0
LINE
  5
ED
330
1F
100
AcDbEntity
  8
0
  6
SLD-実線
 62
     7
370
    18
100
AcDbLine
 10
211.9264247795
 20
219.3778971603
 30
0.0
 11
211.9264247795
 21
218.8778971603
 31
0.0
  0
LINE
  5
EE
330
1F
100
AcDbEntity
  8
0
  6
SLD-実線
 62
     7
370
    18
100
AcDbLine
 10
201.9264247795
 20
225.0244124198
 30
0.0
 11
195.3264247795
 21
225.2778971603
 31
0.0
  0
LINE
  5
EF
330
1F
100
AcDbEntity
  8
0
  6
SLD-実線
 62
     7
370
    18
100
AcDbLine
 10
136.8937341631
 20
235.0244124198
 30
0.0
 11
136.8937341631
 21
238.5244124198
 31
0.0
  0
LINE
  5
F0
330
1F
100
AcDbEntity
  8
0
  6
SLD-実線
 62
     7
370
    18
100
AcDbLine
 10
136.8937341631
 20
231.5244124198
 30
0.0
 11
136.8937341631
 21
235.0244124198
 31
0.0
  0
LINE
  5
F1
330
1F
100
AcDbEntity
  8
0
  6
SLD-実線
 62
     7
370
    18
100
AcDbLine
 10
137.3937341631
 20
239.0244124198
 30
0.0
 11
137.3937341631
 21
236.9609040929
 31
0.0
  0
SPLINE
  5
F2
330
1F
100
AcDbEntity
  8
0
  6
SLD-実線
 62
     7
370
    18
100
AcDbSpline
210
0.0
220
0.0
230
1.0
 70
     8
 71
     3
 72
    12
 73
     8
 74
     0
 42
0.000000001
 43
0.00000001
 40
0.0
 40
0.0
 40
0.0
 40
0.0
 40
0.5
 40
0.5
 40
0.75
 40
0.75
 40
1.0
 40
1.0
 40
1.0
 40
1.0
 10
136.8937341631182
 20
235.0244124197806
 30
0.0
 10
136.8937341631182
 20
235.3637386642585
 30
0.0
 10
136.9439641880769
 20
235.6962722124238
 30
0.0
 10
137.0771029369155
 20
236.1826529438073
 30
0.0
 10
137.1313758783901
 20
236.3438310678411
 30
0.0
 10
137.2533354262763
 20
236.657636803532
 30
0.0
 10
137.3210205124286
 20
236.8107074218641
 30
0.0
 10
137.3937341631182
 20
236.9609040928843
 30
0.0
  0
SPLINE
  5
F3
330
1F
100
AcDbEntity
  8
0
  6
SLD-実線
 62
     7
370
    18
100
AcDbSpline
210
0.0
220
0.0
230
1.0
 70
     8
 71
     3
 72
    10
 73
     6
 74
     0
 42
0.000000001
 43
0.00000001
 40
0.0
 40
0.0
 40
0.0
 40
0.0
 40
0.5000000000000001
 40
0.5000000000000001
 40
1.0
 40
1.0
 40
1.0
 40
1.0
 10
137.3937341631182
 20
233.0879207466769
 30
0.0
 10
137.2492287887742
 20
233.3864097644218
 30
0.0
 10
137.1239625392284
 20
233.6963399693781
 30
0.0
 10
136.9439127230853
 20
234.3514038736012
 30
0.0
 10
136.8937341631182
 20
234.6844414970295
 30
0.0
 10
136.8937341631182
 20
235.0244124197806
 30
0.0
  0
LINE
  5
F4
330
1F
100
AcDbEntity
  8
0
  6
SLD-実線
 62
     7
370
    18
100
AcDbLine
 10
137.3937341631
 20
233.0879207467
 30
0.0
 11
137.3937341631
 21
231.0244124198
 31
0.0
  0
LINE
  5
F5
330
1F
100
AcDbEntity
  8
0
  6
SLD-実線
 62
     7
370
    18
100
AcDbLine
 10
137.3937341631
 20
233.0879207467
 30
0.0
 11
139.8937341631
 21
233.0879207467
 31
0.0
  0
LINE
  5
F6
330
1F
100
AcDbEntity
  8
0
  6
SLD-実線
 62
     7
370
    18
100
AcDbLine
 10
139.8937341631
 20
236.9609040929
 30
0.0
 11
137.3937341631
 21
236.9609040929
 31
0.0
  0
LINE
  5
F7
330
1F
100
AcDbEntity
  8
0
  6
SLD-実線
 62
     7
370
    18
100
AcDbLine
 10
144.0937341631
 20
240.2922392962
 30
0.0
 11
144.0937341631
 21
229.7565855434
 31
0.0
  0
SPLINE
  5
F8
330
1F
100
AcDbEntity
  8
0
  6
SLD-実線
 62
     7
370
    18
100
AcDbSpline
210
0.0
220
0.0
230
1.0
 70
     8
 71
     3
 72
     8
 73
     4
 74
     0
 42
0.000000001
 43
0.00000001
 40
0.0
 40
0.0
 40
0.0
 40
0.0
 40
0.0004385835959356
 40
0.0004385835959356
 40
0.0004385835959356
 40
0.0004385835959356
 10
144.0937341631183
 20
229.7565855433542
 30
0.0
 10
144.0255972948308
 20
229.8859308500352
 30
0.0
 10
143.9588738356024
 20
230.0160327172283
 30
0.0
 10
143.8937341631182
 20
230.1469130604777
 30
0.0
  0
LINE
  5
F9
330
1F
100
AcDbEntity
  8
0
  6
SLD-実線
 62
     7
370
    18
100
AcDbLine
 10
143.8937341631
 20
230.1469130605
 30
0.0
 11
143.8937341631
 21
239.9019117791
 31
0.0
  0
SPLINE
  5
FA
330
1F
100
AcDbEntity
  8
0
  6
SLD-実線
 62
     7
370
    18
100
AcDbSpline
210
0.0
220
0.0
230
1.0
 70
     8
 71
     3
 72
     8
 73
     4
 74
     0
 42
0.000000001
 43
0.00000001
 40
0.0
 40
0.0
 40
0.0
 40
0.0
 40
0.0004385835959356
 40
0.0004385835959356
 40
0.0004385835959356
 40
0.0004385835959356
 10
143.8937341631182
 20
239.9019117790835
 30
0.0
 10
143.9588738356024
 20
240.0327921223329
 30
0.0
 10
144.0255972948309
 20
240.162893989526
 30
0.0
 10
144.0937341631183
 20
240.292239296207
 30
0.0
  0
LINE
  5
FB
330
1F
100
AcDbEntity
  8
0
  6
SLD-実線
 62
     7
370
    18
100
AcDbLine
 10
222.3937341631
 20
245.0244124198
 30
0.0
 11
222.3937341631
 21
225.0244124198
 31
0.0
  0
LINE
  5
FC
330
1F
100
AcDbEntity
  8
0
  6
SLD-実線
 62
     7
370
    18
100
AcDbLine
 10
140.8937341631
 20
240.2922392962
 30
0.0
 11
144.0937341631
 21
240.2922392962
 31
0.0
  0
LINE
  5
FD
330
1F
100
AcDbEntity
  8
0
  6
SLD-実線
 62
     7
370
    18
100
AcDbLine
 10
140.8937341631
 20
245.0244124198
 30
0.0
 11
140.8937341631
 21
240.2922392962
 31
0.0
  0
LINE
  5
FE
330
1F
100
AcDbEntity
  8
0
  6
SLD-実線
 62
     7
370
    18
100
AcDbLine
 10
140.8937341631
 20
229.7565855434
 30
0.0
 11
140.8937341631
 21
225.0244124198
 31
0.0
  0
LINE
  5
FF
330
1F
100
AcDbEntity
  8
0
  6
SLD-実線
 62
     7
370
    18
100
AcDbLine
 10
144.0937341631
 20
229.7565855434
 30
0.0
 11
140.8937341631
 21
229.7565855434
 31
0.0
  0
LINE
  5
100
330
1F
100
AcDbEntity
  8
0
  6
SLD-実線
 62
     7
370
    18
100
AcDbLine
 10
139.8937341631
 20
237.9824523113
 30
0.0
 11
139.8937341631
 21
244.0244124198
 31
0.0
  0
LINE
  5
101
330
1F
100
AcDbEntity
  8
0
  6
SLD-実線
 62
     7
370
    18
100
AcDbLine
 10
139.8937341631
 20
237.9824523113
 30
0.0
 11
139.8937341631
 21
232.0663725282
 31
0.0
  0
LINE
  5
102
330
1F
100
AcDbEntity
  8
0
  6
SLD-実線
 62
     7
370
    18
100
AcDbLine
 10
139.8937341631
 20
226.0244124198
 30
0.0
 11
139.8937341631
 21
232.0663725282
 31
0.0
  0
SPLINE
  5
103
330
1F
100
AcDbEntity
  8
0
  6
SLD-実線
 62
     7
370
    18
100
AcDbSpline
210
0.0
220
0.0
230
1.0
 70
     8
 71
     3
 72
    10
 73
     6
 74
     0
 42
0.000000001
 43
0.00000001
 40
0.0
 40
0.0
 40
0.0
 40
0.0
 40
0.5000000000000002
 40
0.5000000000000002
 40
1.0
 40
1.0
 40
1.0
 40
1.0
 10
139.8937341631182
 20
232.0663725282308
 30
0.0
 10
140.0257171175459
 20
231.6648070884807
 30
0.0
 10
140.1796634828197
 20
231.2697032458782
 30
0.0
 10
140.5161198489357
 20
230.5011764170143
 30
0.0
 10
140.6993300437723
 20
230.1256259919232
 30
0.0
 10
140.8937341631183
 20
229.7565855433542
 30
0.0
  0
SPLINE
  5
104
330
1F
100
AcDbEntity
  8
0
  6
SLD-実線
 62
     7
370
    18
100
AcDbSpline
210
0.0
220
0.0
230
1.0
 70
     8
 71
     3
 72
     8
 73
     4
 74
     0
 42
0.000000001
 43
0.00000001
 40
0.0
 40
0.0
 40
0.0
 40
0.0
 40
1.0
 40
1.0
 40
1.0
 40
1.0
 10
140.8937341631183
 20
240.292239296207
 30
0.0
 10
140.5025871235892
 20
239.5497186160391
 30
0.0
 10
140.1576101609145
 20
238.7853096314601
 30
0.0
 10
139.8937341631182
 20
237.9824523113304
 30
0.0
  0
LINE
  5
105
330
1F
100
AcDbEntity
  8
0
  6
SLD-実線
 62
     7
370
    18
100
AcDbLine
 10
222.3937341631
 20
235.0244124198
 30
0.0
 11
222.3937341631
 21
245.0244124198
 31
0.0
  0
LINE
  5
106
330
1F
100
AcDbEntity
  8
0
  6
SLD-実線
 62
     7
370
    18
100
AcDbLine
 10
222.3937341631
 20
225.0244124198
 30
0.0
 11
222.3937341631
 21
235.0244124198
 31
0.0
  0
LINE
  5
107
330
1F
100
AcDbEntity
  8
0
  6
SLD-実線
 62
     7
370
    18
100
AcDbLine
 10
235.3937341631
 20
225.0244124198
 30
0.0
 11
235.3937341631
 21
226.5244124198
 31
0.0
  0
LINE
  5
108
330
1F
100
AcDbEntity
  8
0
  6
SLD-実線
 62
     7
370
    18
100
AcDbLine
 10
235.3937341631
 20
243.5244124198
 30
0.0
 11
235.3937341631
 21
245.0244124198
 31
0.0
  0
LINE
  5
109
330
1F
100
AcDbEntity
  8
0
  6
SLD-実線
 62
     7
370
    18
100
AcDbLine
 10
244.3937341631
 20
243.5244124198
 30
0.0
 11
235.3937341631
 21
243.5244124198
 31
0.0
  0
LINE
  5
10A
330
1F
100
AcDbEntity
  8
0
  6
SLD-実線
 62
     7
370
    18
100
AcDbLine
 10
244.3937341631
 20
226.5244124198
 30
0.0
 11
244.3937341631
 21
243.5244124198
 31
0.0
  0
LINE
  5
10B
330
1F
100
AcDbEntity
  8
0
  6
SLD-実線
 62
     7
370
    18
100
AcDbLine
 10
235.3937341631
 20
226.5244124198
 30
0.0
 11
244.3937341631
 21
226.5244124198
 31
0.0
  0
SPLINE
  5
10C
330
1F
100
AcDbEntity
  8
0
  6
SLD-実線
 62
     7
370
    18
100
AcDbSpline
210
0.0
220
0.0
230
1.0
 70
    24
 71
     3
 72
     8
 73
     4
 74
     0
 42
0.000000001
 43
0.00000001
 40
0.0
 40
0.0
 40
0.0
 40
0.0
 40
1.0
 40
1.0
 40
1.0
 40
1.0
 10
244.3937341631183
 20
243.5244124197806
 30
0.0
 10
244.5710221157714
 20
243.5244124197806
 30
0.0
 10
244.7386068477698
 20
243.5244124197806
 30
0.0
 10
244.8937341631183
 20
243.5244124197806
 30
0.0
  0
LINE
  5
10D
330
1F
100
AcDbEntity
  8
0
  6
SLD-実線
 62
     7
370
    18
100
AcDbLine
 10
244.8937341631
 20
243.5244124198
 30
0.0
 11
244.8937341631
 21
226.5244124198
 31
0.0
  0
SPLINE
  5
10E
330
1F
100
AcDbEntity
  8
0
  6
SLD-実線
 62
     7
370
    18
100
AcDbSpline
210
0.0
220
0.0
230
1.0
 70
    24
 71
     3
 72
     8
 73
     4
 74
     0
 42
0.000000001
 43
0.00000001
 40
0.0
 40
0.0
 40
0.0
 40
0.0
 40
1.0
 40
1.0
 40
1.0
 40
1.0
 10
244.8937341631183
 20
226.5244124197806
 30
0.0
 10
244.7386068477698
 20
226.5244124197806
 30
0.0
 10
244.5710221157714
 20
226.5244124197806
 30
0.0
 10
244.3937341631183
 20
226.5244124197806
 30
0.0
  0
LINE
  5
10F
330
1F
100
AcDbEntity
  8
0
  6
SLD-実線
 62
     7
370
    18
100
AcDbLine
 10
260.3937341631
 20
229.0244124198
 30
0.0
 11
260.3937341631
 21
241.0244124198
 31
0.0
  0
LINE
  5
110
330
1F
100
AcDbEntity
  8
0
  6
SLD-実線
 62
     7
370
    18
100
AcDbLine
 10
260.8937341631
 20
240.5244124198
 30
0.0
 11
260.8937341631
 21
229.5244124198
 31
0.0
  0
LINE
  5
111
330
1F
100
AcDbEntity
  8
0
  6
SLD-実線
 62
     7
370
    18
100
AcDbLine
 10
239.1318392032
 20
246.8244124198
 30
0.0
 11
239.1318392032
 21
244.3244124198
 31
0.0
  0
LINE
  5
112
330
1F
100
AcDbEntity
  8
0
  6
SLD-実線
 62
     7
370
    18
100
AcDbLine
 10
239.1318392032
 20
246.8244124198
 30
0.0
 11
242.9575670902
 21
246.8244124198
 31
0.0
  0
LINE
  5
113
330
1F
100
AcDbEntity
  8
0
  6
SLD-実線
 62
     7
370
    18
100
AcDbLine
 10
242.9575670902
 20
244.3244124198
 30
0.0
 11
242.9575670902
 21
246.8244124198
 31
0.0
  0
LINE
  5
114
330
1F
100
AcDbEntity
  8
0
  6
SLD-実線
 62
     7
370
    18
100
AcDbLine
 10
239.1318392032
 20
244.3244124198
 30
0.0
 11
239.2281427292
 21
244.3244124198
 31
0.0
  0
LINE
  5
115
330
1F
100
AcDbEntity
  8
0
  6
SLD-実線
 62
     7
370
    18
100
AcDbLine
 10
242.8612635642
 20
244.3244124198
 30
0.0
 11
242.9575670902
 21
244.3244124198
 31
0.0
  0
LINE
  5
116
330
1F
100
AcDbEntity
  8
0
  6
SLD-実線
 62
     7
370
    18
100
AcDbLine
 10
236.0680062763
 20
244.3244124198
 30
0.0
 11
236.0680062762
 21
246.8244124198
 31
0.0
  0
LINE
  5
117
330
1F
100
AcDbEntity
  8
0
  6
SLD-実線
 62
     7
370
    18
100
AcDbLine
 10
236.0680062762
 20
246.8244124198
 30
0.0
 11
239.1318392032
 21
246.8244124198
 31
0.0
  0
LINE
  5
118
330
1F
100
AcDbEntity
  8
0
  6
SLD-実線
 62
     7
370
    18
100
AcDbLine
 10
236.0680062763
 20
244.3244124198
 30
0.0
 11
236.1451309234
 21
244.3244124198
 31
0.0
  0
LINE
  5
119
330
1F
100
AcDbEntity
  8
0
  6
SLD-実線
 62
     7
370
    18
100
AcDbLine
 10
239.0547145559
 20
244.3244124198
 30
0.0
 11
239.1318392032
 21
244.3244124198
 31
0.0
  0
LINE
  5
11A
330
1F
100
AcDbEntity
  8
0
  6
SLD-実線
 62
     7
370
    18
100
AcDbLine
 10
242.9575670902
 20
246.8244124198
 30
0.0
 11
243.7194620501
 21
246.8244124198
 31
0.0
  0
LINE
  5
11B
330
1F
100
AcDbEntity
  8
0
  6
SLD-実線
 62
     7
370
    18
100
AcDbLine
 10
243.8937341631
 20
244.3244124198
 30
0.0
 11
243.7194620501
 21
246.8244124198
 31
0.0
  0
LINE
  5
11C
330
1F
100
AcDbEntity
  8
0
  6
SLD-実線
 62
     7
370
    18
100
AcDbLine
 10
242.9575670902
 20
244.3244124198
 30
0.0
 11
242.9767459689
 21
244.3244124198
 31
0.0
  0
LINE
  5
11D
330
1F
100
AcDbEntity
  8
0
  6
SLD-実線
 62
     7
370
    18
100
AcDbLine
 10
238.1437341631
 20
248.8244124198
 30
0.0
 11
238.2406418663
 21
248.8244124198
 31
0.0
  0
LINE
  5
11E
330
1F
100
AcDbEntity
  8
0
  6
SLD-実線
 62
     7
370
    18
100
AcDbLine
 10
238.2406418663
 20
248.8244124198
 30
0.0
 11
241.6437341631
 21
248.8244124198
 31
0.0
  0
LINE
  5
11F
330
1F
100
AcDbEntity
  8
0
  6
SLD-実線
 62
     7
370
    18
100
AcDbLine
 10
238.2406418663
 20
251.3244124198
 30
0.0
 11
241.6437341631
 21
251.3244124198
 31
0.0
  0
LINE
  5
120
330
1F
100
AcDbEntity
  8
0
  6
SLD-実線
 62
     7
370
    18
100
AcDbLine
 10
238.1437341631
 20
251.3244124198
 30
0.0
 11
238.2406418663
 21
251.3244124198
 31
0.0
  0
LINE
  5
121
330
1F
100
AcDbEntity
  8
0
  6
SLD-実線
 62
     7
370
    18
100
AcDbLine
 10
240.3859654613
 20
253.8244124198
 30
0.0
 11
241.3937341631
 21
253.8244124198
 31
0.0
  0
LINE
  5
122
330
1F
100
AcDbEntity
  8
0
  6
SLD-実線
 62
     7
370
    18
100
AcDbLine
 10
238.3937341631
 20
253.8244124198
 30
0.0
 11
240.3859654613
 21
253.8244124198
 31
0.0
  0
LINE
  5
123
330
1F
100
AcDbEntity
  8
0
  6
SLD-実線
 62
     7
370
    18
100
AcDbLine
 10
261.6937341631
 20
238.531815305
 30
0.0
 11
264.1937341631
 21
238.5318153051
 31
0.0
  0
LINE
  5
124
330
1F
100
AcDbEntity
  8
0
  6
SLD-実線
 62
     7
370
    18
100
AcDbLine
 10
264.1937341631
 20
238.5318153051
 30
0.0
 11
264.1937341631
 21
235.0244124198
 31
0.0
  0
LINE
  5
125
330
1F
100
AcDbEntity
  8
0
  6
SLD-実線
 62
     7
370
    18
100
AcDbLine
 10
264.1937341631
 20
235.0244124198
 30
0.0
 11
261.6937341631
 21
235.0244124198
 31
0.0
  0
LINE
  5
126
330
1F
100
AcDbEntity
  8
0
  6
SLD-実線
 62
     7
370
    18
100
AcDbLine
 10
261.6937341631
 20
238.531815305
 30
0.0
 11
261.6937341631
 21
238.4435248478
 31
0.0
  0
LINE
  5
127
330
1F
100
AcDbEntity
  8
0
  6
SLD-実線
 62
     7
370
    18
100
AcDbLine
 10
261.6937341631
 20
235.1127028771
 30
0.0
 11
261.6937341631
 21
235.0244124198
 31
0.0
  0
LINE
  5
128
330
1F
100
AcDbEntity
  8
0
  6
SLD-実線
 62
     7
370
    18
100
AcDbLine
 10
264.1937341631
 20
235.0244124198
 30
0.0
 11
264.1937341631
 21
231.5170095345
 31
0.0
  0
LINE
  5
129
330
1F
100
AcDbEntity
  8
0
  6
SLD-実線
 62
     7
370
    18
100
AcDbLine
 10
261.6937341631
 20
231.5170095345
 30
0.0
 11
264.1937341631
 21
231.5170095345
 31
0.0
  0
LINE
  5
12A
330
1F
100
AcDbEntity
  8
0
  6
SLD-実線
 62
     7
370
    18
100
AcDbLine
 10
261.6937341631
 20
235.0244124198
 30
0.0
 11
261.6937341631
 21
234.9361219624
 31
0.0
  0
LINE
  5
12B
330
1F
100
AcDbEntity
  8
0
  6
SLD-実線
 62
     7
370
    18
100
AcDbLine
 10
261.6937341631
 20
231.6052999918
 30
0.0
 11
261.6937341631
 21
231.5170095345
 31
0.0
  0
LINE
  5
12C
330
1F
100
AcDbEntity
  8
0
  6
SLD-実線
 62
     7
370
    18
100
AcDbLine
 10
266.6937341631
 20
237.3744124198
 30
0.0
 11
266.6937341631
 21
237.0595721187
 31
0.0
  0
LINE
  5
12D
330
1F
100
AcDbEntity
  8
0
  6
SLD-実線
 62
     7
370
    18
100
AcDbLine
 10
266.6937341631
 20
237.0595721187
 30
0.0
 11
266.6937341631
 21
232.6744124198
 31
0.0
  0
LINE
  5
12E
330
1F
100
AcDbEntity
  8
0
  6
SLD-実線
 62
     7
370
    18
100
AcDbLine
 10
269.1937341631
 20
237.0595721187
 30
0.0
 11
269.1937341631
 21
232.6744124198
 31
0.0
  0
LINE
  5
12F
330
1F
100
AcDbEntity
  8
0
  6
SLD-実線
 62
     7
370
    18
100
AcDbLine
 10
269.1937341631
 20
237.3744124198
 30
0.0
 11
269.1937341631
 21
237.0595721187
 31
0.0
  0
LINE
  5
130
330
1F
100
AcDbEntity
  8
0
  6
SLD-実線
 62
     7
370
    18
100
AcDbLine
 10
271.6937341631
 20
237.0244124198
 30
0.0
 11
271.6937341631
 21
233.0244124198
 31
0.0
  0
LINE
  5
131
330
1F
100
AcDbEntity
  8
0
  6
SLD-実線
 62
     7
370
    18
100
AcDbLine
 10
243.8937341631
 20
244.3244124198
 30
0.0
 11
242.9767459689
 21
244.3244124198
 31
0.0
  0
LINE
  5
132
330
1F
100
AcDbEntity
  8
0
  6
SLD-実線
 62
     7
370
    18
100
AcDbLine
 10
242.8612635642
 20
244.3244124198
 30
0.0
 11
239.2281427292
 21
244.3244124198
 31
0.0
  0
LINE
  5
133
330
1F
100
AcDbEntity
  8
0
  6
SLD-実線
 62
     7
370
    18
100
AcDbLine
 10
239.0547145559
 20
244.3244124198
 30
0.0
 11
236.1451309234
 21
244.3244124198
 31
0.0
  0
LINE
  5
134
330
1F
100
AcDbEntity
  8
0
  6
SLD-実線
 62
     7
370
    18
100
AcDbLine
 10
236.0680062763
 20
244.3244124198
 30
0.0
 11
235.8937341631
 21
244.3244124198
 31
0.0
  0
LINE
  5
135
330
1F
100
AcDbEntity
  8
0
  6
SLD-実線
 62
     7
370
    18
100
AcDbLine
 10
261.6937341631
 20
231.0244124198
 30
0.0
 11
261.6937341631
 21
231.5170095345
 31
0.0
  0
LINE
  5
136
330
1F
100
AcDbEntity
  8
0
  6
SLD-実線
 62
     7
370
    18
100
AcDbLine
 10
261.6937341631
 20
231.6052999918
 30
0.0
 11
261.6937341631
 21
234.9361219624
 31
0.0
  0
LINE
  5
137
330
1F
100
AcDbEntity
  8
0
  6
SLD-実線
 62
     7
370
    18
100
AcDbLine
 10
261.6937341631
 20
235.1127028771
 30
0.0
 11
261.6937341631
 21
238.4435248478
 31
0.0
  0
LINE
  5
138
330
1F
100
AcDbEntity
  8
0
  6
SLD-実線
 62
     7
370
    18
100
AcDbLine
 10
261.6937341631
 20
238.531815305
 30
0.0
 11
261.6937341631
 21
239.0244124198
 31
0.0
  0
SPLINE
  5
139
330
1F
100
AcDbEntity
  8
0
  6
SLD-実線
 62
     7
370
    18
100
AcDbSpline
210
0.0
220
0.0
230
1.0
 70
    24
 71
     3
 72
    22
 73
    18
 74
     0
 42
0.000000001
 43
0.00000001
 40
0.0
 40
0.0
 40
0.0
 40
0.0
 40
0.125
 40
0.125
 40
0.25
 40
0.25
 40
0.375
 40
0.375
 40
0.5
 40
0.5
 40
0.625
 40
0.625
 40
0.75
 40
0.75
 40
0.8750000000000001
 40
0.8750000000000001
 40
1.0
 40
1.0
 40
1.0
 40
1.0
 10
212.3264247795098
 20
223.2778971603364
 30
0.0
 10
212.3264247795098
 20
223.2778971603364
 30
0.0
 10
212.3264247795098
 20
223.261683827003
 30
0.0
 10
212.3264247795098
 20
223.1661104936697
 30
0.0
 10
212.3264247795098
 20
223.0858971603364
 30
0.0
 10
212.3264247795098
 20
222.8298971603363
 30
0.0
 10
212.3264247795098
 20
222.6522916240042
 30
0.0
 10
212.3264247795098
 20
222.2093850496097
 30
0.0
 10
212.3264247795098
 20
221.944563827003
 30
0.0
 10
212.3264247795098
 20
221.4112304936697
 30
0.0
 10
212.3264247795098
 20
221.146409271063
 30
0.0
 10
212.3264247795098
 20
220.7035026966686
 30
0.0
 10
212.3264247795098
 20
220.5258971603363
 30
0.0
 10
212.3264247795098
 20
220.2698971603364
 30
0.0
 10
212.3264247795098
 20
220.189683827003
 30
0.0
 10
212.3264247795098
 20
220.0941104936697
 30
0.0
 10
212.3264247795098
 20
220.0778971603363
 30
0.0
 10
212.3264247795098
 20
220.0778971603363
 30
0.0
  0
LINE
  5
13A
330
1F
100
AcDbEntity
  8
0
  6
SLD-実線
 62
     7
370
    18
100
AcDbLine
 10
212.3264247795
 20
220.0778971603
 30
0.0
 11
212.3264247795
 21
220.0778971603
 31
0.0
  0
LINE
  5
13B
330
1F
100
AcDbEntity
  8
0
  6
SLD-実線
 62
     7
370
    18
100
AcDbLine
 10
212.3264247795
 20
223.2778971603
 30
0.0
 11
211.9264247795
 21
223.2778971603
 31
0.0
  0
LINE
  5
13C
330
1F
100
AcDbEntity
  8
0
  6
SLD-実線
 62
     7
370
    18
100
AcDbLine
 10
217.3264247795
 20
222.0778971603
 30
0.0
 11
217.3264247795
 21
222.8278971603
 31
0.0
  0
LINE
  5
13D
330
1F
100
AcDbEntity
  8
0
  6
SLD-実線
 62
     7
370
    18
100
AcDbLine
 10
217.3264247795
 20
220.5278971603
 30
0.0
 11
217.3264247795
 21
221.2778971603
 31
0.0
  0
LINE
  5
13E
330
1F
100
AcDbEntity
  8
0
  6
SLD-実線
 62
     7
370
    18
100
AcDbLine
 10
217.3264247795
 20
221.3028971603
 30
0.0
 11
217.3264247795
 21
222.0528971603
 31
0.0
  0
LINE
  5
13F
330
1F
100
AcDbEntity
  8
0
  6
SLD-実線
 62
     7
370
    18
100
AcDbLine
 10
222.3264247795
 20
222.2028971603
 30
0.0
 11
222.3264247795
 21
222.7028971603
 31
0.0
  0
LINE
  5
140
330
1F
100
AcDbEntity
  8
0
  6
SLD-実線
 62
     7
370
    18
100
AcDbLine
 10
222.3264247795
 20
221.4278971603
 30
0.0
 11
222.3264247795
 21
221.9278971603
 31
0.0
  0
LINE
  5
141
330
1F
100
AcDbEntity
  8
0
  6
SLD-実線
 62
     7
370
    18
100
AcDbLine
 10
222.3264247795
 20
220.6528971603
 30
0.0
 11
222.3264247795
 21
221.1528971603
 31
0.0
  0
LINE
  5
142
330
1F
100
AcDbEntity
  8
0
  6
SLD-実線
 62
     7
370
    18
100
AcDbLine
 10
201.6264247795
 20
236.3918707633
 30
0.0
 11
201.6264247795
 21
241.0918707633
 31
0.0
  0
LINE
  5
143
330
1F
100
AcDbEntity
  8
0
  6
SLD-実線
 62
     7
370
    18
100
AcDbLine
 10
195.6264247795
 20
236.3918707633
 30
0.0
 11
195.6264247795
 21
241.0918707633
 31
0.0
  0
SPLINE
  5
144
330
1F
100
AcDbEntity
  8
0
  6
SLD-実線
 62
     7
370
    18
100
AcDbSpline
210
0.0
220
0.0
230
1.0
 70
    11
 71
     3
 72
    50
 73
    46
 74
     0
 42
0.000000001
 43
0.00000001
 40
0.0
 40
0.0
 40
0.0
 40
0.0
 40
0.0312499999999997
 40
0.0312499999999997
 40
0.0624999999999993
 40
0.0624999999999993
 40
0.1249999999999985
 40
0.1249999999999985
 40
0.1562499999999984
 40
0.1562499999999984
 40
0.1874999999999983
 40
0.1874999999999983
 40
0.2187499999999982
 40
0.2187499999999982
 40
0.2499999999999981
 40
0.2499999999999981
 40
0.3124999999999979
 40
0.3124999999999979
 40
0.3749999999999977
 40
0.3749999999999977
 40
0.4374999999999976
 40
0.4374999999999976
 40
0.4999999999999974
 40
0.4999999999999974
 40
0.5624999999999972
 40
0.5624999999999972
 40
0.5937499999999971
 40
0.5937499999999971
 40
0.624999999999997
 40
0.624999999999997
 40
0.6874999999999976
 40
0.6874999999999976
 40
0.7187499999999979
 40
0.7187499999999979
 40
0.7499999999999981
 40
0.7499999999999981
 40
0.8124999999999982
 40
0.8124999999999982
 40
0.8749999999999983
 40
0.8749999999999983
 40
0.9062499999999988
 40
0.9062499999999988
 40
0.9374999999999992
 40
0.9374999999999992
 40
1.0
 40
1.0
 40
1.0
 40
1.0
 10
198.6264247795098
 20
237.6265001914277
 30
0.0
 10
198.728678289846
 20
237.6265001914277
 30
0.0
 10
198.8283673918539
 20
237.6145649810318
 30
0.0
 10
199.0232148255039
 20
237.5702029298176
 30
0.0
 10
199.1189951232714
 20
237.5373185621405
 30
0.0
 10
199.3876498905613
 20
237.4186382921046
 30
0.0
 10
199.548196241704
 20
237.3114641326961
 30
0.0
 10
199.7504253185621
 20
237.1417188409095
 30
0.0
 10
199.8124870540458
 20
237.0825264402924
 30
0.0
 10
199.9205421647015
 20
236.9663981859678
 30
0.0
 10
199.9669680594661
 20
236.9092145560218
 30
0.0
 10
200.0439931209161
 20
236.7984850296576
 30
0.0
 10
200.0746035917346
 20
236.7444987080696
 30
0.0
 10
200.1152504866766
 20
236.6476207529092
 30
0.0
 10
200.1259288908685
 20
236.603984298357
 30
0.0
 10
200.1273664823765
 20
236.4889796486007
 30
0.0
 10
200.0859622306536
 20
236.4382976721196
 30
0.0
 10
199.9335985517792
 20
236.3879640745538
 30
0.0
 10
199.8231059969523
 20
236.3874730286855
 30
0.0
 10
199.5546445033299
 20
236.4126219482268
 30
0.0
 10
199.3949879142091
 20
236.4382929017832
 30
0.0
 10
199.0385970305685
 20
236.4836521400598
 30
0.0
 10
198.8373127881177
 20
236.5022856255082
 30
0.0
 10
198.4300329435749
 20
236.5030613908906
 30
0.0
 10
198.2294071940463
 20
236.4852776917153
 30
0.0
 10
197.9593126007138
 20
236.4513405337572
 30
0.0
 10
197.8732194637701
 20
236.4389955776915
 30
0.0
 10
197.7141171740745
 20
236.4170924084778
 30
0.0
 10
197.6404219660591
 20
236.4074296290408
 30
0.0
 10
197.4356492402655
 20
236.3876226543489
 30
0.0
 10
197.3261654013394
 20
236.3872041173516
 30
0.0
 10
197.2087088869671
 20
236.4237882972408
 30
0.0
 10
197.1787313721228
 20
236.4418476352118
 30
0.0
 10
197.1376399587581
 20
236.491446471561
 30
0.0
 10
197.1267905866331
 20
236.5234221011658
 30
0.0
 10
197.1257212442243
 20
236.6361834655369
 30
0.0
 10
197.1670918054701
 20
236.7371585024033
 30
0.0
 10
197.3202752008216
 20
236.9598847508859
 30
0.0
 10
197.4309263700655
 20
237.0812387461207
 30
0.0
 10
197.6343402260245
 20
237.2526703486977
 30
0.0
 10
197.7075850640424
 20
237.3073917126887
 30
0.0
 10
197.8657525972534
 20
237.4091715128163
 30
0.0
 10
197.9516403576742
 20
237.4566205956776
 30
0.0
 10
198.2208330345578
 20
237.5761392470394
 30
0.0
 10
198.4219177588373
 20
237.6265001914277
 30
0.0
 10
198.6264247795098
 20
237.6265001914277
 30
0.0
  0
SPLINE
  5
145
330
1F
100
AcDbEntity
  8
0
  6
SLD-実線
 62
     7
370
    18
100
AcDbSpline
210
0.0
220
0.0
230
1.0
 70
     8
 71
     3
 72
    11
 73
     7
 74
     0
 42
0.000000001
 43
0.00000001
 40
0.0
 40
0.0
 40
0.0
 40
0.0
 40
0.3039315469499471
 40
0.6060205518226822
 40
0.9507563557362602
 40
1.0
 40
1.0
 40
1.0
 40
1.0
 10
198.6264247795098
 20
240.9810611154856
 30
0.0
 10
198.4775112763446
 20
240.9869553812985
 30
0.0
 10
198.1805870370951
 20
240.9987081797703
 30
0.0
 10
197.7858432054951
 20
241.0546748044144
 30
0.0
 10
197.5196020514487
 20
241.1032123230461
 30
0.0
 10
197.4348431850084
 20
241.0878164955562
 30
0.0
 10
197.4119178739365
 20
241.0918707633327
 30
0.0
  0
SPLINE
  5
146
330
1F
100
AcDbEntity
  8
0
  6
SLD-実線
 62
     7
370
    18
100
AcDbSpline
210
0.0
220
0.0
230
1.0
 70
     8
 71
     3
 72
    11
 73
     7
 74
     0
 42
0.000000001
 43
0.00000001
 40
0.0
 40
0.0
 40
0.0
 40
0.0
 40
0.1305720933916251
 40
0.4947839336982267
 40
0.8063500992132054
 40
1.0
 40
1.0
 40
1.0
 40
1.0
 10
199.8409316850831
 20
241.0918707633327
 30
0.0
 10
199.7907752290059
 20
241.0858414500483
 30
0.0
 10
199.6662233156265
 20
241.0921931623485
 30
0.0
 10
199.3540728595716
 20
241.0381764065644
 30
0.0
 10
198.9666921943238
 20
240.9891977837763
 30
0.0
 10
198.7207100276443
 20
240.983315718058
 30
0.0
 10
198.6264247795098
 20
240.9810611154856
 30
0.0
  0
LINE
  5
147
330
1F
100
AcDbEntity
  8
0
  6
SLD-実線
 62
     7
370
    18
100
AcDbLine
 10
195.6264247795
 20
224.8244124198
 30
0.0
 11
195.6264247795
 21
236.3918707633
 31
0.0
  0
LINE
  5
148
330
1F
100
AcDbEntity
  8
0
  6
SLD-実線
 62
     7
370
    18
100
AcDbLine
 10
201.6264247795
 20
224.8244124198
 30
0.0
 11
201.6264247795
 21
236.3918707633
 31
0.0
  0
ARC
  5
149
330
1F
100
AcDbEntity
  8
0
  6
SLD-実線
 62
     7
370
    18
100
AcDbCircle
 10
198.6368245578
 20
238.8807109833
 30
0.0
 40
2.267119981439313
100
AcDbArc
 50
236.1358360291
 51
301.3283890566
  0
LINE
  5
14A
330
1F
100
AcDbEntity
  8
0
  6
SLD-実線
 62
     7
370
    18
100
AcDbLine
 10
197.1607321741
 20
249.5919257575
 30
0.0
 11
197.1264247795
 21
249.4724355396
 31
0.0
  0
LWPOLYLINE
  5
14B
330
1F
100
AcDbEntity
  8
0
  6
SLD-実線
 62
     7
370
    18
100
AcDbPolyline
 90
       11
 70
   128
 43
0.0
 10
200.1264247795
 20
249.4724355396
 10
200.1189500444
 20
249.5284618773
 10
199.9996839319
 20
249.6984941846
 10
199.7459936455
 20
249.8463982967
 10
199.382712158
 20
249.9576963286
 10
198.9453999926
 20
250.0214936535
 10
198.4768643109
 20
250.0315453446
 10
198.0229686499
 20
249.9868674725
 10
197.6281434793
 20
249.8918334186
 10
197.3310370379
 20
249.7557457781
 10
197.1607321741
 20
249.5919257575
  0
ARC
  5
14C
330
1F
100
AcDbEntity
  8
0
  6
SLD-実線
 62
     7
370
    18
100
AcDbCircle
 10
198.6264247795
 20
244.7562192548
 30
0.0
 40
7.236728571797351
100
AcDbArc
 50
77.2266808162
 51
102.7733191838
  0
ARC
  5
14D
330
1F
100
AcDbEntity
  8
0
  6
SLD-実線
 62
     7
370
    18
100
AcDbCircle
 10
198.2181620461
 20
244.8613659942
 30
0.0
 40
7.236728571797785
100
AcDbArc
 50
73.888365153
 51
99.4785877773
  0
LINE
  5
14E
330
1F
100
AcDbEntity
  8
0
  6
SLD-実線
 62
     8
370
    18
100
AcDbLine
 10
194.1264247795
 20
245.1778971603
 30
0.0
 11
197.1264247795
 21
244.8778971603
 31
0.0
  0
LINE
  5
14F
330
1F
100
AcDbEntity
  8
0
  6
SLD-実線
 62
     8
370
    18
100
AcDbLine
 10
200.1264247795
 20
244.8778971603
 30
0.0
 11
203.1264247795
 21
245.1778971603
 31
0.0
  0
LINE
  5
150
330
1F
100
AcDbEntity
  8
0
  6
SLD-実線
 62
     8
370
    18
100
AcDbLine
 10
245.3937341631
 20
235.0244124198
 30
0.0
 11
245.3937341631
 21
229.0244124198
 31
0.0
  0
LINE
  5
151
330
1F
100
AcDbEntity
  8
0
  6
SLD-実線
 62
     8
370
    18
100
AcDbLine
 10
245.3937341631
 20
241.0244124198
 30
0.0
 11
245.3937341631
 21
235.0244124198
 31
0.0
  0
LINE
  5
152
330
1F
100
AcDbEntity
  8
0
  6
SLD-実線
 62
     7
370
    18
100
AcDbLine
 10
185.3264247795
 20
225.6666564447
 30
0.0
 11
211.9264247795
 21
225.6778971603
 31
0.0
  0
LINE
  5
153
330
1F
100
AcDbEntity
  8
0
  6
SLD-1点鎖線(中心線)
 62
     7
370
    18
100
AcDbLine
 10
135.0146347438
 20
235.0244124198
 30
0.0
 11
273.7697639116
 21
235.0244124198
 31
0.0
  0
DIMENSION
  5
154
330
1F
100
AcDbEntity
  8
0
  6
SLD-実線
 62
     7
370
    18
100
AcDbDimension
  2
_D
 10
126.5006969771
 20
225.0244124198
 30
0.0
 11
126.5006969771
 21
235.0244124198
 31
0.0
 70
   160
  1
%%c<>
 71
     2
 42
-1.0
  3
SLDDIMSTYLE0
100
AcDbAlignedDimension
 13
222.3937341631
 23
245.0244124198
 33
0.0
 14
222.3937341631
 24
225.0244124198
 34
0.0
 50
90.0
100
AcDbRotatedDimension
  0
DIMENSION
  5
162
330
1F
100
AcDbEntity
  8
0
  6
SLD-実線
 62
     7
370
    18
100
AcDbDimension
  2
_D_1
 10
286.6937341631
 20
229.0244124198
 30
0.0
 11
286.6937341631
 21
251.3097867538
 31
0.0
 70
   160
  1
%%c<>
 71
     2
 42
-1.0
  3
SLDDIMSTYLE0
100
AcDbAlignedDimension
 13
260.3937341631
 23
241.0244124198
 33
0.0
 14
260.3937341631
 24
229.0244124198
 34
0.0
 50
90.0
100
AcDbRotatedDimension
  0
DIMENSION
  5
16F
330
1F
100
AcDbEntity
  8
0
  6
SLD-実線
 62
     7
370
    18
100
AcDbDimension
  2
_D_2
 10
136.8937341631
 20
274.684256735
 30
0.0
 11
204.2937341631
 21
274.684256735
 31
0.0
 70
   160
  1
<>
 71
     2
 42
-1.0
  3
SLDDIMSTYLE1
100
AcDbAlignedDimension
 13
271.6937341631
 23
237.0244124198
 33
0.0
 14
136.8937341631
 24
238.5244124198
 34
0.0
100
AcDbRotatedDimension
  0
DIMENSION
  5
17A
330
1F
100
AcDbEntity
  8
0
  6
SLD-実線
 62
     7
370
    18
100
AcDbDimension
  2
_D_3
 10
139.8937341631
 20
263.9440849991
 30
0.0
 11
126.8663513675
 21
263.9440849991
 31
0.0
 70
   160
  1
<>
 71
     2
 42
-1.0
  3
SLDDIMSTYLE0
100
AcDbAlignedDimension
 13
136.8937341631
 23
238.5244124198
 33
0.0
 14
139.8937341631
 24
244.0244124198
 34
0.0
100
AcDbRotatedDimension
  0
DIMENSION
  5
186
330
1F
100
AcDbEntity
  8
0
  6
SLD-実線
 62
     7
370
    18
100
AcDbDimension
  2
_D_4
 10
244.8937341631
 20
263.9440849991
 30
0.0
 11
192.3937341631
 21
263.9440849991
 31
0.0
 70
   160
  1
<>
 71
     2
 42
-1.0
  3
SLDDIMSTYLE1
100
AcDbAlignedDimension
 13
139.8937341631
 23
244.0244124198
 33
0.0
 14
244.8937341631
 24
243.5244124198
 34
0.0
100
AcDbRotatedDimension
  0
DIMENSION
  5
190
330
1F
100
AcDbEntity
  8
0
  6
SLD-実線
 62
     7
370
    18
100
AcDbDimension
  2
_D_5
 10
244.8937341631
 20
263.9440849991
 30
0.0
 11
252.8937341631
 21
263.9440849991
 31
0.0
 70
   160
  1
<>
 71
     2
 42
-1.0
  3
SLDDIMSTYLE0
100
AcDbAlignedDimension
 13
260.8937341631
 23
240.5244124198
 33
0.0
 14
244.8937341631
 24
243.5244124198
 34
0.0
100
AcDbRotatedDimension
  0
DIMENSION
  5
19C
330
1F
100
AcDbEntity
  8
0
  6
SLD-実線
 62
     7
370
    18
100
AcDbDimension
  2
_D_6
 10
112.8937341631
 20
217.6778971603
 30
0.0
 11
112.8937341631
 21
235.7511547901
 31
0.0
 70
   160
  1
(36.5)
 71
     2
 42
-1.0
  3
SLDDIMSTYLE1
100
AcDbAlignedDimension
 13
238.3937341631
 23
253.8244124198
 33
0.0
 14
185.3264247795
 24
217.6778971603
 34
0.0
 50
90.0
100
AcDbRotatedDimension
  0
INSERT
  5
1AD
330
1F
100
AcDbEntity
  8
0
  6
Continuous
 62
     7
370
     0
100
AcDbBlockReference
  2
SW_NOTE_0
 10
256.7055837563
 20
282.5901018134
 30
0.0
  0
LEADER
  5
1AF
330
1F
100
AcDbEntity
  8
0
  6
Continuous
 62
     7
370
     0
100
AcDbLeader
  3
SLDDIMSTYLE2
 76
     2
 10
241.3937341631
 20
253.8244124198
 30
0.0
 10
256.7055837563
 20
282.5901018134
 30
0.0
  0
INSERT
  5
1B5
330
1F
100
AcDbEntity
  8
0
  6
Continuous
 62
     7
370
     0
100
AcDbBlockReference
  2
SW_NOTE_1
 10
274.9796954315
 20
209.303299783
 30
0.0
  0
LEADER
  5
1B6
330
1F
100
AcDbEntity
  8
0
  6
Continuous
 62
     7
370
     0
100
AcDbLeader
  3
SLDDIMSTYLE2
 76
     2
 10
269.20793362
 20
232.7694725449
 30
0.0
 10
274.9796954315
 20
209.303299783
 30
0.0
  0
LINE
  5
1B7
330
1F
100
AcDbEntity
  8
0
  6
SLD-実線
 62
     7
370
    18
100
AcDbLine
 10
58.9728646739
 20
250.8778971603
 30
0.0
 11
58.9728646739
 21
250.8778971603
 31
0.0
  0
LINE
  5
1B8
330
1F
100
AcDbEntity
  8
0
  6
SLD-実線
 62
     7
370
    18
100
AcDbLine
 10
53.9728646739
 20
250.8778971603
 30
0.0
 11
53.9728646739
 21
250.3778971603
 31
0.0
  0
ARC
  5
1B9
330
1F
100
AcDbEntity
  8
0
  6
SLD-実線
 62
     7
370
    18
100
AcDbCircle
 10
57.4197222605
 20
250.9820498192
 30
0.0
 40
0.7603099836304714
100
AcDbArc
 50
352.1264600739
 51
66.2363231436
  0
ARC
  5
1BA
330
1F
100
AcDbEntity
  8
0
  6
SLD-実線
 62
     7
370
    18
100
AcDbCircle
 10
55.2372647769
 20
250.9177917478
 30
0.0
 40
0.760309983630477
100
AcDbArc
 50
91.3291506161
 51
225.2428882325
  0
LINE
  5
1BB
330
1F
100
AcDbEntity
  8
0
  6
SLD-実線
 62
     7
370
    18
100
AcDbLine
 10
60.7019283354
 20
250.3778971603
 30
0.0
 11
60.1969033709
 21
251.3244124198
 31
0.0
  0
LINE
  5
1BC
330
1F
100
AcDbEntity
  8
0
  6
SLD-実線
 62
     7
370
    18
100
AcDbLine
 10
60.4469033709
 20
251.3244124198
 30
0.0
 11
60.1969033709
 21
253.8244124198
 31
0.0
  0
LINE
  5
1BD
330
1F
100
AcDbEntity
  8
0
  6
SLD-実線
 62
     7
370
    18
100
AcDbLine
 10
57.1969033709
 20
253.8244124198
 30
0.0
 11
56.9822518449
 21
251.6778971603
 31
0.0
  0
LINE
  5
1BE
330
1F
100
AcDbEntity
  8
0
  6
SLD-実線
 62
     7
370
    18
100
AcDbLine
 10
54.6969033709
 20
244.3244124198
 30
0.0
 11
54.6969033709
 21
244.3244124198
 31
0.0
  0
LINE
  5
1BF
330
1F
100
AcDbEntity
  8
0
  6
SLD-実線
 62
     7
370
    18
100
AcDbLine
 10
62.6969033709
 20
244.3244124198
 30
0.0
 11
62.6969033709
 21
244.3244124198
 31
0.0
  0
LINE
  5
1C0
330
1F
100
AcDbEntity
  8
0
  6
SLD-実線
 62
     7
370
    18
100
AcDbLine
 10
68.4056862229
 20
239.8572413352
 30
0.0
 11
68.4056862229
 21
239.8572413352
 31
0.0
  0
LINE
  5
1C1
330
1F
100
AcDbEntity
  8
0
  6
SLD-実線
 62
     7
370
    18
100
AcDbLine
 10
69.7610168124
 20
236.5026804112
 30
0.0
 11
69.7628653695
 21
236.4981050716
 31
0.0
  0
LINE
  5
1C2
330
1F
100
AcDbEntity
  8
0
  6
SLD-実線
 62
     7
370
    18
100
AcDbLine
 10
71.1872302944
 20
240.9810796592
 30
0.0
 11
68.4019283354
 21
247.302183321
 31
0.0
  0
LINE
  5
1C3
330
1F
100
AcDbEntity
  8
0
  6
SLD-実線
 62
     7
370
    18
100
AcDbLine
 10
65.5516152905
 20
246.9213147786
 30
0.0
 11
68.4056862229
 21
239.8572413352
 31
0.0
  0
LINE
  5
1C4
330
1F
100
AcDbEntity
  8
0
  6
SLD-実線
 62
     7
370
    18
100
AcDbLine
 10
53.9728646739
 20
250.3778971603
 30
0.0
 11
54.7019283354
 21
250.3778971603
 31
0.0
  0
LINE
  5
1C5
330
1F
100
AcDbEntity
  8
0
  6
SLD-実線
 62
     7
370
    18
100
AcDbLine
 10
58.3677718747
 20
250.8778971603
 30
0.0
 11
58.9728646739
 21
250.8778971603
 31
0.0
  0
LINE
  5
1C6
330
1F
100
AcDbEntity
  8
0
  6
SLD-実線
 62
     7
370
    18
100
AcDbLine
 10
53.9728646739
 20
250.8778971603
 30
0.0
 11
58.3677718747
 21
250.8778971603
 31
0.0
  0
LINE
  5
1C7
330
1F
100
AcDbEntity
  8
0
  6
SLD-実線
 62
     7
370
    18
100
AcDbLine
 10
57.7261007015
 20
251.6778971603
 30
0.0
 11
55.2196286464
 21
251.6778971603
 31
0.0
  0
ARC
  5
1C8
330
1F
100
AcDbEntity
  8
0
  6
SLD-実線
 62
     7
370
    18
100
AcDbCircle
 10
54.7019283354
 20
249.8778971603
 30
0.0
 40
0.5000000000000284
100
AcDbArc
 50
90.0
 51
180.0
  0
LINE
  5
1C9
330
1F
100
AcDbEntity
  8
0
  6
SLD-実線
 62
     7
370
    18
100
AcDbLine
 10
56.8177839672
 20
244.8778971603
 30
0.0
 11
54.5019283354
 21
244.8778971603
 31
0.0
  0
ARC
  5
1CA
330
1F
100
AcDbEntity
  8
0
  6
SLD-実線
 62
     7
370
    18
100
AcDbCircle
 10
54.5019283354
 20
245.1778971603
 30
0.0
 40
0.3000000000000114
100
AcDbArc
 50
180.0
 51
270.0
  0
LINE
  5
1CB
330
1F
100
AcDbEntity
  8
0
  6
SLD-実線
 62
     7
370
    18
100
AcDbLine
 10
54.2019283354
 20
245.1778971603
 30
0.0
 11
56.8177839672
 21
245.1778971603
 31
0.0
  0
LINE
  5
1CC
330
1F
100
AcDbEntity
  8
0
  6
SLD-実線
 62
     7
370
    18
100
AcDbLine
 10
56.8177839672
 20
244.8778971603
 30
0.0
 11
56.8177839672
 21
245.1778971603
 31
0.0
  0
LINE
  5
1CD
330
1F
100
AcDbEntity
  8
0
  6
SLD-実線
 62
     7
370
    18
100
AcDbLine
 10
54.2019283354
 20
249.8778971603
 30
0.0
 11
54.2019283354
 21
245.1778971603
 31
0.0
  0
LINE
  5
1CE
330
1F
100
AcDbEntity
  8
0
  6
SLD-実線
 62
     7
370
    18
100
AcDbLine
 10
64.2019283354
 20
246.8778971603
 30
0.0
 11
64.2019283354
 21
245.1778971603
 31
0.0
  0
LINE
  5
1CF
330
1F
100
AcDbEntity
  8
0
  6
SLD-実線
 62
     7
370
    18
100
AcDbLine
 10
60.5860727035
 20
245.1778971603
 30
0.0
 11
64.2019283354
 21
245.1778971603
 31
0.0
  0
ARC
  5
1D0
330
1F
100
AcDbEntity
  8
0
  6
SLD-実線
 62
     7
370
    18
100
AcDbCircle
 10
58.7019283354
 20
241.8778971603
 30
0.0
 40
3.800000000000052
100
AcDbArc
 50
60.2756708529
 51
119.7243291471
  0
LINE
  5
1D1
330
1F
100
AcDbEntity
  8
0
  6
SLD-実線
 62
     7
370
    18
100
AcDbLine
 10
54.7019283354
 20
250.3778971603
 30
0.0
 11
60.7019283354
 21
250.3778971603
 31
0.0
  0
ARC
  5
1D2
330
1F
100
AcDbEntity
  8
0
  6
SLD-実線
 62
     7
370
    18
100
AcDbCircle
 10
60.7019283354
 20
263.8778971603
 30
0.0
 40
13.5
100
AcDbArc
 50
270.0
 51
303.7489885959
  0
LINE
  5
1D3
330
1F
100
AcDbEntity
  8
0
  6
SLD-実線
 62
     7
370
    18
100
AcDbLine
 10
68.2019283354
 20
247.2623690322
 30
0.0
 11
68.2019283354
 21
252.652925
 31
0.0
  0
ARC
  5
1D4
330
1F
100
AcDbEntity
  8
0
  6
SLD-実線
 62
     7
370
    18
100
AcDbCircle
 10
64.2019283354
 20
267.8778971603
 30
0.0
 40
21.0
100
AcDbArc
 50
270.0
 51
280.9805754276
  0
LINE
  5
1D5
330
1F
100
AcDbEntity
  8
0
  6
SLD-実線
 62
     7
370
    18
100
AcDbLine
 10
60.4373244639
 20
244.9173708445
 30
0.0
 11
60.5860727035
 21
245.1778971603
 31
0.0
  0
LINE
  5
1D6
330
1F
100
AcDbEntity
  8
0
  6
SLD-実線
 62
     7
370
    18
100
AcDbLine
 10
56.9665322068
 20
244.9173708445
 30
0.0
 11
56.8177839672
 21
245.1778971603
 31
0.0
  0
ARC
  5
1D7
330
1F
100
AcDbEntity
  8
0
  6
SLD-実線
 62
     7
370
    18
100
AcDbCircle
 10
58.7019283354
 20
241.8778971603
 30
0.0
 40
3.499999999999997
100
AcDbArc
 50
60.2756708529
 51
119.7243291471
  0
ARC
  5
1D8
330
1F
100
AcDbEntity
  8
0
  6
SLD-実線
 62
     7
370
    18
100
AcDbCircle
 10
63.9019283354
 20
245.1778971603
 30
0.0
 40
0.3000000000000114
100
AcDbArc
 50
270.0
 51
0.0
  0
LINE
  5
1D9
330
1F
100
AcDbEntity
  8
0
  6
SLD-実線
 62
     7
370
    18
100
AcDbLine
 10
63.9019283354
 20
244.8778971603
 30
0.0
 11
60.5860727035
 21
244.8778971603
 31
0.0
  0
LINE
  5
1DA
330
1F
100
AcDbEntity
  8
0
  6
SLD-実線
 62
     7
370
    18
100
AcDbLine
 10
60.5860727035
 20
244.8778971603
 30
0.0
 11
60.5860727035
 21
245.1778971603
 31
0.0
  0
SPLINE
  5
1DB
330
1F
100
AcDbEntity
  8
0
  6
SLD-実線
 62
     7
370
    18
100
AcDbSpline
210
0.0
220
0.0
230
1.0
 70
     8
 71
     3
 72
    14
 73
    10
 74
     0
 42
0.000000001
 43
0.00000001
 40
0.0
 40
0.0
 40
0.0
 40
0.0
 40
0.25
 40
0.25
 40
0.5
 40
0.5
 40
0.75
 40
0.75
 40
1.0
 40
1.0
 40
1.0
 40
1.0
 10
68.20192833539019
 20
252.6529250000146
 30
0.0
 10
68.28662108207897
 20
252.7095127216671
 30
0.0
 10
68.36910433279175
 20
252.7660089907343
 30
0.0
 10
68.52996863013202
 20
252.8787412103204
 30
0.0
 10
68.60932067764975
 20
252.9357015537827
 30
0.0
 10
68.75801666268185
 20
253.0447102234566
 30
0.0
 10
68.8273701142745
 20
253.096725427751
 30
0.0
 10
68.95524299866602
 20
253.194299213086
 30
0.0
 10
69.01358378680034
 20
253.2397498411794
 30
0.0
 10
69.06195225880093
 20
253.2778971603364
 30
0.0
  0
SPLINE
  5
1DC
330
1F
100
AcDbEntity
  8
0
  6
SLD-実線
 62
     7
370
    18
100
AcDbSpline
210
0.0
220
0.0
230
1.0
 70
     8
 71
     3
 72
     8
 73
     4
 74
     0
 42
0.000000001
 43
0.00000001
 40
0.0
 40
0.0
 40
0.0
 40
0.0
 40
1.0
 40
1.0
 40
1.0
 40
1.0
 10
68.4019283353902
 20
247.3021833209577
 30
0.0
 10
68.33597914752764
 20
247.2887214993565
 30
0.0
 10
68.26931448179361
 20
247.2754438651575
 30
0.0
 10
68.20192833539018
 20
247.2623690322481
 30
0.0
  0
LINE
  5
1DD
330
1F
100
AcDbEntity
  8
0
  6
SLD-実線
 62
     7
370
    18
100
AcDbLine
 10
69.0619522588
 20
253.2778971603
 30
0.0
 11
69.2019283354
 21
253.2778971603
 31
0.0
  0
LINE
  5
1DE
330
1F
100
AcDbEntity
  8
0
  6
SLD-実線
 62
     7
370
    18
100
AcDbLine
 10
69.2019283354
 20
253.2778971603
 30
0.0
 11
69.2019283354
 21
248.2819792181
 31
0.0
  0
ARC
  5
1DF
330
1F
100
AcDbEntity
  8
0
  6
SLD-実線
 62
     7
370
    18
100
AcDbCircle
 10
68.2019283354
 20
248.2819792181
 30
0.0
 40
0.9999999999999953
100
AcDbArc
 50
281.5369590328
 51
0.0
  0
LINE
  5
1E0
330
1F
100
AcDbEntity
  8
0
  6
SLD-実線
 62
     7
370
    18
100
AcDbLine
 10
62.2228646739
 20
218.1778971603
 30
0.0
 11
62.2228646739
 21
225.6666564447
 31
0.0
  0
ARC
  5
1E1
330
1F
100
AcDbEntity
  8
0
  6
SLD-実線
 62
     7
370
    18
100
AcDbCircle
 10
61.7228646739
 20
218.1778971603
 30
0.0
 40
0.4999999999999929
100
AcDbArc
 50
270.0
 51
0.0
  0
LINE
  5
1E2
330
1F
100
AcDbEntity
  8
0
  6
SLD-実線
 62
     7
370
    18
100
AcDbLine
 10
61.7228646739
 20
217.6778971603
 30
0.0
 11
55.2228646739
 21
217.6778971603
 31
0.0
  0
ARC
  5
1E3
330
1F
100
AcDbEntity
  8
0
  6
SLD-実線
 62
     7
370
    18
100
AcDbCircle
 10
55.2228646739
 20
218.1778971603
 30
0.0
 40
0.5
100
AcDbArc
 50
180.0
 51
270.0
  0
LINE
  5
1E4
330
1F
100
AcDbEntity
  8
0
  6
SLD-実線
 62
     7
370
    18
100
AcDbLine
 10
54.7228646739
 20
218.1778971603
 30
0.0
 11
54.7228646739
 21
225.6778971603
 31
0.0
  0
LINE
  5
1E5
330
1F
100
AcDbEntity
  8
0
  6
SLD-実線
 62
     7
370
    18
100
AcDbLine
 10
59.9728646739
 20
220.3550215048
 30
0.0
 11
59.9728646739
 21
218.8778971603
 31
0.0
  0
ARC
  5
1E6
330
1F
100
AcDbEntity
  8
0
  6
SLD-実線
 62
     7
370
    18
100
AcDbCircle
 10
58.4728646739
 20
221.6778971603
 30
0.0
 40
1.99999999999999
100
AcDbArc
 50
318.5903778907
 51
221.4096221093
  0
LINE
  5
1E7
330
1F
100
AcDbEntity
  8
0
  6
SLD-実線
 62
     7
370
    18
100
AcDbLine
 10
56.9728646739
 20
218.8778971603
 30
0.0
 11
56.9728646739
 21
220.3550215048
 31
0.0
  0
LINE
  5
1E8
330
1F
100
AcDbEntity
  8
0
  6
SLD-実線
 62
     7
370
    18
100
AcDbLine
 10
59.9728646739
 20
218.8778971603
 30
0.0
 11
56.9728646739
 21
218.8778971603
 31
0.0
  0
LINE
  5
1E9
330
1F
100
AcDbEntity
  8
0
  6
SLD-実線
 62
     7
370
    18
100
AcDbLine
 10
54.7228646739
 20
225.6778971603
 30
0.0
 11
54.7228646739
 21
225.6778971603
 31
0.0
  0
ARC
  5
1EA
330
1F
100
AcDbEntity
  8
0
  6
SLD-実線
 62
     7
370
    18
100
AcDbCircle
 10
58.6969033709
 20
235.0244124198
 30
0.0
 40
3.5
100
AcDbArc
 50
180.0
 51
0.0
  0
SPLINE
  5
1EB
330
1F
100
AcDbEntity
  8
0
  6
SLD-実線
 62
     7
370
    18
100
AcDbSpline
210
0.0
220
0.0
230
1.0
 70
    24
 71
     3
 72
    10
 73
     6
 74
     0
 42
0.000000001
 43
0.00000001
 40
0.0
 40
0.0
 40
0.0
 40
0.0
 40
0.5000000000000001
 40
0.5000000000000001
 40
1.0
 40
1.0
 40
1.0
 40
1.0
 10
62.19690337088376
 20
233.087920746677
 30
0.0
 10
62.19690337088373
 20
233.3864097644218
 30
0.0
 10
62.19690337088373
 20
233.6963399693781
 30
0.0
 10
62.19690337088373
 20
234.3514038736012
 30
0.0
 10
62.19690337088373
 20
234.6844414970295
 30
0.0
 10
62.19690337088373
 20
235.0244124197806
 30
0.0
  0
ARC
  5
1EC
330
1F
100
AcDbEntity
  8
0
  6
SLD-実線
 62
     7
370
    18
100
AcDbCircle
 10
58.6969033709
 20
235.0244124198
 30
0.0
 40
4.000000000000004
100
AcDbArc
 50
208.9550243719
 51
331.0449756281
  0
SPLINE
  5
1ED
330
1F
100
AcDbEntity
  8
0
  6
SLD-実線
 62
     7
370
    18
100
AcDbSpline
210
0.0
220
0.0
230
1.0
 70
    24
 71
     3
 72
    10
 73
     6
 74
     0
 42
0.000000001
 43
0.00000001
 40
0.0
 40
0.0
 40
0.0
 40
0.0
 40
0.5
 40
0.5
 40
1.0
 40
1.0
 40
1.0
 40
1.0
 10
55.19690337088376
 20
233.0879207466768
 30
0.0
 10
55.19690337088374
 20
233.3864097644218
 30
0.0
 10
55.19690337088374
 20
233.6963399693781
 30
0.0
 10
55.19690337088374
 20
234.3514038736012
 30
0.0
 10
55.19690337088374
 20
234.6844414970295
 30
0.0
 10
55.19690337088374
 20
235.0244124197806
 30
0.0
  0
SPLINE
  5
1EE
330
1F
100
AcDbEntity
  8
0
  6
SLD-実線
 62
     7
370
    18
100
AcDbSpline
210
0.0
220
0.0
230
1.0
 70
    24
 71
     3
 72
    12
 73
     8
 74
     0
 42
0.000000001
 43
0.00000001
 40
0.0
 40
0.0
 40
0.0
 40
0.0
 40
0.5
 40
0.5
 40
0.75
 40
0.75
 40
1.0
 40
1.0
 40
1.0
 40
1.0
 10
55.19690337088374
 20
235.0244124197806
 30
0.0
 10
55.19690337088374
 20
235.3637386642585
 30
0.0
 10
55.19690337088374
 20
235.6962722124238
 30
0.0
 10
55.19690337088374
 20
236.1826529438073
 30
0.0
 10
55.19690337088374
 20
236.3438310678411
 30
0.0
 10
55.19690337088374
 20
236.657636803532
 30
0.0
 10
55.19690337088374
 20
236.8107074218642
 30
0.0
 10
55.19690337088374
 20
236.9609040928843
 30
0.0
  0
CIRCLE
  5
1EF
330
1F
100
AcDbEntity
  8
0
  6
SLD-実線
 62
     7
370
    18
100
AcDbCircle
 10
58.6969033709
 20
235.0244124198
 30
0.0
 40
2.100000000000023
  0
ARC
  5
1F0
330
1F
100
AcDbEntity
  8
0
  6
SLD-実線
 62
     7
370
    18
100
AcDbCircle
 10
58.6969033709
 20
235.0244124198
 30
0.0
 40
3.5
100
AcDbArc
 50
0.0
 51
180.0
  0
ARC
  5
1F1
330
1F
100
AcDbEntity
  8
0
  6
SLD-実線
 62
     7
370
    18
100
AcDbCircle
 10
58.6969033709
 20
235.0244124198
 30
0.0
 40
4.000000000000018
100
AcDbArc
 50
28.9550243719
 51
151.0449756281
  0
SPLINE
  5
1F2
330
1F
100
AcDbEntity
  8
0
  6
SLD-実線
 62
     7
370
    18
100
AcDbSpline
210
0.0
220
0.0
230
1.0
 70
    24
 71
     3
 72
    12
 73
     8
 74
     0
 42
0.000000001
 43
0.00000001
 40
0.0
 40
0.0
 40
0.0
 40
0.0
 40
0.5
 40
0.5
 40
0.75
 40
0.75
 40
1.0
 40
1.0
 40
1.0
 40
1.0
 10
62.19690337088373
 20
235.0244124197806
 30
0.0
 10
62.19690337088373
 20
235.3637386642585
 30
0.0
 10
62.19690337088373
 20
235.6962722124238
 30
0.0
 10
62.19690337088375
 20
236.1826529438073
 30
0.0
 10
62.19690337088375
 20
236.3438310678411
 30
0.0
 10
62.19690337088375
 20
236.657636803532
 30
0.0
 10
62.19690337088375
 20
236.8107074218641
 30
0.0
 10
62.19690337088375
 20
236.9609040928843
 30
0.0
  0
ARC
  5
1F3
330
1F
100
AcDbEntity
  8
0
  6
SLD-実線
 62
     7
370
    18
100
AcDbCircle
 10
58.6969033709
 20
235.0244124198
 30
0.0
 40
8.999999999999993
100
AcDbArc
 50
199.1881364537
 51
340.8118635463
  0
SPLINE
  5
1F4
330
1F
100
AcDbEntity
  8
0
  6
SLD-実線
 62
     7
370
    18
100
AcDbSpline
210
0.0
220
0.0
230
1.0
 70
    24
 71
     3
 72
    10
 73
     6
 74
     0
 42
0.000000001
 43
0.00000001
 40
0.0
 40
0.0
 40
0.0
 40
0.0
 40
0.5000000000000002
 40
0.5000000000000002
 40
1.0
 40
1.0
 40
1.0
 40
1.0
 10
67.19690337088375
 20
232.0663725282308
 30
0.0
 10
67.19690337088375
 20
231.6648070884807
 30
0.0
 10
67.19690337088375
 20
231.2697032458782
 30
0.0
 10
67.19690337088375
 20
230.5011764170143
 30
0.0
 10
67.19690337088375
 20
230.1256259919232
 30
0.0
 10
67.19690337088382
 20
229.7565855433544
 30
0.0
  0
ARC
  5
1F5
330
1F
100
AcDbEntity
  8
0
  6
SLD-実線
 62
     7
370
    18
100
AcDbCircle
 10
58.6969033709
 20
235.0244124198
 30
0.0
 40
10.0
100
AcDbArc
 50
211.7883306171
 51
328.2116693829
  0
SPLINE
  5
1F6
330
1F
100
AcDbEntity
  8
0
  6
SLD-実線
 62
     7
370
    18
100
AcDbSpline
210
0.0
220
0.0
230
1.0
 70
    24
 71
     3
 72
     8
 73
     4
 74
     0
 42
0.000000001
 43
0.00000001
 40
0.0
 40
0.0
 40
0.0
 40
0.0
 40
1.0
 40
1.0
 40
1.0
 40
1.0
 10
50.19690337088382
 20
229.7565855433541
 30
0.0
 10
50.19690337088375
 20
230.4991062235221
 30
0.0
 10
50.19690337088375
 20
231.2635152081011
 30
0.0
 10
50.19690337088375
 20
232.0663725282308
 30
0.0
  0
ARC
  5
1F7
330
1F
100
AcDbEntity
  8
0
  6
SLD-実線
 62
     7
370
    18
100
AcDbCircle
 10
58.6969033709
 20
235.0244124198
 30
0.0
 40
10.0
100
AcDbArc
 50
31.7883306171
 51
148.2116693829
  0
SPLINE
  5
1F8
330
1F
100
AcDbEntity
  8
0
  6
SLD-実線
 62
     7
370
    18
100
AcDbSpline
210
0.0
220
0.0
230
1.0
 70
    24
 71
     3
 72
     8
 73
     4
 74
     0
 42
0.000000001
 43
0.00000001
 40
0.0
 40
0.0
 40
0.0
 40
0.0
 40
1.0
 40
1.0
 40
1.0
 40
1.0
 10
67.19690337088375
 20
240.292239296207
 30
0.0
 10
67.19690337088375
 20
239.5497186160391
 30
0.0
 10
67.19690337088375
 20
238.7853096314601
 30
0.0
 10
67.19690337088375
 20
237.9824523113304
 30
0.0
  0
ARC
  5
1F9
330
1F
100
AcDbEntity
  8
0
  6
SLD-実線
 62
     7
370
    18
100
AcDbCircle
 10
58.6969033709
 20
235.0244124198
 30
0.0
 40
8.999999999999984
100
AcDbArc
 50
19.1881364537
 51
160.8118635463
  0
SPLINE
  5
1FA
330
1F
100
AcDbEntity
  8
0
  6
SLD-実線
 62
     7
370
    18
100
AcDbSpline
210
0.0
220
0.0
230
1.0
 70
    24
 71
     3
 72
    10
 73
     6
 74
     0
 42
0.000000001
 43
0.00000001
 40
0.0
 40
0.0
 40
0.0
 40
0.0
 40
0.5000000000000002
 40
0.5000000000000002
 40
1.0
 40
1.0
 40
1.0
 40
1.0
 10
50.19690337088375
 20
237.9824523113304
 30
0.0
 10
50.19690337088375
 20
238.3840177510805
 30
0.0
 10
50.19690337088375
 20
238.779121593683
 30
0.0
 10
50.19690337088375
 20
239.5476484225469
 30
0.0
 10
50.19690337088375
 20
239.923198847638
 30
0.0
 10
50.19690337088375
 20
240.292239296207
 30
0.0
  0
LINE
  5
1FB
330
1F
100
AcDbEntity
  8
0
  6
SLD-実線
 62
     7
370
    18
100
AcDbLine
 10
50.1969033709
 20
232.0663725282
 30
0.0
 11
50.1969033709
 21
237.9824523113
 31
0.0
  0
LINE
  5
1FC
330
1F
100
AcDbEntity
  8
0
  6
SLD-実線
 62
     7
370
    18
100
AcDbLine
 10
67.1969033709
 20
237.9824523113
 30
0.0
 11
67.1969033709
 21
232.0663725282
 31
0.0
  0
CIRCLE
  5
1FD
330
1F
100
AcDbEntity
  8
0
  6
SLD-実線
 62
     7
370
    18
100
AcDbCircle
 10
58.6969033709
 20
235.0244124198
 30
0.0
 40
6.300000000000011
  0
ARC
  5
1FE
330
1F
100
AcDbEntity
  8
0
  6
SLD-実線
 62
     7
370
    18
100
AcDbCircle
 10
58.6969033709
 20
235.0244124198
 30
0.0
 40
10.0
100
AcDbArc
 50
148.2116693829
 51
211.7883306171
  0
ARC
  5
1FF
330
1F
100
AcDbEntity
  8
0
  6
SLD-実線
 62
     7
370
    18
100
AcDbCircle
 10
58.6969033709
 20
235.0244124198
 30
0.0
 40
10.0
100
AcDbArc
 50
328.2116693829
 51
31.7883306171
  0
ARC
  5
200
330
1F
100
AcDbEntity
  8
0
  6
SLD-実線
 62
     7
370
    18
100
AcDbCircle
 10
58.5818952548
 20
235.2195761783
 30
0.0
 40
9.800000000000034
100
AcDbArc
 50
148.8273472437
 51
211.1726527563
  0
ARC
  5
201
330
1F
100
AcDbEntity
  8
0
  6
SLD-実線
 62
     7
370
    18
100
AcDbCircle
 10
58.811911487
 20
234.8292486612
 30
0.0
 40
9.799999999999995
100
AcDbArc
 50
328.8273472437
 51
31.1726527563
  0
LINE
  5
202
330
1F
100
AcDbEntity
  8
0
  6
SLD-実線
 62
     7
370
    18
100
AcDbLine
 10
56.0482380853
 20
244.6672632537
 30
0.0
 11
56.0482380853
 21
244.8778971603
 31
0.0
  0
LINE
  5
203
330
1F
100
AcDbEntity
  8
0
  6
SLD-実線
 62
     7
370
    18
100
AcDbLine
 10
60.0259278759
 20
244.9357036508
 30
0.0
 11
60.0259278759
 21
245.117808458
 31
0.0
  0
LINE
  5
204
330
1F
100
AcDbEntity
  8
0
  6
SLD-実線
 62
     7
370
    18
100
AcDbLine
 10
62.6745931615
 20
244.8778971603
 30
0.0
 11
62.6745931615
 21
244.3244124198
 31
0.0
  0
LINE
  5
205
330
1F
100
AcDbEntity
  8
0
  6
SLD-実線
 62
     7
370
    18
100
AcDbLine
 10
62.607919364
 20
244.3244124198
 30
0.0
 11
62.6745931615
 21
244.3244124198
 31
0.0
  0
LINE
  5
206
330
1F
100
AcDbEntity
  8
0
  6
SLD-実線
 62
     7
370
    18
100
AcDbLine
 10
54.7192135803
 20
244.3244124198
 30
0.0
 11
54.7192135803
 21
244.8778971603
 31
0.0
  0
LINE
  5
207
330
1F
100
AcDbEntity
  8
0
  6
SLD-実線
 62
     7
370
    18
100
AcDbLine
 10
59.2711732187
 20
251.3244124198
 30
0.0
 11
60.4469033709
 21
251.3244124198
 31
0.0
  0
LINE
  5
208
330
1F
100
AcDbEntity
  8
0
  6
SLD-実線
 62
     7
370
    18
100
AcDbLine
 10
58.1728646739
 20
250.8778971603
 30
0.0
 11
59.2711732187
 21
251.3244124198
 31
0.0
  0
LINE
  5
209
330
1F
100
AcDbEntity
  8
0
  6
SLD-実線
 62
     7
370
    18
100
AcDbLine
 10
57.1969033709
 20
253.8244124198
 30
0.0
 11
60.1969033709
 21
253.8244124198
 31
0.0
  0
CIRCLE
  5
20A
330
1F
100
AcDbEntity
  8
0
  6
SLD-実線
 62
     7
370
    18
100
AcDbCircle
 10
58.6969033709
 20
235.0244124198
 30
0.0
 40
1.499999999999747
  0
ARC
  5
20B
330
1F
100
AcDbEntity
  8
0
  6
SLD-実線
 62
     7
370
    18
100
AcDbCircle
 10
58.6969033709
 20
235.0244124198
 30
0.0
 40
2.000000000000047
100
AcDbArc
 50
240.0
 51
60.0
  0
ARC
  5
20C
330
1F
100
AcDbEntity
  8
0
  6
SLD-実線
 62
     7
370
    18
100
AcDbCircle
 10
58.6969033709
 20
235.0244124198
 30
0.0
 40
2.000000000000047
100
AcDbArc
 50
60.0
 51
240.0
  0
LINE
  5
20D
330
1F
100
AcDbEntity
  8
0
  6
SLD-実線
 62
     7
370
    18
100
AcDbLine
 10
62.6969033709
 20
244.3244124198
 30
0.0
 11
62.6745931615
 21
244.3244124198
 31
0.0
  0
LINE
  5
20E
330
1F
100
AcDbEntity
  8
0
  6
SLD-実線
 62
     7
370
    18
100
AcDbLine
 10
62.607919364
 20
244.3244124198
 30
0.0
 11
62.607919364
 21
244.3244124198
 31
0.0
  0
LINE
  5
20F
330
1F
100
AcDbEntity
  8
0
  6
SLD-実線
 62
     7
370
    18
100
AcDbLine
 10
54.7192135803
 20
244.3244124198
 30
0.0
 11
54.6969033709
 21
244.3244124198
 31
0.0
  0
ARC
  5
210
330
1F
100
AcDbEntity
  8
0
  6
SLD-実線
 62
     7
370
    18
100
AcDbCircle
 10
58.4728646739
 20
221.6778971603
 30
0.0
 40
2.000000000000011
100
AcDbArc
 50
314.4270040008
 51
225.5729959992
  0
LINE
  5
211
330
1F
100
AcDbEntity
  8
0
  6
SLD-実線
 62
     7
370
    18
100
AcDbLine
 10
59.8728646739
 20
219.0778971603
 30
0.0
 11
59.8728646739
 21
220.2496114746
 31
0.0
  0
LINE
  5
212
330
1F
100
AcDbEntity
  8
0
  6
SLD-実線
 62
     7
370
    18
100
AcDbLine
 10
57.0728646739
 20
219.0778971603
 30
0.0
 11
59.8728646739
 21
219.0778971603
 31
0.0
  0
LINE
  5
213
330
1F
100
AcDbEntity
  8
0
  6
SLD-実線
 62
     7
370
    18
100
AcDbLine
 10
57.0728646739
 20
220.2496114746
 30
0.0
 11
57.0728646739
 21
219.0778971603
 31
0.0
  0
LINE
  5
214
330
1F
100
AcDbEntity
  8
0
  6
SLD-実線
 62
     7
370
    18
100
AcDbLine
 10
59.4728646739
 20
219.0678971603
 30
0.0
 11
57.4728646739
 21
219.0678971603
 31
0.0
  0
LINE
  5
215
330
1F
100
AcDbEntity
  8
0
  6
SLD-実線
 62
     7
370
    18
100
AcDbLine
 10
57.4728646739
 20
219.0678971603
 30
0.0
 11
57.4728646739
 21
219.0678971603
 31
0.0
  0
LINE
  5
216
330
1F
100
AcDbEntity
  8
0
  6
SLD-実線
 62
     7
370
    18
100
AcDbLine
 10
59.4728646739
 20
219.0678971603
 30
0.0
 11
59.4728646739
 21
219.0678971603
 31
0.0
  0
ARC
  5
217
330
1F
100
AcDbEntity
  8
0
  6
SLD-実線
 62
     7
370
    18
100
AcDbCircle
 10
69.3348578818
 20
238.1144191181
 30
0.0
 40
1.077644947033362
100
AcDbArc
 50
191.0782148171
 51
196.1969961219
  0
ARC
  5
218
330
1F
100
AcDbEntity
  8
0
  6
SLD-実線
 62
     7
370
    18
100
AcDbCircle
 10
70.4741272995
 20
238.7418707633
 30
0.0
 40
2.350000000000019
100
AcDbArc
 50
219.0211318088
 51
200.8004828302
  0
ARC
  5
219
330
1F
100
AcDbEntity
  8
0
  6
SLD-実線
 62
     7
370
    18
100
AcDbCircle
 10
58.7136227972
 20
235.0647949227
 30
0.0
 40
10.20000000000002
100
AcDbArc
 50
157.6319047704
 51
246.9676499828
  0
ARC
  5
21A
330
1F
100
AcDbEntity
  8
0
  6
SLD-実線
 62
     7
370
    18
100
AcDbCircle
 10
58.6544985918
 20
235.2221137076
 30
0.0
 40
10.19999999999999
100
AcDbArc
 50
290.477517615
 51
11.5379947965
  0
LINE
  5
21B
330
1F
100
AcDbEntity
  8
0
  6
SLD-実線
 62
     7
370
    18
100
AcDbLine
 10
49.4723435752
 20
238.8865557756
 30
0.0
 11
49.2810903124
 21
238.9464609212
 31
0.0
  0
LINE
  5
21C
330
1F
100
AcDbEntity
  8
0
  6
SLD-実線
 62
     7
370
    18
100
AcDbLine
 10
68.3134625823
 20
237.8177344205
 30
0.0
 11
68.2999864827
 21
237.8138200178
 31
0.0
  0
LINE
  5
21D
330
1F
100
AcDbEntity
  8
0
  6
SLD-実線
 62
     7
370
    18
100
AcDbLine
 10
53.2370291332
 20
249.8147052177
 30
0.0
 11
49.2844050511
 21
238.9549598043
 31
0.0
  0
LINE
  5
21E
330
1F
100
AcDbEntity
  8
0
  6
SLD-実線
 62
     7
370
    18
100
AcDbLine
 10
53.4249676574
 20
249.746301189
 30
0.0
 11
53.2370291332
 21
249.8147052177
 31
0.0
  0
LINE
  5
21F
330
1F
100
AcDbEntity
  8
0
  6
SLD-実線
 62
     7
370
    18
100
AcDbLine
 10
53.4249676574
 20
249.746301189
 30
0.0
 11
49.4723435752
 21
238.8865557756
 31
0.0
  0
LINE
  5
220
330
1F
100
AcDbEntity
  8
0
  6
SLD-実線
 62
     7
370
    18
100
AcDbLine
 10
49.2844050511
 20
238.9549598043
 30
0.0
 11
49.4723435752
 21
238.8865557756
 31
0.0
  0
ARC
  5
221
330
1F
100
AcDbEntity
  8
0
  6
SLD-実線
 62
     7
370
    18
100
AcDbCircle
 10
49.0964665269
 20
239.023363833
 30
0.0
 40
0.2000000000000064
100
AcDbArc
 50
337.3863932012
 51
340.0
  0
ARC
  5
222
330
1F
100
AcDbEntity
  8
0
  6
SLD-実線
 62
     7
370
    18
100
AcDbCircle
 10
53.6129061816
 20
249.6778971603
 30
0.0
 40
0.4000000000000057
100
AcDbArc
 50
90.0
 51
160.0
  0
LINE
  5
223
330
1F
100
AcDbEntity
  8
0
  6
SLD-実線
 62
     7
370
    18
100
AcDbLine
 10
53.6129061816
 20
250.0778971603
 30
0.0
 11
53.6129061816
 21
249.8778971603
 31
0.0
  0
ARC
  5
224
330
1F
100
AcDbEntity
  8
0
  6
SLD-実線
 62
     7
370
    18
100
AcDbCircle
 10
53.6129061816
 20
249.6778971603
 30
0.0
 40
0.1999999999999988
100
AcDbArc
 50
90.0
 51
160.0
  0
LINE
  5
225
330
1F
100
AcDbEntity
  8
0
  6
SLD-実線
 62
     7
370
    18
100
AcDbLine
 10
54.2019283354
 20
249.8778971603
 30
0.0
 11
53.6129061816
 21
249.8778971603
 31
0.0
  0
LINE
  5
226
330
1F
100
AcDbEntity
  8
0
  6
SLD-実線
 62
     7
370
    18
100
AcDbLine
 10
54.2019283354
 20
249.8778971603
 30
0.0
 11
53.6129061816
 21
250.0778971603
 31
0.0
  0
CIRCLE
  5
227
330
1F
100
AcDbEntity
  8
0
  6
SLD-実線
 62
     7
370
    18
100
AcDbCircle
 10
58.6969033709
 20
235.0244124198
 30
0.0
 40
6.000000000000012
  0
CIRCLE
  5
228
330
1F
100
AcDbEntity
  8
0
  6
SLD-実線
 62
     7
370
    18
100
AcDbCircle
 10
58.6969033709
 20
235.0244124198
 30
0.0
 40
4.500000000000011
  0
ARC
  5
229
330
1F
100
AcDbEntity
  8
0
  6
SLD-実線
 62
     7
370
    18
100
AcDbCircle
 10
58.6969033709
 20
235.0244124198
 30
0.0
 40
4.000000000000022
100
AcDbArc
 50
358.9750475594
 51
28.9550243719
  0
ARC
  5
22A
330
1F
100
AcDbEntity
  8
0
  6
SLD-実線
 62
     7
370
    18
100
AcDbCircle
 10
58.6969033709
 20
235.0244124198
 30
0.0
 40
3.999999999999992
100
AcDbArc
 50
151.0449756281
 51
208.9550243719
  0
ARC
  5
22B
330
1F
100
AcDbEntity
  8
0
  6
SLD-実線
 62
     7
370
    18
100
AcDbCircle
 10
58.6969033709
 20
235.0244124198
 30
0.0
 40
4.000000000000028
100
AcDbArc
 50
331.0449756281
 51
358.9750475594
  0
DIMENSION
  5
22C
330
1F
100
AcDbEntity
  8
0
  6
SLD-実線
 62
     7
370
    18
100
AcDbDimension
  2
_D_7
 10
57.6469033709
 20
236.8430657677
 30
0.0
 11
88.9190470527
 21
205.7331054066
 31
0.0
 70
   163
  1
M5深10
 71
     1
 42
-1.0
  3
SLDDIMSTYLE3
100
AcDbDiametricDimension
 15
59.7469033709
 25
233.2057590718
 35
0.0
 40
0.0
  0
DIMENSION
  5
235
330
1F
100
AcDbEntity
  8
0
  6
SLD-実線
 62
     7
370
    18
100
AcDbDimension
  2
_D_8
 10
67.1969033709
 20
202.6778971603
 30
0.0
 11
58.6969033709
 21
202.6778971603
 31
0.0
 70
   160
  1
<>
 71
     2
 42
-1.0
  3
SLDDIMSTYLE0
100
AcDbAlignedDimension
 13
50.1969033709
 23
232.0663725282
 33
0.0
 14
67.1969033709
 24
232.0663725282
 34
0.0
100
AcDbRotatedDimension
  0
INSERT
  5
24C
330
1F
100
AcDbEntity
  8
0
  6
SLD-実線
 62
     7
370
    18
100
AcDbBlockReference
  2
SW_CENTERMARKSYMBOL_0
 10
58.6969033709
 20
235.0244124198
 30
0.0
  0
ENDSEC
  0
SECTION
  2
OBJECTS
  0
DICTIONARY
  5
C
330
0
100
AcDbDictionary
281
     1
  3
ACAD_GROUP
350
D
  3
ACAD_LAYOUT
350
1A
  3
ACAD_MLINESTYLE
350
17
  3
ACAD_PLOTSETTINGS
350
19
  3
ACAD_PLOTSTYLENAME
350
E
  3
ACAD_SCALELIST
350
47
  0
DICTIONARY
  5
D
102
{ACAD_REACTORS
330
C
102
}
330
C
100
AcDbDictionary
281
     1
  0
DICTIONARY
  5
1A
102
{ACAD_REACTORS
330
C
102
}
330
C
100
AcDbDictionary
281
     1
  3
Layout1
350
1E
  3
Layout2
350
26
  3
Model
350
22
  0
DICTIONARY
  5
17
102
{ACAD_REACTORS
330
C
102
}
330
C
100
AcDbDictionary
281
     1
  3
Standard
350
18
  0
DICTIONARY
  5
19
102
{ACAD_REACTORS
330
C
102
}
330
C
100
AcDbDictionary
281
     1
  0
ACDBDICTIONARYWDFLT
  5
E
102
{ACAD_REACTORS
330
C
102
}
330
C
100
AcDbDictionary
281
     1
  3
Normal
350
F
100
AcDbDictionaryWithDefault
340
F
  0
DICTIONARY
  5
47
102
{ACAD_REACTORS
330
C
102
}
330
C
100
AcDbDictionary
281
     1
  3
A0
350
48
  3
A1
350
49
  3
A2
350
4A
  3
A3
350
4B
  3
A4
350
4C
  3
A5
350
4D
  3
A6
350
4E
  3
A7
350
4F
  3
A8
350
50
  3
A9
350
51
  3
B0
350
52
  3
B1
350
53
  3
B2
350
54
  3
B3
350
55
  3
B4
350
56
  3
B5
350
57
  3
B6
350
58
  3
B7
350
59
  3
B8
350
5A
  3
B9
350
5B
  3
C0
350
5C
  3
C1
350
5D
  3
C2
350
5E
  3
C3
350
5F
  3
C4
350
60
  3
C5
350
61
  3
C6
350
62
  3
C7
350
63
  3
C8
350
64
  3
C9
350
65
  3
D0
350
66
  3
D1
350
67
  3
D2
350
68
  0
LAYOUT
  5
1E
102
{ACAD_REACTORS
330
1A
102
}
330
1A
100
AcDbPlotSettings
  1

  2
none_device
  4

  6

 40
0.0
 41
0.0
 42
0.0
 43
0.0
 44
0.0
 45
0.0
 46
0.0
 47
0.0
 48
0.0
 49
0.0
140
0.0
141
0.0
142
1.0
143
1.0
 70
   688
 72
     1
 73
     0
 74
     5
  7

 75
    16
147
1.0
148
0.0
149
0.0
100
AcDbLayout
  1
Layout1
 70
     1
 71
     1
 10
0.0
 20
0.0
 11
420.0
 21
297.0
 12
0.0
 22
0.0
 32
0.0
 14
1.0000000000E+20
 24
1.0000000000E+20
 34
1.0000000000E+20
 15
-1.0000000000E+20
 25
-1.0000000000E+20
 35
-1.0000000000E+20
146
0.0
 13
0.0
 23
0.0
 33
0.0
 16
1.0
 26
0.0
 36
0.0
 17
0.0
 27
1.0
 37
0.0
 76
     0
330
1B
  0
LAYOUT
  5
26
102
{ACAD_REACTORS
330
1A
102
}
330
1A
100
AcDbPlotSettings
  1

  2
none_device
  4

  6

 40
0.0
 41
0.0
 42
0.0
 43
0.0
 44
0.0
 45
0.0
 46
0.0
 47
0.0
 48
0.0
 49
0.0
140
0.0
141
0.0
142
1.0
143
1.0
 70
   688
 72
     1
 73
     0
 74
     5
  7

 75
    16
147
1.0
148
0.0
149
0.0
100
AcDbLayout
  1
Layout2
 70
     1
 71
     2
 10
0.0
 20
0.0
 11
0.0
 21
0.0
 12
0.0
 22
0.0
 32
0.0
 14
0.0
 24
0.0
 34
0.0
 15
0.0
 25
0.0
 35
0.0
146
0.0
 13
0.0
 23
0.0
 33
0.0
 16
1.0
 26
0.0
 36
0.0
 17
0.0
 27
1.0
 37
0.0
 76
     0
330
23
  0
LAYOUT
  5
22
102
{ACAD_REACTORS
330
1A
102
}
330
1A
100
AcDbPlotSettings
  1

  2
none_device
  4
Letter_(8.50_x_11.00_Inches)
  6

 40
6.35
 41
6.35
 42
6.35000508
 43
6.35000508
 44
215.9
 45
279.4
 46
0.0
 47
0.0
 48
0.0
 49
0.0
140
0.0
141
0.0
142
1.0
143
1.0
 70
  1712
 72
     1
 73
     0
 74
     0
  7

 75
     0
147
1.0
148
0.0
149
0.0
100
AcDbLayout
  1
Model
 70
     1
 71
     0
 10
0.0
 20
0.0
 11
315.0
 21
445.5
 12
0.0
 22
0.0
 32
0.0
 14
0.0
 24
0.0
 34
0.0
 15
315.0
 25
445.5
 35
0.0
146
0.0
 13
0.0
 23
0.0
 33
0.0
 16
1.0
 26
0.0
 36
0.0
 17
0.0
 27
1.0
 37
0.0
 76
     0
330
1F
331
29
  0
MLINESTYLE
  5
18
102
{ACAD_REACTORS
330
17
102
}
330
17
100
AcDbMlineStyle
  2
Standard
 70
     0
  3

 62
   256
 51
90.0
 52
90.0
 71
     2
 49
0.5
 62
   256
  6
BYLAYER
 49
-0.5
 62
   256
  6
BYLAYER
  0
ACDBPLACEHOLDER
  5
F
102
{ACAD_REACTORS
330
E
102
}
330
E
  0
SCALE
  5
48
102
{ACAD_REACTORS
330
47
102
}
330
47
100
AcDbScale
 70
     0
300
1:1
140
1.0
141
1.0
290
     1
  0
SCALE
  5
49
102
{ACAD_REACTORS
330
47
102
}
330
47
100
AcDbScale
 70
     0
300
1:2
140
1.0
141
2.0
290
     0
  0
SCALE
  5
4A
102
{ACAD_REACTORS
330
47
102
}
330
47
100
AcDbScale
 70
     0
300
1:4
140
1.0
141
4.0
290
     0
  0
SCALE
  5
4B
102
{ACAD_REACTORS
330
47
102
}
330
47
100
AcDbScale
 70
     0
300
1:5
140
1.0
141
5.0
290
     0
  0
SCALE
  5
4C
102
{ACAD_REACTORS
330
47
102
}
330
47
100
AcDbScale
 70
     0
300
1:8
140
1.0
141
8.0
290
     0
  0
SCALE
  5
4D
102
{ACAD_REACTORS
330
47
102
}
330
47
100
AcDbScale
 70
     0
300
1:10
140
1.0
141
10.0
290
     0
  0
SCALE
  5
4E
102
{ACAD_REACTORS
330
47
102
}
330
47
100
AcDbScale
 70
     0
300
1:16
140
1.0
141
16.0
290
     0
  0
SCALE
  5
4F
102
{ACAD_REACTORS
330
47
102
}
330
47
100
AcDbScale
 70
     0
300
1:20
140
1.0
141
20.0
290
     0
  0
SCALE
  5
50
102
{ACAD_REACTORS
330
47
102
}
330
47
100
AcDbScale
 70
     0
300
1:30
140
1.0
141
30.0
290
     0
  0
SCALE
  5
51
102
{ACAD_REACTORS
330
47
102
}
330
47
100
AcDbScale
 70
     0
300
1:40
140
1.0
141
40.0
290
     0
  0
SCALE
  5
52
102
{ACAD_REACTORS
330
47
102
}
330
47
100
AcDbScale
 70
     0
300
1:50
140
1.0
141
50.0
290
     0
  0
SCALE
  5
53
102
{ACAD_REACTORS
330
47
102
}
330
47
100
AcDbScale
 70
     0
300
1:100
140
1.0
141
100.0
290
     0
  0
SCALE
  5
54
102
{ACAD_REACTORS
330
47
102
}
330
47
100
AcDbScale
 70
     0
300
2:1
140
2.0
141
1.0
290
     0
  0
SCALE
  5
55
102
{ACAD_REACTORS
330
47
102
}
330
47
100
AcDbScale
 70
     0
300
4:1
140
4.0
141
1.0
290
     0
  0
SCALE
  5
56
102
{ACAD_REACTORS
330
47
102
}
330
47
100
AcDbScale
 70
     0
300
8:1
140
8.0
141
1.0
290
     0
  0
SCALE
  5
57
102
{ACAD_REACTORS
330
47
102
}
330
47
100
AcDbScale
 70
     0
300
10:1
140
10.0
141
1.0
290
     0
  0
SCALE
  5
58
102
{ACAD_REACTORS
330
47
102
}
330
47
100
AcDbScale
 70
     0
300
100:1
140
100.0
141
1.0
290
     0
  0
SCALE
  5
59
102
{ACAD_REACTORS
330
47
102
}
330
47
100
AcDbScale
 70
     0
300
1/128" = 1'-0"
140
0.0078125
141
12.0
290
     0
  0
SCALE
  5
5A
102
{ACAD_REACTORS
330
47
102
}
330
47
100
AcDbScale
 70
     0
300
1/64" = 1'-0"
140
0.015625
141
12.0
290
     0
  0
SCALE
  5
5B
102
{ACAD_REACTORS
330
47
102
}
330
47
100
AcDbScale
 70
     0
300
1/32" = 1'-0"
140
0.03125
141
12.0
290
     0
  0
SCALE
  5
5C
102
{ACAD_REACTORS
330
47
102
}
330
47
100
AcDbScale
 70
     0
300
1/16" = 1'-0"
140
0.0625
141
12.0
290
     0
  0
SCALE
  5
5D
102
{ACAD_REACTORS
330
47
102
}
330
47
100
AcDbScale
 70
     0
300
3/32" = 1'-0"
140
0.09375
141
12.0
290
     0
  0
SCALE
  5
5E
102
{ACAD_REACTORS
330
47
102
}
330
47
100
AcDbScale
 70
     0
300
1/8" = 1'-0"
140
0.125
141
12.0
290
     0
  0
SCALE
  5
5F
102
{ACAD_REACTORS
330
47
102
}
330
47
100
AcDbScale
 70
     0
300
3/16" = 1'-0"
140
0.1875
141
12.0
290
     0
  0
SCALE
  5
60
102
{ACAD_REACTORS
330
47
102
}
330
47
100
AcDbScale
 70
     0
300
1/4" = 1'-0"
140
0.25
141
12.0
290
     0
  0
SCALE
  5
61
102
{ACAD_REACTORS
330
47
102
}
330
47
100
AcDbScale
 70
     0
300
3/8" = 1'-0"
140
0.375
141
12.0
290
     0
  0
SCALE
  5
62
102
{ACAD_REACTORS
330
47
102
}
330
47
100
AcDbScale
 70
     0
300
1/2" = 1'-0"
140
0.5
141
12.0
290
     0
  0
SCALE
  5
63
102
{ACAD_REACTORS
330
47
102
}
330
47
100
AcDbScale
 70
     0
300
3/4" = 1'-0"
140
0.75
141
12.0
290
     0
  0
SCALE
  5
64
102
{ACAD_REACTORS
330
47
102
}
330
47
100
AcDbScale
 70
     0
300
1" = 1'-0"
140
1.0
141
12.0
290
     0
  0
SCALE
  5
65
102
{ACAD_REACTORS
330
47
102
}
330
47
100
AcDbScale
 70
     0
300
1-1/2" = 1'-0"
140
1.5
141
12.0
290
     0
  0
SCALE
  5
66
102
{ACAD_REACTORS
330
47
102
}
330
47
100
AcDbScale
 70
     0
300
3" = 1'-0"
140
3.0
141
12.0
290
     0
  0
SCALE
  5
67
102
{ACAD_REACTORS
330
47
102
}
330
47
100
AcDbScale
 70
     0
300
6" = 1'-0"
140
6.0
141
12.0
290
     0
  0
SCALE
  5
68
102
{ACAD_REACTORS
330
47
102
}
330
47
100
AcDbScale
 70
     0
300
1'-0" = 1'-0"
140
12.0
141
12.0
290
     0
  0
ENDSEC
  0
EOF
