  0
SECTION
  2
HEADER
  9
$ACADVER
  1
AC1015
  9
$ACADMAINTVER
 70
     6
  9
$DWGCODEPAGE
  3
ANSI_1252
  9
$INSBASE
 10
0.0
 20
0.0
 30
0.0
  9
$EXTMIN
 10
0.0
 20
0.0
 30
0.0
  9
$EXTMAX
 10
420.0
 20
594.0
 30
0.0
  9
$LIMMIN
 10
0.0
 20
0.0
  9
$LIMMAX
 10
420.0
 20
594.0
  9
$ORTHOMODE
 70
     0
  9
$REGENMODE
 70
     1
  9
$FILLMODE
 70
     1
  9
$QTEXTMODE
 70
     0
  9
$MIRRTEXT
 70
     1
  9
$LTSCALE
 40
2.0
  9
$ATTMODE
 70
     1
  9
$TEXTSIZE
 40
6.0
  9
$TRACEWID
 40
1.0
  9
$TEXTSTYLE
  7
STANDARD
  9
$CLAYER
  8
0
  9
$CELTYPE
  6
ByLayer
  9
$CECOLOR
 62
   256
  9
$CELTSCALE
 40
1.0
  9
$DISPSILH
 70
     0
  9
$DIMSCALE
 40
1.0
  9
$DIMASZ
 40
5.6
  9
$DIMEXO
 40
2.0
  9
$DIMDLI
 40
3.75
  9
$DIMRND
 40
0.0
  9
$DIMDLE
 40
0.0
  9
$DIMEXE
 40
2.0
  9
$DIMTP
 40
0.0
  9
$DIMTM
 40
0.0
  9
$DIMTXT
 40
5.6
  9
$DIMCEN
 40
2.5
  9
$DIMTSZ
 40
0.0
  9
$DIMTOL
 70
     0
  9
$DIMLIM
 70
     0
  9
$DIMTIH
 70
     1
  9
$DIMTOH
 70
     1
  9
$DIMSE1
 70
     0
  9
$DIMSE2
 70
     0
  9
$DIMTAD
 70
     1
  9
$DIMZIN
 70
     0
  9
$DIMBLK
  1

  9
$DIMASO
 70
     1
  9
$DIMSHO
 70
     1
  9
$DIMPOST
  1

  9
$DIMAPOST
  1

  9
$DIMALT
 70
     0
  9
$DIMALTD
 70
     3
  9
$DIMALTF
 40
0.0393700787
  9
$DIMLFAC
 40
1.0
  9
$DIMTOFL
 70
     1
  9
$DIMTVP
 40
0.0
  9
$DIMTIX
 70
     0
  9
$DIMSOXD
 70
     0
  9
$DIMSAH
 70
     0
  9
$DIMBLK1
  1

  9
$DIMBLK2
  1

  9
$DIMSTYLE
  2
ISO-25
  9
$DIMCLRD
 70
     0
  9
$DIMCLRE
 70
     0
  9
$DIMCLRT
 70
     0
  9
$DIMTFAC
 40
1.0
  9
$DIMGAP
 40
3.0
  9
$DIMJUST
 70
     0
  9
$DIMSD1
 70
     0
  9
$DIMSD2
 70
     0
  9
$DIMTOLJ
 70
     0
  9
$DIMTZIN
 70
     0
  9
$DIMALTZ
 70
     0
  9
$DIMALTTZ
 70
     0
  9
$DIMUPT
 70
     0
  9
$DIMDEC
 70
     3
  9
$DIMTDEC
 70
     3
  9
$DIMALTU
 70
     2
  9
$DIMALTTD
 70
     3
  9
$DIMTXSTY
  7
STANDARD
  9
$DIMAUNIT
 70
     0
  9
$DIMADEC
 70
     2
  9
$DIMALTRND
 40
0.0
  9
$DIMAZIN
 70
     0
  9
$DIMDSEP
 70
    44
  9
$DIMATFIT
 70
     3
  9
$DIMFRAC
 70
     0
  9
$DIMLDRBLK
  1

  9
$DIMLUNIT
 70
     2
  9
$DIMLWD
 70
    -2
  9
$DIMLWE
 70
    -2
  9
$DIMTMOVE
 70
     0
  9
$LUNITS
 70
     2
  9
$LUPREC
 70
     2
  9
$SKETCHINC
 40
1.0
  9
$FILLETRAD
 40
10.0
  9
$AUNITS
 70
     0
  9
$AUPREC
 70
     2
  9
$MENU
  1
.
  9
$ELEVATION
 40
0.0
  9
$PELEVATION
 40
0.0
  9
$THICKNESS
 40
0.0
  9
$LIMCHECK
 70
     0
  9
$CHAMFERA
 40
0.0
  9
$CHAMFERB
 40
0.0
  9
$CHAMFERC
 40
0.0
  9
$CHAMFERD
 40
0.0
  9
$SKPOLY
 70
     0
  9
$TDCREATE
 40
2459984.361673299
  9
$TDUCREATE
 40
2459984.320006632
  9
$TDUPDATE
 40
2459984.361674074
  9
$TDUUPDATE
 40
2459984.320007408
  9
$TDINDWG
 40
0.0000000116
  9
$TDUSRTIMER
 40
0.0000000116
  9
$USRTIMER
 70
     1
  9
$ANGBASE
 50
0.0
  9
$ANGDIR
 70
     0
  9
$PDMODE
 70
     0
  9
$PDSIZE
 40
-1.0
  9
$PLINEWID
 40
0.0
  9
$SPLFRAME
 70
     0
  9
$SPLINETYPE
 70
     6
  9
$SPLINESEGS
 70
     8
  9
$HANDSEED
  5
2D0
  9
$SURFTAB1
 70
     6
  9
$SURFTAB2
 70
     6
  9
$SURFTYPE
 70
     6
  9
$SURFU
 70
     6
  9
$SURFV
 70
     6
  9
$UCSBASE
  2

  9
$UCSNAME
  2

  9
$UCSORG
 10
0.0
 20
0.0
 30
0.0
  9
$UCSXDIR
 10
1.0
 20
0.0
 30
0.0
  9
$UCSYDIR
 10
0.0
 20
1.0
 30
0.0
  9
$UCSORTHOREF
  2

  9
$UCSORTHOVIEW
 70
     0
  9
$UCSORGTOP
 10
0.0
 20
0.0
 30
0.0
  9
$UCSORGBOTTOM
 10
0.0
 20
0.0
 30
0.0
  9
$UCSORGLEFT
 10
0.0
 20
0.0
 30
0.0
  9
$UCSORGRIGHT
 10
0.0
 20
0.0
 30
0.0
  9
$UCSORGFRONT
 10
0.0
 20
0.0
 30
0.0
  9
$UCSORGBACK
 10
0.0
 20
0.0
 30
0.0
  9
$PUCSBASE
  2

  9
$PUCSNAME
  2

  9
$PUCSORG
 10
0.0
 20
0.0
 30
0.0
  9
$PUCSXDIR
 10
1.0
 20
0.0
 30
0.0
  9
$PUCSYDIR
 10
0.0
 20
1.0
 30
0.0
  9
$PUCSORTHOREF
  2

  9
$PUCSORTHOVIEW
 70
     0
  9
$PUCSORGTOP
 10
0.0
 20
0.0
 30
0.0
  9
$PUCSORGBOTTOM
 10
0.0
 20
0.0
 30
0.0
  9
$PUCSORGLEFT
 10
0.0
 20
0.0
 30
0.0
  9
$PUCSORGRIGHT
 10
0.0
 20
0.0
 30
0.0
  9
$PUCSORGFRONT
 10
0.0
 20
0.0
 30
0.0
  9
$PUCSORGBACK
 10
0.0
 20
0.0
 30
0.0
  9
$USERI1
 70
     0
  9
$USERI2
 70
     0
  9
$USERI3
 70
     0
  9
$USERI4
 70
     0
  9
$USERI5
 70
     0
  9
$USERR1
 40
0.0
  9
$USERR2
 40
0.0
  9
$USERR3
 40
0.0
  9
$USERR4
 40
0.0
  9
$USERR5
 40
0.0
  9
$WORLDVIEW
 70
     1
  9
$SHADEDGE
 70
     3
  9
$SHADEDIF
 70
    70
  9
$TILEMODE
 70
     1
  9
$MAXACTVP
 70
    64
  9
$PINSBASE
 10
0.0
 20
0.0
 30
0.0
  9
$PLIMCHECK
 70
     0
  9
$PEXTMIN
 10
1.0000000000E+20
 20
1.0000000000E+20
 30
1.0000000000E+20
  9
$PEXTMAX
 10
-1.0000000000E+20
 20
-1.0000000000E+20
 30
-1.0000000000E+20
  9
$PLIMMIN
 10
0.0
 20
0.0
  9
$PLIMMAX
 10
420.0
 20
297.0
  9
$UNITMODE
 70
     0
  9
$VISRETAIN
 70
     1
  9
$PLINEGEN
 70
     0
  9
$PSLTSCALE
 70
     1
  9
$TREEDEPTH
 70
  3020
  9
$CMLSTYLE
  2
Standard
  9
$CMLJUST
 70
     0
  9
$CMLSCALE
 40
20.0
  9
$PROXYGRAPHICS
 70
     1
  9
$MEASUREMENT
 70
     1
  9
$CELWEIGHT
370
    -1
  9
$ENDCAPS
280
     0
  9
$JOINSTYLE
280
     0
  9
$LWDISPLAY
290
     1
  9
$INSUNITS
 70
     4
  9
$HYPERLINKBASE
  1

  9
$STYLESHEET
  1

  9
$XEDIT
290
     1
  9
$CEPSNTYPE
380
     0
  9
$PSTYLEMODE
290
     1
  9
$FINGERPRINTGUID
  2
{40ed667f-e4be-4a19-9308-95a384a56d85}
  9
$VERSIONGUID
  2
{FAEB1C32-E019-11D5-929B-00C0DF256EC4}
  9
$EXTNAMES
290
     1
  9
$PSVPSCALE
 40
0.0
  9
$OLESTARTUP
290
     0
  0
ENDSEC
  0
SECTION
  2
CLASSES
  0
CLASS
  1
ACDBDICTIONARYWDFLT
  2
AcDbDictionaryWithDefault
  3
ObjectDBX Classes
 90
        0
280
     0
281
     0
  0
CLASS
  1
VISUALSTYLE
  2
AcDbVisualStyle
  3
ObjectDBX Classes
 90
     4095
280
     0
281
     0
  0
CLASS
  1
MATERIAL
  2
AcDbMaterial
  3
ObjectDBX Classes
 90
     1153
280
     0
281
     0
  0
CLASS
  1
SCALE
  2
AcDbScale
  3
ObjectDBX Classes
 90
     1153
280
     0
281
     0
  0
CLASS
  1
TABLESTYLE
  2
AcDbTableStyle
  3
ObjectDBX Classes
 90
     4095
280
     0
281
     0
  0
CLASS
  1
MLEADERSTYLE
  2
AcDbMLeaderStyle
  3
ACDB_MLEADERSTYLE_CLASS
 90
     4095
280
     0
281
     0
  0
CLASS
  1
SUN
  2
AcDbSun
  3
SCENEOE
 90
     1153
280
     0
281
     0
  0
CLASS
  1
ACDBPLACEHOLDER
  2
AcDbPlaceHolder
  3
ObjectDBX Classes
 90
        0
280
     0
281
     0
  0
CLASS
  1
LAYOUT
  2
AcDbLayout
  3
ObjectDBX Classes
 90
        0
280
     0
281
     0
  0
ENDSEC
  0
SECTION
  2
TABLES
  0
TABLE
  2
VPORT
  5
8
330
0
100
AcDbSymbolTable
 70
     1
  0
VPORT
  5
29
330
8
100
AcDbSymbolTableRecord
100
AcDbViewportTableRecord
  2
*Active
 70
     0
 10
0.0
 20
0.0
 11
1.0
 21
1.0
 12
210.0
 22
297.0
 13
0.0
 23
0.0
 14
10.0
 24
10.0
 15
10.0
 25
10.0
 16
0.0
 26
0.0
 36
1.0
 17
0.0
 27
0.0
 37
0.0
 40
594.0
 41
0.7070707071
 42
50.0
 43
0.0
 44
0.0
 50
0.0
 51
0.0
 71
     0
 72
  2000
 73
     1
 74
     3
 75
     0
 76
     0
 77
     0
 78
     0
281
     0
 65
     1
110
0.0
120
0.0
130
0.0
111
1.0
121
0.0
131
0.0
112
0.0
122
1.0
132
0.0
 79
     0
146
0.0
  0
ENDTAB
  0
TABLE
  2
LTYPE
  5
5
330
0
100
AcDbSymbolTable
 70
     6
  0
LTYPE
  5
14
330
5
100
AcDbSymbolTableRecord
100
AcDbLinetypeTableRecord
  2
ByBlock
 70
     0
  3

 72
    65
 73
     0
 40
0.0
  0
LTYPE
  5
15
330
5
100
AcDbSymbolTableRecord
100
AcDbLinetypeTableRecord
  2
ByLayer
 70
     0
  3

 72
    65
 73
     0
 40
0.0
  0
LTYPE
  5
16
330
5
100
AcDbSymbolTableRecord
100
AcDbLinetypeTableRecord
  2
Continuous
 70
     0
  3
Solid line
 72
    65
 73
     0
 40
0.0
  0
LTYPE
  5
6E
330
5
100
AcDbSymbolTableRecord
100
AcDbLinetypeTableRecord
  2
HIDDEN
 70
     0
  3
Hidden __ __ __ __ __ __ __ __ __ __ __ __ __ __
 72
    65
 73
     2
 40
1.905
 49
1.27
 74
     0
 49
-0.635
 74
     0
  0
LTYPE
  5
6F
330
5
100
AcDbSymbolTableRecord
100
AcDbLinetypeTableRecord
  2
PHANTOM
 70
     0
  3
Phantom ______  __  __  ______  __  __  ______
 72
    65
 73
     6
 40
12.7
 49
6.35
 74
     0
 49
-1.27
 74
     0
 49
1.27
 74
     0
 49
-1.27
 74
     0
 49
1.27
 74
     0
 49
-1.27
 74
     0
  0
LTYPE
  5
70
330
5
100
AcDbSymbolTableRecord
100
AcDbLinetypeTableRecord
  2
CENTER
 70
     0
  3
Center ____ _ ____ _ ____ _ ____ _ ____ _ ____
 72
    65
 73
     4
 40
10.16
 49
6.35
 74
     0
 49
-1.27
 74
     0
 49
1.27
 74
     0
 49
-1.27
 74
     0
  0
LTYPE
  5
71
330
5
100
AcDbSymbolTableRecord
100
AcDbLinetypeTableRecord
  2
CENTERX2
 70
     0
  3
Center (2x) ________  __  ________  __  _____
 72
    65
 73
     4
 40
20.32
 49
12.7
 74
     0
 49
-2.54
 74
     0
 49
2.54
 74
     0
 49
-2.54
 74
     0
  0
LTYPE
  5
72
330
5
100
AcDbSymbolTableRecord
100
AcDbLinetypeTableRecord
  2
DOT2
 70
     0
  3
Dot (.5x) ........................................
 72
    65
 73
     2
 40
0.635
 49
0.0
 74
     0
 49
-0.635
 74
     0
  0
ENDTAB
  0
TABLE
  2
LAYER
  5
2
330
0
100
AcDbSymbolTable
 70
    10
  0
LAYER
  5
10
330
2
100
AcDbSymbolTableRecord
100
AcDbLayerTableRecord
  2
0
 70
     0
 62
     7
  6
Continuous
370
    -3
390
F
  0
LAYER
  5
73
330
2
100
AcDbSymbolTableRecord
100
AcDbLayerTableRecord
  2
LIVELLO1
 70
     0
 62
     7
  6
Continuous
370
    -3
390
F
  0
LAYER
  5
74
330
2
100
AcDbSymbolTableRecord
100
AcDbLayerTableRecord
  2
QUOTA
 70
     0
 62
   150
  6
Continuous
370
    -3
390
F
  0
LAYER
  5
75
330
2
100
AcDbSymbolTableRecord
100
AcDbLayerTableRecord
  2
ASSI
 70
     0
 62
     1
  6
Continuous
370
    -3
390
F
  0
LAYER
  5
76
330
2
100
AcDbSymbolTableRecord
100
AcDbLayerTableRecord
  2
NEUTRO
 70
     0
 62
     7
  6
Continuous
370
    -3
390
F
  0
LAYER
  5
77
330
2
100
AcDbSymbolTableRecord
100
AcDbLayerTableRecord
  2
CARTIGLIO
 70
     0
 62
    18
  6
Continuous
370
    -3
390
F
  0
LAYER
  5
78
330
2
100
AcDbSymbolTableRecord
100
AcDbLayerTableRecord
  2
TESTI_PICCOLI
 70
     0
 62
     7
  6
Continuous
370
    -3
390
F
  0
LAYER
  5
79
330
2
100
AcDbSymbolTableRecord
100
AcDbLayerTableRecord
  2
TESTI_GRANDI
 70
     0
 62
     7
  6
Continuous
370
    -3
390
F
  0
LAYER
  5
7A
330
2
100
AcDbSymbolTableRecord
100
AcDbLayerTableRecord
  2
FORMAT
 70
     0
 62
     7
  6
Continuous
370
    -3
390
F
  0
LAYER
  5
7B
330
2
100
AcDbSymbolTableRecord
100
AcDbLayerTableRecord
  2
RAPPRESENTAZIONE_RETE
 70
     0
 62
     9
  6
Continuous
370
    -3
390
F
  0
ENDTAB
  0
TABLE
  2
STYLE
  5
3
330
0
100
AcDbSymbolTable
 70
     3
  0
STYLE
  5
11
330
3
100
AcDbSymbolTableRecord
100
AcDbTextStyleTableRecord
  2
STANDARD
 70
     0
 40
0.0
 41
1.0
 50
0.0
 71
     0
 42
6.0
  3
SWISSCL.TTF
  4

1001
ACAD
1000
SWIS721 LTCN BT
1071
 16777250
  0
STYLE
  5
86
330
3
100
AcDbSymbolTableRecord
100
AcDbTextStyleTableRecord
  2
SLDTEXTSTYLE0
 70
     0
 40
0.0
 41
1.0
 50
0.0
 71
     0
 42
6.0
  3
SWISSCL.TTF
  4

1001
ACAD
1000
Swis721 LtCn BT
1071
 16777506
  0
STYLE
  5
197
330
3
100
AcDbSymbolTableRecord
100
AcDbTextStyleTableRecord
  2
SLDTEXTSTYLE1
 70
     0
 40
0.0
 41
1.0
 50
0.0
 71
     0
 42
6.0
  3
SWISSCL.TTF
  4

1001
ACAD
1000
Swis721 LtCn BT
1071
      290
  0
ENDTAB
  0
TABLE
  2
VIEW
  5
6
330
0
100
AcDbSymbolTable
 70
     0
  0
ENDTAB
  0
TABLE
  2
UCS
  5
7
330
0
100
AcDbSymbolTable
 70
     0
  0
ENDTAB
  0
TABLE
  2
APPID
  5
9
330
0
100
AcDbSymbolTable
 70
     1
  0
APPID
  5
12
330
9
100
AcDbSymbolTableRecord
100
AcDbRegAppTableRecord
  2
ACAD
 70
     0
  0
ENDTAB
  0
TABLE
  2
DIMSTYLE
  5
A
330
0
100
AcDbSymbolTable
 70
     6
100
AcDbDimStyleTable
  0
DIMSTYLE
105
27
330
A
100
AcDbSymbolTableRecord
100
AcDbDimStyleTableRecord
  2
ISO-25
 70
     0
 41
2.5
 42
0.625
 43
3.75
 44
1.25
 73
     0
 74
     0
 77
     1
 78
     8
140
2.5
141
2.5
143
0.0393700787
147
0.625
171
     3
172
     1
178
     0
271
     2
272
     2
274
     3
278
    44
283
     0
284
     8
340
11
  0
DIMSTYLE
105
18F
102
{ACAD_REACTORS
330
18E
102
}
330
A
100
AcDbSymbolTableRecord
100
AcDbDimStyleTableRecord
  2
SLDDIMSTYLE0
 70
     0
 41
5.6
 44
0.0
 45
0.000000001
 78
    12
 79
     3
140
5.6
141
0.0
147
1.4
173
     1
178
     0
271
     3
272
     3
276
     2
284
    12
340
86
341
190
343
190
344
190
  0
DIMSTYLE
105
19B
102
{ACAD_REACTORS
330
19A
102
}
330
A
100
AcDbSymbolTableRecord
100
AcDbDimStyleTableRecord
  2
SLDDIMSTYLE1
 70
     0
 41
5.6
 44
0.0
 45
0.000000001
 73
     0
 74
     0
 77
     1
 78
    12
 79
     3
140
5.6
147
1.4
173
     1
178
     0
271
     3
272
     3
276
     2
284
    12
340
86
  0
DIMSTYLE
105
2AC
102
{ACAD_REACTORS
330
2AB
102
}
330
A
100
AcDbSymbolTableRecord
100
AcDbDimStyleTableRecord
  2
SLDDIMSTYLE2
 70
     0
 41
5.6
 44
0.0
 45
0.000000001
 73
     0
 74
     0
 77
     1
 78
    12
 79
     3
140
5.6
147
1.4
173
     1
178
     0
271
     0
272
     0
276
     2
284
    12
340
86
  0
DIMSTYLE
105
2B7
102
{ACAD_REACTORS
330
2B6
102
}
330
A
100
AcDbSymbolTableRecord
100
AcDbDimStyleTableRecord
  2
SLDDIMSTYLE3
 70
     0
 41
5.6
 44
0.0
 45
0.000000001
 73
     0
 74
     0
 77
     1
 78
    12
 79
     3
140
5.6
147
1.4
173
     1
178
     0
271
     1
272
     1
276
     2
284
    12
340
86
  0
DIMSTYLE
105
2C2
102
{ACAD_REACTORS
330
2C1
102
}
330
A
100
AcDbSymbolTableRecord
100
AcDbDimStyleTableRecord
  2
SLDDIMSTYLE4
 70
     0
  3
<>
 41
5.6
 44
0.0
 45
0.000000001
 78
    12
 79
     3
140
5.6
141
0.0
147
1.4
173
     1
178
     0
271
     6
272
     3
276
     2
284
    12
340
86
  0
ENDTAB
  0
TABLE
  2
BLOCK_RECORD
  5
1
330
0
100
AcDbSymbolTable
 70
    10
  0
BLOCK_RECORD
  5
1F
330
1
100
AcDbSymbolTableRecord
100
AcDbBlockTableRecord
  2
*Model_Space
340
22
  0
BLOCK_RECORD
  5
1B
330
1
100
AcDbSymbolTableRecord
100
AcDbBlockTableRecord
  2
*Paper_Space
340
1E
  0
BLOCK_RECORD
  5
23
330
1
100
AcDbSymbolTableRecord
100
AcDbBlockTableRecord
  2
*Paper_Space0
340
26
  0
BLOCK_RECORD
  5
7C
330
1
100
AcDbSymbolTableRecord
100
AcDbBlockTableRecord
  2
Blocco3
340
0
  0
BLOCK_RECORD
  5
83
330
1
100
AcDbSymbolTableRecord
100
AcDbBlockTableRecord
  2
SW_NOTE_0
340
0
102
{BLKREFS
331
88
102
}
  0
BLOCK_RECORD
  5
190
330
1
100
AcDbSymbolTableRecord
100
AcDbBlockTableRecord
  2
_None
340
0
  0
BLOCK_RECORD
  5
193
330
1
100
AcDbSymbolTableRecord
100
AcDbBlockTableRecord
  2
_D
340
0
  0
BLOCK_RECORD
  5
19C
330
1
100
AcDbSymbolTableRecord
100
AcDbBlockTableRecord
  2
_D_1
340
0
  0
BLOCK_RECORD
  5
1A5
330
1
100
AcDbSymbolTableRecord
100
AcDbBlockTableRecord
  2
SW_CENTERMARKSYMBOL_0
340
0
102
{BLKREFS
331
1B0
102
}
  0
BLOCK_RECORD
  5
2AD
330
1
100
AcDbSymbolTableRecord
100
AcDbBlockTableRecord
  2
_D_2
340
0
  0
BLOCK_RECORD
  5
2B8
330
1
100
AcDbSymbolTableRecord
100
AcDbBlockTableRecord
  2
_D_3
340
0
  0
BLOCK_RECORD
  5
2C3
330
1
100
AcDbSymbolTableRecord
100
AcDbBlockTableRecord
  2
_D_4
340
0
  0
ENDTAB
  0
ENDSEC
  0
SECTION
  2
BLOCKS
  0
BLOCK
  5
20
330
1F
100
AcDbEntity
  8
0
100
AcDbBlockBegin
  2
*Model_Space
 70
     0
 10
0.0
 20
0.0
 30
0.0
  3
*Model_Space
  1

  0
ENDBLK
  5
21
330
1F
100
AcDbEntity
  8
0
100
AcDbBlockEnd
  0
BLOCK
  5
1C
330
1B
100
AcDbEntity
 67
     1
  8
0
100
AcDbBlockBegin
  2
*Paper_Space
 70
     0
 10
0.0
 20
0.0
 30
0.0
  3
*Paper_Space
  1

  0
ENDBLK
  5
1D
330
1B
100
AcDbEntity
 67
     1
  8
0
100
AcDbBlockEnd
  0
BLOCK
  5
24
330
23
100
AcDbEntity
  8
0
100
AcDbBlockBegin
  2
*Paper_Space0
 70
     0
 10
0.0
 20
0.0
 30
0.0
  3
*Paper_Space0
  1

  0
ENDBLK
  5
25
330
23
100
AcDbEntity
  8
0
100
AcDbBlockEnd
  0
BLOCK
  5
7D
330
7C
100
AcDbEntity
  8
0
100
AcDbBlockBegin
  2
Blocco3
 70
     0
 10
0.0
 20
0.0
 30
0.0
  3
Blocco3
  1

  0
LINE
  5
7F
330
7C
100
AcDbEntity
  8
LIVELLO1
100
AcDbLine
 10
474.3526190427
 20
51.1780839512
 30
0.0
 11
719.9736820655
 21
51.1780839512
 31
0.0
  0
LINE
  5
80
330
7C
100
AcDbEntity
  8
LIVELLO1
100
AcDbLine
 10
474.3526190427
 20
51.1780839512
 30
0.0
 11
474.3526190427
 21
40.4054008223
 31
0.0
  0
LINE
  5
81
330
7C
100
AcDbEntity
  8
LIVELLO1
100
AcDbLine
 10
474.3526190427
 20
40.4054008223
 30
0.0
 11
719.9736820655
 21
40.4054008223
 31
0.0
  0
LINE
  5
82
330
7C
100
AcDbEntity
  8
LIVELLO1
100
AcDbLine
 10
719.9736820655
 20
51.1780839512
 30
0.0
 11
719.9736820655
 21
40.4054008223
 31
0.0
  0
INSERT
  5
88
330
7C
100
AcDbEntity
  8
CARTIGLIO
 62
    18
100
AcDbBlockReference
  2
SW_NOTE_0
 10
476.8137368049
 20
40.9141172393
 30
0.0
  0
ENDBLK
  5
7E
330
7C
100
AcDbEntity
  8
0
100
AcDbBlockEnd
  0
BLOCK
  5
84
330
83
100
AcDbEntity
  8
0
100
AcDbBlockBegin
  2
SW_NOTE_0
 70
     0
 10
0.0
 20
0.0
 30
0.0
  3
SW_NOTE_0
  1

  0
MTEXT
  5
87
330
83
100
AcDbEntity
  8
CARTIGLIO
 62
     0
100
AcDbMText
 10
0.0
 20
9.2133676093
 30
0.0
 40
7.0
 41
0.0
 71
     1
 72
     1
  1
I disegni non vanno interpretati : nel dubbio chiedere chiarimenti
  7
SLDTEXTSTYLE0
 73
     1
 44
1.0
  0
ENDBLK
  5
85
330
83
100
AcDbEntity
  8
0
100
AcDbBlockEnd
  0
BLOCK
  5
191
330
190
100
AcDbEntity
  8
0
100
AcDbBlockBegin
  2
_None
 70
     0
 10
0.0
 20
0.0
 30
0.0
  3
_None
  1

  0
ENDBLK
  5
192
330
190
100
AcDbEntity
  8
0
100
AcDbBlockEnd
  0
BLOCK
  5
194
330
193
100
AcDbEntity
  8
0
100
AcDbBlockBegin
  2
_D
 70
     0
 10
0.0
 20
0.0
 30
0.0
  3
_D
  1

  0
LINE
  5
196
330
193
100
AcDbEntity
  8
LIVELLO1
100
AcDbLine
 10
256.3371733717
 20
482.2750856226
 30
0.0
 11
277.3250073187
 21
482.2750856226
 31
0.0
  0
MTEXT
  5
198
330
193
100
AcDbEntity
  8
LIVELLO1
100
AcDbMText
 10
258.5871733717
 20
489.6768915883
 30
0.0
 40
5.6
 41
0.0
 71
     1
 72
     1
  1
%%c
  7
SLDTEXTSTYLE1
 73
     1
 44
1.0
  0
MTEXT
  5
199
330
193
100
AcDbEntity
  8
LIVELLO1
100
AcDbMText
 10
266.9883400194
 20
489.6457805249
 30
0.0
 40
5.6
 41
0.0
 71
     1
 72
     1
  1
150
  7
SLDTEXTSTYLE1
 73
     1
 44
1.0
  0
ENDBLK
  5
195
330
193
100
AcDbEntity
  8
0
100
AcDbBlockEnd
  0
BLOCK
  5
19D
330
19C
100
AcDbEntity
  8
0
100
AcDbBlockBegin
  2
_D_1
 70
     0
 10
0.0
 20
0.0
 30
0.0
  3
_D_1
  1

  0
SOLID
  5
19F
330
19C
100
AcDbEntity
  8
LIVELLO1
100
AcDbTrace
 10
107.1696229493
 20
390.8425367543
 30
0.0
 11
106.9645362216
 21
396.4823895391
 31
0.0
 12
105.5825751278
 22
396.2583727205
 32
0.0
 13
105.5825751278
 23
396.2583727205
 33
0.0
  0
SOLID
  5
1A0
330
19C
100
AcDbEntity
  8
LIVELLO1
100
AcDbTrace
 10
88.3682113846
 20
506.8285571326
 30
0.0
 11
88.5732981123
 21
501.1887043478
 31
0.0
 12
89.9552592062
 22
501.4127211664
 32
0.0
 13
89.9552592062
 23
501.4127211664
 33
0.0
  0
LINE
  5
1A1
330
19C
100
AcDbEntity
  8
LIVELLO1
100
AcDbLine
 10
197.9654828932
 20
405.5606064459
 30
0.0
 11
105.1953928152
 21
390.5225127277
 31
0.0
  0
LINE
  5
1A2
330
19C
100
AcDbEntity
  8
LIVELLO1
100
AcDbLine
 10
179.1640713286
 20
521.5466268241
 30
0.0
 11
86.3939812506
 21
506.5085331059
 31
0.0
  0
LINE
  5
1A3
330
19C
100
AcDbEntity
  8
LIVELLO1
100
AcDbLine
 10
107.1696229493
 20
390.8425367543
 30
0.0
 11
88.3682113846
 21
506.8285571326
 31
0.0
  0
MTEXT
  5
1A4
330
19C
100
AcDbEntity
  8
LIVELLO1
100
AcDbMText
 10
103.8038364802
 20
457.6694752516
 30
0.0
 40
5.6
 41
0.0
 71
     1
 72
     1
  1
117,5
  7
SLDTEXTSTYLE1
 11
0.160012013315803
 21
-0.9871150670487323
 31
0.0
 73
     1
 44
1.0
  0
ENDBLK
  5
19E
330
19C
100
AcDbEntity
  8
0
100
AcDbBlockEnd
  0
BLOCK
  5
1A6
330
1A5
100
AcDbEntity
  8
0
100
AcDbBlockBegin
  2
SW_CENTERMARKSYMBOL_0
 70
     0
 10
0.0
 20
0.0
 30
0.0
  3
SW_CENTERMARKSYMBOL_0
  1

  0
LINE
  5
1A8
330
1A5
100
AcDbEntity
  8
LIVELLO1
 62
     0
100
AcDbLine
 10
0.0
 20
0.0
 30
0.0
 11
0.0
 21
3.5
 31
0.0
  0
LINE
  5
1A9
330
1A5
100
AcDbEntity
  8
LIVELLO1
 62
     0
100
AcDbLine
 10
0.0
 20
0.0
 30
0.0
 11
-3.5
 21
0.0
 31
0.0
  0
LINE
  5
1AA
330
1A5
100
AcDbEntity
  8
LIVELLO1
 62
     0
100
AcDbLine
 10
0.0
 20
0.0
 30
0.0
 11
0.0
 21
-3.5
 31
0.0
  0
LINE
  5
1AB
330
1A5
100
AcDbEntity
  8
LIVELLO1
 62
     0
100
AcDbLine
 10
0.0
 20
0.0
 30
0.0
 11
3.5
 21
0.0
 31
0.0
  0
LINE
  5
1AC
330
1A5
100
AcDbEntity
  8
LIVELLO1
 62
     0
100
AcDbLine
 10
0.0
 20
7.0
 30
0.0
 11
0.0
 21
54.5
 31
0.0
  0
LINE
  5
1AD
330
1A5
100
AcDbEntity
  8
LIVELLO1
 62
     0
100
AcDbLine
 10
-7.0
 20
0.0
 30
0.0
 11
-54.5
 21
0.0
 31
0.0
  0
LINE
  5
1AE
330
1A5
100
AcDbEntity
  8
LIVELLO1
 62
     0
100
AcDbLine
 10
0.0
 20
-7.0
 30
0.0
 11
0.0
 21
-54.5
 31
0.0
  0
LINE
  5
1AF
330
1A5
100
AcDbEntity
  8
LIVELLO1
 62
     0
100
AcDbLine
 10
7.0
 20
0.0
 30
0.0
 11
54.5
 21
0.0
 31
0.0
  0
ENDBLK
  5
1A7
330
1A5
100
AcDbEntity
  8
0
100
AcDbBlockEnd
  0
BLOCK
  5
2AE
330
2AD
100
AcDbEntity
  8
0
100
AcDbBlockBegin
  2
_D_2
 70
     0
 10
0.0
 20
0.0
 30
0.0
  3
_D_2
  1

  0
SOLID
  5
2B0
330
2AD
100
AcDbEntity
  8
LIVELLO1
100
AcDbTrace
 10
105.1191612068
 20
247.7983489646
 30
0.0
 11
105.8191612068
 21
253.3983489646
 31
0.0
 12
104.4191612068
 22
253.3983489646
 32
0.0
 13
104.4191612068
 23
253.3983489646
 33
0.0
  0
SOLID
  5
2B1
330
2AD
100
AcDbEntity
  8
LIVELLO1
100
AcDbTrace
 10
105.1191612068
 20
273.7483489646
 30
0.0
 11
104.4191612068
 21
268.1483489646
 31
0.0
 12
105.8191612068
 22
268.1483489646
 32
0.0
 13
105.8191612068
 23
268.1483489646
 33
0.0
  0
LINE
  5
2B2
330
2AD
100
AcDbEntity
  8
LIVELLO1
100
AcDbLine
 10
123.5397130273
 20
247.7983489646
 30
0.0
 11
103.1191612068
 21
247.7983489646
 31
0.0
  0
LINE
  5
2B3
330
2AD
100
AcDbEntity
  8
LIVELLO1
100
AcDbLine
 10
131.4690654149
 20
273.7483489646
 30
0.0
 11
103.1191612068
 21
273.7483489646
 31
0.0
  0
LINE
  5
2B4
330
2AD
100
AcDbEntity
  8
LIVELLO1
100
AcDbLine
 10
105.1191612068
 20
247.7983489646
 30
0.0
 11
105.1191612068
 21
273.7483489646
 31
0.0
  0
MTEXT
  5
2B5
330
2AD
100
AcDbEntity
  8
LIVELLO1
100
AcDbMText
 10
97.7484667701
 20
257.3277935086
 30
0.0
 40
5.6
 41
0.0
 71
     1
 72
     1
  1
26
  7
SLDTEXTSTYLE1
 11
3.391901413832837E-15
 21
1.0
 31
0.0
 73
     1
 44
1.0
  0
ENDBLK
  5
2AF
330
2AD
100
AcDbEntity
  8
0
100
AcDbBlockEnd
  0
BLOCK
  5
2B9
330
2B8
100
AcDbEntity
  8
0
100
AcDbBlockBegin
  2
_D_3
 70
     0
 10
0.0
 20
0.0
 30
0.0
  3
_D_3
  1

  0
SOLID
  5
2BB
330
2B8
100
AcDbEntity
  8
LIVELLO1
100
AcDbTrace
 10
303.5556068265
 20
273.7483489646
 30
0.0
 11
302.8556068265
 21
268.1483489646
 31
0.0
 12
304.2556068265
 22
268.1483489646
 32
0.0
 13
304.2556068265
 23
268.1483489646
 33
0.0
  0
SOLID
  5
2BC
330
2B8
100
AcDbEntity
  8
LIVELLO1
100
AcDbTrace
 10
303.5556068265
 20
235.4983489646
 30
0.0
 11
304.2556068265
 21
241.0983489646
 31
0.0
 12
302.8556068265
 22
241.0983489646
 32
0.0
 13
302.8556068265
 23
241.0983489646
 33
0.0
  0
LINE
  5
2BD
330
2B8
100
AcDbEntity
  8
LIVELLO1
100
AcDbLine
 10
253.4641940445
 20
273.7483489646
 30
0.0
 11
305.5556068265
 21
273.7483489646
 31
0.0
  0
LINE
  5
2BE
330
2B8
100
AcDbEntity
  8
LIVELLO1
100
AcDbLine
 10
235.0053072546
 20
235.4983489646
 30
0.0
 11
305.5556068265
 21
235.4983489646
 31
0.0
  0
LINE
  5
2BF
330
2B8
100
AcDbEntity
  8
LIVELLO1
100
AcDbLine
 10
303.5556068265
 20
273.7483489646
 30
0.0
 11
303.5556068265
 21
235.4983489646
 31
0.0
  0
MTEXT
  5
2C0
330
2B8
100
AcDbEntity
  8
LIVELLO1
100
AcDbMText
 10
296.1849123898
 20
248.5916825479
 30
0.0
 40
5.6
 41
0.0
 71
     1
 72
     1
  1
38,3
  7
SLDTEXTSTYLE1
 11
-3.491481338843133E-15
 21
1.0
 31
0.0
 73
     1
 44
1.0
  0
ENDBLK
  5
2BA
330
2B8
100
AcDbEntity
  8
0
100
AcDbBlockEnd
  0
BLOCK
  5
2C4
330
2C3
100
AcDbEntity
  8
0
100
AcDbBlockBegin
  2
_D_4
 70
     0
 10
0.0
 20
0.0
 30
0.0
  3
_D_4
  1

  0
SOLID
  5
2C6
330
2C3
100
AcDbEntity
  8
LIVELLO1
100
AcDbTrace
 10
258.0032326203
 20
266.4323889542
 30
0.0
 11
255.809450403
 21
271.6321312153
 31
0.0
 12
254.5970148377
 22
270.9321312153
 32
0.0
 13
254.5970148377
 23
270.9321312153
 33
0.0
  0
LINE
  5
2C7
330
2C3
100
AcDbEntity
  8
LIVELLO1
100
AcDbLine
 10
258.0032326203
 20
266.4323889542
 30
0.0
 11
249.1367595763
 21
281.7895707503
 31
0.0
  0
LINE
  5
2C8
330
2C3
100
AcDbEntity
  8
LIVELLO1
100
AcDbLine
 10
259.7260689116
 20
263.4483489646
 30
0.0
 11
258.0032326203
 21
266.4323889542
 31
0.0
  0
LINE
  5
2C9
330
2C3
100
AcDbEntity
  8
LIVELLO1
100
AcDbLine
 10
249.1367595763
 20
281.7895707503
 30
0.0
 11
217.8523182393
 21
281.7895707503
 31
0.0
  0
MTEXT
  5
2CA
330
2C3
100
AcDbEntity
  8
LIVELLO1
100
AcDbMText
 10
217.8523182393
 20
289.1602651869
 30
0.0
 40
5.6
 41
0.0
 71
     1
 72
     1
  1
G1/8 (10x)
  7
SLDTEXTSTYLE1
 73
     1
 44
1.0
  0
ENDBLK
  5
2C5
330
2C3
100
AcDbEntity
  8
0
100
AcDbBlockEnd
  0
ENDSEC
  0
SECTION
  2
ENTITIES
  0
LINE
  5
89
330
1F
100
AcDbEntity
  8
0
  6
Continuous
 62
     7
370
    35
100
AcDbLine
 10
275.7646870729
 20
369.8526786714
 30
0.0
 11
276.0250451625
 21
369.9631941236
 31
0.0
  0
LINE
  5
8A
330
1F
100
AcDbEntity
  8
0
  6
Continuous
 62
     7
370
    35
100
AcDbLine
 10
279.6212684593
 20
378.8641591275
 30
0.0
 11
279.5107530071
 21
379.1245172171
 31
0.0
  0
LINE
  5
8B
330
1F
100
AcDbEntity
  8
0
  6
Continuous
 62
     7
370
    35
100
AcDbLine
 10
275.0229399892
 20
370.1523639461
 30
0.0
 11
275.7646870729
 21
369.8526786714
 31
0.0
  0
LINE
  5
8C
330
1F
100
AcDbEntity
  8
0
  6
Continuous
 62
     7
370
    35
100
AcDbLine
 10
279.5107530071
 20
379.1245172171
 30
0.0
 11
278.7690059234
 21
379.4242024918
 31
0.0
  0
CIRCLE
  5
8D
330
1F
100
AcDbEntity
  8
0
  6
Continuous
 62
     7
370
    35
100
AcDbCircle
 10
210.7553078304
 20
439.1676085428
 30
0.0
 40
8.009999752044667
  0
CIRCLE
  5
8E
330
1F
100
AcDbEntity
  8
0
  6
Continuous
 62
     7
370
    35
100
AcDbCircle
 10
171.6241182242
 20
426.4531143027
 30
0.0
 40
8.009999752044635
  0
CIRCLE
  5
8F
330
1F
100
AcDbEntity
  8
0
  6
Continuous
 62
     7
370
    35
100
AcDbCircle
 10
210.7553078304
 20
372.5936524022
 30
0.0
 40
8.009999752044681
  0
CIRCLE
  5
90
330
1F
100
AcDbEntity
  8
0
  6
Continuous
 62
     7
370
    35
100
AcDbCircle
 10
171.6241182242
 20
385.3081466423
 30
0.0
 40
8.009999752044688
  0
CIRCLE
  5
91
330
1F
100
AcDbEntity
  8
0
  6
Continuous
 62
     7
370
    35
100
AcDbCircle
 10
164.9397130273
 20
405.8806304725
 30
0.0
 40
8.009999752044711
  0
CIRCLE
  5
92
330
1F
100
AcDbEntity
  8
0
  6
Continuous
 62
     7
370
    35
100
AcDbCircle
 10
189.1241182242
 20
372.5936524022
 30
0.0
 40
8.00999975204467
  0
CIRCLE
  5
93
330
1F
100
AcDbEntity
  8
0
  6
Continuous
 62
     7
370
    35
100
AcDbCircle
 10
228.2553078304
 20
426.4531143027
 30
0.0
 40
8.009999752044681
  0
CIRCLE
  5
94
330
1F
100
AcDbEntity
  8
0
  6
Continuous
 62
     7
370
    35
100
AcDbCircle
 10
189.1241182242
 20
439.1676085428
 30
0.0
 40
8.009999752044704
  0
CIRCLE
  5
95
330
1F
100
AcDbEntity
  8
0
  6
Continuous
 62
     7
370
    35
100
AcDbCircle
 10
234.9397130273
 20
405.8806304725
 30
0.0
 40
8.009999752044685
  0
CIRCLE
  5
96
330
1F
100
AcDbEntity
  8
0
  6
Continuous
 62
     7
370
    35
100
AcDbCircle
 10
228.2553078304
 20
385.3081466423
 30
0.0
 40
8.009999752044658
  0
LINE
  5
97
330
1F
100
AcDbEntity
  8
0
  6
Continuous
 62
     7
370
    35
100
AcDbLine
 10
279.3651425886
 20
377.2959118452
 30
0.0
 11
279.0406282395
 21
377.4270241529
 31
0.0
  0
LINE
  5
98
330
1F
100
AcDbEntity
  8
0
  6
Continuous
 62
     7
370
    35
100
AcDbLine
 10
276.6056853823
 20
371.4003290982
 30
0.0
 11
276.9301997314
 21
371.2692167905
 31
0.0
  0
LINE
  5
99
330
1F
100
AcDbEntity
  8
0
  6
Continuous
 62
     7
370
    35
100
AcDbLine
 10
270.4150186033
 20
380.1030956027
 30
0.0
 11
270.3763752055
 21
380.1187085489
 31
0.0
  0
LINE
  5
9A
330
1F
100
AcDbEntity
  8
0
  6
Continuous
 62
     7
370
    35
100
AcDbLine
 10
268.5033422384
 20
375.4827892761
 30
0.0
 11
268.5419856363
 21
375.4671763299
 31
0.0
  0
LINE
  5
9B
330
1F
100
AcDbEntity
  8
0
  6
Continuous
 62
     7
370
    35
100
AcDbLine
 10
275.2819455221
 20
381.9655278248
 30
0.0
 11
273.7709016252
 21
382.5760291875
 31
0.0
  0
LINE
  5
9C
330
1F
100
AcDbEntity
  8
0
  6
Continuous
 62
     7
370
    35
100
AcDbLine
 10
269.2381618449
 20
371.3571045473
 30
0.0
 11
270.7492057418
 21
370.7466031846
 31
0.0
  0
LINE
  5
9D
330
1F
100
AcDbEntity
  8
0
  6
Continuous
 62
     7
370
    35
100
AcDbLine
 10
270.7492057418
 20
370.7466031846
 30
0.0
 11
271.314204571
 21
371.6507903198
 31
0.0
  0
LINE
  5
9E
330
1F
100
AcDbEntity
  8
0
  6
Continuous
 62
     7
370
    35
100
AcDbLine
 10
275.0602705051
 20
380.9226288655
 30
0.0
 11
275.2819455221
 21
381.9655278248
 31
0.0
  0
LINE
  5
9F
330
1F
100
AcDbEntity
  8
0
  6
Continuous
 62
     7
370
    35
100
AcDbLine
 10
273.7709016252
 20
382.5760291875
 30
0.0
 11
273.205902796
 21
381.6718420523
 31
0.0
  0
LINE
  5
A0
330
1F
100
AcDbEntity
  8
0
  6
Continuous
 62
     7
370
    35
100
AcDbLine
 10
269.4598368619
 20
372.4000035066
 30
0.0
 11
269.2381618449
 21
371.3571045473
 31
0.0
  0
LINE
  5
A1
330
1F
100
AcDbEntity
  8
0
  6
Continuous
 62
     7
370
    35
100
AcDbLine
 10
268.8948380326
 20
371.4958163714
 30
0.0
 11
269.4598368618
 21
372.4000035066
 31
0.0
  0
LINE
  5
A2
330
1F
100
AcDbEntity
  8
0
  6
Continuous
 62
     7
370
    35
100
AcDbLine
 10
273.205902796
 20
381.6718420523
 30
0.0
 11
273.427577813
 21
382.7147410116
 31
0.0
  0
LINE
  5
A3
330
1F
100
AcDbEntity
  8
0
  6
Continuous
 62
     7
370
    35
100
AcDbLine
 10
273.427577813
 20
382.7147410116
 30
0.0
 11
271.9165339161
 21
383.3252423744
 31
0.0
  0
LINE
  5
A4
330
1F
100
AcDbEntity
  8
0
  6
Continuous
 62
     7
370
    35
100
AcDbLine
 10
267.3837941357
 20
372.1063177341
 30
0.0
 11
268.8948380326
 21
371.4958163714
 31
0.0
  0
LINE
  5
A5
330
1F
100
AcDbEntity
  8
0
  6
Continuous
 62
     7
370
    35
100
AcDbLine
 10
271.9165339161
 20
383.3252423744
 30
0.0
 11
271.3515350869
 21
382.4210552391
 31
0.0
  0
LINE
  5
A6
330
1F
100
AcDbEntity
  8
0
  6
Continuous
 62
     7
370
    35
100
AcDbLine
 10
267.6054691527
 20
373.1492166935
 30
0.0
 11
267.3837941357
 21
372.1063177341
 31
0.0
  0
LINE
  5
A7
330
1F
100
AcDbEntity
  8
0
  6
Continuous
 62
     7
370
    35
100
AcDbLine
 10
272.6035734509
 20
369.9973899977
 30
0.0
 11
273.1685722801
 21
370.901577133
 31
0.0
  0
LINE
  5
A8
330
1F
100
AcDbEntity
  8
0
  6
Continuous
 62
     7
370
    35
100
AcDbLine
 10
276.9146382143
 20
380.1734156786
 30
0.0
 11
277.1363132312
 21
381.216314638
 31
0.0
  0
LINE
  5
A9
330
1F
100
AcDbEntity
  8
0
  6
Continuous
 62
     7
370
    35
100
AcDbLine
 10
277.1363132312
 20
381.216314638
 30
0.0
 11
275.6252693343
 21
381.8268160007
 31
0.0
  0
LINE
  5
AA
330
1F
100
AcDbEntity
  8
0
  6
Continuous
 62
     7
370
    35
100
AcDbLine
 10
271.092529554
 20
370.6078913605
 30
0.0
 11
272.6035734509
 21
369.9973899977
 31
0.0
  0
LINE
  5
AB
330
1F
100
AcDbEntity
  8
0
  6
Continuous
 62
     7
370
    35
100
AcDbLine
 10
275.6252693343
 20
381.8268160007
 30
0.0
 11
275.0602705051
 21
380.9226288655
 31
0.0
  0
LINE
  5
AC
330
1F
100
AcDbEntity
  8
0
  6
Continuous
 62
     7
370
    35
100
AcDbLine
 10
271.314204571
 20
371.6507903198
 30
0.0
 11
271.092529554
 21
370.6078913604
 31
0.0
  0
LINE
  5
AD
330
1F
100
AcDbEntity
  8
0
  6
Continuous
 62
     7
370
    35
100
AcDbLine
 10
278.9906809404
 20
380.4671014511
 30
0.0
 11
277.4796370435
 21
381.0776028139
 31
0.0
  0
LINE
  5
AE
330
1F
100
AcDbEntity
  8
0
  6
Continuous
 62
     7
370
    35
100
AcDbLine
 10
272.9468972631
 20
369.8586781736
 30
0.0
 11
274.45794116
 21
369.2481768109
 31
0.0
  0
LINE
  5
AF
330
1F
100
AcDbEntity
  8
0
  6
Continuous
 62
     7
370
    35
100
AcDbLine
 10
274.45794116
 20
369.2481768109
 30
0.0
 11
275.0229399892
 21
370.1523639461
 31
0.0
  0
LINE
  5
B0
330
1F
100
AcDbEntity
  8
0
  6
Continuous
 62
     7
370
    35
100
AcDbLine
 10
278.7690059234
 20
379.4242024918
 30
0.0
 11
278.9906809404
 21
380.4671014511
 31
0.0
  0
LINE
  5
B1
330
1F
100
AcDbEntity
  8
0
  6
Continuous
 62
     7
370
    35
100
AcDbLine
 10
277.4796370435
 20
381.0776028139
 30
0.0
 11
276.9146382143
 21
380.1734156786
 31
0.0
  0
LINE
  5
B2
330
1F
100
AcDbEntity
  8
0
  6
Continuous
 62
     7
370
    35
100
AcDbLine
 10
273.1685722801
 20
370.901577133
 30
0.0
 11
272.9468972631
 21
369.8586781736
 31
0.0
  0
LINE
  5
B3
330
1F
100
AcDbEntity
  8
0
  6
Continuous
 62
     7
370
    35
100
AcDbLine
 10
264.343661408
 20
382.124669239
 30
0.0
 11
264.3343412744
 21
382.1284348174
 31
0.0
  0
CIRCLE
  5
B4
330
1F
100
AcDbEntity
  8
0
  6
Continuous
 62
     7
370
    35
100
AcDbCircle
 10
224.9205862497
 20
371.4974082116
 30
0.0
 40
2.0381197777358
  0
CIRCLE
  5
B5
330
1F
100
AcDbEntity
  8
0
  6
Continuous
 62
     7
370
    35
100
AcDbCircle
 10
199.9397130273
 20
448.3806304725
 30
0.0
 40
2.038119777735801
  0
CIRCLE
  5
B6
330
1F
100
AcDbEntity
  8
0
  6
Continuous
 62
     7
370
    35
100
AcDbCircle
 10
240.3596149698
 20
419.0138527334
 30
0.0
 40
2.038119777735827
  0
CIRCLE
  5
B7
330
1F
100
AcDbEntity
  8
0
  6
Continuous
 62
     7
370
    35
100
AcDbCircle
 10
174.9588398049
 20
371.4974082116
 30
0.0
 40
2.038119777735866
  0
CIRCLE
  5
B8
330
1F
100
AcDbEntity
  8
0
  6
Continuous
 62
     7
370
    35
100
AcDbCircle
 10
174.9588398049
 20
440.2638527334
 30
0.0
 40
2.038119777735795
  0
CIRCLE
  5
B9
330
1F
100
AcDbEntity
  8
0
  6
Continuous
 62
     7
370
    35
100
AcDbCircle
 10
159.5198110847
 20
419.0138527334
 30
0.0
 40
2.038119777735831
  0
CIRCLE
  5
BA
330
1F
100
AcDbEntity
  8
0
  6
Continuous
 62
     7
370
    35
100
AcDbCircle
 10
159.5198110847
 20
392.7474082116
 30
0.0
 40
2.038119777735822
  0
CIRCLE
  5
BB
330
1F
100
AcDbEntity
  8
0
  6
Continuous
 62
     7
370
    35
100
AcDbCircle
 10
224.9205862497
 20
440.2638527334
 30
0.0
 40
2.038119777735809
  0
CIRCLE
  5
BC
330
1F
100
AcDbEntity
  8
0
  6
Continuous
 62
     7
370
    35
100
AcDbCircle
 10
240.3596149698
 20
392.7474082116
 30
0.0
 40
2.038119777735757
  0
CIRCLE
  5
BD
330
1F
100
AcDbEntity
  8
0
  6
Continuous
 62
     7
370
    35
100
AcDbCircle
 10
199.9397130273
 20
363.3806304725
 30
0.0
 40
2.038119777735809
  0
CIRCLE
  5
BE
330
1F
100
AcDbEntity
  8
0
  6
Continuous
 62
     7
370
    35
100
AcDbCircle
 10
231.2650575093
 20
344.4011803035
 30
0.0
 40
1.999999999999993
  0
LINE
  5
BF
330
1F
100
AcDbEntity
  8
0
  6
Continuous
 62
     7
370
    35
100
AcDbLine
 10
278.7588760519
 20
376.7296630174
 30
0.0
 11
279.6212684593
 21
378.8641591275
 31
0.0
  0
LINE
  5
C0
330
1F
100
AcDbEntity
  8
0
  6
Continuous
 62
     7
370
    35
100
AcDbLine
 10
276.0250451625
 20
369.9631941236
 30
0.0
 11
278.7588760519
 21
376.7296630174
 31
0.0
  0
LINE
  5
C1
330
1F
100
AcDbEntity
  8
0
  6
Continuous
 62
     7
370
    35
100
AcDbLine
 10
278.6124275827
 20
376.901083769
 30
0.0
 11
279.5107530071
 21
379.1245172171
 31
0.0
  0
LINE
  5
C2
330
1F
100
AcDbEntity
  8
0
  6
Continuous
 62
     7
370
    35
100
AcDbLine
 10
275.7646870729
 20
369.8526786714
 30
0.0
 11
278.6124275827
 21
376.901083769
 31
0.0
  0
LINE
  5
C3
330
1F
100
AcDbEntity
  8
0
  6
Continuous
 62
     7
370
    35
100
AcDbLine
 10
277.870680499
 20
377.2007690438
 30
0.0
 11
275.0229399892
 21
370.1523639461
 31
0.0
  0
LINE
  5
C4
330
1F
100
AcDbEntity
  8
0
  6
Continuous
 62
     7
370
    35
100
AcDbLine
 10
278.7690059234
 20
379.4242024918
 30
0.0
 11
277.870680499
 21
377.2007690438
 31
0.0
  0
LINE
  5
C5
330
1F
100
AcDbEntity
  8
0
  6
Continuous
 62
     7
370
    35
100
AcDbLine
 10
279.0127880302
 20
376.4238037099
 30
0.0
 11
282.2579315212
 21
375.112680633
 31
0.0
  0
LINE
  5
C6
330
1F
100
AcDbEntity
  8
0
  6
Continuous
 62
     7
370
    35
100
AcDbLine
 10
280.5276977808
 20
370.8302018488
 30
0.0
 11
282.2579315212
 21
375.112680633
 31
0.0
  0
LINE
  5
C7
330
1F
100
AcDbEntity
  8
0
  6
Continuous
 62
     7
370
    35
100
AcDbLine
 10
280.5276977808
 20
370.8302018488
 30
0.0
 11
277.2825542898
 21
372.1413249258
 31
0.0
  0
LINE
  5
C8
330
1F
100
AcDbEntity
  8
0
  6
Continuous
 62
     7
370
    35
100
AcDbLine
 10
277.2825542898
 20
372.1413249258
 30
0.0
 11
279.0127880302
 21
376.4238037099
 31
0.0
  0
LINE
  5
C9
330
1F
100
AcDbEntity
  8
0
  6
Continuous
 62
     7
370
    35
100
AcDbLine
 10
279.8779049004
 20
378.565043102
 30
0.0
 11
283.1230483914
 21
377.2539200251
 31
0.0
  0
LINE
  5
CA
330
1F
100
AcDbEntity
  8
0
  6
Continuous
 62
     7
370
    35
100
AcDbLine
 10
279.0127880302
 20
376.4238037099
 30
0.0
 11
279.8779049004
 21
378.565043102
 31
0.0
  0
LINE
  5
CB
330
1F
100
AcDbEntity
  8
0
  6
Continuous
 62
     7
370
    35
100
AcDbLine
 10
282.2579315212
 20
375.112680633
 30
0.0
 11
283.1230483914
 21
377.2539200251
 31
0.0
  0
LINE
  5
CC
330
1F
100
AcDbEntity
  8
0
  6
Continuous
 62
     7
370
    35
100
AcDbLine
 10
276.4174374196
 20
370.0000855337
 30
0.0
 11
279.6625809106
 21
368.6889624567
 31
0.0
  0
LINE
  5
CD
330
1F
100
AcDbEntity
  8
0
  6
Continuous
 62
     7
370
    35
100
AcDbLine
 10
276.4174374196
 20
370.0000855337
 30
0.0
 11
277.2825542898
 21
372.1413249258
 31
0.0
  0
LINE
  5
CE
330
1F
100
AcDbEntity
  8
0
  6
Continuous
 62
     7
370
    35
100
AcDbLine
 10
279.6625809106
 20
368.6889624567
 30
0.0
 11
280.5276977808
 21
370.8302018488
 31
0.0
  0
LINE
  5
CF
330
1F
100
AcDbEntity
  8
0
  6
Continuous
 62
     7
370
    35
100
AcDbLine
 10
273.7709016252
 20
382.5760291875
 30
0.0
 11
269.2381618449
 21
371.3571045473
 31
0.0
  0
LINE
  5
D0
330
1F
100
AcDbEntity
  8
0
  6
Continuous
 62
     7
370
    35
100
AcDbLine
 10
274.4958139062
 20
380.0197837971
 30
0.0
 11
275.2819455221
 21
381.9655278248
 31
0.0
  0
LINE
  5
D1
330
1F
100
AcDbEntity
  8
0
  6
Continuous
 62
     7
370
    35
100
AcDbLine
 10
270.7492057418
 20
370.7466031846
 30
0.0
 11
274.4958139062
 21
380.0197837971
 31
0.0
  0
LINE
  5
D2
330
1F
100
AcDbEntity
  8
0
  6
Continuous
 62
     7
370
    35
100
AcDbLine
 10
271.314204571
 20
371.6507903198
 30
0.0
 11
275.0602705051
 21
380.9226288655
 31
0.0
  0
LINE
  5
D3
330
1F
100
AcDbEntity
  8
0
  6
Continuous
 62
     7
370
    35
100
AcDbLine
 10
273.205902796
 20
381.6718420523
 30
0.0
 11
269.4598368619
 21
372.4000035066
 31
0.0
  0
LINE
  5
D4
330
1F
100
AcDbEntity
  8
0
  6
Continuous
 62
     7
370
    35
100
AcDbLine
 10
273.3864950479
 20
382.6130576
 30
0.0
 11
273.427577813
 21
382.7147410116
 31
0.0
  0
LINE
  5
D5
330
1F
100
AcDbEntity
  8
0
  6
Continuous
 62
     7
370
    35
100
AcDbLine
 10
268.8948380326
 20
371.4958163714
 30
0.0
 11
273.3864950479
 21
382.6130576
 31
0.0
  0
LINE
  5
D6
330
1F
100
AcDbEntity
  8
0
  6
Continuous
 62
     7
370
    35
100
AcDbLine
 10
271.9165339161
 20
383.3252423744
 30
0.0
 11
267.3837941357
 21
372.1063177341
 31
0.0
  0
LINE
  5
D7
330
1F
100
AcDbEntity
  8
0
  6
Continuous
 62
     7
370
    35
100
AcDbLine
 10
271.3515350869
 20
382.4210552391
 30
0.0
 11
267.6054691527
 21
373.1492166935
 31
0.0
  0
LINE
  5
D8
330
1F
100
AcDbEntity
  8
0
  6
Continuous
 62
     7
370
    35
100
AcDbLine
 10
273.1685722801
 20
370.901577133
 30
0.0
 11
276.9146382143
 21
380.1734156786
 31
0.0
  0
LINE
  5
D9
330
1F
100
AcDbEntity
  8
0
  6
Continuous
 62
     7
370
    35
100
AcDbLine
 10
276.0033612327
 20
378.4121600409
 30
0.0
 11
277.1363132312
 21
381.216314638
 31
0.0
  0
LINE
  5
DA
330
1F
100
AcDbEntity
  8
0
  6
Continuous
 62
     7
370
    35
100
AcDbLine
 10
272.6035734509
 20
369.9973899977
 30
0.0
 11
276.0033612327
 21
378.4121600409
 31
0.0
  0
LINE
  5
DB
330
1F
100
AcDbEntity
  8
0
  6
Continuous
 62
     7
370
    35
100
AcDbLine
 10
275.6252693343
 20
381.8268160007
 30
0.0
 11
271.092529554
 21
370.6078913605
 31
0.0
  0
LINE
  5
DC
330
1F
100
AcDbEntity
  8
0
  6
Continuous
 62
     7
370
    35
100
AcDbLine
 10
277.4796370435
 20
381.0776028139
 30
0.0
 11
272.9468972631
 21
369.8586781736
 31
0.0
  0
LINE
  5
DD
330
1F
100
AcDbEntity
  8
0
  6
Continuous
 62
     7
370
    35
100
AcDbLine
 10
277.5707978304
 20
376.9527674322
 30
0.0
 11
278.9906809404
 21
380.4671014511
 31
0.0
  0
LINE
  5
DE
330
1F
100
AcDbEntity
  8
0
  6
Continuous
 62
     7
370
    35
100
AcDbLine
 10
274.45794116
 20
369.2481768109
 30
0.0
 11
277.5707978304
 21
376.9527674322
 31
0.0
  0
LINE
  5
DF
330
1F
100
AcDbEntity
  8
0
  6
Continuous
 62
     7
370
    35
100
AcDbLine
 10
275.0229399892
 20
370.1523639461
 30
0.0
 11
278.7690059234
 21
379.4242024918
 31
0.0
  0
CIRCLE
  5
E0
330
1F
100
AcDbEntity
  8
0
  6
Continuous
 62
     7
370
    35
100
AcDbCircle
 10
228.2553078304
 20
385.3081466423
 30
0.0
 40
3.399999999999141
  0
CIRCLE
  5
E1
330
1F
100
AcDbEntity
  8
0
  6
Continuous
 62
     7
370
    35
100
AcDbCircle
 10
228.2553078304
 20
385.3081466423
 30
0.0
 40
4.750000000000026
  0
CIRCLE
  5
E2
330
1F
100
AcDbEntity
  8
0
  6
Continuous
 62
     7
370
    35
100
AcDbCircle
 10
228.2553078304
 20
385.3081466423
 30
0.0
 40
7.750000000000011
  0
CIRCLE
  5
E3
330
1F
100
AcDbEntity
  8
0
  6
Continuous
 62
     7
370
    35
100
AcDbCircle
 10
228.2553078304
 20
385.3081466423
 30
0.0
 40
3.200000000049404
  0
CIRCLE
  5
E4
330
1F
100
AcDbEntity
  8
0
  6
Continuous
 62
     7
370
    35
100
AcDbCircle
 10
234.9397130273
 20
405.8806304725
 30
0.0
 40
3.39999999999918
  0
CIRCLE
  5
E5
330
1F
100
AcDbEntity
  8
0
  6
Continuous
 62
     7
370
    35
100
AcDbCircle
 10
234.9397130273
 20
405.8806304725
 30
0.0
 40
4.74999999999998
  0
CIRCLE
  5
E6
330
1F
100
AcDbEntity
  8
0
  6
Continuous
 62
     7
370
    35
100
AcDbCircle
 10
234.9397130273
 20
405.8806304725
 30
0.0
 40
7.750000000000013
  0
CIRCLE
  5
E7
330
1F
100
AcDbEntity
  8
0
  6
Continuous
 62
     7
370
    35
100
AcDbCircle
 10
234.9397130273
 20
405.8806304725
 30
0.0
 40
3.200000000049396
  0
CIRCLE
  5
E8
330
1F
100
AcDbEntity
  8
0
  6
Continuous
 62
     7
370
    35
100
AcDbCircle
 10
210.7553078304
 20
439.1676085428
 30
0.0
 40
3.399999999999191
  0
CIRCLE
  5
E9
330
1F
100
AcDbEntity
  8
0
  6
Continuous
 62
     7
370
    35
100
AcDbCircle
 10
210.7553078304
 20
439.1676085428
 30
0.0
 40
4.750000000000033
  0
CIRCLE
  5
EA
330
1F
100
AcDbEntity
  8
0
  6
Continuous
 62
     7
370
    35
100
AcDbCircle
 10
210.7553078304
 20
439.1676085428
 30
0.0
 40
7.749999999999993
  0
CIRCLE
  5
EB
330
1F
100
AcDbEntity
  8
0
  6
Continuous
 62
     7
370
    35
100
AcDbCircle
 10
210.7553078304
 20
439.1676085428
 30
0.0
 40
3.2000000000494
  0
CIRCLE
  5
EC
330
1F
100
AcDbEntity
  8
0
  6
Continuous
 62
     7
370
    35
100
AcDbCircle
 10
171.6241182242
 20
426.4531143027
 30
0.0
 40
3.399999999999227
  0
CIRCLE
  5
ED
330
1F
100
AcDbEntity
  8
0
  6
Continuous
 62
     7
370
    35
100
AcDbCircle
 10
171.6241182242
 20
426.4531143027
 30
0.0
 40
4.749999999999971
  0
CIRCLE
  5
EE
330
1F
100
AcDbEntity
  8
0
  6
Continuous
 62
     7
370
    35
100
AcDbCircle
 10
171.6241182242
 20
426.4531143027
 30
0.0
 40
7.750000000000018
  0
CIRCLE
  5
EF
330
1F
100
AcDbEntity
  8
0
  6
Continuous
 62
     7
370
    35
100
AcDbCircle
 10
171.6241182242
 20
426.4531143027
 30
0.0
 40
3.200000000049464
  0
CIRCLE
  5
F0
330
1F
100
AcDbEntity
  8
0
  6
Continuous
 62
     7
370
    35
100
AcDbCircle
 10
210.7553078304
 20
372.5936524022
 30
0.0
 40
3.399999999999183
  0
CIRCLE
  5
F1
330
1F
100
AcDbEntity
  8
0
  6
Continuous
 62
     7
370
    35
100
AcDbCircle
 10
210.7553078304
 20
372.5936524022
 30
0.0
 40
4.750000000000015
  0
CIRCLE
  5
F2
330
1F
100
AcDbEntity
  8
0
  6
Continuous
 62
     7
370
    35
100
AcDbCircle
 10
210.7553078304
 20
372.5936524022
 30
0.0
 40
7.749999999999979
  0
CIRCLE
  5
F3
330
1F
100
AcDbEntity
  8
0
  6
Continuous
 62
     7
370
    35
100
AcDbCircle
 10
210.7553078304
 20
372.5936524022
 30
0.0
 40
3.200000000049385
  0
CIRCLE
  5
F4
330
1F
100
AcDbEntity
  8
0
  6
Continuous
 62
     7
370
    35
100
AcDbCircle
 10
189.1241182242
 20
439.1676085428
 30
0.0
 40
3.399999999999178
  0
CIRCLE
  5
F5
330
1F
100
AcDbEntity
  8
0
  6
Continuous
 62
     7
370
    35
100
AcDbCircle
 10
189.1241182242
 20
439.1676085428
 30
0.0
 40
4.750000000000037
  0
CIRCLE
  5
F6
330
1F
100
AcDbEntity
  8
0
  6
Continuous
 62
     7
370
    35
100
AcDbCircle
 10
189.1241182242
 20
439.1676085428
 30
0.0
 40
7.749999999999977
  0
CIRCLE
  5
F7
330
1F
100
AcDbEntity
  8
0
  6
Continuous
 62
     7
370
    35
100
AcDbCircle
 10
189.1241182242
 20
439.1676085428
 30
0.0
 40
3.200000000049396
  0
CIRCLE
  5
F8
330
1F
100
AcDbEntity
  8
0
  6
Continuous
 62
     7
370
    35
100
AcDbCircle
 10
171.6241182242
 20
385.3081466423
 30
0.0
 40
3.399999999999195
  0
CIRCLE
  5
F9
330
1F
100
AcDbEntity
  8
0
  6
Continuous
 62
     7
370
    35
100
AcDbCircle
 10
171.6241182242
 20
385.3081466423
 30
0.0
 40
4.749999999999947
  0
CIRCLE
  5
FA
330
1F
100
AcDbEntity
  8
0
  6
Continuous
 62
     7
370
    35
100
AcDbCircle
 10
171.6241182242
 20
385.3081466423
 30
0.0
 40
7.750000000000037
  0
CIRCLE
  5
FB
330
1F
100
AcDbEntity
  8
0
  6
Continuous
 62
     7
370
    35
100
AcDbCircle
 10
171.6241182242
 20
385.3081466423
 30
0.0
 40
3.200000000049429
  0
CIRCLE
  5
FC
330
1F
100
AcDbEntity
  8
0
  6
Continuous
 62
     7
370
    35
100
AcDbCircle
 10
228.2553078304
 20
426.4531143027
 30
0.0
 40
3.399999999999104
  0
CIRCLE
  5
FD
330
1F
100
AcDbEntity
  8
0
  6
Continuous
 62
     7
370
    35
100
AcDbCircle
 10
228.2553078304
 20
426.4531143027
 30
0.0
 40
4.750000000000004
  0
CIRCLE
  5
FE
330
1F
100
AcDbEntity
  8
0
  6
Continuous
 62
     7
370
    35
100
AcDbCircle
 10
228.2553078304
 20
426.4531143027
 30
0.0
 40
7.750000000000005
  0
CIRCLE
  5
FF
330
1F
100
AcDbEntity
  8
0
  6
Continuous
 62
     7
370
    35
100
AcDbCircle
 10
228.2553078304
 20
426.4531143027
 30
0.0
 40
3.200000000049377
  0
CIRCLE
  5
100
330
1F
100
AcDbEntity
  8
0
  6
Continuous
 62
     7
370
    35
100
AcDbCircle
 10
189.1241182242
 20
372.5936524022
 30
0.0
 40
3.399999999999176
  0
CIRCLE
  5
101
330
1F
100
AcDbEntity
  8
0
  6
Continuous
 62
     7
370
    35
100
AcDbCircle
 10
189.1241182242
 20
372.5936524022
 30
0.0
 40
4.750000000000049
  0
CIRCLE
  5
102
330
1F
100
AcDbEntity
  8
0
  6
Continuous
 62
     7
370
    35
100
AcDbCircle
 10
189.1241182242
 20
372.5936524022
 30
0.0
 40
7.749999999999978
  0
CIRCLE
  5
103
330
1F
100
AcDbEntity
  8
0
  6
Continuous
 62
     7
370
    35
100
AcDbCircle
 10
189.1241182242
 20
372.5936524022
 30
0.0
 40
3.20000000004934
  0
CIRCLE
  5
104
330
1F
100
AcDbEntity
  8
0
  6
Continuous
 62
     7
370
    35
100
AcDbCircle
 10
164.9397130273
 20
405.8806304725
 30
0.0
 40
3.399999999999116
  0
CIRCLE
  5
105
330
1F
100
AcDbEntity
  8
0
  6
Continuous
 62
     7
370
    35
100
AcDbCircle
 10
164.9397130273
 20
405.8806304725
 30
0.0
 40
4.750000000000096
  0
CIRCLE
  5
106
330
1F
100
AcDbEntity
  8
0
  6
Continuous
 62
     7
370
    35
100
AcDbCircle
 10
164.9397130273
 20
405.8806304725
 30
0.0
 40
7.749999999999952
  0
CIRCLE
  5
107
330
1F
100
AcDbEntity
  8
0
  6
Continuous
 62
     7
370
    35
100
AcDbCircle
 10
164.9397130273
 20
405.8806304725
 30
0.0
 40
3.200000000049355
  0
CIRCLE
  5
108
330
1F
100
AcDbEntity
  8
0
  6
Continuous
 62
     7
370
    35
100
AcDbCircle
 10
228.2553078304
 20
385.3081466423
 30
0.0
 40
8.0
  0
CIRCLE
  5
109
330
1F
100
AcDbEntity
  8
0
  6
Continuous
 62
     7
370
    35
100
AcDbCircle
 10
240.3596149698
 20
392.7474082116
 30
0.0
 40
2.56700000001544
  0
CIRCLE
  5
10A
330
1F
100
AcDbEntity
  8
0
  6
Continuous
 62
     7
370
    35
100
AcDbCircle
 10
210.7553078304
 20
372.5936524022
 30
0.0
 40
8.000000000000028
  0
CIRCLE
  5
10B
330
1F
100
AcDbEntity
  8
0
  6
Continuous
 62
     7
370
    35
100
AcDbCircle
 10
224.9205862497
 20
371.4974082116
 30
0.0
 40
2.567000000053667
  0
CIRCLE
  5
10C
330
1F
100
AcDbEntity
  8
0
  6
Continuous
 62
     7
370
    35
100
AcDbCircle
 10
189.1241182242
 20
372.5936524022
 30
0.0
 40
8.0
  0
CIRCLE
  5
10D
330
1F
100
AcDbEntity
  8
0
  6
Continuous
 62
     7
370
    35
100
AcDbCircle
 10
199.9397130273
 20
363.3806304725
 30
0.0
 40
2.566999999999098
  0
CIRCLE
  5
10E
330
1F
100
AcDbEntity
  8
0
  6
Continuous
 62
     7
370
    35
100
AcDbCircle
 10
171.6241182242
 20
385.3081466423
 30
0.0
 40
7.999999999999915
  0
CIRCLE
  5
10F
330
1F
100
AcDbEntity
  8
0
  6
Continuous
 62
     7
370
    35
100
AcDbCircle
 10
174.9588398049
 20
371.4974082116
 30
0.0
 40
2.567000000115058
  0
CIRCLE
  5
110
330
1F
100
AcDbEntity
  8
0
  6
Continuous
 62
     7
370
    35
100
AcDbCircle
 10
164.9397130273
 20
405.8806304725
 30
0.0
 40
8.000000000000028
  0
CIRCLE
  5
111
330
1F
100
AcDbEntity
  8
0
  6
Continuous
 62
     7
370
    35
100
AcDbCircle
 10
159.5198110847
 20
392.7474082116
 30
0.0
 40
2.567000000039627
  0
CIRCLE
  5
112
330
1F
100
AcDbEntity
  8
0
  6
Continuous
 62
     7
370
    35
100
AcDbCircle
 10
171.6241182242
 20
426.4531143027
 30
0.0
 40
7.999999999999915
  0
CIRCLE
  5
113
330
1F
100
AcDbEntity
  8
0
  6
Continuous
 62
     7
370
    35
100
AcDbCircle
 10
159.5198110847
 20
419.0138527334
 30
0.0
 40
2.567000000039627
  0
CIRCLE
  5
114
330
1F
100
AcDbEntity
  8
0
  6
Continuous
 62
     7
370
    35
100
AcDbCircle
 10
189.1241182242
 20
439.1676085428
 30
0.0
 40
8.0
  0
CIRCLE
  5
115
330
1F
100
AcDbEntity
  8
0
  6
Continuous
 62
     7
370
    35
100
AcDbCircle
 10
174.9588398049
 20
440.2638527334
 30
0.0
 40
2.567000000115058
  0
CIRCLE
  5
116
330
1F
100
AcDbEntity
  8
0
  6
Continuous
 62
     7
370
    35
100
AcDbCircle
 10
210.7553078304
 20
439.1676085428
 30
0.0
 40
8.0
  0
CIRCLE
  5
117
330
1F
100
AcDbEntity
  8
0
  6
Continuous
 62
     7
370
    35
100
AcDbCircle
 10
199.9397130273
 20
448.3806304725
 30
0.0
 40
2.566999999999098
  0
CIRCLE
  5
118
330
1F
100
AcDbEntity
  8
0
  6
Continuous
 62
     7
370
    35
100
AcDbCircle
 10
228.2553078304
 20
426.4531143027
 30
0.0
 40
8.0
  0
CIRCLE
  5
119
330
1F
100
AcDbEntity
  8
0
  6
Continuous
 62
     7
370
    35
100
AcDbCircle
 10
224.9205862497
 20
440.2638527334
 30
0.0
 40
2.567000000053667
  0
CIRCLE
  5
11A
330
1F
100
AcDbEntity
  8
0
  6
Continuous
 62
     7
370
    35
100
AcDbCircle
 10
234.9397130273
 20
405.8806304725
 30
0.0
 40
8.0
  0
CIRCLE
  5
11B
330
1F
100
AcDbEntity
  8
0
  6
Continuous
 62
     7
370
    35
100
AcDbCircle
 10
240.3596149698
 20
419.0138527334
 30
0.0
 40
2.56700000001544
  0
CIRCLE
  5
11C
330
1F
100
AcDbEntity
  8
0
  6
Continuous
 62
     7
370
    35
100
AcDbCircle
 10
199.9397130273
 20
405.8806304725
 30
0.0
 40
48.5
  0
CIRCLE
  5
11D
330
1F
100
AcDbEntity
  8
0
  6
Continuous
 62
     7
370
    35
100
AcDbCircle
 10
199.9397130273
 20
405.8806304725
 30
0.0
 40
22.5
  0
CIRCLE
  5
11E
330
1F
100
AcDbEntity
  8
0
  6
Continuous
 62
     7
370
    35
100
AcDbCircle
 10
224.9205862497
 20
440.2638527334
 30
0.0
 40
2.100000000039017
  0
CIRCLE
  5
11F
330
1F
100
AcDbEntity
  8
0
  6
Continuous
 62
     7
370
    35
100
AcDbCircle
 10
224.9205862497
 20
371.4974082116
 30
0.0
 40
2.100000000039017
  0
CIRCLE
  5
120
330
1F
100
AcDbEntity
  8
0
  6
Continuous
 62
     7
370
    35
100
AcDbCircle
 10
199.9397130273
 20
405.8806304725
 30
0.0
 40
51.0
  0
CIRCLE
  5
121
330
1F
100
AcDbEntity
  8
0
  6
Continuous
 62
     7
370
    35
100
AcDbCircle
 10
199.9397130273
 20
405.8806304725
 30
0.0
 40
20.0
  0
CIRCLE
  5
122
330
1F
100
AcDbEntity
  8
0
  6
Continuous
 62
     7
370
    35
100
AcDbCircle
 10
240.3596149698
 20
419.0138527334
 30
0.0
 40
2.100000000057634
  0
CIRCLE
  5
123
330
1F
100
AcDbEntity
  8
0
  6
Continuous
 62
     7
370
    35
100
AcDbCircle
 10
199.9397130273
 20
448.3806304725
 30
0.0
 40
2.100000000041291
  0
CIRCLE
  5
124
330
1F
100
AcDbEntity
  8
0
  6
Continuous
 62
     7
370
    35
100
AcDbCircle
 10
240.3596149698
 20
392.7474082116
 30
0.0
 40
2.100000000057634
  0
CIRCLE
  5
125
330
1F
100
AcDbEntity
  8
0
  6
Continuous
 62
     7
370
    35
100
AcDbCircle
 10
174.9588398049
 20
440.2638527334
 30
0.0
 40
2.100000000043565
  0
CIRCLE
  5
126
330
1F
100
AcDbEntity
  8
0
  6
Continuous
 62
     7
370
    35
100
AcDbCircle
 10
199.9397130273
 20
363.3806304725
 30
0.0
 40
2.100000000041291
  0
CIRCLE
  5
127
330
1F
100
AcDbEntity
  8
0
  6
Continuous
 62
     7
370
    35
100
AcDbCircle
 10
174.9588398049
 20
371.4974082116
 30
0.0
 40
2.100000000043565
  0
CIRCLE
  5
128
330
1F
100
AcDbEntity
  8
0
  6
Continuous
 62
     7
370
    35
100
AcDbCircle
 10
159.5198110847
 20
419.0138527334
 30
0.0
 40
2.100000000024977
  0
CIRCLE
  5
129
330
1F
100
AcDbEntity
  8
0
  6
Continuous
 62
     7
370
    35
100
AcDbCircle
 10
159.5198110847
 20
392.7474082116
 30
0.0
 40
2.100000000024977
  0
CIRCLE
  5
12A
330
1F
100
AcDbEntity
  8
0
  6
Continuous
 62
     7
370
    35
100
AcDbCircle
 10
138.9695594419
 20
407.7886063037
 30
0.0
 40
6.700000000000015
  0
CIRCLE
  5
12B
330
1F
100
AcDbEntity
  8
0
  6
Continuous
 62
     7
370
    35
100
AcDbCircle
 10
179.2843065725
 20
348.4841655623
 30
0.0
 40
6.700000000000024
  0
CIRCLE
  5
12C
330
1F
100
AcDbEntity
  8
0
  6
Continuous
 62
     7
370
    35
100
AcDbCircle
 10
248.1441233722
 20
368.4996884926
 30
0.0
 40
6.700000000000013
  0
CIRCLE
  5
12D
330
1F
100
AcDbEntity
  8
0
  6
Continuous
 62
     7
370
    35
100
AcDbCircle
 10
250.3870834829
 20
440.1744027077
 30
0.0
 40
6.699999999999958
  0
CIRCLE
  5
12E
330
1F
100
AcDbEntity
  8
0
  6
Continuous
 62
     7
370
    35
100
AcDbCircle
 10
182.913492267
 20
464.4562892961
 30
0.0
 40
6.700000000000002
  0
ARC
  5
12F
330
1F
100
AcDbEntity
  8
0
  6
Continuous
 62
     7
370
    35
100
AcDbCircle
 10
199.9397130273
 20
405.8806304725
 30
0.0
 40
66.75
100
AcDbArc
 50
297.2075935176
 51
315.2075935176
  0
ARC
  5
130
330
1F
100
AcDbEntity
  8
0
  6
Continuous
 62
     7
370
    35
100
AcDbCircle
 10
231.4876031632
 20
344.5150812777
 30
0.0
 40
2.250000000000086
100
AcDbArc
 50
117.2075935176
 51
297.2075935176
  0
ARC
  5
131
330
1F
100
AcDbEntity
  8
0
  6
Continuous
 62
     7
370
    35
100
AcDbCircle
 10
199.9397130273
 20
405.8806304725
 30
0.0
 40
71.25000000000004
100
AcDbArc
 50
297.2075935176
 51
315.2075935176
  0
ARC
  5
132
330
1F
100
AcDbEntity
  8
0
  6
Continuous
 62
     7
370
    35
100
AcDbCircle
 10
248.9065370867
 20
357.2673592235
 30
0.0
 40
2.250000000000029
100
AcDbArc
 50
315.2075935176
 51
135.2075935176
  0
ARC
  5
133
330
1F
100
AcDbEntity
  8
0
  6
Continuous
 62
     7
370
    35
100
AcDbCircle
 10
163.9062437927
 20
455.100434362
 30
0.0
 40
9.500000000000076
100
AcDbArc
 50
255.3105709494
 51
184.3925717105
  0
ARC
  5
134
330
1F
100
AcDbEntity
  8
0
  6
Continuous
 62
     7
370
    35
100
AcDbCircle
 10
199.9397130273
 20
405.8806304725
 30
0.0
 40
66.50000000000048
100
AcDbArc
 50
133.1801258133
 51
144.2075935176
  0
ARC
  5
135
330
1F
100
AcDbEntity
  8
0
  6
Continuous
 62
     7
370
    35
100
AcDbCircle
 10
150.4600914454
 20
441.5564913326
 30
0.0
 40
5.500000000000049
100
AcDbArc
 50
144.2075935176
 51
324.2075935176
  0
ARC
  5
136
330
1F
100
AcDbEntity
  8
0
  6
Continuous
 62
     7
370
    35
100
AcDbCircle
 10
199.9397130273
 20
405.8806304725
 30
0.0
 40
55.50000000000004
100
AcDbArc
 50
133.8408186702
 51
144.2075935176
  0
ARC
  5
137
330
1F
100
AcDbEntity
  8
0
  6
Continuous
 62
     7
370
    35
100
AcDbCircle
 10
141.3640542037
 20
388.8544097122
 30
0.0
 40
9.499999999999998
100
AcDbArc
 50
325.3105709494
 51
254.3925717105
  0
ARC
  5
138
330
1F
100
AcDbEntity
  8
0
  6
Continuous
 62
     7
370
    35
100
AcDbCircle
 10
199.9397130273
 20
405.8806304725
 30
0.0
 40
66.50000000000038
100
AcDbArc
 50
203.1801258133
 51
214.2075935176
  0
ARC
  5
139
330
1F
100
AcDbEntity
  8
0
  6
Continuous
 62
     7
370
    35
100
AcDbCircle
 10
149.4923425717
 20
371.5868582373
 30
0.0
 40
5.500000000000067
100
AcDbArc
 50
214.2075935176
 51
34.2075935176
  0
ARC
  5
13A
330
1F
100
AcDbEntity
  8
0
  6
Continuous
 62
     7
370
    35
100
AcDbCircle
 10
199.9397130273
 20
405.8806304725
 30
0.0
 40
55.50000000000005
100
AcDbArc
 50
203.8408186702
 51
214.2075935176
  0
ARC
  5
13B
330
1F
100
AcDbEntity
  8
0
  6
Continuous
 62
     7
370
    35
100
AcDbCircle
 10
200.1607271574
 20
344.8810308611
 30
0.0
 40
9.500000000000023
100
AcDbArc
 50
39.3105709494
 51
328.3925717105
  0
ARC
  5
13C
330
1F
100
AcDbEntity
  8
0
  6
Continuous
 62
     7
370
    35
100
AcDbCircle
 10
199.9397130273
 20
405.8806304725
 30
0.0
 40
66.50000000000058
100
AcDbArc
 50
277.1801258133
 51
288.2075935176
  0
ARC
  5
13D
330
1F
100
AcDbEntity
  8
0
  6
Continuous
 62
     7
370
    35
100
AcDbCircle
 10
218.9998228859
 20
347.9348608928
 30
0.0
 40
5.500000000000088
100
AcDbArc
 50
288.2075935176
 51
108.2075935176
  0
ARC
  5
13E
330
1F
100
AcDbEntity
  8
0
  6
Continuous
 62
     7
370
    35
100
AcDbCircle
 10
199.9397130273
 20
405.8806304725
 30
0.0
 40
55.50000000000008
100
AcDbArc
 50
277.8408186702
 51
288.2075935176
  0
ARC
  5
13F
330
1F
100
AcDbEntity
  8
0
  6
Continuous
 62
     7
370
    35
100
AcDbCircle
 10
258.6372113517
 20
389.2793145472
 30
0.0
 40
9.500000000000044
100
AcDbArc
 50
113.3105709494
 51
42.3925717105
  0
ARC
  5
140
330
1F
100
AcDbEntity
  8
0
  6
Continuous
 62
     7
370
    35
100
AcDbCircle
 10
199.9397130273
 20
405.8806304725
 30
0.0
 40
66.50000000000054
100
AcDbArc
 50
351.1801258133
 51
2.2075935176
  0
ARC
  5
141
330
1F
100
AcDbEntity
  8
0
  6
Continuous
 62
     7
370
    35
100
AcDbCircle
 10
260.8944400489
 20
408.2303652922
 30
0.0
 40
5.500000000000075
100
AcDbArc
 50
2.2075935176
 51
182.2075935176
  0
ARC
  5
142
330
1F
100
AcDbEntity
  8
0
  6
Continuous
 62
     7
370
    35
100
AcDbCircle
 10
199.9397130273
 20
405.8806304725
 30
0.0
 40
55.50000000000005
100
AcDbArc
 50
351.8408186702
 51
2.2075935176
  0
ARC
  5
143
330
1F
100
AcDbEntity
  8
0
  6
Continuous
 62
     7
370
    35
100
AcDbCircle
 10
235.6155738874
 20
455.3602520544
 30
0.0
 40
9.500000000000009
100
AcDbArc
 50
183.3105709494
 51
112.3925717105
  0
ARC
  5
144
330
1F
100
AcDbEntity
  8
0
  6
Continuous
 62
     7
370
    35
100
AcDbCircle
 10
199.9397130273
 20
405.8806304725
 30
0.0
 40
66.5000000000005
100
AcDbArc
 50
61.1801258133
 51
72.2075935176
  0
ARC
  5
145
330
1F
100
AcDbEntity
  8
0
  6
Continuous
 62
     7
370
    35
100
AcDbCircle
 10
218.5794290287
 20
463.9629942965
 30
0.0
 40
5.500000000000031
100
AcDbArc
 50
72.2075935176
 51
252.2075935176
  0
ARC
  5
146
330
1F
100
AcDbEntity
  8
0
  6
Continuous
 62
     7
370
    35
100
AcDbCircle
 10
199.9397130273
 20
405.8806304725
 30
0.0
 40
55.50000000000004
100
AcDbArc
 50
61.8408186702
 51
72.2075935176
  0
ARC
  5
147
330
1F
100
AcDbEntity
  8
0
  6
Continuous
 62
     7
370
    35
100
AcDbCircle
 10
199.9397130273
 20
405.8806304725
 30
0.0
 40
74.39999999999999
100
AcDbArc
 50
113.8309823893
 51
84.5842046459
  0
ARC
  5
148
330
1F
100
AcDbEntity
  8
0
  6
Continuous
 62
     7
370
    35
100
AcDbCircle
 10
165.838737287
 20
483.0847978054
 30
0.0
 40
10.00000000000005
100
AcDbArc
 50
293.8309823893
 51
12.2075935176
  0
LINE
  5
149
330
1F
100
AcDbEntity
  8
0
  6
Continuous
 62
     7
370
    35
100
AcDbLine
 10
175.6126160713
 20
485.199341139
 30
0.0
 11
170.9211031488
 21
506.8845333455
 31
0.0
  0
ARC
  5
14A
330
1F
100
AcDbEntity
  8
0
  6
Continuous
 62
     7
370
    35
100
AcDbCircle
 10
183.1384516291
 20
509.5277125126
 30
0.0
 40
12.50000000000007
100
AcDbArc
 50
6.2075935176
 51
192.2075935176
  0
LINE
  5
14B
330
1F
100
AcDbEntity
  8
0
  6
Continuous
 62
     7
370
    35
100
AcDbLine
 10
195.5651596527
 20
510.8793514058
 30
0.0
 11
197.9642521595
 21
488.822556315
 31
0.0
  0
ARC
  5
14C
330
1F
100
AcDbEntity
  8
0
  6
Continuous
 62
     7
370
    35
100
AcDbCircle
 10
207.9056185784
 20
489.9038674296
 30
0.0
 40
10.00000000000007
100
AcDbArc
 50
186.2075935176
 51
264.5842046459
  0
ARC
  5
14D
330
1F
100
AcDbEntity
  8
0
  6
Continuous
 62
     7
370
    35
100
AcDbCircle
 10
231.2650575093
 20
344.4011803035
 30
0.0
 40
2.010000000000001
100
AcDbArc
 50
90.0
 51
189.8739837986
  0
ARC
  5
14E
330
1F
100
AcDbEntity
  8
0
  6
Continuous
 62
     7
370
    35
100
AcDbCircle
 10
231.2650575093
 20
344.4011803035
 30
0.0
 40
2.010000000000008
100
AcDbArc
 50
224.3336098026
 51
90.0
  0
LINE
  5
14F
330
1F
100
AcDbEntity
  8
0
  6
Continuous
 62
     7
370
    35
100
AcDbLine
 10
235.7946134171
 20
348.4805938156
 30
0.0
 11
234.2582644771
 21
348.6285604105
 31
0.0
  0
ARC
  5
150
330
1F
100
AcDbEntity
  8
0
  6
Continuous
 62
     7
370
    35
100
AcDbCircle
 10
235.7946134171
 20
356.5305938156
 30
0.0
 40
8.050000000060948
100
AcDbArc
 50
270.0
 51
353.0024400691
  0
ARC
  5
151
330
1F
100
AcDbEntity
  8
0
  6
Continuous
 62
     7
370
    35
100
AcDbCircle
 10
258.5766764795
 20
389.0667517677
 30
0.0
 40
9.99999999999999
100
AcDbArc
 50
44.473380733
 51
111.3853093113
  0
ARC
  5
152
330
1F
100
AcDbEntity
  8
0
  6
Continuous
 62
     7
370
    35
100
AcDbCircle
 10
235.7946134171
 20
455.2306671294
 30
0.0
 40
10.00000000000005
100
AcDbArc
 50
114.4733807329
 51
181.3853093113
  0
ARC
  5
153
330
1F
100
AcDbEntity
  8
0
  6
Continuous
 62
     7
370
    35
100
AcDbCircle
 10
164.0848126374
 20
455.2306671294
 30
0.0
 40
9.999999999999984
100
AcDbArc
 50
186.4733807329
 51
253.3853093113
  0
LWPOLYLINE
  5
154
330
1F
100
AcDbEntity
  8
0
  6
Continuous
 62
     7
370
    35
100
AcDbPolyline
 90
        3
 70
   128
 43
0.0
 10
141.302749575
 20
379.0667517677
 10
139.4652543969
 20
379.2370207708
 10
138.9637786177
 20
379.3441381859
  0
ARC
  5
155
330
1F
100
AcDbEntity
  8
0
  6
Continuous
 62
     7
370
    35
100
AcDbCircle
 10
141.302749575
 20
389.0667517677
 30
0.0
 40
10.0
100
AcDbArc
 50
270.0
 51
323.3853093113
  0
ARC
  5
156
330
1F
100
AcDbEntity
  8
0
  6
Continuous
 62
     7
370
    35
100
AcDbCircle
 10
199.9397130273
 20
344.8806304725
 30
0.0
 40
9.999999999999925
100
AcDbArc
 50
330.4733807329
 51
37.3853093113
  0
LINE
  5
157
330
1F
100
AcDbEntity
  8
0
  6
Continuous
 62
     7
370
    35
100
AcDbLine
 10
251.7080792936
 20
459.2421602754
 30
0.0
 11
252.2035657879
 21
459.671797913
 31
0.0
  0
LINE
  5
158
330
1F
100
AcDbEntity
  8
0
  6
Continuous
 62
     7
370
    35
100
AcDbLine
 10
252.2035657879
 20
459.671797913
 30
0.0
 11
254.66462693
 21
456.2844378519
 31
0.0
  0
LINE
  5
159
330
1F
100
AcDbEntity
  8
0
  6
Continuous
 62
     7
370
    35
100
AcDbLine
 10
264.7875108932
 20
442.3514833819
 30
0.0
 11
267.2485720353
 21
438.9641233208
 31
0.0
  0
LINE
  5
15A
330
1F
100
AcDbEntity
  8
0
  6
Continuous
 62
     7
370
    35
100
AcDbLine
 10
266.6110265417
 20
438.5799658802
 30
0.0
 11
267.2485720353
 21
438.9641233208
 31
0.0
  0
LINE
  5
15B
330
1F
100
AcDbEntity
  8
0
  6
Continuous
 62
     7
370
    35
100
AcDbLine
 10
234.7012141294
 20
471.6261102771
 30
0.0
 11
234.9477346462
 21
472.2088930936
 31
0.0
  0
ARC
  5
15C
330
1F
100
AcDbEntity
  8
0
  6
Continuous
 62
     7
370
    35
100
AcDbCircle
 10
199.9397130273
 20
405.8806304725
 30
0.0
 40
75.00000000000003
100
AcDbArc
 50
45.8250683104
 51
62.1749316896
  0
LINE
  5
15D
330
1F
100
AcDbEntity
  8
0
  6
Continuous
 62
     7
370
    35
100
AcDbLine
 10
210.604403177
 20
480.1185209598
 30
0.0
 11
214.5864837532
 21
478.8246645486
 31
0.0
  0
LINE
  5
15E
330
1F
100
AcDbEntity
  8
0
  6
Continuous
 62
     7
370
    35
100
AcDbLine
 10
230.96565407
 20
473.5027495048
 30
0.0
 11
234.9477346462
 21
472.2088930936
 31
0.0
  0
LINE
  5
15F
330
1F
100
AcDbEntity
  8
0
  6
Continuous
 62
     7
370
    35
100
AcDbLine
 10
210.604403177
 20
480.1185209598
 30
0.0
 11
210.4340736439
 21
479.3849121874
 31
0.0
  0
ARC
  5
160
330
1F
100
AcDbEntity
  8
0
  6
Continuous
 62
     7
370
    35
100
AcDbCircle
 10
199.9397130273
 20
405.8806304725
 30
0.0
 40
75.00000000000004
100
AcDbArc
 50
9.8250683104
 51
26.1749316896
  0
LINE
  5
161
330
1F
100
AcDbEntity
  8
0
  6
Continuous
 62
     7
370
    35
100
AcDbLine
 10
273.1434344226
 20
418.6186343949
 30
0.0
 11
273.8397130273
 21
418.6786771985
 31
0.0
  0
CIRCLE
  5
162
330
1F
100
AcDbEntity
  8
0
  6
Continuous
 62
     7
370
    35
100
AcDbCircle
 10
235.7946134171
 20
455.2306671294
 30
0.0
 40
9.024999999999977
  0
LINE
  5
163
330
1F
100
AcDbEntity
  8
0
  6
Continuous
 62
     7
370
    35
100
AcDbLine
 10
273.8397130273
 20
418.6786771985
 30
0.0
 11
273.8397130273
 21
414.4916698987
 31
0.0
  0
LINE
  5
164
330
1F
100
AcDbEntity
  8
0
  6
Continuous
 62
     7
370
    35
100
AcDbLine
 10
273.8397130273
 20
397.2695910463
 30
0.0
 11
273.8397130273
 21
393.0825837465
 31
0.0
  0
LINE
  5
165
330
1F
100
AcDbEntity
  8
0
  6
Continuous
 62
     7
370
    35
100
AcDbLine
 10
273.0803445761
 20
393.1480670321
 30
0.0
 11
273.8397130273
 21
393.0825837465
 31
0.0
  0
ARC
  5
166
330
1F
100
AcDbEntity
  8
0
  6
Continuous
 62
     7
370
    35
100
AcDbCircle
 10
199.9397130273
 20
405.8806304725
 30
0.0
 40
75.0
100
AcDbArc
 50
81.8250683104
 51
87.0413483042
  0
LINE
  5
167
330
1F
100
AcDbEntity
  8
0
  6
Continuous
 62
     7
370
    35
100
AcDbLine
 10
164.9316914084
 20
472.2088930936
 30
0.0
 11
168.9137719846
 21
473.5027495048
 31
0.0
  0
LINE
  5
168
330
1F
100
AcDbEntity
  8
0
  6
Continuous
 62
     7
370
    35
100
AcDbLine
 10
164.9316914084
 20
472.2088930936
 30
0.0
 11
165.1789422711
 21
471.6243837147
 31
0.0
  0
CIRCLE
  5
169
330
1F
100
AcDbEntity
  8
0
  6
Continuous
 62
     7
370
    35
100
AcDbCircle
 10
258.5766764795
 20
389.0667517677
 30
0.0
 40
9.024999999999977
  0
ARC
  5
16A
330
1F
100
AcDbEntity
  8
0
  6
Continuous
 62
     7
370
    35
100
AcDbCircle
 10
199.9397130273
 20
405.8806304725
 30
0.0
 40
74.99999999999999
100
AcDbArc
 50
333.8250683104
 51
350.1749316896
  0
LINE
  5
16B
330
1F
100
AcDbEntity
  8
0
  6
Continuous
 62
     7
370
    35
100
AcDbLine
 10
266.5934472766
 20
373.1918875723
 30
0.0
 11
267.2485720353
 21
372.7971376242
 31
0.0
  0
LINE
  5
16C
330
1F
100
AcDbEntity
  8
0
  6
Continuous
 62
     7
370
    35
100
AcDbLine
 10
267.2485720353
 20
372.7971376242
 30
0.0
 11
264.7875108932
 21
369.4097775631
 31
0.0
  0
LINE
  5
16D
330
1F
100
AcDbEntity
  8
0
  6
Continuous
 62
     7
370
    35
100
AcDbLine
 10
254.66462693
 20
355.476823093
 30
0.0
 11
252.2035657879
 21
352.089463032
 31
0.0
  0
LINE
  5
16E
330
1F
100
AcDbEntity
  8
0
  6
Continuous
 62
     7
370
    35
100
AcDbLine
 10
251.6856042514
 20
352.5385888376
 30
0.0
 11
252.2035657879
 21
352.089463032
 31
0.0
  0
CIRCLE
  5
16F
330
1F
100
AcDbEntity
  8
0
  6
Continuous
 62
     7
370
    35
100
AcDbCircle
 10
164.0848126374
 20
455.2306671294
 30
0.0
 40
9.024999999999977
  0
ARC
  5
170
330
1F
100
AcDbEntity
  8
0
  6
Continuous
 62
     7
370
    35
100
AcDbCircle
 10
199.9397130273
 20
405.8806304725
 30
0.0
 40
75.00000000000004
100
AcDbArc
 50
117.8250683104
 51
134.1749316896
  0
LINE
  5
171
330
1F
100
AcDbEntity
  8
0
  6
Continuous
 62
     7
370
    35
100
AcDbLine
 10
147.6758602666
 20
459.671797913
 30
0.0
 11
148.2072849719
 21
459.2109981585
 31
0.0
  0
ARC
  5
172
330
1F
100
AcDbEntity
  8
0
  6
Continuous
 62
     7
370
    35
100
AcDbCircle
 10
235.7946134171
 20
356.5305938156
 30
0.0
 40
7.500000000000036
100
AcDbArc
 50
263.8444195439
 51
348.1555804561
  0
LINE
  5
173
330
1F
100
AcDbEntity
  8
0
  6
Continuous
 62
     7
370
    35
100
AcDbLine
 10
132.6308540193
 20
438.9641233208
 30
0.0
 11
135.0919151613
 21
442.3514833818
 31
0.0
  0
LINE
  5
174
330
1F
100
AcDbEntity
  8
0
  6
Continuous
 62
     7
370
    35
100
AcDbLine
 10
145.2147991246
 20
456.284437852
 30
0.0
 11
147.6758602666
 21
459.671797913
 31
0.0
  0
LINE
  5
175
330
1F
100
AcDbEntity
  8
0
  6
Continuous
 62
     7
370
    35
100
AcDbLine
 10
132.6308540193
 20
438.9641233208
 30
0.0
 11
133.2418641522
 21
438.5959549451
 31
0.0
  0
ARC
  5
176
330
1F
100
AcDbEntity
  8
0
  6
Continuous
 62
     7
370
    35
100
AcDbCircle
 10
199.9397130273
 20
405.8806304725
 30
0.0
 40
75.00000000000001
100
AcDbArc
 50
297.8250683104
 51
314.1749316896
  0
LINE
  5
177
330
1F
100
AcDbEntity
  8
0
  6
Continuous
 62
     7
370
    35
100
AcDbLine
 10
234.6608022568
 20
340.2306856977
 30
0.0
 11
234.9477346462
 21
339.5523678514
 31
0.0
  0
LINE
  5
178
330
1F
100
AcDbEntity
  8
0
  6
Continuous
 62
     7
370
    35
100
AcDbLine
 10
234.9477346462
 20
339.5523678514
 30
0.0
 11
230.96565407
 21
338.2585114402
 31
0.0
  0
LINE
  5
179
330
1F
100
AcDbEntity
  8
0
  6
Continuous
 62
     7
370
    35
100
AcDbLine
 10
214.5864837532
 20
332.9365963963
 30
0.0
 11
212.8753965821
 21
332.3806304725
 31
0.0
  0
LINE
  5
17A
330
1F
100
AcDbEntity
  8
0
  6
Continuous
 62
     7
370
    35
100
AcDbLine
 10
212.8394690009
 20
332.6074682927
 30
0.0
 11
212.8753965821
 21
332.3806304725
 31
0.0
  0
ARC
  5
17B
330
1F
100
AcDbEntity
  8
0
  6
Continuous
 62
     7
370
    35
100
AcDbCircle
 10
199.9397130273
 20
405.8806304725
 30
0.0
 40
75.00000000000001
100
AcDbArc
 50
153.8250683104
 51
170.1749316896
  0
LINE
  5
17C
330
1F
100
AcDbEntity
  8
0
  6
Continuous
 62
     7
370
    35
100
AcDbLine
 10
126.0397130273
 20
418.6786771985
 30
0.0
 11
126.6866954122
 21
418.622885399
 31
0.0
  0
CIRCLE
  5
17D
330
1F
100
AcDbEntity
  8
0
  6
Continuous
 62
     7
370
    35
100
AcDbCircle
 10
199.9397130273
 20
344.8806304725
 30
0.0
 40
9.025000000000034
  0
CIRCLE
  5
17E
330
1F
100
AcDbEntity
  8
0
  6
Continuous
 62
     7
370
    35
100
AcDbCircle
 10
141.302749575
 20
389.0667517677
 30
0.0
 40
9.024999999999977
  0
LINE
  5
17F
330
1F
100
AcDbEntity
  8
0
  6
Continuous
 62
     7
370
    35
100
AcDbLine
 10
212.8753965821
 20
332.3806304725
 30
0.0
 11
211.4770437411
 21
332.3806304725
 31
0.0
  0
LINE
  5
180
330
1F
100
AcDbEntity
  8
0
  6
Continuous
 62
     7
370
    35
100
AcDbLine
 10
188.4023823135
 20
332.3806304725
 30
0.0
 11
187.0040294724
 21
332.3806304725
 31
0.0
  0
LINE
  5
181
330
1F
100
AcDbEntity
  8
0
  6
Continuous
 62
     7
370
    35
100
AcDbLine
 10
187.0399570536
 20
332.6074682927
 30
0.0
 11
187.0040294724
 21
332.3806304725
 31
0.0
  0
LINE
  5
182
330
1F
100
AcDbEntity
  8
0
  6
Continuous
 62
     7
370
    35
100
AcDbLine
 10
126.0397130273
 20
393.0825837465
 30
0.0
 11
126.0397130273
 21
397.2695910462
 31
0.0
  0
LINE
  5
183
330
1F
100
AcDbEntity
  8
0
  6
Continuous
 62
     7
370
    35
100
AcDbLine
 10
126.0397130273
 20
414.4916698987
 30
0.0
 11
126.0397130273
 21
418.6786771985
 31
0.0
  0
LINE
  5
184
330
1F
100
AcDbEntity
  8
0
  6
Continuous
 62
     7
370
    35
100
AcDbLine
 10
126.0397130273
 20
393.0825837465
 30
0.0
 11
126.8033832105
 21
393.1484379872
 31
0.0
  0
LINE
  5
185
330
1F
100
AcDbEntity
  8
0
  6
Continuous
 62
     7
370
    35
100
AcDbLine
 10
187.0040294724
 20
332.3806304725
 30
0.0
 11
185.2929423014
 21
332.9365963963
 31
0.0
  0
LINE
  5
186
330
1F
100
AcDbEntity
  8
0
  6
Continuous
 62
     7
370
    35
100
AcDbLine
 10
168.9137719846
 20
338.2585114402
 30
0.0
 11
164.9316914084
 21
339.5523678514
 31
0.0
  0
LINE
  5
187
330
1F
100
AcDbEntity
  8
0
  6
Continuous
 62
     7
370
    35
100
AcDbLine
 10
164.9316914084
 20
339.5523678514
 30
0.0
 11
165.2270682978
 21
340.2506487806
 31
0.0
  0
ARC
  5
188
330
1F
100
AcDbEntity
  8
0
  6
Continuous
 62
     7
370
    35
100
AcDbCircle
 10
199.9397130273
 20
405.8806304725
 30
0.0
 40
75.00000000000001
100
AcDbArc
 50
189.8250683104
 51
206.1749316896
  0
LINE
  5
189
330
1F
100
AcDbEntity
  8
0
  6
Continuous
 62
     7
370
    35
100
AcDbLine
 10
132.6308540193
 20
372.7971376242
 30
0.0
 11
133.2742495965
 21
373.184820073
 31
0.0
  0
LINE
  5
18A
330
1F
100
AcDbEntity
  8
0
  6
Continuous
 62
     7
370
    35
100
AcDbLine
 10
147.6758602666
 20
352.089463032
 30
0.0
 11
145.2147991246
 21
355.476823093
 31
0.0
  0
LINE
  5
18B
330
1F
100
AcDbEntity
  8
0
  6
Continuous
 62
     7
370
    35
100
AcDbLine
 10
135.0919151613
 20
369.4097775631
 30
0.0
 11
132.6308540193
 21
372.7971376242
 31
0.0
  0
LINE
  5
18C
330
1F
100
AcDbEntity
  8
0
  6
Continuous
 62
     7
370
    35
100
AcDbLine
 10
147.6758602666
 20
352.089463032
 30
0.0
 11
148.2240206768
 21
352.56477436
 31
0.0
  0
ARC
  5
18D
330
1F
100
AcDbEntity
  8
0
  6
Continuous
 62
     7
370
    35
100
AcDbCircle
 10
199.9397130273
 20
405.8806304725
 30
0.0
 40
75.00000000000003
100
AcDbArc
 50
225.8250683104
 51
242.1749316896
  0
DIMENSION
  5
18E
330
1F
100
AcDbEntity
  8
LIVELLO1
100
AcDbDimension
  2
_D
 10
66.2258910485
 20
134.4395568312
 30
0.0
 11
267.9560903452
 21
486.83286375
 31
0.0
 70
   163
  1
<>
 71
     1
 42
-1.0
  3
SLDDIMSTYLE0
100
AcDbDiametricDimension
 15
0.0
 25
0.0
 35
0.0
 40
0.0
  0
DIMENSION
  5
19A
330
1F
100
AcDbEntity
  8
LIVELLO1
100
AcDbDimension
  2
_D_1
 10
88.3682113846
 20
506.8285571326
 30
0.0
 11
97.768917167
 21
448.8355469435
 31
0.0
 70
   160
  1
<>
 71
     2
 42
-1.0
  3
SLDDIMSTYLE1
100
AcDbAlignedDimension
 13
199.9397130273
 23
405.8806304725
 33
0.0
 14
181.1383014627
 24
521.8666508507
 34
0.0
 50
-80.7924064824
100
AcDbRotatedDimension
  0
INSERT
  5
1B0
330
1F
100
AcDbEntity
  8
LIVELLO1
100
AcDbBlockReference
  2
SW_CENTERMARKSYMBOL_0
 10
199.9397130273
 20
405.8806304725
 30
0.0
  0
LINE
  5
1B1
330
1F
100
AcDbEntity
  8
LIVELLO1
100
AcDbLine
 10
193.4397130273
 20
338.6195902235
 30
0.0
 11
193.4397130273
 21
338.6315155854
 31
0.0
  0
LINE
  5
1B2
330
1F
100
AcDbEntity
  8
LIVELLO1
100
AcDbLine
 10
206.4397130273
 20
338.6315155854
 30
0.0
 11
206.4397130273
 21
338.6195902235
 31
0.0
  0
SOLID
  5
1B3
330
1F
100
AcDbEntity
  8
LIVELLO1
100
AcDbTrace
 10
244.4842985434
 20
466.2195060106
 30
0.0
 11
248.3734571003
 21
470.3090592526
 31
0.0
 12
247.2471314235
 22
471.1405581822
 32
0.0
 13
247.2471314235
 23
471.1405581822
 33
0.0
  0
LINE
  5
1B4
330
1F
100
AcDbEntity
  8
LIVELLO1
100
AcDbLine
 10
244.4842985434
 20
466.2195060106
 30
0.0
 11
256.3371733717
 21
482.2750856226
 31
0.0
  0
LINE
  5
1B5
330
1F
100
AcDbEntity
  8
0
  6
Continuous
 62
     7
370
    35
100
AcDbLine
 10
278.3944744805
 20
259.1746119562
 30
0.0
 11
278.5496410738
 21
259.3575614366
 31
0.0
  0
LINE
  5
1B6
330
1F
100
AcDbEntity
  8
0
  6
Continuous
 62
     7
370
    35
100
AcDbLine
 10
278.5496410738
 20
268.1391364925
 30
0.0
 11
278.3944744805
 21
268.3220859729
 31
0.0
  0
ARC
  5
1B7
330
1F
100
AcDbEntity
  8
0
  6
Continuous
 62
     7
370
    35
100
AcDbCircle
 10
217.4553076397
 20
241.1883490218
 30
0.0
 40
1.309999942779569
100
AcDbArc
 50
270.0
 51
90.0
  0
ARC
  5
1B8
330
1F
100
AcDbEntity
  8
0
  6
Continuous
 62
     7
370
    35
100
AcDbCircle
 10
204.0553080211
 20
241.1883490218
 30
0.0
 40
1.309999942779569
100
AcDbArc
 50
90.0
 51
270.0
  0
LINE
  5
1B9
330
1F
100
AcDbEntity
  8
0
  6
Continuous
 62
     7
370
    35
100
AcDbLine
 10
204.0553080211
 20
239.878349079
 30
0.0
 11
217.4553076397
 21
239.878349079
 31
0.0
  0
ARC
  5
1BA
330
1F
100
AcDbEntity
  8
0
  6
Continuous
 62
     7
370
    35
100
AcDbCircle
 10
178.3241180334
 20
240.8083489073
 30
0.0
 40
1.309999942779541
100
AcDbArc
 50
270.0
 51
90.0
  0
ARC
  5
1BB
330
1F
100
AcDbEntity
  8
0
  6
Continuous
 62
     7
370
    35
100
AcDbCircle
 10
164.9241184149
 20
240.8083489073
 30
0.0
 40
1.309999942779541
100
AcDbArc
 50
90.0
 51
270.0
  0
LINE
  5
1BC
330
1F
100
AcDbEntity
  8
0
  6
Continuous
 62
     7
370
    35
100
AcDbLine
 10
178.3241180334
 20
242.1183488501
 30
0.0
 11
164.9241184149
 21
242.1183488501
 31
0.0
  0
ARC
  5
1BD
330
1F
100
AcDbEntity
  8
0
  6
Continuous
 62
     7
370
    35
100
AcDbCircle
 10
178.3241180334
 20
241.1883490218
 30
0.0
 40
1.30999994277955
100
AcDbArc
 50
351.6605076884
 51
90.0
  0
ARC
  5
1BE
330
1F
100
AcDbEntity
  8
0
  6
Continuous
 62
     7
370
    35
100
AcDbCircle
 10
158.239713218
 20
241.1883490218
 30
0.0
 40
1.309999942779569
100
AcDbArc
 50
90.0
 51
270.0
  0
LINE
  5
1BF
330
1F
100
AcDbEntity
  8
0
  6
Continuous
 62
     7
370
    35
100
AcDbLine
 10
158.239713218
 20
239.878349079
 30
0.0
 11
164.0015133155
 21
239.878349079
 31
0.0
  0
ARC
  5
1C0
330
1F
100
AcDbEntity
  8
0
  6
Continuous
 62
     7
370
    35
100
AcDbCircle
 10
195.8241180334
 20
241.1883490218
 30
0.0
 40
1.309999942779549
100
AcDbArc
 50
351.6605076884
 51
90.0
  0
ARC
  5
1C1
330
1F
100
AcDbEntity
  8
0
  6
Continuous
 62
     7
370
    35
100
AcDbCircle
 10
182.4241184149
 20
241.1883490218
 30
0.0
 40
1.309999942779555
100
AcDbArc
 50
90.0
 51
188.3394923116
  0
ARC
  5
1C2
330
1F
100
AcDbEntity
  8
0
  6
Continuous
 62
     7
370
    35
100
AcDbCircle
 10
234.9553076397
 20
241.1883490218
 30
0.0
 40
1.309999942779569
100
AcDbArc
 50
270.0
 51
90.0
  0
ARC
  5
1C3
330
1F
100
AcDbEntity
  8
0
  6
Continuous
 62
     7
370
    35
100
AcDbCircle
 10
221.5553080211
 20
241.1883490218
 30
0.0
 40
1.309999942779569
100
AcDbArc
 50
90.0
 51
270.0
  0
LINE
  5
1C4
330
1F
100
AcDbEntity
  8
0
  6
Continuous
 62
     7
370
    35
100
AcDbLine
 10
221.5553080211
 20
239.878349079
 30
0.0
 11
234.9553076397
 21
239.878349079
 31
0.0
  0
ARC
  5
1C5
330
1F
100
AcDbEntity
  8
0
  6
Continuous
 62
     7
370
    35
100
AcDbCircle
 10
195.8241180334
 20
240.8083489073
 30
0.0
 40
1.309999942779541
100
AcDbArc
 50
270.0
 51
90.0
  0
ARC
  5
1C6
330
1F
100
AcDbEntity
  8
0
  6
Continuous
 62
     7
370
    35
100
AcDbCircle
 10
182.4241184149
 20
240.8083489073
 30
0.0
 40
1.309999942779541
100
AcDbArc
 50
90.0
 51
270.0
  0
LINE
  5
1C7
330
1F
100
AcDbEntity
  8
0
  6
Continuous
 62
     7
370
    35
100
AcDbLine
 10
195.8241180334
 20
242.1183488501
 30
0.0
 11
182.4241184149
 21
242.1183488501
 31
0.0
  0
ARC
  5
1C8
330
1F
100
AcDbEntity
  8
0
  6
Continuous
 62
     7
370
    35
100
AcDbCircle
 10
241.6397128366
 20
241.1883490218
 30
0.0
 40
1.309999942779569
100
AcDbArc
 50
270.0
 51
90.0
  0
LINE
  5
1C9
330
1F
100
AcDbEntity
  8
0
  6
Continuous
 62
     7
370
    35
100
AcDbLine
 10
234.9553076397
 20
239.878349079
 30
0.0
 11
241.6397128366
 21
239.878349079
 31
0.0
  0
LINE
  5
1CA
330
1F
100
AcDbEntity
  8
0
  6
Continuous
 62
     7
370
    35
100
AcDbLine
 10
274.8699433411
 20
269.7983489646
 30
0.0
 11
273.8397130273
 21
269.7983489646
 31
0.0
  0
LINE
  5
1CB
330
1F
100
AcDbEntity
  8
0
  6
Continuous
 62
     7
370
    35
100
AcDbLine
 10
273.8397130273
 20
257.6983489646
 30
0.0
 11
274.8699433411
 21
257.6983489646
 31
0.0
  0
LINE
  5
1CC
330
1F
100
AcDbEntity
  8
0
  6
Continuous
 62
     7
370
    35
100
AcDbLine
 10
276.7243110502
 20
269.7983489646
 30
0.0
 11
275.2132671533
 21
269.7983489646
 31
0.0
  0
LINE
  5
1CD
330
1F
100
AcDbEntity
  8
0
  6
Continuous
 62
     7
370
    35
100
AcDbLine
 10
275.2132671533
 20
257.6983489646
 30
0.0
 11
276.7243110502
 21
257.6983489646
 31
0.0
  0
ARC
  5
1CE
330
1F
100
AcDbEntity
  8
0
  6
Continuous
 62
     7
370
    35
100
AcDbCircle
 10
239.6897130273
 20
238.4983489646
 30
0.0
 40
3.0
100
AcDbArc
 50
270.0
 51
0.0
  0
LINE
  5
1CF
330
1F
100
AcDbEntity
  8
0
  6
Continuous
 62
     7
370
    35
100
AcDbLine
 10
242.6897130273
 20
242.6983489646
 30
0.0
 11
242.6897130273
 21
244.1983489646
 31
0.0
  0
LINE
  5
1D0
330
1F
100
AcDbEntity
  8
0
  6
Continuous
 62
     7
370
    35
100
AcDbLine
 10
242.4897130273
 20
242.4983489646
 30
0.0
 11
242.6897130273
 21
242.6983489646
 31
0.0
  0
LINE
  5
1D1
330
1F
100
AcDbEntity
  8
0
  6
Continuous
 62
     7
370
    35
100
AcDbLine
 10
242.6897130273
 20
239.2983489646
 30
0.0
 11
242.4897130273
 21
239.4983489646
 31
0.0
  0
LINE
  5
1D2
330
1F
100
AcDbEntity
  8
0
  6
Continuous
 62
     7
370
    35
100
AcDbLine
 10
242.6897130273
 20
238.4983489646
 30
0.0
 11
242.6897130273
 21
239.2983489646
 31
0.0
  0
LINE
  5
1D3
330
1F
100
AcDbEntity
  8
0
  6
Continuous
 62
     7
370
    35
100
AcDbLine
 10
240.6397130273
 20
239.4983489646
 30
0.0
 11
240.6397130273
 21
239.878349079
 31
0.0
  0
ARC
  5
1D4
330
1F
100
AcDbEntity
  8
0
  6
Continuous
 62
     7
370
    35
100
AcDbCircle
 10
206.0053078304
 20
238.4983489646
 30
0.0
 40
3.0
100
AcDbArc
 50
180.0
 51
270.0
  0
ARC
  5
1D5
330
1F
100
AcDbEntity
  8
0
  6
Continuous
 62
     7
370
    35
100
AcDbCircle
 10
215.5053078304
 20
238.4983489646
 30
0.0
 40
3.0
100
AcDbArc
 50
270.0
 51
0.0
  0
LINE
  5
1D6
330
1F
100
AcDbEntity
  8
0
  6
Continuous
 62
     7
370
    35
100
AcDbLine
 10
203.0053078304
 20
244.1983489646
 30
0.0
 11
203.0053078304
 21
242.6983489646
 31
0.0
  0
LINE
  5
1D7
330
1F
100
AcDbEntity
  8
0
  6
Continuous
 62
     7
370
    35
100
AcDbLine
 10
218.5053078304
 20
242.6983489646
 30
0.0
 11
218.5053078304
 21
244.1983489646
 31
0.0
  0
LINE
  5
1D8
330
1F
100
AcDbEntity
  8
0
  6
Continuous
 62
     7
370
    35
100
AcDbLine
 10
203.0053078304
 20
242.6983489646
 30
0.0
 11
203.2053078304
 21
242.4983489646
 31
0.0
  0
LINE
  5
1D9
330
1F
100
AcDbEntity
  8
0
  6
Continuous
 62
     7
370
    35
100
AcDbLine
 10
218.3053078304
 20
242.4983489646
 30
0.0
 11
218.5053078304
 21
242.6983489646
 31
0.0
  0
LINE
  5
1DA
330
1F
100
AcDbEntity
  8
0
  6
Continuous
 62
     7
370
    35
100
AcDbLine
 10
203.0053078304
 20
239.2983489646
 30
0.0
 11
203.0053078304
 21
238.4983489646
 31
0.0
  0
LINE
  5
1DB
330
1F
100
AcDbEntity
  8
0
  6
Continuous
 62
     7
370
    35
100
AcDbLine
 10
218.5053078304
 20
238.4983489646
 30
0.0
 11
218.5053078304
 21
239.2983489646
 31
0.0
  0
LINE
  5
1DC
330
1F
100
AcDbEntity
  8
0
  6
Continuous
 62
     7
370
    35
100
AcDbLine
 10
218.5053078304
 20
239.2983489646
 30
0.0
 11
218.3053078304
 21
239.4983489646
 31
0.0
  0
LINE
  5
1DD
330
1F
100
AcDbEntity
  8
0
  6
Continuous
 62
     7
370
    35
100
AcDbLine
 10
203.2053078304
 20
239.4983489646
 30
0.0
 11
203.0053078304
 21
239.2983489646
 31
0.0
  0
LINE
  5
1DE
330
1F
100
AcDbEntity
  8
0
  6
Continuous
 62
     7
370
    35
100
AcDbLine
 10
205.0553078304
 20
239.878349079
 30
0.0
 11
205.0553078304
 21
239.4983489646
 31
0.0
  0
LINE
  5
1DF
330
1F
100
AcDbEntity
  8
0
  6
Continuous
 62
     7
370
    35
100
AcDbLine
 10
216.4553078304
 20
239.4983489646
 30
0.0
 11
216.4553078304
 21
239.878349079
 31
0.0
  0
ARC
  5
1E0
330
1F
100
AcDbEntity
  8
0
  6
Continuous
 62
     7
370
    35
100
AcDbCircle
 10
166.8741182242
 20
238.4983489646
 30
0.0
 40
3.0
100
AcDbArc
 50
180.0
 51
270.0
  0
ARC
  5
1E1
330
1F
100
AcDbEntity
  8
0
  6
Continuous
 62
     7
370
    35
100
AcDbCircle
 10
176.3741182242
 20
238.4983489646
 30
0.0
 40
3.0
100
AcDbArc
 50
270.0
 51
0.0
  0
LINE
  5
1E2
330
1F
100
AcDbEntity
  8
0
  6
Continuous
 62
     7
370
    35
100
AcDbLine
 10
163.8741182242
 20
244.1983489646
 30
0.0
 11
163.8741182242
 21
242.6983489646
 31
0.0
  0
LINE
  5
1E3
330
1F
100
AcDbEntity
  8
0
  6
Continuous
 62
     7
370
    35
100
AcDbLine
 10
179.3741182242
 20
242.6983489646
 30
0.0
 11
179.3741182242
 21
244.1983489646
 31
0.0
  0
LINE
  5
1E4
330
1F
100
AcDbEntity
  8
0
  6
Continuous
 62
     7
370
    35
100
AcDbLine
 10
163.8741182242
 20
242.6983489646
 30
0.0
 11
164.0741182242
 21
242.4983489646
 31
0.0
  0
LINE
  5
1E5
330
1F
100
AcDbEntity
  8
0
  6
Continuous
 62
     7
370
    35
100
AcDbLine
 10
179.1741182242
 20
242.4983489646
 30
0.0
 11
179.3741182242
 21
242.6983489646
 31
0.0
  0
LINE
  5
1E6
330
1F
100
AcDbEntity
  8
0
  6
Continuous
 62
     7
370
    35
100
AcDbLine
 10
179.3741182242
 20
239.2983489646
 30
0.0
 11
179.1741182242
 21
239.4983489646
 31
0.0
  0
LINE
  5
1E7
330
1F
100
AcDbEntity
  8
0
  6
Continuous
 62
     7
370
    35
100
AcDbLine
 10
164.0741182242
 20
239.4983489646
 30
0.0
 11
163.8741182242
 21
239.2983489646
 31
0.0
  0
LINE
  5
1E8
330
1F
100
AcDbEntity
  8
0
  6
Continuous
 62
     7
370
    35
100
AcDbLine
 10
163.8741182242
 20
239.2983489646
 30
0.0
 11
163.8741182242
 21
238.4983489646
 31
0.0
  0
LINE
  5
1E9
330
1F
100
AcDbEntity
  8
0
  6
Continuous
 62
     7
370
    35
100
AcDbLine
 10
179.3741182242
 20
238.4983489646
 30
0.0
 11
179.3741182242
 21
239.2983489646
 31
0.0
  0
LINE
  5
1EA
330
1F
100
AcDbEntity
  8
0
  6
Continuous
 62
     7
370
    35
100
AcDbLine
 10
165.9241182242
 20
242.4983489646
 30
0.0
 11
165.9241182242
 21
242.1183488501
 31
0.0
  0
LINE
  5
1EB
330
1F
100
AcDbEntity
  8
0
  6
Continuous
 62
     7
370
    35
100
AcDbLine
 10
177.3241182242
 20
242.1183488501
 30
0.0
 11
177.3241182242
 21
242.4983489646
 31
0.0
  0
ARC
  5
1EC
330
1F
100
AcDbEntity
  8
0
  6
Continuous
 62
     7
370
    35
100
AcDbCircle
 10
184.3741182242
 20
238.4983489646
 30
0.0
 40
3.000000000000028
100
AcDbArc
 50
180.0
 51
270.0
  0
ARC
  5
1ED
330
1F
100
AcDbEntity
  8
0
  6
Continuous
 62
     7
370
    35
100
AcDbCircle
 10
193.8741182242
 20
238.4983489646
 30
0.0
 40
3.0
100
AcDbArc
 50
270.0
 51
0.0
  0
LINE
  5
1EE
330
1F
100
AcDbEntity
  8
0
  6
Continuous
 62
     7
370
    35
100
AcDbLine
 10
181.3741182242
 20
244.1983489646
 30
0.0
 11
181.3741182242
 21
242.6983489646
 31
0.0
  0
LINE
  5
1EF
330
1F
100
AcDbEntity
  8
0
  6
Continuous
 62
     7
370
    35
100
AcDbLine
 10
196.8741182242
 20
242.6983489646
 30
0.0
 11
196.8741182242
 21
244.1983489646
 31
0.0
  0
LINE
  5
1F0
330
1F
100
AcDbEntity
  8
0
  6
Continuous
 62
     7
370
    35
100
AcDbLine
 10
181.3741182242
 20
242.6983489646
 30
0.0
 11
181.5741182242
 21
242.4983489646
 31
0.0
  0
LINE
  5
1F1
330
1F
100
AcDbEntity
  8
0
  6
Continuous
 62
     7
370
    35
100
AcDbLine
 10
196.6741182242
 20
242.4983489646
 30
0.0
 11
196.8741182242
 21
242.6983489646
 31
0.0
  0
LINE
  5
1F2
330
1F
100
AcDbEntity
  8
0
  6
Continuous
 62
     7
370
    35
100
AcDbLine
 10
196.8741182242
 20
239.2983489646
 30
0.0
 11
196.6741182242
 21
239.4983489646
 31
0.0
  0
LINE
  5
1F3
330
1F
100
AcDbEntity
  8
0
  6
Continuous
 62
     7
370
    35
100
AcDbLine
 10
181.5741182242
 20
239.4983489646
 30
0.0
 11
181.3741182242
 21
239.2983489646
 31
0.0
  0
LINE
  5
1F4
330
1F
100
AcDbEntity
  8
0
  6
Continuous
 62
     7
370
    35
100
AcDbLine
 10
181.3741182242
 20
239.2983489646
 30
0.0
 11
181.3741182242
 21
238.4983489646
 31
0.0
  0
LINE
  5
1F5
330
1F
100
AcDbEntity
  8
0
  6
Continuous
 62
     7
370
    35
100
AcDbLine
 10
196.8741182242
 20
238.4983489646
 30
0.0
 11
196.8741182242
 21
239.2983489646
 31
0.0
  0
LINE
  5
1F6
330
1F
100
AcDbEntity
  8
0
  6
Continuous
 62
     7
370
    35
100
AcDbLine
 10
183.4241182242
 20
242.4983489646
 30
0.0
 11
183.4241182242
 21
242.1183488501
 31
0.0
  0
LINE
  5
1F7
330
1F
100
AcDbEntity
  8
0
  6
Continuous
 62
     7
370
    35
100
AcDbLine
 10
194.8241182242
 20
242.1183488501
 30
0.0
 11
194.8241182242
 21
242.4983489646
 31
0.0
  0
ARC
  5
1F8
330
1F
100
AcDbEntity
  8
0
  6
Continuous
 62
     7
370
    35
100
AcDbCircle
 10
223.5053078304
 20
238.4983489646
 30
0.0
 40
3.0
100
AcDbArc
 50
180.0
 51
270.0
  0
ARC
  5
1F9
330
1F
100
AcDbEntity
  8
0
  6
Continuous
 62
     7
370
    35
100
AcDbCircle
 10
233.0053078304
 20
238.4983489646
 30
0.0
 40
3.0
100
AcDbArc
 50
270.0
 51
0.0
  0
LINE
  5
1FA
330
1F
100
AcDbEntity
  8
0
  6
Continuous
 62
     7
370
    35
100
AcDbLine
 10
220.5053078304
 20
244.1983489646
 30
0.0
 11
220.5053078304
 21
242.6983489646
 31
0.0
  0
LINE
  5
1FB
330
1F
100
AcDbEntity
  8
0
  6
Continuous
 62
     7
370
    35
100
AcDbLine
 10
236.0053078304
 20
242.6983489646
 30
0.0
 11
236.0053078304
 21
244.1983489646
 31
0.0
  0
LINE
  5
1FC
330
1F
100
AcDbEntity
  8
0
  6
Continuous
 62
     7
370
    35
100
AcDbLine
 10
220.5053078304
 20
242.6983489646
 30
0.0
 11
220.7053078304
 21
242.4983489646
 31
0.0
  0
LINE
  5
1FD
330
1F
100
AcDbEntity
  8
0
  6
Continuous
 62
     7
370
    35
100
AcDbLine
 10
235.8053078304
 20
242.4983489646
 30
0.0
 11
236.0053078304
 21
242.6983489646
 31
0.0
  0
LINE
  5
1FE
330
1F
100
AcDbEntity
  8
0
  6
Continuous
 62
     7
370
    35
100
AcDbLine
 10
236.0053078304
 20
239.2983489646
 30
0.0
 11
235.8053078304
 21
239.4983489646
 31
0.0
  0
LINE
  5
1FF
330
1F
100
AcDbEntity
  8
0
  6
Continuous
 62
     7
370
    35
100
AcDbLine
 10
220.7053078304
 20
239.4983489646
 30
0.0
 11
220.5053078304
 21
239.2983489646
 31
0.0
  0
LINE
  5
200
330
1F
100
AcDbEntity
  8
0
  6
Continuous
 62
     7
370
    35
100
AcDbLine
 10
220.5053078304
 20
239.2983489646
 30
0.0
 11
220.5053078304
 21
238.4983489646
 31
0.0
  0
LINE
  5
201
330
1F
100
AcDbEntity
  8
0
  6
Continuous
 62
     7
370
    35
100
AcDbLine
 10
236.0053078304
 20
238.4983489646
 30
0.0
 11
236.0053078304
 21
239.2983489646
 31
0.0
  0
LINE
  5
202
330
1F
100
AcDbEntity
  8
0
  6
Continuous
 62
     7
370
    35
100
AcDbLine
 10
222.5553078304
 20
239.878349079
 30
0.0
 11
222.5553078304
 21
239.4983489646
 31
0.0
  0
LINE
  5
203
330
1F
100
AcDbEntity
  8
0
  6
Continuous
 62
     7
370
    35
100
AcDbLine
 10
233.9553078304
 20
239.4983489646
 30
0.0
 11
233.9553078304
 21
239.878349079
 31
0.0
  0
ARC
  5
204
330
1F
100
AcDbEntity
  8
0
  6
Continuous
 62
     7
370
    35
100
AcDbCircle
 10
160.1897130273
 20
238.4983489646
 30
0.0
 40
3.000000000000028
100
AcDbArc
 50
180.0
 51
270.0
  0
LINE
  5
205
330
1F
100
AcDbEntity
  8
0
  6
Continuous
 62
     7
370
    35
100
AcDbLine
 10
157.1897130273
 20
244.1983489646
 30
0.0
 11
157.1897130273
 21
242.6983489646
 31
0.0
  0
LINE
  5
206
330
1F
100
AcDbEntity
  8
0
  6
Continuous
 62
     7
370
    35
100
AcDbLine
 10
157.1897130273
 20
242.6983489646
 30
0.0
 11
157.3897130273
 21
242.4983489646
 31
0.0
  0
LINE
  5
207
330
1F
100
AcDbEntity
  8
0
  6
Continuous
 62
     7
370
    35
100
AcDbLine
 10
157.3897130273
 20
239.4983489646
 30
0.0
 11
157.1897130273
 21
239.2983489646
 31
0.0
  0
LINE
  5
208
330
1F
100
AcDbEntity
  8
0
  6
Continuous
 62
     7
370
    35
100
AcDbLine
 10
157.1897130273
 20
239.2983489646
 30
0.0
 11
157.1897130273
 21
238.4983489646
 31
0.0
  0
LINE
  5
209
330
1F
100
AcDbEntity
  8
0
  6
Continuous
 62
     7
370
    35
100
AcDbLine
 10
159.2397130273
 20
239.878349079
 30
0.0
 11
159.2397130273
 21
239.4983489646
 31
0.0
  0
LINE
  5
20A
330
1F
100
AcDbEntity
  8
0
  6
Continuous
 62
     7
370
    35
100
AcDbLine
 10
148.9397130273
 20
247.7983489646
 30
0.0
 11
148.9397130273
 21
246.6983489646
 31
0.0
  0
LINE
  5
20B
330
1F
100
AcDbEntity
  8
0
  6
Continuous
 62
     7
370
    35
100
AcDbLine
 10
250.9397130273
 20
246.6983489646
 30
0.0
 11
250.9397130273
 21
247.7983489646
 31
0.0
  0
LINE
  5
20C
330
1F
100
AcDbEntity
  8
0
  6
Continuous
 62
     7
370
    35
100
AcDbLine
 10
148.9397130273
 20
246.6983489646
 30
0.0
 11
151.4397130273
 21
244.1983489646
 31
0.0
  0
LINE
  5
20D
330
1F
100
AcDbEntity
  8
0
  6
Continuous
 62
     7
370
    35
100
AcDbLine
 10
248.4397130273
 20
244.1983489646
 30
0.0
 11
250.9397130273
 21
246.6983489646
 31
0.0
  0
LINE
  5
20E
330
1F
100
AcDbEntity
  8
0
  6
Continuous
 62
     7
370
    35
100
AcDbLine
 10
170.6384516291
 20
252.4483489646
 30
0.0
 11
170.6384516291
 21
247.7983489646
 31
0.0
  0
LINE
  5
20F
330
1F
100
AcDbEntity
  8
0
  6
Continuous
 62
     7
370
    35
100
AcDbLine
 10
125.5397130273
 20
252.4483489646
 30
0.0
 11
125.5397130273
 21
247.7983489646
 31
0.0
  0
LINE
  5
210
330
1F
100
AcDbEntity
  8
0
  6
Continuous
 62
     7
370
    35
100
AcDbLine
 10
274.3397130273
 20
247.7983489646
 30
0.0
 11
274.3397130273
 21
252.4483489646
 31
0.0
  0
LWPOLYLINE
  5
211
330
1F
100
AcDbEntity
  8
0
  6
Continuous
 62
     7
370
    35
100
AcDbPolyline
 90
       11
 70
   128
 43
0.0
 10
278.6124275827
 20
259.4787052614
 10
278.9931799034
 20
260.2976239997
 10
279.2815598746
 20
261.3517039417
 10
279.4579148775
 20
262.5691112813
 10
279.5102266103
 20
263.8668817203
 10
279.4349301148
 20
265.1565743479
 10
279.2371567227
 20
266.3502987428
 10
278.9303843639
 20
267.3667045602
 10
278.5355190676
 20
268.1365254234
 10
278.0794702513
 20
268.6072993128
 10
278.0722811236
 20
268.6119167927
  0
LWPOLYLINE
  5
212
330
1F
100
AcDbEntity
  8
0
  6
Continuous
 62
     7
370
    35
100
AcDbPolyline
 90
        3
 70
   128
 43
0.0
 10
278.0722811236
 20
258.8847811364
 10
278.1652505536
 20
258.9507556857
 10
278.6124275827
 20
259.4787052614
  0
LWPOLYLINE
  5
213
330
1F
100
AcDbEntity
  8
0
  6
Continuous
 62
     7
370
    35
100
AcDbPolyline
 90
       10
 70
   128
 43
0.0
 10
278.5496410738
 20
259.3575614366
 10
278.7588760519
 20
259.6494910095
 10
279.1384389827
 20
260.4754055242
 10
279.4204534519
 20
261.5440592811
 10
279.5840037363
 20
262.7761951199
 10
279.6169600596
 20
264.0804311621
 10
279.5168782021
 20
265.3600381868
 10
279.2911807773
 20
266.5201135949
 10
278.9566067306
 20
267.4746199004
 10
278.5496410738
 20
268.1391364925
  0
LINE
  5
214
330
1F
100
AcDbEntity
  8
0
  6
Continuous
 62
     7
370
    35
100
AcDbLine
 10
279.0127880302
 20
267.7483489646
 30
0.0
 11
278.8171004224
 21
267.7483489646
 31
0.0
  0
LINE
  5
215
330
1F
100
AcDbEntity
  8
0
  6
Continuous
 62
     7
370
    35
100
AcDbLine
 10
279.8779049004
 20
263.7483489646
 30
0.0
 11
279.4933623869
 21
265.5263400163
 31
0.0
  0
LINE
  5
216
330
1F
100
AcDbEntity
  8
0
  6
Continuous
 62
     7
370
    35
100
AcDbLine
 10
279.2350733691
 20
266.7205787449
 30
0.0
 11
279.0127880302
 21
267.7483489646
 31
0.0
  0
LINE
  5
217
330
1F
100
AcDbEntity
  8
0
  6
Continuous
 62
     7
370
    35
100
AcDbLine
 10
279.0127880302
 20
259.7483489646
 30
0.0
 11
279.2350733691
 21
260.7761191842
 31
0.0
  0
LINE
  5
218
330
1F
100
AcDbEntity
  8
0
  6
Continuous
 62
     7
370
    35
100
AcDbLine
 10
279.4933623869
 20
261.9703579128
 30
0.0
 11
279.8779049004
 21
263.7483489646
 31
0.0
  0
LINE
  5
219
330
1F
100
AcDbEntity
  8
0
  6
Continuous
 62
     7
370
    35
100
AcDbLine
 10
278.8171004224
 20
259.7483489646
 30
0.0
 11
279.0127880302
 21
259.7483489646
 31
0.0
  0
LINE
  5
21A
330
1F
100
AcDbEntity
  8
0
  6
Continuous
 62
     7
370
    35
100
AcDbLine
 10
279.0127880302
 20
267.7483489646
 30
0.0
 11
282.2579315212
 21
267.7483489646
 31
0.0
  0
LINE
  5
21B
330
1F
100
AcDbEntity
  8
0
  6
Continuous
 62
     7
370
    35
100
AcDbLine
 10
283.1230483914
 20
263.7483489646
 30
0.0
 11
282.2579315212
 21
267.7483489646
 31
0.0
  0
LINE
  5
21C
330
1F
100
AcDbEntity
  8
0
  6
Continuous
 62
     7
370
    35
100
AcDbLine
 10
279.8779049004
 20
263.7483489646
 30
0.0
 11
283.1230483914
 21
263.7483489646
 31
0.0
  0
LINE
  5
21D
330
1F
100
AcDbEntity
  8
0
  6
Continuous
 62
     7
370
    35
100
AcDbLine
 10
282.2579315212
 20
259.7483489646
 30
0.0
 11
283.1230483914
 21
263.7483489646
 31
0.0
  0
LINE
  5
21E
330
1F
100
AcDbEntity
  8
0
  6
Continuous
 62
     7
370
    35
100
AcDbLine
 10
279.0127880302
 20
259.7483489646
 30
0.0
 11
282.2579315212
 21
259.7483489646
 31
0.0
  0
LWPOLYLINE
  5
21F
330
1F
100
AcDbEntity
  8
0
  6
Continuous
 62
     7
370
    35
100
AcDbPolyline
 90
       10
 70
   128
 43
0.0
 10
274.4958139062
 20
259.1670213267
 10
274.8635133478
 20
260.2457896568
 10
275.1238173663
 20
261.5281140026
 10
275.2615980384
 20
262.9394703342
 10
275.2688480522
 20
264.3978357516
 10
275.1451460632
 20
265.8184553577
 10
274.8976811815
 20
267.1187679048
 10
274.5408351664
 20
268.223203954
 10
274.0953466112
 20
269.0675776967
 10
273.8397130273
 20
269.3841688745
  0
LWPOLYLINE
  5
220
330
1F
100
AcDbEntity
  8
0
  6
Continuous
 62
     7
370
    35
100
AcDbPolyline
 90
        3
 70
   128
 43
0.0
 10
273.8397130273
 20
258.1125290546
 10
274.0420883965
 20
258.3545031065
 10
274.4958139062
 20
259.1670213267
  0
LWPOLYLINE
  5
221
330
1F
100
AcDbEntity
  8
0
  6
Continuous
 62
     7
370
    35
100
AcDbPolyline
 90
       13
 70
   128
 43
0.0
 10
273.8397130273
 20
269.6606316451
 10
274.330232329
 20
269.2145318855
 10
274.7920462274
 20
268.4351630889
 10
275.170570844
 20
267.3834136913
 10
275.443807704
 20
266.1204075446
 10
275.5958772743
 20
264.7195459754
 10
275.6179418241
 20
263.262241966
 10
275.5087190422
 20
261.8331887285
 10
275.2745565595
 20
260.5154376426
 10
274.9290630483
 20
259.3855716115
 10
274.4923173358
 20
258.5092543422
 10
273.9897014953
 20
257.937414209
 10
273.8397130273
 20
257.836066284
  0
LWPOLYLINE
  5
222
330
1F
100
AcDbEntity
  8
0
  6
Continuous
 62
     7
370
    35
100
AcDbPolyline
 90
       12
 70
   128
 43
0.0
 10
276.0033612327
 20
258.5092543422
 10
276.4401069452
 20
259.3855716115
 10
276.7856004563
 20
260.5154376426
 10
277.0197629391
 20
261.8331887285
 10
277.128985721
 20
263.262241966
 10
277.1069211712
 20
264.7195459754
 10
276.9548516009
 20
266.1204075446
 10
276.6816147409
 20
267.3834136913
 10
276.3030901243
 20
268.4351630889
 10
275.8412762259
 20
269.2145318855
 10
275.323011991
 20
269.6762259996
 10
274.8699433411
 20
269.7983489646
  0
ARC
  5
223
330
1F
100
AcDbEntity
  8
0
  6
Continuous
 62
     7
370
    35
100
AcDbCircle
 10
274.7608015004
 20
259.0484511706
 30
0.0
 40
1.354506518323317
100
AcDbArc
 50
274.6217226696
 51
336.5420316287
  0
LWPOLYLINE
  5
224
330
1F
100
AcDbEntity
  8
0
  6
Continuous
 62
     7
370
    35
100
AcDbPolyline
 90
       15
 70
   128
 43
0.0
 10
275.0416052472
 20
269.7809695201
 10
275.4407529825
 20
269.7677947916
 10
275.9737813156
 20
269.4475523813
 10
276.4626113299
 20
268.7960929842
 10
276.8788340019
 20
267.8512770525
 10
277.1982599827
 20
266.6680138538
 10
277.4023253954
 20
265.3150703443
 10
277.4791707
 20
263.8710746831
 10
277.4243299267
 20
262.4199466491
 10
277.2409902219
 20
261.0460205292
 10
276.9398066228
 20
259.8291439154
 10
276.5382828255
 20
258.8400372533
 10
276.0597539335
 20
258.1361838269
 10
275.5320303067
 20
257.7584890389
 10
275.0416052472
 20
257.715728409
  0
LWPOLYLINE
  5
225
330
1F
100
AcDbEntity
  8
0
  6
Continuous
 62
     7
370
    35
100
AcDbPolyline
 90
       13
 70
   128
 43
0.0
 10
277.5707978304
 20
258.1361838269
 10
278.0493267224
 20
258.8400372533
 10
278.4508505197
 20
259.8291439154
 10
278.7520341188
 20
261.0460205292
 10
278.9353738236
 20
262.4199466491
 10
278.9902145969
 20
263.8710746831
 10
278.9133692923
 20
265.3150703443
 10
278.7093038796
 20
266.6680138538
 10
278.3898778988
 20
267.8512770525
 10
277.9736552268
 20
268.7960929842
 10
277.4848252125
 20
269.4475523813
 10
276.9517968794
 20
269.7677947916
 10
276.7243110502
 20
269.7983489646
  0
LWPOLYLINE
  5
226
330
1F
100
AcDbEntity
  8
0
  6
Continuous
 62
     7
370
    35
100
AcDbPolyline
 90
        3
 70
   128
 43
0.0
 10
276.7243110502
 20
257.6983489646
 10
277.0430742036
 20
257.7584890389
 10
277.5707978304
 20
258.1361838269
  0
LINE
  5
227
330
1F
100
AcDbEntity
  8
0
  6
Continuous
 62
     7
370
    35
100
AcDbLine
 10
239.6669972285
 20
235.4983489646
 30
0.0
 11
230.2015129206
 21
235.4983489646
 31
0.0
  0
LINE
  5
228
330
1F
100
AcDbEntity
  8
0
  6
Continuous
 62
     7
370
    35
100
AcDbLine
 10
236.0053078304
 20
242.6983489646
 30
0.0
 11
242.6897130273
 21
242.6983489646
 31
0.0
  0
LINE
  5
229
330
1F
100
AcDbEntity
  8
0
  6
Continuous
 62
     7
370
    35
100
AcDbLine
 10
235.8053078304
 20
242.4983489646
 30
0.0
 11
242.4897130273
 21
242.4983489646
 31
0.0
  0
LINE
  5
22A
330
1F
100
AcDbEntity
  8
0
  6
Continuous
 62
     7
370
    35
100
AcDbLine
 10
239.6269966432
 20
239.2983489646
 30
0.0
 11
242.6897130273
 21
239.2983489646
 31
0.0
  0
LINE
  5
22B
330
1F
100
AcDbEntity
  8
0
  6
Continuous
 62
     7
370
    35
100
AcDbLine
 10
236.0053078304
 20
239.2983489646
 30
0.0
 11
239.6269966432
 21
239.2983489646
 31
0.0
  0
LINE
  5
22C
330
1F
100
AcDbEntity
  8
0
  6
Continuous
 62
     7
370
    35
100
AcDbLine
 10
239.5060344853
 20
239.4983489646
 30
0.0
 11
235.8053078304
 21
239.4983489646
 31
0.0
  0
LINE
  5
22D
330
1F
100
AcDbEntity
  8
0
  6
Continuous
 62
     7
370
    35
100
AcDbLine
 10
242.4897130273
 20
239.4983489646
 30
0.0
 11
239.5060344853
 21
239.4983489646
 31
0.0
  0
LINE
  5
22E
330
1F
100
AcDbEntity
  8
0
  6
Continuous
 62
     7
370
    35
100
AcDbLine
 10
206.0251647095
 20
235.4983489646
 30
0.0
 11
215.4438106501
 21
235.4983489646
 31
0.0
  0
LINE
  5
22F
330
1F
100
AcDbEntity
  8
0
  6
Continuous
 62
     7
370
    35
100
AcDbLine
 10
203.0053078304
 20
242.6983489646
 30
0.0
 11
218.5053078304
 21
242.6983489646
 31
0.0
  0
LINE
  5
230
330
1F
100
AcDbEntity
  8
0
  6
Continuous
 62
     7
370
    35
100
AcDbLine
 10
203.2053078304
 20
242.4983489646
 30
0.0
 11
218.3053078304
 21
242.4983489646
 31
0.0
  0
LINE
  5
231
330
1F
100
AcDbEntity
  8
0
  6
Continuous
 62
     7
370
    35
100
AcDbLine
 10
203.0053078304
 20
239.2983489646
 30
0.0
 11
218.5053078304
 21
239.2983489646
 31
0.0
  0
LINE
  5
232
330
1F
100
AcDbEntity
  8
0
  6
Continuous
 62
     7
370
    35
100
AcDbLine
 10
218.3053078304
 20
239.4983489646
 30
0.0
 11
203.2053078304
 21
239.4983489646
 31
0.0
  0
LINE
  5
233
330
1F
100
AcDbEntity
  8
0
  6
Continuous
 62
     7
370
    35
100
AcDbLine
 10
173.8556128615
 20
235.4983489646
 30
0.0
 11
176.0476114426
 21
235.4983489646
 31
0.0
  0
LINE
  5
234
330
1F
100
AcDbEntity
  8
0
  6
Continuous
 62
     7
370
    35
100
AcDbLine
 10
166.8980494043
 20
235.4983489646
 30
0.0
 11
173.8556128615
 21
235.4983489646
 31
0.0
  0
LINE
  5
235
330
1F
100
AcDbEntity
  8
0
  6
Continuous
 62
     7
370
    35
100
AcDbLine
 10
175.2649778956
 20
242.6983489646
 30
0.0
 11
179.3741182242
 21
242.6983489646
 31
0.0
  0
LINE
  5
236
330
1F
100
AcDbEntity
  8
0
  6
Continuous
 62
     7
370
    35
100
AcDbLine
 10
163.8741182242
 20
242.6983489646
 30
0.0
 11
175.2649778956
 21
242.6983489646
 31
0.0
  0
LINE
  5
237
330
1F
100
AcDbEntity
  8
0
  6
Continuous
 62
     7
370
    35
100
AcDbLine
 10
175.1710202266
 20
242.4983489646
 30
0.0
 11
179.1741182242
 21
242.4983489646
 31
0.0
  0
LINE
  5
238
330
1F
100
AcDbEntity
  8
0
  6
Continuous
 62
     7
370
    35
100
AcDbLine
 10
164.0741182242
 20
242.4983489646
 30
0.0
 11
175.1710202266
 21
242.4983489646
 31
0.0
  0
LINE
  5
239
330
1F
100
AcDbEntity
  8
0
  6
Continuous
 62
     7
370
    35
100
AcDbLine
 10
163.8741182242
 20
239.2983489646
 30
0.0
 11
179.3741182242
 21
239.2983489646
 31
0.0
  0
LINE
  5
23A
330
1F
100
AcDbEntity
  8
0
  6
Continuous
 62
     7
370
    35
100
AcDbLine
 10
179.1741182242
 20
239.4983489646
 30
0.0
 11
164.0741182242
 21
239.4983489646
 31
0.0
  0
LINE
  5
23B
330
1F
100
AcDbEntity
  8
0
  6
Continuous
 62
     7
370
    35
100
AcDbLine
 10
193.8734899343
 20
235.4983489646
 30
0.0
 11
184.374746514
 21
235.4983489646
 31
0.0
  0
LINE
  5
23C
330
1F
100
AcDbEntity
  8
0
  6
Continuous
 62
     7
370
    35
100
AcDbLine
 10
181.3741182242
 20
242.6983489646
 30
0.0
 11
196.8741182242
 21
242.6983489646
 31
0.0
  0
LINE
  5
23D
330
1F
100
AcDbEntity
  8
0
  6
Continuous
 62
     7
370
    35
100
AcDbLine
 10
181.5741182242
 20
242.4983489646
 30
0.0
 11
196.6741182242
 21
242.4983489646
 31
0.0
  0
LINE
  5
23E
330
1F
100
AcDbEntity
  8
0
  6
Continuous
 62
     7
370
    35
100
AcDbLine
 10
192.0936727342
 20
239.2983489646
 30
0.0
 11
196.8741182242
 21
239.2983489646
 31
0.0
  0
LINE
  5
23F
330
1F
100
AcDbEntity
  8
0
  6
Continuous
 62
     7
370
    35
100
AcDbLine
 10
181.3741182242
 20
239.2983489646
 30
0.0
 11
192.0936727342
 21
239.2983489646
 31
0.0
  0
LINE
  5
240
330
1F
100
AcDbEntity
  8
0
  6
Continuous
 62
     7
370
    35
100
AcDbLine
 10
192.0170390694
 20
239.4983489646
 30
0.0
 11
181.5741182242
 21
239.4983489646
 31
0.0
  0
LINE
  5
241
330
1F
100
AcDbEntity
  8
0
  6
Continuous
 62
     7
370
    35
100
AcDbLine
 10
196.6741182242
 20
239.4983489646
 30
0.0
 11
192.0170390694
 21
239.4983489646
 31
0.0
  0
LINE
  5
242
330
1F
100
AcDbEntity
  8
0
  6
Continuous
 62
     7
370
    35
100
AcDbLine
 10
166.8776469158
 20
235.4983489646
 30
0.0
 11
166.8894316737
 21
235.4983489646
 31
0.0
  0
LINE
  5
243
330
1F
100
AcDbEntity
  8
0
  6
Continuous
 62
     7
370
    35
100
AcDbLine
 10
233.0052534588
 20
235.4983489646
 30
0.0
 11
223.5053622021
 21
235.4983489646
 31
0.0
  0
LINE
  5
244
330
1F
100
AcDbEntity
  8
0
  6
Continuous
 62
     7
370
    35
100
AcDbLine
 10
220.5053078304
 20
242.6983489646
 30
0.0
 11
236.0053078304
 21
242.6983489646
 31
0.0
  0
LINE
  5
245
330
1F
100
AcDbEntity
  8
0
  6
Continuous
 62
     7
370
    35
100
AcDbLine
 10
220.7053078304
 20
242.4983489646
 30
0.0
 11
235.8053078304
 21
242.4983489646
 31
0.0
  0
LINE
  5
246
330
1F
100
AcDbEntity
  8
0
  6
Continuous
 62
     7
370
    35
100
AcDbLine
 10
228.2923891264
 20
239.2983489646
 30
0.0
 11
236.0053078304
 21
239.2983489646
 31
0.0
  0
LINE
  5
247
330
1F
100
AcDbEntity
  8
0
  6
Continuous
 62
     7
370
    35
100
AcDbLine
 10
220.5053078304
 20
239.2983489646
 30
0.0
 11
228.2923891264
 21
239.2983489646
 31
0.0
  0
LINE
  5
248
330
1F
100
AcDbEntity
  8
0
  6
Continuous
 62
     7
370
    35
100
AcDbLine
 10
228.2914321898
 20
239.4983489646
 30
0.0
 11
220.7053078304
 21
239.4983489646
 31
0.0
  0
LINE
  5
249
330
1F
100
AcDbEntity
  8
0
  6
Continuous
 62
     7
370
    35
100
AcDbLine
 10
235.8053078304
 20
239.4983489646
 30
0.0
 11
228.2914321898
 21
239.4983489646
 31
0.0
  0
LINE
  5
24A
330
1F
100
AcDbEntity
  8
0
  6
Continuous
 62
     7
370
    35
100
AcDbLine
 10
167.6697987405
 20
235.4983489646
 30
0.0
 11
160.192342863
 21
235.4983489646
 31
0.0
  0
LINE
  5
24B
330
1F
100
AcDbEntity
  8
0
  6
Continuous
 62
     7
370
    35
100
AcDbLine
 10
157.1897130273
 20
242.6983489646
 30
0.0
 11
163.8741182242
 21
242.6983489646
 31
0.0
  0
LINE
  5
24C
330
1F
100
AcDbEntity
  8
0
  6
Continuous
 62
     7
370
    35
100
AcDbLine
 10
157.3897130273
 20
242.4983489646
 30
0.0
 11
164.0741182242
 21
242.4983489646
 31
0.0
  0
LINE
  5
24D
330
1F
100
AcDbEntity
  8
0
  6
Continuous
 62
     7
370
    35
100
AcDbLine
 10
157.1897130273
 20
239.2983489646
 30
0.0
 11
163.8741182242
 21
239.2983489646
 31
0.0
  0
LINE
  5
24E
330
1F
100
AcDbEntity
  8
0
  6
Continuous
 62
     7
370
    35
100
AcDbLine
 10
164.0741182242
 20
239.4983489646
 30
0.0
 11
157.3897130273
 21
239.4983489646
 31
0.0
  0
LINE
  5
24F
330
1F
100
AcDbEntity
  8
0
  6
Continuous
 62
     7
370
    35
100
AcDbLine
 10
250.9397130273
 20
246.6983489646
 30
0.0
 11
148.9397130273
 21
246.6983489646
 31
0.0
  0
LINE
  5
250
330
1F
100
AcDbEntity
  8
0
  6
Continuous
 62
     7
370
    35
100
AcDbLine
 10
248.4397130273
 20
244.1983489646
 30
0.0
 11
151.4397130273
 21
244.1983489646
 31
0.0
  0
LINE
  5
251
330
1F
100
AcDbEntity
  8
0
  6
Continuous
 62
     7
370
    35
100
AcDbLine
 10
195.5651596527
 20
252.4483489646
 30
0.0
 11
195.5651596527
 21
247.7983489646
 31
0.0
  0
LINE
  5
252
330
1F
100
AcDbEntity
  8
0
  6
Continuous
 62
     7
370
    35
100
AcDbLine
 10
170.6384516291
 20
247.7983489646
 30
0.0
 11
195.5651596527
 21
247.7983489646
 31
0.0
  0
LINE
  5
253
330
1F
100
AcDbEntity
  8
0
  6
Continuous
 62
     7
370
    35
100
AcDbLine
 10
195.5651596527
 20
252.4483489646
 30
0.0
 11
170.6384516291
 21
252.4483489646
 31
0.0
  0
LINE
  5
254
330
1F
100
AcDbEntity
  8
0
  6
Continuous
 62
     7
370
    35
100
AcDbLine
 10
197.9642521595
 20
247.7983489646
 30
0.0
 11
197.9642521595
 21
252.4483489646
 31
0.0
  0
LINE
  5
255
330
1F
100
AcDbEntity
  8
0
  6
Continuous
 62
     7
370
    35
100
AcDbLine
 10
195.5651596527
 20
247.7983489646
 30
0.0
 11
197.9642521595
 21
247.7983489646
 31
0.0
  0
LINE
  5
256
330
1F
100
AcDbEntity
  8
0
  6
Continuous
 62
     7
370
    35
100
AcDbLine
 10
197.9642521595
 20
252.4483489646
 30
0.0
 11
195.5651596527
 21
252.4483489646
 31
0.0
  0
LINE
  5
257
330
1F
100
AcDbEntity
  8
0
  6
Continuous
 62
     7
370
    35
100
AcDbLine
 10
206.9617909064
 20
252.4483489646
 30
0.0
 11
206.9617909064
 21
247.7983489646
 31
0.0
  0
LINE
  5
258
330
1F
100
AcDbEntity
  8
0
  6
Continuous
 62
     7
370
    35
100
AcDbLine
 10
197.9642521595
 20
247.7983489646
 30
0.0
 11
206.9617909064
 21
247.7983489646
 31
0.0
  0
LINE
  5
259
330
1F
100
AcDbEntity
  8
0
  6
Continuous
 62
     7
370
    35
100
AcDbLine
 10
197.9642521595
 20
252.4483489646
 30
0.0
 11
206.9617909064
 21
252.4483489646
 31
0.0
  0
LINE
  5
25A
330
1F
100
AcDbEntity
  8
0
  6
Continuous
 62
     7
370
    35
100
AcDbLine
 10
169.8791372562
 20
247.7983489646
 30
0.0
 11
169.8791372562
 21
252.4483489646
 31
0.0
  0
LINE
  5
25B
330
1F
100
AcDbEntity
  8
0
  6
Continuous
 62
     7
370
    35
100
AcDbLine
 10
169.8791372562
 20
247.7983489646
 30
0.0
 11
170.6384516291
 21
247.7983489646
 31
0.0
  0
LINE
  5
25C
330
1F
100
AcDbEntity
  8
0
  6
Continuous
 62
     7
370
    35
100
AcDbLine
 10
169.8791372562
 20
252.4483489646
 30
0.0
 11
170.6384516291
 21
252.4483489646
 31
0.0
  0
LINE
  5
25D
330
1F
100
AcDbEntity
  8
0
  6
Continuous
 62
     7
370
    35
100
AcDbLine
 10
206.9617909064
 20
247.7983489646
 30
0.0
 11
274.3397130273
 21
247.7983489646
 31
0.0
  0
LINE
  5
25E
330
1F
100
AcDbEntity
  8
0
  6
Continuous
 62
     7
370
    35
100
AcDbLine
 10
125.5397130273
 20
247.7983489646
 30
0.0
 11
169.8791372562
 21
247.7983489646
 31
0.0
  0
LINE
  5
25F
330
1F
100
AcDbEntity
  8
0
  6
Continuous
 62
     7
370
    35
100
AcDbLine
 10
169.8791372562
 20
252.4483489646
 30
0.0
 11
125.5397130273
 21
252.4483489646
 31
0.0
  0
LINE
  5
260
330
1F
100
AcDbEntity
  8
0
  6
Continuous
 62
     7
370
    35
100
AcDbLine
 10
274.3397130273
 20
252.4483489646
 30
0.0
 11
206.9617909064
 21
252.4483489646
 31
0.0
  0
LINE
  5
261
330
1F
100
AcDbEntity
  8
0
  6
Continuous
 62
     7
370
    35
100
AcDbLine
 10
189.2750228776
 20
253.4233489646
 30
0.0
 11
210.604403177
 21
253.4233489646
 31
0.0
  0
LINE
  5
262
330
1F
100
AcDbEntity
  8
0
  6
Continuous
 62
     7
370
    35
100
AcDbLine
 10
189.2750228776
 20
253.4233489646
 30
0.0
 11
189.2750228776
 21
272.7733489646
 31
0.0
  0
LINE
  5
263
330
1F
100
AcDbEntity
  8
0
  6
Continuous
 62
     7
370
    35
100
AcDbLine
 10
210.604403177
 20
272.7733489646
 30
0.0
 11
189.2750228776
 21
272.7733489646
 31
0.0
  0
LINE
  5
264
330
1F
100
AcDbEntity
  8
0
  6
Continuous
 62
     7
370
    35
100
AcDbLine
 10
210.604403177
 20
253.4233489646
 30
0.0
 11
210.604403177
 21
272.7733489646
 31
0.0
  0
LINE
  5
265
330
1F
100
AcDbEntity
  8
0
  6
Continuous
 62
     7
370
    35
100
AcDbLine
 10
189.2750228776
 20
272.7733489646
 30
0.0
 11
189.4963514887
 21
273.7483489646
 31
0.0
  0
LINE
  5
266
330
1F
100
AcDbEntity
  8
0
  6
Continuous
 62
     7
370
    35
100
AcDbLine
 10
189.4963514887
 20
273.7483489646
 30
0.0
 11
210.3830745659
 21
273.7483489646
 31
0.0
  0
LINE
  5
267
330
1F
100
AcDbEntity
  8
0
  6
Continuous
 62
     7
370
    35
100
AcDbLine
 10
210.604403177
 20
272.7733489646
 30
0.0
 11
210.3830745659
 21
273.7483489646
 31
0.0
  0
LINE
  5
268
330
1F
100
AcDbEntity
  8
0
  6
Continuous
 62
     7
370
    35
100
AcDbLine
 10
210.604403177
 20
253.4233489646
 30
0.0
 11
210.3830745659
 21
252.4483489646
 31
0.0
  0
LINE
  5
269
330
1F
100
AcDbEntity
  8
0
  6
Continuous
 62
     7
370
    35
100
AcDbLine
 10
189.2750228776
 20
253.4233489646
 30
0.0
 11
189.4963514887
 21
252.4483489646
 31
0.0
  0
LINE
  5
26A
330
1F
100
AcDbEntity
  8
0
  6
Continuous
 62
     7
370
    35
100
AcDbLine
 10
234.9477346462
 20
272.7733489646
 30
0.0
 11
210.604403177
 21
272.7733489646
 31
0.0
  0
LINE
  5
26B
330
1F
100
AcDbEntity
  8
0
  6
Continuous
 62
     7
370
    35
100
AcDbLine
 10
210.3830745659
 20
273.7483489646
 30
0.0
 11
234.5664801183
 21
273.7483489646
 31
0.0
  0
LINE
  5
26C
330
1F
100
AcDbEntity
  8
0
  6
Continuous
 62
     7
370
    35
100
AcDbLine
 10
234.9477346462
 20
272.7733489646
 30
0.0
 11
234.5664801183
 21
273.7483489646
 31
0.0
  0
LINE
  5
26D
330
1F
100
AcDbEntity
  8
0
  6
Continuous
 62
     7
370
    35
100
AcDbLine
 10
210.604403177
 20
253.4233489646
 30
0.0
 11
234.9477346462
 21
253.4233489646
 31
0.0
  0
LINE
  5
26E
330
1F
100
AcDbEntity
  8
0
  6
Continuous
 62
     7
370
    35
100
AcDbLine
 10
234.9477346462
 20
253.4233489646
 30
0.0
 11
234.9477346462
 21
272.7733489646
 31
0.0
  0
LWPOLYLINE
  5
26F
330
1F
100
AcDbEntity
  8
0
  6
Continuous
 62
     7
370
    35
100
AcDbPolyline
 90
       23
 70
   128
 43
0.0
 10
218.5914202399
 20
263.4483489646
 10
218.7609279141
 20
262.2087257144
 10
219.2557184329
 20
261.0695293677
 10
220.0357068111
 20
260.1230508374
 10
221.0377030292
 20
259.445968185
 10
222.1805313127
 20
259.0931346203
 10
223.3716065105
 20
259.0931346203
 10
224.514434794
 20
259.445968185
 10
225.516431012
 20
260.1230508374
 10
226.2964193903
 20
261.0695293677
 10
226.7912099091
 20
262.2087257144
 10
226.9607175833
 20
263.4483489646
 10
226.7912099091
 20
264.6879722147
 10
226.2964193903
 20
265.8271685614
 10
225.516431012
 20
266.7736470917
 10
224.514434794
 20
267.4507297441
 10
223.3716065105
 20
267.8035633088
 10
222.1805313127
 20
267.8035633088
 10
221.0377030292
 20
267.4507297441
 10
220.0357068111
 20
266.7736470917
 10
219.2557184329
 20
265.8271685614
 10
218.7609279141
 20
264.6879722147
 10
218.5914202399
 20
263.4483489646
  0
LINE
  5
270
330
1F
100
AcDbEntity
  8
0
  6
Continuous
 62
     7
370
    35
100
AcDbLine
 10
234.5664801183
 20
252.4483489646
 30
0.0
 11
234.9477346462
 21
253.4233489646
 31
0.0
  0
LINE
  5
271
330
1F
100
AcDbEntity
  8
0
  6
Continuous
 62
     7
370
    35
100
AcDbLine
 10
189.2750228776
 20
272.7733489646
 30
0.0
 11
164.9316914084
 21
272.7733489646
 31
0.0
  0
LINE
  5
272
330
1F
100
AcDbEntity
  8
0
  6
Continuous
 62
     7
370
    35
100
AcDbLine
 10
164.9316914084
 20
272.7733489646
 30
0.0
 11
165.3129459363
 21
273.7483489646
 31
0.0
  0
LINE
  5
273
330
1F
100
AcDbEntity
  8
0
  6
Continuous
 62
     7
370
    35
100
AcDbLine
 10
165.3129459363
 20
273.7483489646
 30
0.0
 11
189.4963514887
 21
273.7483489646
 31
0.0
  0
LINE
  5
274
330
1F
100
AcDbEntity
  8
0
  6
Continuous
 62
     7
370
    35
100
AcDbLine
 10
164.9316914084
 20
253.4233489646
 30
0.0
 11
189.2750228776
 21
253.4233489646
 31
0.0
  0
LINE
  5
275
330
1F
100
AcDbEntity
  8
0
  6
Continuous
 62
     7
370
    35
100
AcDbLine
 10
164.9316914084
 20
253.4233489646
 30
0.0
 11
164.9316914084
 21
272.7733489646
 31
0.0
  0
LWPOLYLINE
  5
276
330
1F
100
AcDbEntity
  8
0
  6
Continuous
 62
     7
370
    35
100
AcDbPolyline
 90
       23
 70
   128
 43
0.0
 10
172.9187084713
 20
263.4483489646
 10
173.0882161454
 20
262.2087257144
 10
173.5830066643
 20
261.0695293677
 10
174.3629950425
 20
260.1230508374
 10
175.3649912606
 20
259.445968185
 10
176.507819544
 20
259.0931346203
 10
177.6988947419
 20
259.0931346203
 10
178.8417230253
 20
259.445968185
 10
179.8437192434
 20
260.1230508374
 10
180.6237076217
 20
261.0695293677
 10
181.1184981405
 20
262.2087257144
 10
181.2880058147
 20
263.4483489646
 10
181.1184981405
 20
264.6879722147
 10
180.6237076217
 20
265.8271685614
 10
179.8437192434
 20
266.7736470917
 10
178.8417230253
 20
267.4507297441
 10
177.6988947419
 20
267.8035633088
 10
176.507819544
 20
267.8035633088
 10
175.3649912606
 20
267.4507297441
 10
174.3629950425
 20
266.7736470917
 10
173.5830066643
 20
265.8271685614
 10
173.0882161454
 20
264.6879722147
 10
172.9187084713
 20
263.4483489646
  0
LINE
  5
277
330
1F
100
AcDbEntity
  8
0
  6
Continuous
 62
     7
370
    35
100
AcDbLine
 10
164.9316914084
 20
253.4233489646
 30
0.0
 11
165.3129459363
 21
252.4483489646
 31
0.0
  0
ARC
  5
278
330
1F
100
AcDbEntity
  8
0
  6
Continuous
 62
     7
370
    35
100
AcDbCircle
 10
216.8694406662
 20
263.4483489646
 30
0.0
 40
4.536209683962635
100
AcDbArc
 50
313.5514697141
 51
46.4485302859
  0
ARC
  5
279
330
1F
100
AcDbEntity
  8
0
  6
Continuous
 62
     7
370
    35
100
AcDbCircle
 10
182.9811133074
 20
263.4260437058
 30
0.0
 40
4.500154216345867
100
AcDbArc
 50
179.7160091944
 51
226.519278625
  0
ARC
  5
27A
330
1F
100
AcDbEntity
  8
0
  6
Continuous
 62
     7
370
    35
100
AcDbCircle
 10
182.9811133074
 20
263.4706542233
 30
0.0
 40
4.500154216345769
100
AcDbArc
 50
133.480721375
 51
180.2839908056
  0
LINE
  5
27B
330
1F
100
AcDbEntity
  8
0
  6
Continuous
 62
     7
370
    35
100
AcDbLine
 10
234.9477346462
 20
253.4233489646
 30
0.0
 11
252.2035657879
 21
253.4233489646
 31
0.0
  0
LINE
  5
27C
330
1F
100
AcDbEntity
  8
0
  6
Continuous
 62
     7
370
    35
100
AcDbLine
 10
252.2035657879
 20
272.7733489646
 30
0.0
 11
234.9477346462
 21
272.7733489646
 31
0.0
  0
LINE
  5
27D
330
1F
100
AcDbEntity
  8
0
  6
Continuous
 62
     7
370
    35
100
AcDbLine
 10
252.2035657879
 20
253.4233489646
 30
0.0
 11
252.2035657879
 21
272.7733489646
 31
0.0
  0
LINE
  5
27E
330
1F
100
AcDbEntity
  8
0
  6
Continuous
 62
     7
370
    35
100
AcDbLine
 10
252.2035657879
 20
272.7733489646
 30
0.0
 11
251.4641940445
 21
273.7483489646
 31
0.0
  0
LINE
  5
27F
330
1F
100
AcDbEntity
  8
0
  6
Continuous
 62
     7
370
    35
100
AcDbLine
 10
234.5664801183
 20
273.7483489646
 30
0.0
 11
251.4641940445
 21
273.7483489646
 31
0.0
  0
LINE
  5
280
330
1F
100
AcDbEntity
  8
0
  6
Continuous
 62
     7
370
    35
100
AcDbLine
 10
251.4641940445
 20
252.4483489646
 30
0.0
 11
252.2035657879
 21
253.4233489646
 31
0.0
  0
LINE
  5
281
330
1F
100
AcDbEntity
  8
0
  6
Continuous
 62
     7
370
    35
100
AcDbLine
 10
164.9316914084
 20
272.7733489646
 30
0.0
 11
147.6758602666
 21
272.7733489646
 31
0.0
  0
LINE
  5
282
330
1F
100
AcDbEntity
  8
0
  6
Continuous
 62
     7
370
    35
100
AcDbLine
 10
147.6758602666
 20
272.7733489646
 30
0.0
 11
148.41523201
 21
273.7483489646
 31
0.0
  0
LINE
  5
283
330
1F
100
AcDbEntity
  8
0
  6
Continuous
 62
     7
370
    35
100
AcDbLine
 10
148.41523201
 20
273.7483489646
 30
0.0
 11
165.3129459363
 21
273.7483489646
 31
0.0
  0
LINE
  5
284
330
1F
100
AcDbEntity
  8
0
  6
Continuous
 62
     7
370
    35
100
AcDbLine
 10
147.6758602666
 20
253.4233489646
 30
0.0
 11
164.9316914084
 21
253.4233489646
 31
0.0
  0
LINE
  5
285
330
1F
100
AcDbEntity
  8
0
  6
Continuous
 62
     7
370
    35
100
AcDbLine
 10
147.6758602666
 20
253.4233489646
 30
0.0
 11
147.6758602666
 21
272.7733489646
 31
0.0
  0
LINE
  5
286
330
1F
100
AcDbEntity
  8
0
  6
Continuous
 62
     7
370
    35
100
AcDbLine
 10
147.6758602666
 20
253.4233489646
 30
0.0
 11
148.41523201
 21
252.4483489646
 31
0.0
  0
ARC
  5
287
330
1F
100
AcDbEntity
  8
0
  6
Continuous
 62
     7
370
    35
100
AcDbCircle
 10
216.9843019717
 20
263.4483489646
 30
0.0
 40
3.08959037805531
100
AcDbArc
 50
314.5715773491
 51
45.4284226509
  0
ARC
  5
288
330
1F
100
AcDbEntity
  8
0
  6
Continuous
 62
     7
370
    35
100
AcDbCircle
 10
182.8728022279
 20
263.4293167667
 30
0.0
 40
3.060367915549737
100
AcDbArc
 50
179.6436795598
 51
225.4760646133
  0
ARC
  5
289
330
1F
100
AcDbEntity
  8
0
  6
Continuous
 62
     7
370
    35
100
AcDbCircle
 10
182.8728022279
 20
263.4673811624
 30
0.0
 40
3.060367915549765
100
AcDbArc
 50
134.5239353867
 51
180.3563204402
  0
LINE
  5
28A
330
1F
100
AcDbEntity
  8
0
  6
Continuous
 62
     7
370
    35
100
AcDbLine
 10
267.2485720353
 20
272.7733489646
 30
0.0
 11
252.2035657879
 21
272.7733489646
 31
0.0
  0
LINE
  5
28B
330
1F
100
AcDbEntity
  8
0
  6
Continuous
 62
     7
370
    35
100
AcDbLine
 10
267.2485720353
 20
272.7733489646
 30
0.0
 11
266.4103606396
 21
273.7483489646
 31
0.0
  0
LINE
  5
28C
330
1F
100
AcDbEntity
  8
0
  6
Continuous
 62
     7
370
    35
100
AcDbLine
 10
251.4641940445
 20
273.7483489646
 30
0.0
 11
266.4103606396
 21
273.7483489646
 31
0.0
  0
LINE
  5
28D
330
1F
100
AcDbEntity
  8
0
  6
Continuous
 62
     7
370
    35
100
AcDbLine
 10
252.2035657879
 20
253.4233489646
 30
0.0
 11
267.2485720353
 21
253.4233489646
 31
0.0
  0
LINE
  5
28E
330
1F
100
AcDbEntity
  8
0
  6
Continuous
 62
     7
370
    35
100
AcDbLine
 10
267.2485720353
 20
253.4233489646
 30
0.0
 11
267.2485720353
 21
272.7733489646
 31
0.0
  0
LWPOLYLINE
  5
28F
330
1F
100
AcDbEntity
  8
0
  6
Continuous
 62
     7
370
    35
100
AcDbPolyline
 90
       23
 70
   128
 43
0.0
 10
257.1398138015
 20
263.4483489646
 10
257.2445753055
 20
262.2087257144
 10
257.5503726634
 20
261.0695293677
 10
258.032431992
 20
260.1230508374
 10
258.6516997114
 20
259.445968185
 10
259.3580064339
 20
259.0931346203
 10
260.0941313893
 20
259.0931346203
 10
260.8004381118
 20
259.445968185
 10
261.4197058312
 20
260.1230508374
 10
261.9017651598
 20
261.0695293677
 10
262.2075625177
 20
262.2087257144
 10
262.3123240217
 20
263.4483489646
 10
262.2075625177
 20
264.6879722147
 10
261.9017651598
 20
265.8271685614
 10
261.4197058312
 20
266.7736470917
 10
260.8004381118
 20
267.4507297441
 10
260.0941313893
 20
267.8035633088
 10
259.3580064339
 20
267.8035633088
 10
258.6516997114
 20
267.4507297441
 10
258.032431992
 20
266.7736470917
 10
257.5503726634
 20
265.8271685614
 10
257.2445753055
 20
264.6879722147
 10
257.1398138015
 20
263.4483489646
  0
LINE
  5
290
330
1F
100
AcDbEntity
  8
0
  6
Continuous
 62
     7
370
    35
100
AcDbLine
 10
266.4103606396
 20
252.4483489646
 30
0.0
 11
267.2485720353
 21
253.4233489646
 31
0.0
  0
LINE
  5
291
330
1F
100
AcDbEntity
  8
0
  6
Continuous
 62
     7
370
    35
100
AcDbLine
 10
147.6758602666
 20
272.7733489646
 30
0.0
 11
132.6308540193
 21
272.7733489646
 31
0.0
  0
LINE
  5
292
330
1F
100
AcDbEntity
  8
0
  6
Continuous
 62
     7
370
    35
100
AcDbLine
 10
132.6308540193
 20
272.7733489646
 30
0.0
 11
133.4690654149
 21
273.7483489646
 31
0.0
  0
LINE
  5
293
330
1F
100
AcDbEntity
  8
0
  6
Continuous
 62
     7
370
    35
100
AcDbLine
 10
133.4690654149
 20
273.7483489646
 30
0.0
 11
148.41523201
 21
273.7483489646
 31
0.0
  0
LINE
  5
294
330
1F
100
AcDbEntity
  8
0
  6
Continuous
 62
     7
370
    35
100
AcDbLine
 10
132.6308540193
 20
253.4233489646
 30
0.0
 11
147.6758602666
 21
253.4233489646
 31
0.0
  0
LINE
  5
295
330
1F
100
AcDbEntity
  8
0
  6
Continuous
 62
     7
370
    35
100
AcDbLine
 10
132.6308540193
 20
253.4233489646
 30
0.0
 11
132.6308540193
 21
272.7733489646
 31
0.0
  0
LWPOLYLINE
  5
296
330
1F
100
AcDbEntity
  8
0
  6
Continuous
 62
     7
370
    35
100
AcDbPolyline
 90
       23
 70
   128
 43
0.0
 10
137.5671020329
 20
263.4483489646
 10
137.6718635369
 20
262.2087257144
 10
137.9776608948
 20
261.0695293677
 10
138.4597202234
 20
260.1230508374
 10
139.0789879428
 20
259.445968185
 10
139.7852946653
 20
259.0931346203
 10
140.5214196207
 20
259.0931346203
 10
141.2277263432
 20
259.445968185
 10
141.8469940625
 20
260.1230508374
 10
142.3290533911
 20
261.0695293677
 10
142.6348507491
 20
262.2087257144
 10
142.7396122531
 20
263.4483489646
 10
142.6348507491
 20
264.6879722147
 10
142.3290533911
 20
265.8271685614
 10
141.8469940625
 20
266.7736470917
 10
141.2277263432
 20
267.4507297441
 10
140.5214196207
 20
267.8035633088
 10
139.7852946653
 20
267.8035633088
 10
139.0789879428
 20
267.4507297441
 10
138.4597202234
 20
266.7736470917
 10
137.9776608948
 20
265.8271685614
 10
137.6718635369
 20
264.6879722147
 10
137.5671020329
 20
263.4483489646
  0
LINE
  5
297
330
1F
100
AcDbEntity
  8
0
  6
Continuous
 62
     7
370
    35
100
AcDbLine
 10
132.6308540193
 20
253.4233489646
 30
0.0
 11
133.4690654149
 21
252.4483489646
 31
0.0
  0
LINE
  5
298
330
1F
100
AcDbEntity
  8
0
  6
Continuous
 62
     7
370
    35
100
AcDbLine
 10
272.8647130273
 20
273.7483489646
 30
0.0
 11
273.8397130273
 21
272.7733489646
 31
0.0
  0
LINE
  5
299
330
1F
100
AcDbEntity
  8
0
  6
Continuous
 62
     7
370
    35
100
AcDbLine
 10
273.8397130273
 20
272.7733489646
 30
0.0
 11
267.2485720353
 21
272.7733489646
 31
0.0
  0
LINE
  5
29A
330
1F
100
AcDbEntity
  8
0
  6
Continuous
 62
     7
370
    35
100
AcDbLine
 10
266.4103606396
 20
273.7483489646
 30
0.0
 11
272.8647130273
 21
273.7483489646
 31
0.0
  0
LINE
  5
29B
330
1F
100
AcDbEntity
  8
0
  6
Continuous
 62
     7
370
    35
100
AcDbLine
 10
267.2485720353
 20
253.4233489646
 30
0.0
 11
273.8397130273
 21
253.4233489646
 31
0.0
  0
LINE
  5
29C
330
1F
100
AcDbEntity
  8
0
  6
Continuous
 62
     7
370
    35
100
AcDbLine
 10
273.8397130273
 20
253.4233489646
 30
0.0
 11
273.8397130273
 21
272.7733489646
 31
0.0
  0
LINE
  5
29D
330
1F
100
AcDbEntity
  8
0
  6
Continuous
 62
     7
370
    35
100
AcDbLine
 10
272.8647130273
 20
252.4483489646
 30
0.0
 11
273.8397130273
 21
253.4233489646
 31
0.0
  0
LINE
  5
29E
330
1F
100
AcDbEntity
  8
0
  6
Continuous
 62
     7
370
    35
100
AcDbLine
 10
132.6308540193
 20
272.7733489646
 30
0.0
 11
126.0397130273
 21
272.7733489646
 31
0.0
  0
LINE
  5
29F
330
1F
100
AcDbEntity
  8
0
  6
Continuous
 62
     7
370
    35
100
AcDbLine
 10
126.0397130273
 20
272.7733489646
 30
0.0
 11
127.0147130273
 21
273.7483489646
 31
0.0
  0
LINE
  5
2A0
330
1F
100
AcDbEntity
  8
0
  6
Continuous
 62
     7
370
    35
100
AcDbLine
 10
127.0147130273
 20
273.7483489646
 30
0.0
 11
133.4690654149
 21
273.7483489646
 31
0.0
  0
LINE
  5
2A1
330
1F
100
AcDbEntity
  8
0
  6
Continuous
 62
     7
370
    35
100
AcDbLine
 10
126.0397130273
 20
253.4233489646
 30
0.0
 11
132.6308540193
 21
253.4233489646
 31
0.0
  0
LINE
  5
2A2
330
1F
100
AcDbEntity
  8
0
  6
Continuous
 62
     7
370
    35
100
AcDbLine
 10
126.0397130273
 20
253.4233489646
 30
0.0
 11
126.0397130273
 21
272.7733489646
 31
0.0
  0
LINE
  5
2A3
330
1F
100
AcDbEntity
  8
0
  6
Continuous
 62
     7
370
    35
100
AcDbLine
 10
126.0397130273
 20
253.4233489646
 30
0.0
 11
127.0147130273
 21
252.4483489646
 31
0.0
  0
LINE
  5
2A4
330
1F
100
AcDbEntity
  8
0
  6
Continuous
 62
    18
370
    35
100
AcDbLine
 10
236.0053078304
 20
238.4983489646
 30
0.0
 11
242.6897130273
 21
238.4983489646
 31
0.0
  0
LINE
  5
2A5
330
1F
100
AcDbEntity
  8
0
  6
Continuous
 62
    18
370
    35
100
AcDbLine
 10
203.0053078304
 20
238.4983489646
 30
0.0
 11
218.5053078304
 21
238.4983489646
 31
0.0
  0
LINE
  5
2A6
330
1F
100
AcDbEntity
  8
0
  6
Continuous
 62
    18
370
    35
100
AcDbLine
 10
175.2649778956
 20
238.4983489646
 30
0.0
 11
179.3741182242
 21
238.4983489646
 31
0.0
  0
LINE
  5
2A7
330
1F
100
AcDbEntity
  8
0
  6
Continuous
 62
    18
370
    35
100
AcDbLine
 10
163.8741182242
 20
238.4983489646
 30
0.0
 11
175.2649778956
 21
238.4983489646
 31
0.0
  0
LINE
  5
2A8
330
1F
100
AcDbEntity
  8
0
  6
Continuous
 62
    18
370
    35
100
AcDbLine
 10
181.3741182242
 20
238.4983489646
 30
0.0
 11
196.8741182242
 21
238.4983489646
 31
0.0
  0
LINE
  5
2A9
330
1F
100
AcDbEntity
  8
0
  6
Continuous
 62
    18
370
    35
100
AcDbLine
 10
220.5053078304
 20
238.4983489646
 30
0.0
 11
236.0053078304
 21
238.4983489646
 31
0.0
  0
LINE
  5
2AA
330
1F
100
AcDbEntity
  8
0
  6
Continuous
 62
    18
370
    35
100
AcDbLine
 10
157.1897130273
 20
238.4983489646
 30
0.0
 11
163.8741182242
 21
238.4983489646
 31
0.0
  0
DIMENSION
  5
2AB
330
1F
100
AcDbEntity
  8
LIVELLO1
100
AcDbDimension
  2
_D_2
 10
105.1191612068
 20
273.7483489646
 30
0.0
 11
105.1191612068
 21
260.7733489646
 31
0.0
 70
   160
  1
<>
 71
     2
 42
-1.0
  3
SLDDIMSTYLE2
100
AcDbAlignedDimension
 13
125.5397130273
 23
247.7983489646
 33
0.0
 14
133.4690654149
 24
273.7483489646
 34
0.0
 50
90.0
100
AcDbRotatedDimension
  0
DIMENSION
  5
2B6
330
1F
100
AcDbEntity
  8
LIVELLO1
100
AcDbDimension
  2
_D_3
 10
303.5556068265
 20
235.4983489646
 30
0.0
 11
303.5556068265
 21
254.6233489646
 31
0.0
 70
   160
  1
<>
 71
     2
 42
-1.0
  3
SLDDIMSTYLE3
100
AcDbAlignedDimension
 13
251.4641940445
 23
273.7483489646
 33
0.0
 14
233.0053072546
 24
235.4983489646
 34
0.0
 50
90.0
100
AcDbRotatedDimension
  0
DIMENSION
  5
2C1
330
1F
100
AcDbEntity
  8
LIVELLO1
100
AcDbDimension
  2
_D_4
 10
259.7260689116
 20
263.4483489646
 30
0.0
 11
232.3695389078
 21
286.2112374805
 31
0.0
 70
   164
  1
G1/8 (10x)\P
 71
     1
 42
-1.0
  3
SLDDIMSTYLE4
100
AcDbRadialDimension
 15
258.0032326203
 25
266.4323889542
 35
0.0
 40
0.0
  0
LWPOLYLINE
  5
2CB
330
1F
100
AcDbEntity
  8
LIVELLO1
100
AcDbPolyline
 90
       28
 70
   128
 43
0.0
 10
259.7260475159
 20
258.5843489646
 10
259.0667410274
 20
258.7154587141
 10
258.4429576801
 20
259.101719802
 10
257.8883471915
 20
259.7223087932
 10
257.4328087564
 20
260.5437695745
 10
257.1009005699
 20
261.5218169825
 10
256.9105158882
 20
262.6037242284
 10
256.8719183987
 20
263.7311654124
 10
256.9871889022
 20
264.8433598885
 10
257.2501131359
 20
265.8803489646
 10
257.6465167864
 20
266.7862282911
 10
258.1550296302
 20
267.5121616793
 10
258.7482376083
 20
268.0190138721
 10
259.3941607251
 20
268.2794603366
 10
260.0579770981
 20
268.2794603366
 10
260.7039002149
 20
268.0190138721
 10
261.297108193
 20
267.5121616793
 10
261.8056210368
 20
266.7862282911
 10
262.2020246872
 20
265.8803489646
 10
262.464948921
 20
264.8433598885
 10
262.5802194244
 20
263.7311654124
 10
262.541621935
 20
262.6037242284
 10
262.3512372533
 20
261.5218169825
 10
262.0193290668
 20
260.5437695745
 10
261.5637906317
 20
259.7223087932
 10
261.0091801431
 20
259.101719802
 10
260.3853967958
 20
258.7154587141
 10
259.7260689116
 20
258.5843489646
  0
LWPOLYLINE
  5
2CC
330
1F
100
AcDbEntity
  8
LIVELLO1
100
AcDbPolyline
 90
       28
 70
   128
 43
0.0
 10
222.776055336
 20
258.5843489646
 10
221.7092539853
 20
258.7154587141
 10
220.6999513277
 20
259.101719802
 10
219.8025727066
 20
259.7223087932
 10
219.0654960354
 20
260.5437695745
 10
218.5284573085
 20
261.5218169825
 10
218.2204084226
 20
262.6037242284
 10
218.1579563728
 20
263.7311654124
 10
218.3444679653
 20
264.8433598885
 10
218.7698883119
 20
265.8803489646
 10
219.4112828917
 20
266.7862282911
 10
220.2340739566
 20
267.5121616793
 10
221.1939046276
 20
268.0190138721
 10
222.2390301847
 20
268.2794603366
 10
223.3131076385
 20
268.2794603366
 10
224.3582331956
 20
268.0190138721
 10
225.3180638665
 20
267.5121616793
 10
226.1408549315
 20
266.7862282911
 10
226.7822495112
 20
265.8803489646
 10
227.2076698579
 20
264.8433598885
 10
227.3941814504
 20
263.7311654124
 10
227.3317294006
 20
262.6037242284
 10
227.0236805147
 20
261.5218169825
 10
226.4866417877
 20
260.5437695745
 10
225.7495651166
 20
259.7223087932
 10
224.8521864954
 20
259.101719802
 10
223.8428838379
 20
258.7154587141
 10
222.7760689116
 20
258.5843489646
  0
LWPOLYLINE
  5
2CD
330
1F
100
AcDbEntity
  8
LIVELLO1
100
AcDbPolyline
 90
       28
 70
   128
 43
0.0
 10
177.1032810211
 20
258.5843489646
 10
176.0365422166
 20
258.7154587141
 10
175.0272395591
 20
259.101719802
 10
174.1298609379
 20
259.7223087932
 10
173.3927842668
 20
260.5437695745
 10
172.8557455399
 20
261.5218169825
 10
172.547696654
 20
262.6037242284
 10
172.4852446042
 20
263.7311654124
 10
172.6717561967
 20
264.8433598885
 10
173.0971765433
 20
265.8803489646
 10
173.738571123
 20
266.7862282911
 10
174.561362188
 20
267.5121616793
 10
175.521192859
 20
268.0190138721
 10
176.5663184161
 20
268.2794603366
 10
177.6403958699
 20
268.2794603366
 10
178.6855214269
 20
268.0190138721
 10
179.6453520979
 20
267.5121616793
 10
180.4681431629
 20
266.7862282911
 10
181.1095377426
 20
265.8803489646
 10
181.5349580892
 20
264.8433598885
 10
181.7214696818
 20
263.7311654124
 10
181.659017632
 20
262.6037242284
 10
181.350968746
 20
261.5218169825
 10
180.8139300191
 20
260.5437695745
 10
180.076853348
 20
259.7223087932
 10
179.1794747268
 20
259.101719802
 10
178.1701720693
 20
258.7154587141
 10
177.103357143
 20
258.5843489646
  0
LWPOLYLINE
  5
2CE
330
1F
100
AcDbEntity
  8
LIVELLO1
100
AcDbPolyline
 90
       28
 70
   128
 43
0.0
 10
140.1532888412
 20
258.5843489646
 10
139.4940292588
 20
258.7154587141
 10
138.8702459115
 20
259.101719802
 10
138.3156354228
 20
259.7223087932
 10
137.8600969878
 20
260.5437695745
 10
137.5281888013
 20
261.5218169825
 10
137.3378041196
 20
262.6037242284
 10
137.2992066301
 20
263.7311654124
 10
137.4144771336
 20
264.8433598885
 10
137.6774013673
 20
265.8803489646
 10
138.0738050178
 20
266.7862282911
 10
138.5823178616
 20
267.5121616793
 10
139.1755258397
 20
268.0190138721
 10
139.8214489565
 20
268.2794603366
 10
140.4852653295
 20
268.2794603366
 10
141.1311884463
 20
268.0190138721
 10
141.7243964244
 20
267.5121616793
 10
142.2329092682
 20
266.7862282911
 10
142.6293129186
 20
265.8803489646
 10
142.8922371523
 20
264.8433598885
 10
143.0075076558
 20
263.7311654124
 10
142.9689101664
 20
262.6037242284
 10
142.7785254847
 20
261.5218169825
 10
142.4466172982
 20
260.5437695745
 10
141.9910788631
 20
259.7223087932
 10
141.4364683744
 20
259.101719802
 10
140.8126850272
 20
258.7154587141
 10
140.153357143
 20
258.5843489646
  0
ENDSEC
  0
SECTION
  2
OBJECTS
  0
DICTIONARY
  5
C
330
0
100
AcDbDictionary
281
     1
  3
ACAD_GROUP
350
D
  3
ACAD_LAYOUT
350
1A
  3
ACAD_MLINESTYLE
350
17
  3
ACAD_PLOTSETTINGS
350
19
  3
ACAD_PLOTSTYLENAME
350
E
  3
ACAD_SCALELIST
350
47
  3
DWGPROPS
350
2CF
  0
DICTIONARY
  5
D
102
{ACAD_REACTORS
330
C
102
}
330
C
100
AcDbDictionary
281
     1
  0
DICTIONARY
  5
1A
102
{ACAD_REACTORS
330
C
102
}
330
C
100
AcDbDictionary
281
     1
  3
Layout1
350
1E
  3
Layout2
350
26
  3
Model
350
22
  0
DICTIONARY
  5
17
102
{ACAD_REACTORS
330
C
102
}
330
C
100
AcDbDictionary
281
     1
  3
Standard
350
18
  0
DICTIONARY
  5
19
102
{ACAD_REACTORS
330
C
102
}
330
C
100
AcDbDictionary
281
     1
  0
ACDBDICTIONARYWDFLT
  5
E
102
{ACAD_REACTORS
330
C
102
}
330
C
100
AcDbDictionary
281
     1
  3
Normal
350
F
100
AcDbDictionaryWithDefault
340
F
  0
DICTIONARY
  5
47
102
{ACAD_REACTORS
330
C
102
}
330
C
100
AcDbDictionary
281
     1
  3
A0
350
48
  3
A1
350
49
  3
A2
350
4A
  3
A3
350
4B
  3
A4
350
4C
  3
A5
350
4D
  3
A6
350
4E
  3
A7
350
4F
  3
A8
350
50
  3
A9
350
51
  3
B0
350
52
  3
B1
350
53
  3
B2
350
54
  3
B3
350
55
  3
B4
350
56
  3
B5
350
57
  3
B6
350
58
  3
B7
350
59
  3
B8
350
5A
  3
B9
350
5B
  3
C0
350
5C
  3
C1
350
5D
  3
C2
350
5E
  3
C3
350
5F
  3
C4
350
60
  3
C5
350
61
  3
C6
350
62
  3
C7
350
63
  3
C8
350
64
  3
C9
350
65
  3
D0
350
66
  3
D1
350
67
  3
D2
350
68
  0
XRECORD
  5
2CF
102
{ACAD_REACTORS
330
C
102
}
330
C
100
AcDbXrecord
280
     1
  1
DWGPROPS COOKIE
  2

  3

  4

  6

  7

  8
ftodaro
  9

300
=
301
=
302
=
303
=
304
=
305
=
306
=
307
=
308
=
309
=
 40
0.0
 41
2459984.320006632
 42
2459984.320007408
  1

 90
        0
  0
LAYOUT
  5
1E
102
{ACAD_REACTORS
330
1A
102
}
330
1A
100
AcDbPlotSettings
  1

  2
none_device
  4

  6

 40
0.0
 41
0.0
 42
0.0
 43
0.0
 44
0.0
 45
0.0
 46
0.0
 47
0.0
 48
0.0
 49
0.0
140
0.0
141
0.0
142
1.0
143
1.0
 70
   688
 72
     1
 73
     0
 74
     5
  7

 75
    16
147
1.0
148
0.0
149
0.0
100
AcDbLayout
  1
Layout1
 70
     1
 71
     1
 10
0.0
 20
0.0
 11
420.0
 21
297.0
 12
0.0
 22
0.0
 32
0.0
 14
1.0000000000E+20
 24
1.0000000000E+20
 34
1.0000000000E+20
 15
-1.0000000000E+20
 25
-1.0000000000E+20
 35
-1.0000000000E+20
146
0.0
 13
0.0
 23
0.0
 33
0.0
 16
1.0
 26
0.0
 36
0.0
 17
0.0
 27
1.0
 37
0.0
 76
     0
330
1B
  0
LAYOUT
  5
26
102
{ACAD_REACTORS
330
1A
102
}
330
1A
100
AcDbPlotSettings
  1

  2
none_device
  4

  6

 40
0.0
 41
0.0
 42
0.0
 43
0.0
 44
0.0
 45
0.0
 46
0.0
 47
0.0
 48
0.0
 49
0.0
140
0.0
141
0.0
142
1.0
143
1.0
 70
   688
 72
     1
 73
     0
 74
     5
  7

 75
    16
147
1.0
148
0.0
149
0.0
100
AcDbLayout
  1
Layout2
 70
     1
 71
     2
 10
0.0
 20
0.0
 11
0.0
 21
0.0
 12
0.0
 22
0.0
 32
0.0
 14
0.0
 24
0.0
 34
0.0
 15
0.0
 25
0.0
 35
0.0
146
0.0
 13
0.0
 23
0.0
 33
0.0
 16
1.0
 26
0.0
 36
0.0
 17
0.0
 27
1.0
 37
0.0
 76
     0
330
23
  0
LAYOUT
  5
22
102
{ACAD_REACTORS
330
1A
102
}
330
1A
100
AcDbPlotSettings
  1

  2
none_device
  4
Letter_(8.50_x_11.00_Inches)
  6

 40
6.35
 41
6.35
 42
6.35000508
 43
6.35000508
 44
215.9
 45
279.4
 46
0.0
 47
0.0
 48
0.0
 49
0.0
140
0.0
141
0.0
142
1.0
143
1.0
 70
  1712
 72
     1
 73
     0
 74
     0
  7

 75
     0
147
1.0
148
0.0
149
0.0
100
AcDbLayout
  1
Model
 70
     1
 71
     0
 10
0.0
 20
0.0
 11
420.0
 21
594.0
 12
0.0
 22
0.0
 32
0.0
 14
0.0
 24
0.0
 34
0.0
 15
420.0
 25
594.0
 35
0.0
146
0.0
 13
0.0
 23
0.0
 33
0.0
 16
1.0
 26
0.0
 36
0.0
 17
0.0
 27
1.0
 37
0.0
 76
     0
330
1F
331
29
  0
MLINESTYLE
  5
18
102
{ACAD_REACTORS
330
17
102
}
330
17
100
AcDbMlineStyle
  2
Standard
 70
     0
  3

 62
   256
 51
90.0
 52
90.0
 71
     2
 49
0.5
 62
   256
  6
BYLAYER
 49
-0.5
 62
   256
  6
BYLAYER
  0
ACDBPLACEHOLDER
  5
F
102
{ACAD_REACTORS
330
E
102
}
330
E
  0
SCALE
  5
48
102
{ACAD_REACTORS
330
47
102
}
330
47
100
AcDbScale
 70
     0
300
1:1
140
1.0
141
1.0
290
     1
  0
SCALE
  5
49
102
{ACAD_REACTORS
330
47
102
}
330
47
100
AcDbScale
 70
     0
300
1:2
140
1.0
141
2.0
290
     0
  0
SCALE
  5
4A
102
{ACAD_REACTORS
330
47
102
}
330
47
100
AcDbScale
 70
     0
300
1:4
140
1.0
141
4.0
290
     0
  0
SCALE
  5
4B
102
{ACAD_REACTORS
330
47
102
}
330
47
100
AcDbScale
 70
     0
300
1:5
140
1.0
141
5.0
290
     0
  0
SCALE
  5
4C
102
{ACAD_REACTORS
330
47
102
}
330
47
100
AcDbScale
 70
     0
300
1:8
140
1.0
141
8.0
290
     0
  0
SCALE
  5
4D
102
{ACAD_REACTORS
330
47
102
}
330
47
100
AcDbScale
 70
     0
300
1:10
140
1.0
141
10.0
290
     0
  0
SCALE
  5
4E
102
{ACAD_REACTORS
330
47
102
}
330
47
100
AcDbScale
 70
     0
300
1:16
140
1.0
141
16.0
290
     0
  0
SCALE
  5
4F
102
{ACAD_REACTORS
330
47
102
}
330
47
100
AcDbScale
 70
     0
300
1:20
140
1.0
141
20.0
290
     0
  0
SCALE
  5
50
102
{ACAD_REACTORS
330
47
102
}
330
47
100
AcDbScale
 70
     0
300
1:30
140
1.0
141
30.0
290
     0
  0
SCALE
  5
51
102
{ACAD_REACTORS
330
47
102
}
330
47
100
AcDbScale
 70
     0
300
1:40
140
1.0
141
40.0
290
     0
  0
SCALE
  5
52
102
{ACAD_REACTORS
330
47
102
}
330
47
100
AcDbScale
 70
     0
300
1:50
140
1.0
141
50.0
290
     0
  0
SCALE
  5
53
102
{ACAD_REACTORS
330
47
102
}
330
47
100
AcDbScale
 70
     0
300
1:100
140
1.0
141
100.0
290
     0
  0
SCALE
  5
54
102
{ACAD_REACTORS
330
47
102
}
330
47
100
AcDbScale
 70
     0
300
2:1
140
2.0
141
1.0
290
     0
  0
SCALE
  5
55
102
{ACAD_REACTORS
330
47
102
}
330
47
100
AcDbScale
 70
     0
300
4:1
140
4.0
141
1.0
290
     0
  0
SCALE
  5
56
102
{ACAD_REACTORS
330
47
102
}
330
47
100
AcDbScale
 70
     0
300
8:1
140
8.0
141
1.0
290
     0
  0
SCALE
  5
57
102
{ACAD_REACTORS
330
47
102
}
330
47
100
AcDbScale
 70
     0
300
10:1
140
10.0
141
1.0
290
     0
  0
SCALE
  5
58
102
{ACAD_REACTORS
330
47
102
}
330
47
100
AcDbScale
 70
     0
300
100:1
140
100.0
141
1.0
290
     0
  0
SCALE
  5
59
102
{ACAD_REACTORS
330
47
102
}
330
47
100
AcDbScale
 70
     0
300
1/128" = 1'-0"
140
0.0078125
141
12.0
290
     0
  0
SCALE
  5
5A
102
{ACAD_REACTORS
330
47
102
}
330
47
100
AcDbScale
 70
     0
300
1/64" = 1'-0"
140
0.015625
141
12.0
290
     0
  0
SCALE
  5
5B
102
{ACAD_REACTORS
330
47
102
}
330
47
100
AcDbScale
 70
     0
300
1/32" = 1'-0"
140
0.03125
141
12.0
290
     0
  0
SCALE
  5
5C
102
{ACAD_REACTORS
330
47
102
}
330
47
100
AcDbScale
 70
     0
300
1/16" = 1'-0"
140
0.0625
141
12.0
290
     0
  0
SCALE
  5
5D
102
{ACAD_REACTORS
330
47
102
}
330
47
100
AcDbScale
 70
     0
300
3/32" = 1'-0"
140
0.09375
141
12.0
290
     0
  0
SCALE
  5
5E
102
{ACAD_REACTORS
330
47
102
}
330
47
100
AcDbScale
 70
     0
300
1/8" = 1'-0"
140
0.125
141
12.0
290
     0
  0
SCALE
  5
5F
102
{ACAD_REACTORS
330
47
102
}
330
47
100
AcDbScale
 70
     0
300
3/16" = 1'-0"
140
0.1875
141
12.0
290
     0
  0
SCALE
  5
60
102
{ACAD_REACTORS
330
47
102
}
330
47
100
AcDbScale
 70
     0
300
1/4" = 1'-0"
140
0.25
141
12.0
290
     0
  0
SCALE
  5
61
102
{ACAD_REACTORS
330
47
102
}
330
47
100
AcDbScale
 70
     0
300
3/8" = 1'-0"
140
0.375
141
12.0
290
     0
  0
SCALE
  5
62
102
{ACAD_REACTORS
330
47
102
}
330
47
100
AcDbScale
 70
     0
300
1/2" = 1'-0"
140
0.5
141
12.0
290
     0
  0
SCALE
  5
63
102
{ACAD_REACTORS
330
47
102
}
330
47
100
AcDbScale
 70
     0
300
3/4" = 1'-0"
140
0.75
141
12.0
290
     0
  0
SCALE
  5
64
102
{ACAD_REACTORS
330
47
102
}
330
47
100
AcDbScale
 70
     0
300
1" = 1'-0"
140
1.0
141
12.0
290
     0
  0
SCALE
  5
65
102
{ACAD_REACTORS
330
47
102
}
330
47
100
AcDbScale
 70
     0
300
1-1/2" = 1'-0"
140
1.5
141
12.0
290
     0
  0
SCALE
  5
66
102
{ACAD_REACTORS
330
47
102
}
330
47
100
AcDbScale
 70
     0
300
3" = 1'-0"
140
3.0
141
12.0
290
     0
  0
SCALE
  5
67
102
{ACAD_REACTORS
330
47
102
}
330
47
100
AcDbScale
 70
     0
300
6" = 1'-0"
140
6.0
141
12.0
290
     0
  0
SCALE
  5
68
102
{ACAD_REACTORS
330
47
102
}
330
47
100
AcDbScale
 70
     0
300
1'-0" = 1'-0"
140
12.0
141
12.0
290
     0
  0
ENDSEC
  0
EOF
