  0
SECTION
  2
HEADER
  9
$ACADVER
  1
AC1015
  9
$ACADMAINTVER
 70
     6
  9
$DWGCODEPAGE
  3
ANSI_1252
  9
$INSBASE
 10
0.0
 20
0.0
 30
0.0
  9
$EXTMIN
 10
0.0
 20
0.0
 30
0.0
  9
$EXTMAX
 10
210.0
 20
297.0
 30
0.0
  9
$LIMMIN
 10
0.0
 20
0.0
  9
$LIMMAX
 10
210.0
 20
297.0
  9
$ORTHOMODE
 70
     0
  9
$REGENMODE
 70
     1
  9
$FILLMODE
 70
     1
  9
$QTEXTMODE
 70
     0
  9
$MIRRTEXT
 70
     1
  9
$LTSCALE
 40
1.0
  9
$ATTMODE
 70
     1
  9
$TEXTSIZE
 40
3.5
  9
$TRACEWID
 40
1.0
  9
$TEXTSTYLE
  7
STANDARD
  9
$CLAYER
  8
0
  9
$CELTYPE
  6
ByLayer
  9
$CECOLOR
 62
   256
  9
$CELTSCALE
 40
1.0
  9
$DISPSILH
 70
     0
  9
$DIMSCALE
 40
1.0
  9
$DIMASZ
 40
2.8
  9
$DIMEXO
 40
1.0
  9
$DIMDLI
 40
3.75
  9
$DIMRND
 40
0.0
  9
$DIMDLE
 40
0.0
  9
$DIMEXE
 40
1.0
  9
$DIMTP
 40
0.0
  9
$DIMTM
 40
0.0
  9
$DIMTXT
 40
3.0
  9
$DIMCEN
 40
2.5
  9
$DIMTSZ
 40
0.0
  9
$DIMTOL
 70
     0
  9
$DIMLIM
 70
     0
  9
$DIMTIH
 70
     1
  9
$DIMTOH
 70
     1
  9
$DIMSE1
 70
     0
  9
$DIMSE2
 70
     0
  9
$DIMTAD
 70
     1
  9
$DIMZIN
 70
     0
  9
$DIMBLK
  1

  9
$DIMASO
 70
     1
  9
$DIMSHO
 70
     1
  9
$DIMPOST
  1

  9
$DIMAPOST
  1

  9
$DIMALT
 70
     0
  9
$DIMALTD
 70
     3
  9
$DIMALTF
 40
0.0393700787
  9
$DIMLFAC
 40
1.0
  9
$DIMTOFL
 70
     1
  9
$DIMTVP
 40
0.0
  9
$DIMTIX
 70
     0
  9
$DIMSOXD
 70
     0
  9
$DIMSAH
 70
     0
  9
$DIMBLK1
  1

  9
$DIMBLK2
  1

  9
$DIMSTYLE
  2
ISO-25
  9
$DIMCLRD
 70
     0
  9
$DIMCLRE
 70
     0
  9
$DIMCLRT
 70
     0
  9
$DIMTFAC
 40
1.0
  9
$DIMGAP
 40
1.5
  9
$DIMJUST
 70
     0
  9
$DIMSD1
 70
     0
  9
$DIMSD2
 70
     0
  9
$DIMTOLJ
 70
     0
  9
$DIMTZIN
 70
     0
  9
$DIMALTZ
 70
     0
  9
$DIMALTTZ
 70
     0
  9
$DIMUPT
 70
     0
  9
$DIMDEC
 70
     1
  9
$DIMTDEC
 70
     1
  9
$DIMALTU
 70
     2
  9
$DIMALTTD
 70
     3
  9
$DIMTXSTY
  7
STANDARD
  9
$DIMAUNIT
 70
     0
  9
$DIMADEC
 70
     2
  9
$DIMALTRND
 40
0.0
  9
$DIMAZIN
 70
     0
  9
$DIMDSEP
 70
    44
  9
$DIMATFIT
 70
     3
  9
$DIMFRAC
 70
     0
  9
$DIMLDRBLK
  1

  9
$DIMLUNIT
 70
     2
  9
$DIMLWD
 70
    -2
  9
$DIMLWE
 70
    -2
  9
$DIMTMOVE
 70
     0
  9
$LUNITS
 70
     2
  9
$LUPREC
 70
     2
  9
$SKETCHINC
 40
1.0
  9
$FILLETRAD
 40
10.0
  9
$AUNITS
 70
     0
  9
$AUPREC
 70
     2
  9
$MENU
  1
.
  9
$ELEVATION
 40
0.0
  9
$PELEVATION
 40
0.0
  9
$THICKNESS
 40
0.0
  9
$LIMCHECK
 70
     0
  9
$CHAMFERA
 40
0.0
  9
$CHAMFERB
 40
0.0
  9
$CHAMFERC
 40
0.0
  9
$CHAMFERD
 40
0.0
  9
$SKPOLY
 70
     0
  9
$TDCREATE
 40
2459985.508369282
  9
$TDUCREATE
 40
2459985.466702616
  9
$TDUPDATE
 40
2459985.508369977
  9
$TDUUPDATE
 40
2459985.46670331
  9
$TDINDWG
 40
0.0000000116
  9
$TDUSRTIMER
 40
0.0000000116
  9
$USRTIMER
 70
     1
  9
$ANGBASE
 50
0.0
  9
$ANGDIR
 70
     0
  9
$PDMODE
 70
     0
  9
$PDSIZE
 40
-1.0
  9
$PLINEWID
 40
0.0
  9
$SPLFRAME
 70
     0
  9
$SPLINETYPE
 70
     6
  9
$SPLINESEGS
 70
     8
  9
$HANDSEED
  5
2BE
  9
$SURFTAB1
 70
     6
  9
$SURFTAB2
 70
     6
  9
$SURFTYPE
 70
     6
  9
$SURFU
 70
     6
  9
$SURFV
 70
     6
  9
$UCSBASE
  2

  9
$UCSNAME
  2

  9
$UCSORG
 10
0.0
 20
0.0
 30
0.0
  9
$UCSXDIR
 10
1.0
 20
0.0
 30
0.0
  9
$UCSYDIR
 10
0.0
 20
1.0
 30
0.0
  9
$UCSORTHOREF
  2

  9
$UCSORTHOVIEW
 70
     0
  9
$UCSORGTOP
 10
0.0
 20
0.0
 30
0.0
  9
$UCSORGBOTTOM
 10
0.0
 20
0.0
 30
0.0
  9
$UCSORGLEFT
 10
0.0
 20
0.0
 30
0.0
  9
$UCSORGRIGHT
 10
0.0
 20
0.0
 30
0.0
  9
$UCSORGFRONT
 10
0.0
 20
0.0
 30
0.0
  9
$UCSORGBACK
 10
0.0
 20
0.0
 30
0.0
  9
$PUCSBASE
  2

  9
$PUCSNAME
  2

  9
$PUCSORG
 10
0.0
 20
0.0
 30
0.0
  9
$PUCSXDIR
 10
1.0
 20
0.0
 30
0.0
  9
$PUCSYDIR
 10
0.0
 20
1.0
 30
0.0
  9
$PUCSORTHOREF
  2

  9
$PUCSORTHOVIEW
 70
     0
  9
$PUCSORGTOP
 10
0.0
 20
0.0
 30
0.0
  9
$PUCSORGBOTTOM
 10
0.0
 20
0.0
 30
0.0
  9
$PUCSORGLEFT
 10
0.0
 20
0.0
 30
0.0
  9
$PUCSORGRIGHT
 10
0.0
 20
0.0
 30
0.0
  9
$PUCSORGFRONT
 10
0.0
 20
0.0
 30
0.0
  9
$PUCSORGBACK
 10
0.0
 20
0.0
 30
0.0
  9
$USERI1
 70
     0
  9
$USERI2
 70
     0
  9
$USERI3
 70
     0
  9
$USERI4
 70
     0
  9
$USERI5
 70
     0
  9
$USERR1
 40
0.0
  9
$USERR2
 40
0.0
  9
$USERR3
 40
0.0
  9
$USERR4
 40
0.0
  9
$USERR5
 40
0.0
  9
$WORLDVIEW
 70
     1
  9
$SHADEDGE
 70
     3
  9
$SHADEDIF
 70
    70
  9
$TILEMODE
 70
     1
  9
$MAXACTVP
 70
    64
  9
$PINSBASE
 10
0.0
 20
0.0
 30
0.0
  9
$PLIMCHECK
 70
     0
  9
$PEXTMIN
 10
1.0000000000E+20
 20
1.0000000000E+20
 30
1.0000000000E+20
  9
$PEXTMAX
 10
-1.0000000000E+20
 20
-1.0000000000E+20
 30
-1.0000000000E+20
  9
$PLIMMIN
 10
0.0
 20
0.0
  9
$PLIMMAX
 10
420.0
 20
297.0
  9
$UNITMODE
 70
     0
  9
$VISRETAIN
 70
     1
  9
$PLINEGEN
 70
     0
  9
$PSLTSCALE
 70
     1
  9
$TREEDEPTH
 70
  3020
  9
$CMLSTYLE
  2
Standard
  9
$CMLJUST
 70
     0
  9
$CMLSCALE
 40
20.0
  9
$PROXYGRAPHICS
 70
     1
  9
$MEASUREMENT
 70
     1
  9
$CELWEIGHT
370
    -1
  9
$ENDCAPS
280
     0
  9
$JOINSTYLE
280
     0
  9
$LWDISPLAY
290
     1
  9
$INSUNITS
 70
     4
  9
$HYPERLINKBASE
  1

  9
$STYLESHEET
  1

  9
$XEDIT
290
     1
  9
$CEPSNTYPE
380
     0
  9
$PSTYLEMODE
290
     1
  9
$FINGERPRINTGUID
  2
{751d7425-7368-44f0-af0a-ef665fd935b3}
  9
$VERSIONGUID
  2
{FAEB1C32-E019-11D5-929B-00C0DF256EC4}
  9
$EXTNAMES
290
     1
  9
$PSVPSCALE
 40
0.0
  9
$OLESTARTUP
290
     0
  0
ENDSEC
  0
SECTION
  2
CLASSES
  0
CLASS
  1
ACDBDICTIONARYWDFLT
  2
AcDbDictionaryWithDefault
  3
ObjectDBX Classes
 90
        0
280
     0
281
     0
  0
CLASS
  1
VISUALSTYLE
  2
AcDbVisualStyle
  3
ObjectDBX Classes
 90
     4095
280
     0
281
     0
  0
CLASS
  1
MATERIAL
  2
AcDbMaterial
  3
ObjectDBX Classes
 90
     1153
280
     0
281
     0
  0
CLASS
  1
SCALE
  2
AcDbScale
  3
ObjectDBX Classes
 90
     1153
280
     0
281
     0
  0
CLASS
  1
TABLESTYLE
  2
AcDbTableStyle
  3
ObjectDBX Classes
 90
     4095
280
     0
281
     0
  0
CLASS
  1
MLEADERSTYLE
  2
AcDbMLeaderStyle
  3
ACDB_MLEADERSTYLE_CLASS
 90
     4095
280
     0
281
     0
  0
CLASS
  1
SUN
  2
AcDbSun
  3
SCENEOE
 90
     1153
280
     0
281
     0
  0
CLASS
  1
ACDBPLACEHOLDER
  2
AcDbPlaceHolder
  3
ObjectDBX Classes
 90
        0
280
     0
281
     0
  0
CLASS
  1
LAYOUT
  2
AcDbLayout
  3
ObjectDBX Classes
 90
        0
280
     0
281
     0
  0
ENDSEC
  0
SECTION
  2
TABLES
  0
TABLE
  2
VPORT
  5
8
330
0
100
AcDbSymbolTable
 70
     1
  0
VPORT
  5
29
330
8
100
AcDbSymbolTableRecord
100
AcDbViewportTableRecord
  2
*Active
 70
     0
 10
0.0
 20
0.0
 11
1.0
 21
1.0
 12
105.0
 22
148.5
 13
0.0
 23
0.0
 14
10.0
 24
10.0
 15
10.0
 25
10.0
 16
0.0
 26
0.0
 36
1.0
 17
0.0
 27
0.0
 37
0.0
 40
297.0
 41
0.7070707071
 42
50.0
 43
0.0
 44
0.0
 50
0.0
 51
0.0
 71
     0
 72
  2000
 73
     1
 74
     3
 75
     0
 76
     0
 77
     0
 78
     0
281
     0
 65
     1
110
0.0
120
0.0
130
0.0
111
1.0
121
0.0
131
0.0
112
0.0
122
1.0
132
0.0
 79
     0
146
0.0
  0
ENDTAB
  0
TABLE
  2
LTYPE
  5
5
330
0
100
AcDbSymbolTable
 70
     6
  0
LTYPE
  5
14
330
5
100
AcDbSymbolTableRecord
100
AcDbLinetypeTableRecord
  2
ByBlock
 70
     0
  3

 72
    65
 73
     0
 40
0.0
  0
LTYPE
  5
15
330
5
100
AcDbSymbolTableRecord
100
AcDbLinetypeTableRecord
  2
ByLayer
 70
     0
  3

 72
    65
 73
     0
 40
0.0
  0
LTYPE
  5
16
330
5
100
AcDbSymbolTableRecord
100
AcDbLinetypeTableRecord
  2
Continuous
 70
     0
  3
Solid line
 72
    65
 73
     0
 40
0.0
  0
LTYPE
  5
6E
330
5
100
AcDbSymbolTableRecord
100
AcDbLinetypeTableRecord
  2
HIDDEN
 70
     0
  3
Hidden __ __ __ __ __ __ __ __ __ __ __ __ __ __
 72
    65
 73
     2
 40
1.905
 49
1.27
 74
     0
 49
-0.635
 74
     0
  0
LTYPE
  5
6F
330
5
100
AcDbSymbolTableRecord
100
AcDbLinetypeTableRecord
  2
PHANTOM
 70
     0
  3
Phantom ______  __  __  ______  __  __  ______
 72
    65
 73
     6
 40
12.7
 49
6.35
 74
     0
 49
-1.27
 74
     0
 49
1.27
 74
     0
 49
-1.27
 74
     0
 49
1.27
 74
     0
 49
-1.27
 74
     0
  0
LTYPE
  5
70
330
5
100
AcDbSymbolTableRecord
100
AcDbLinetypeTableRecord
  2
CENTER
 70
     0
  3
Center ____ _ ____ _ ____ _ ____ _ ____ _ ____
 72
    65
 73
     4
 40
10.16
 49
6.35
 74
     0
 49
-1.27
 74
     0
 49
1.27
 74
     0
 49
-1.27
 74
     0
  0
LTYPE
  5
71
330
5
100
AcDbSymbolTableRecord
100
AcDbLinetypeTableRecord
  2
CENTERX2
 70
     0
  3
Center (2x) ________  __  ________  __  _____
 72
    65
 73
     4
 40
20.32
 49
12.7
 74
     0
 49
-2.54
 74
     0
 49
2.54
 74
     0
 49
-2.54
 74
     0
  0
LTYPE
  5
72
330
5
100
AcDbSymbolTableRecord
100
AcDbLinetypeTableRecord
  2
DOT2
 70
     0
  3
Dot (.5x) ........................................
 72
    65
 73
     2
 40
0.635
 49
0.0
 74
     0
 49
-0.635
 74
     0
  0
ENDTAB
  0
TABLE
  2
LAYER
  5
2
330
0
100
AcDbSymbolTable
 70
    10
  0
LAYER
  5
10
330
2
100
AcDbSymbolTableRecord
100
AcDbLayerTableRecord
  2
0
 70
     0
 62
     7
  6
Continuous
370
    -3
390
F
  0
LAYER
  5
73
330
2
100
AcDbSymbolTableRecord
100
AcDbLayerTableRecord
  2
LIVELLO1
 70
     0
 62
     7
  6
Continuous
370
    -3
390
F
  0
LAYER
  5
74
330
2
100
AcDbSymbolTableRecord
100
AcDbLayerTableRecord
  2
QUOTA
 70
     0
 62
   150
  6
Continuous
370
    -3
390
F
  0
LAYER
  5
75
330
2
100
AcDbSymbolTableRecord
100
AcDbLayerTableRecord
  2
ASSI
 70
     0
 62
     1
  6
Continuous
370
    -3
390
F
  0
LAYER
  5
76
330
2
100
AcDbSymbolTableRecord
100
AcDbLayerTableRecord
  2
NEUTRO
 70
     0
 62
     7
  6
Continuous
370
    -3
390
F
  0
LAYER
  5
77
330
2
100
AcDbSymbolTableRecord
100
AcDbLayerTableRecord
  2
CARTIGLIO
 70
     0
 62
    18
  6
Continuous
370
    -3
390
F
  0
LAYER
  5
78
330
2
100
AcDbSymbolTableRecord
100
AcDbLayerTableRecord
  2
TESTI_PICCOLI
 70
     0
 62
     7
  6
Continuous
370
    -3
390
F
  0
LAYER
  5
79
330
2
100
AcDbSymbolTableRecord
100
AcDbLayerTableRecord
  2
TESTI_GRANDI
 70
     0
 62
     7
  6
Continuous
370
    -3
390
F
  0
LAYER
  5
7A
330
2
100
AcDbSymbolTableRecord
100
AcDbLayerTableRecord
  2
FORMAT
 70
     0
 62
     7
  6
Continuous
370
    -3
390
F
  0
LAYER
  5
7B
330
2
100
AcDbSymbolTableRecord
100
AcDbLayerTableRecord
  2
RAPPRESENTAZIONE_RETE
 70
     0
 62
     9
  6
Continuous
370
    -3
390
F
  0
ENDTAB
  0
TABLE
  2
STYLE
  5
3
330
0
100
AcDbSymbolTable
 70
     3
  0
STYLE
  5
11
330
3
100
AcDbSymbolTableRecord
100
AcDbTextStyleTableRecord
  2
STANDARD
 70
     0
 40
0.0
 41
1.0
 50
0.0
 71
     0
 42
3.5
  3
SWISSCL.TTF
  4

1001
ACAD
1000
SWIS721 LTCN BT
1071
 16777250
  0
STYLE
  5
86
330
3
100
AcDbSymbolTableRecord
100
AcDbTextStyleTableRecord
  2
SLDTEXTSTYLE0
 70
     0
 40
0.0
 41
1.0
 50
0.0
 71
     0
 42
3.5
  3
SWISSCL.TTF
  4

1001
ACAD
1000
Swis721 LtCn BT
1071
 16777506
  0
STYLE
  5
FB
330
3
100
AcDbSymbolTableRecord
100
AcDbTextStyleTableRecord
  2
SLDTEXTSTYLE1
 70
     0
 40
0.0
 41
1.0
 50
0.0
 71
     0
 42
3.5
  3
SWISSCL.TTF
  4

1001
ACAD
1000
Swis721 LtCn BT
1071
      290
  0
ENDTAB
  0
TABLE
  2
VIEW
  5
6
330
0
100
AcDbSymbolTable
 70
     0
  0
ENDTAB
  0
TABLE
  2
UCS
  5
7
330
0
100
AcDbSymbolTable
 70
     0
  0
ENDTAB
  0
TABLE
  2
APPID
  5
9
330
0
100
AcDbSymbolTable
 70
     1
  0
APPID
  5
12
330
9
100
AcDbSymbolTableRecord
100
AcDbRegAppTableRecord
  2
ACAD
 70
     0
  0
ENDTAB
  0
TABLE
  2
DIMSTYLE
  5
A
330
0
100
AcDbSymbolTable
 70
     4
100
AcDbDimStyleTable
  0
DIMSTYLE
105
27
330
A
100
AcDbSymbolTableRecord
100
AcDbDimStyleTableRecord
  2
ISO-25
 70
     0
 41
2.5
 42
0.625
 43
3.75
 44
1.25
 73
     0
 74
     0
 77
     1
 78
     8
140
2.5
141
2.5
143
0.0393700787
147
0.625
171
     3
172
     1
178
     0
271
     2
272
     2
274
     3
278
    44
283
     0
284
     8
340
11
  0
DIMSTYLE
105
F2
102
{ACAD_REACTORS
330
F1
330
FD
330
29B
330
2A5
102
}
330
A
100
AcDbSymbolTableRecord
100
AcDbDimStyleTableRecord
  2
SLDDIMSTYLE0
 70
     0
 41
2.8
 44
0.0
 45
0.000000001
 73
     0
 74
     0
 77
     1
 78
    12
 79
     3
140
3.0
147
0.75
173
     1
178
     0
271
     1
272
     1
276
     2
284
    12
340
86
  0
DIMSTYLE
105
108
102
{ACAD_REACTORS
330
107
102
}
330
A
100
AcDbSymbolTableRecord
100
AcDbDimStyleTableRecord
  2
SLDDIMSTYLE1
 70
     0
 41
2.8
 44
0.0
 45
0.000000001
 78
    12
 79
     3
140
3.0
141
0.0
147
0.75
172
     1
173
     1
178
     0
271
     1
272
     1
276
     2
284
    12
340
86
341
109
343
109
344
109
  0
DIMSTYLE
105
2B0
102
{ACAD_REACTORS
330
2AF
102
}
330
A
100
AcDbSymbolTableRecord
100
AcDbDimStyleTableRecord
  2
SLDDIMSTYLE2
 70
     0
  3
<>
 41
2.8
 44
0.0
 45
0.000000001
 78
    12
 79
     3
140
3.0
141
0.0
147
0.75
173
     1
178
     0
271
     6
272
     1
276
     2
284
    12
340
86
  0
ENDTAB
  0
TABLE
  2
BLOCK_RECORD
  5
1
330
0
100
AcDbSymbolTable
 70
    15
  0
BLOCK_RECORD
  5
1F
330
1
100
AcDbSymbolTableRecord
100
AcDbBlockTableRecord
  2
*Model_Space
340
22
  0
BLOCK_RECORD
  5
1B
330
1
100
AcDbSymbolTableRecord
100
AcDbBlockTableRecord
  2
*Paper_Space
340
1E
  0
BLOCK_RECORD
  5
23
330
1
100
AcDbSymbolTableRecord
100
AcDbBlockTableRecord
  2
*Paper_Space0
340
26
  0
BLOCK_RECORD
  5
7C
330
1
100
AcDbSymbolTableRecord
100
AcDbBlockTableRecord
  2
Blocco3
340
0
  0
BLOCK_RECORD
  5
83
330
1
100
AcDbSymbolTableRecord
100
AcDbBlockTableRecord
  2
SW_NOTE_0
340
0
102
{BLKREFS
331
88
102
}
  0
BLOCK_RECORD
  5
F3
330
1
100
AcDbSymbolTableRecord
100
AcDbBlockTableRecord
  2
_D
340
0
  0
BLOCK_RECORD
  5
FE
330
1
100
AcDbSymbolTableRecord
100
AcDbBlockTableRecord
  2
_D_1
340
0
  0
BLOCK_RECORD
  5
109
330
1
100
AcDbSymbolTableRecord
100
AcDbBlockTableRecord
  2
_None
340
0
  0
BLOCK_RECORD
  5
10C
330
1
100
AcDbSymbolTableRecord
100
AcDbBlockTableRecord
  2
_D_2
340
0
  0
BLOCK_RECORD
  5
111
330
1
100
AcDbSymbolTableRecord
100
AcDbBlockTableRecord
  2
SW_CENTERMARKSYMBOL_0
340
0
102
{BLKREFS
331
11C
102
}
  0
BLOCK_RECORD
  5
11D
330
1
100
AcDbSymbolTableRecord
100
AcDbBlockTableRecord
  2
SW_CENTERMARKSYMBOL_1
340
0
102
{BLKREFS
331
14B
102
}
  0
BLOCK_RECORD
  5
14C
330
1
100
AcDbSymbolTableRecord
100
AcDbBlockTableRecord
  2
SW_CENTERMARKSYMBOL_2
340
0
102
{BLKREFS
331
17B
102
}
  0
BLOCK_RECORD
  5
17C
330
1
100
AcDbSymbolTableRecord
100
AcDbBlockTableRecord
  2
SW_CENTERMARKSYMBOL_3
340
0
102
{BLKREFS
331
1BF
102
}
  0
BLOCK_RECORD
  5
1C0
330
1
100
AcDbSymbolTableRecord
100
AcDbBlockTableRecord
  2
SW_CENTERMARKSYMBOL_4
340
0
102
{BLKREFS
331
211
102
}
  0
BLOCK_RECORD
  5
29C
330
1
100
AcDbSymbolTableRecord
100
AcDbBlockTableRecord
  2
_D_3
340
0
  0
BLOCK_RECORD
  5
2A6
330
1
100
AcDbSymbolTableRecord
100
AcDbBlockTableRecord
  2
_D_4
340
0
  0
BLOCK_RECORD
  5
2B1
330
1
100
AcDbSymbolTableRecord
100
AcDbBlockTableRecord
  2
_D_5
340
0
  0
ENDTAB
  0
ENDSEC
  0
SECTION
  2
BLOCKS
  0
BLOCK
  5
20
330
1F
100
AcDbEntity
  8
0
100
AcDbBlockBegin
  2
*Model_Space
 70
     0
 10
0.0
 20
0.0
 30
0.0
  3
*Model_Space
  1

  0
ENDBLK
  5
21
330
1F
100
AcDbEntity
  8
0
100
AcDbBlockEnd
  0
BLOCK
  5
1C
330
1B
100
AcDbEntity
 67
     1
  8
0
100
AcDbBlockBegin
  2
*Paper_Space
 70
     0
 10
0.0
 20
0.0
 30
0.0
  3
*Paper_Space
  1

  0
ENDBLK
  5
1D
330
1B
100
AcDbEntity
 67
     1
  8
0
100
AcDbBlockEnd
  0
BLOCK
  5
24
330
23
100
AcDbEntity
  8
0
100
AcDbBlockBegin
  2
*Paper_Space0
 70
     0
 10
0.0
 20
0.0
 30
0.0
  3
*Paper_Space0
  1

  0
ENDBLK
  5
25
330
23
100
AcDbEntity
  8
0
100
AcDbBlockEnd
  0
BLOCK
  5
7D
330
7C
100
AcDbEntity
  8
0
100
AcDbBlockBegin
  2
Blocco3
 70
     0
 10
0.0
 20
0.0
 30
0.0
  3
Blocco3
  1

  0
LINE
  5
7F
330
7C
100
AcDbEntity
  8
LIVELLO1
100
AcDbLine
 10
237.1763095214
 20
25.5890419756
 30
0.0
 11
359.9868410328
 21
25.5890419756
 31
0.0
  0
LINE
  5
80
330
7C
100
AcDbEntity
  8
LIVELLO1
100
AcDbLine
 10
237.1763095214
 20
25.5890419756
 30
0.0
 11
237.1763095214
 21
20.2027004111
 31
0.0
  0
LINE
  5
81
330
7C
100
AcDbEntity
  8
LIVELLO1
100
AcDbLine
 10
237.1763095214
 20
20.2027004111
 30
0.0
 11
359.9868410328
 21
20.2027004111
 31
0.0
  0
LINE
  5
82
330
7C
100
AcDbEntity
  8
LIVELLO1
100
AcDbLine
 10
359.9868410328
 20
25.5890419756
 30
0.0
 11
359.9868410328
 21
20.2027004111
 31
0.0
  0
INSERT
  5
88
330
7C
100
AcDbEntity
  8
CARTIGLIO
 62
    18
100
AcDbBlockReference
  2
SW_NOTE_0
 10
238.4068684024
 20
20.4570586197
 30
0.0
  0
ENDBLK
  5
7E
330
7C
100
AcDbEntity
  8
0
100
AcDbBlockEnd
  0
BLOCK
  5
84
330
83
100
AcDbEntity
  8
0
100
AcDbBlockBegin
  2
SW_NOTE_0
 70
     0
 10
0.0
 20
0.0
 30
0.0
  3
SW_NOTE_0
  1

  0
MTEXT
  5
87
330
83
100
AcDbEntity
  8
CARTIGLIO
 62
     0
100
AcDbMText
 10
0.0
 20
4.6066838046
 30
0.0
 40
3.5
 41
0.0
 71
     1
 72
     1
  1
I disegni non vanno interpretati : nel dubbio chiedere chiarimenti
  7
SLDTEXTSTYLE0
 73
     1
 44
1.0
  0
ENDBLK
  5
85
330
83
100
AcDbEntity
  8
0
100
AcDbBlockEnd
  0
BLOCK
  5
F4
330
F3
100
AcDbEntity
  8
0
100
AcDbBlockBegin
  2
_D
 70
     0
 10
0.0
 20
0.0
 30
0.0
  3
_D
  1

  0
SOLID
  5
F6
330
F3
100
AcDbEntity
  8
LIVELLO1
100
AcDbTrace
 10
48.9036779602
 20
118.5497881971
 30
0.0
 11
51.7036779602
 21
118.1997881971
 31
0.0
 12
51.7036779602
 22
118.8997881971
 32
0.0
 13
51.7036779602
 23
118.8997881971
 33
0.0
  0
SOLID
  5
F7
330
F3
100
AcDbEntity
  8
LIVELLO1
100
AcDbTrace
 10
166.1836779602
 20
118.5497881971
 30
0.0
 11
163.3836779602
 21
118.8997881971
 31
0.0
 12
163.3836779602
 22
118.1997881971
 32
0.0
 13
163.3836779602
 23
118.1997881971
 33
0.0
  0
LINE
  5
F8
330
F3
100
AcDbEntity
  8
LIVELLO1
100
AcDbLine
 10
48.9036779602
 20
184.3110084171
 30
0.0
 11
48.9036779602
 21
117.5497881971
 31
0.0
  0
LINE
  5
F9
330
F3
100
AcDbEntity
  8
LIVELLO1
100
AcDbLine
 10
166.1836779602
 20
184.3110084171
 30
0.0
 11
166.1836779602
 21
117.5497881971
 31
0.0
  0
LINE
  5
FA
330
F3
100
AcDbEntity
  8
LIVELLO1
100
AcDbLine
 10
48.9036779602
 20
118.5497881971
 30
0.0
 11
166.1836779602
 21
118.5497881971
 31
0.0
  0
MTEXT
  5
FC
330
F3
100
AcDbEntity
  8
LIVELLO1
100
AcDbMText
 10
103.3895112878
 20
122.4983743153
 30
0.0
 40
3.0
 41
0.0
 71
     1
 72
     1
  1
117,3
  7
SLDTEXTSTYLE1
 73
     1
 44
1.0
  0
ENDBLK
  5
F5
330
F3
100
AcDbEntity
  8
0
100
AcDbBlockEnd
  0
BLOCK
  5
FF
330
FE
100
AcDbEntity
  8
0
100
AcDbBlockBegin
  2
_D_1
 70
     0
 10
0.0
 20
0.0
 30
0.0
  3
_D_1
  1

  0
SOLID
  5
101
330
FE
100
AcDbEntity
  8
LIVELLO1
100
AcDbTrace
 10
143.3936779602
 20
287.1209717602
 30
0.0
 11
140.5936779602
 21
287.4709717602
 31
0.0
 12
140.5936779602
 22
286.7709717602
 32
0.0
 13
140.5936779602
 23
286.7709717602
 33
0.0
  0
SOLID
  5
102
330
FE
100
AcDbEntity
  8
LIVELLO1
100
AcDbTrace
 10
71.6936779602
 20
287.1209717602
 30
0.0
 11
74.4936779602
 21
286.7709717602
 31
0.0
 12
74.4936779602
 22
287.4709717602
 32
0.0
 13
74.4936779602
 23
287.4709717602
 33
0.0
  0
LINE
  5
103
330
FE
100
AcDbEntity
  8
LIVELLO1
100
AcDbLine
 10
143.3936779602
 20
252.4710084171
 30
0.0
 11
143.3936779602
 21
288.1209717602
 31
0.0
  0
LINE
  5
104
330
FE
100
AcDbEntity
  8
LIVELLO1
100
AcDbLine
 10
71.6936779602
 20
252.4710084171
 30
0.0
 11
71.6936779602
 21
288.1209717602
 31
0.0
  0
LINE
  5
105
330
FE
100
AcDbEntity
  8
LIVELLO1
100
AcDbLine
 10
143.3936779602
 20
287.1209717602
 30
0.0
 11
71.6936779602
 21
287.1209717602
 31
0.0
  0
MTEXT
  5
106
330
FE
100
AcDbEntity
  8
LIVELLO1
100
AcDbMText
 10
104.3124279777
 20
291.0695578785
 30
0.0
 40
3.0
 41
0.0
 71
     1
 72
     1
  1
71,7
  7
SLDTEXTSTYLE1
 73
     1
 44
1.0
  0
ENDBLK
  5
100
330
FE
100
AcDbEntity
  8
0
100
AcDbBlockEnd
  0
BLOCK
  5
10A
330
109
100
AcDbEntity
  8
0
100
AcDbBlockBegin
  2
_None
 70
     0
 10
0.0
 20
0.0
 30
0.0
  3
_None
  1

  0
ENDBLK
  5
10B
330
109
100
AcDbEntity
  8
0
100
AcDbBlockEnd
  0
BLOCK
  5
10D
330
10C
100
AcDbEntity
  8
0
100
AcDbBlockBegin
  2
_D_2
 70
     0
 10
0.0
 20
0.0
 30
0.0
  3
_D_2
  1

  0
MTEXT
  5
10F
330
10C
100
AcDbEntity
  8
LIVELLO1
100
AcDbMText
 10
19.4568712884
 20
269.1737702768
 30
0.0
 40
3.0
 41
0.0
 71
     1
 72
     1
  1
%%c
  7
SLDTEXTSTYLE1
 11
0.816842268560673
 21
-0.5768610823176177
 31
0.0
 73
     1
 44
1.0
  0
MTEXT
  5
110
330
10C
100
AcDbEntity
  8
LIVELLO1
100
AcDbMText
 10
23.1235578318
 20
266.5639207284
 30
0.0
 40
3.0
 41
0.0
 71
     1
 72
     1
  1
150
  7
SLDTEXTSTYLE1
 11
0.816842268560673
 21
-0.5768610823176177
 31
0.0
 73
     1
 44
1.0
  0
ENDBLK
  5
10E
330
10C
100
AcDbEntity
  8
0
100
AcDbBlockEnd
  0
BLOCK
  5
112
330
111
100
AcDbEntity
  8
0
100
AcDbBlockBegin
  2
SW_CENTERMARKSYMBOL_0
 70
     0
 10
0.0
 20
0.0
 30
0.0
  3
SW_CENTERMARKSYMBOL_0
  1

  0
LINE
  5
114
330
111
100
AcDbEntity
  8
LIVELLO1
 62
     0
100
AcDbLine
 10
0.0
 20
0.0
 30
0.0
 11
0.0
 21
3.0
 31
0.0
  0
LINE
  5
115
330
111
100
AcDbEntity
  8
LIVELLO1
 62
     0
100
AcDbLine
 10
0.0
 20
0.0
 30
0.0
 11
-3.0
 21
0.0
 31
0.0
  0
LINE
  5
116
330
111
100
AcDbEntity
  8
LIVELLO1
 62
     0
100
AcDbLine
 10
0.0
 20
0.0
 30
0.0
 11
0.0
 21
-3.0
 31
0.0
  0
LINE
  5
117
330
111
100
AcDbEntity
  8
LIVELLO1
 62
     0
100
AcDbLine
 10
0.0
 20
0.0
 30
0.0
 11
3.0
 21
0.0
 31
0.0
  0
LINE
  5
118
330
111
100
AcDbEntity
  8
LIVELLO1
 62
     0
100
AcDbLine
 10
0.0
 20
6.0
 30
0.0
 11
0.0
 21
23.0
 31
0.0
  0
LINE
  5
119
330
111
100
AcDbEntity
  8
LIVELLO1
 62
     0
100
AcDbLine
 10
-6.0
 20
0.0
 30
0.0
 11
-23.0
 21
0.0
 31
0.0
  0
LINE
  5
11A
330
111
100
AcDbEntity
  8
LIVELLO1
 62
     0
100
AcDbLine
 10
0.0
 20
-6.0
 30
0.0
 11
0.0
 21
-23.0
 31
0.0
  0
LINE
  5
11B
330
111
100
AcDbEntity
  8
LIVELLO1
 62
     0
100
AcDbLine
 10
6.0
 20
0.0
 30
0.0
 11
23.0
 21
0.0
 31
0.0
  0
ENDBLK
  5
113
330
111
100
AcDbEntity
  8
0
100
AcDbBlockEnd
  0
BLOCK
  5
11E
330
11D
100
AcDbEntity
  8
0
100
AcDbBlockBegin
  2
SW_CENTERMARKSYMBOL_1
 70
     0
 10
0.0
 20
0.0
 30
0.0
  3
SW_CENTERMARKSYMBOL_1
  1

  0
ARC
  5
120
330
11D
100
AcDbEntity
  8
LIVELLO1
 62
     0
100
AcDbCircle
 10
57.065
 20
-18.5417586228
 30
0.0
 40
60.00175862276893
100
AcDbArc
 50
161.9998036935
 51
164.8645087035
  0
ARC
  5
121
330
11D
100
AcDbEntity
  8
LIVELLO1
 62
     0
100
AcDbCircle
 10
57.065
 20
-18.5417586228
 30
0.0
 40
60.00175862276893
100
AcDbArc
 50
159.1350986834
 51
161.9998036935
  0
ARC
  5
122
330
11D
100
AcDbEntity
  8
LIVELLO1
 62
     0
100
AcDbCircle
 10
57.065
 20
-18.5417586228
 30
0.0
 40
60.00175862276895
100
AcDbArc
 50
90.0
 51
92.8647050101
  0
ARC
  5
123
330
11D
100
AcDbEntity
  8
LIVELLO1
 62
     0
100
AcDbCircle
 10
57.065
 20
-18.5417586228
 30
0.0
 40
60.00175862276895
100
AcDbArc
 50
87.1352949899
 51
90.0
  0
ARC
  5
124
330
11D
100
AcDbEntity
  8
LIVELLO1
 62
     0
100
AcDbCircle
 10
57.065
 20
-18.5417586228
 30
0.0
 40
60.00175862276895
100
AcDbArc
 50
18.0001963065
 51
20.8649013166
  0
ARC
  5
125
330
11D
100
AcDbEntity
  8
LIVELLO1
 62
     0
100
AcDbCircle
 10
57.065
 20
-18.5417586228
 30
0.0
 40
60.00175862276893
100
AcDbArc
 50
15.1354912965
 51
18.0001963065
  0
ARC
  5
126
330
11D
100
AcDbEntity
  8
LIVELLO1
 62
     0
100
AcDbCircle
 10
57.065
 20
-18.5417586228
 30
0.0
 40
59.99650907339817
100
AcDbArc
 50
305.9999253707
 51
308.8648810355
  0
ARC
  5
127
330
11D
100
AcDbEntity
  8
LIVELLO1
 62
     0
100
AcDbCircle
 10
57.065
 20
-18.5417586228
 30
0.0
 40
59.99650907339816
100
AcDbArc
 50
303.1349697058
 51
305.9999253707
  0
ARC
  5
128
330
11D
100
AcDbEntity
  8
LIVELLO1
 62
     0
100
AcDbCircle
 10
57.065
 20
-18.5417586228
 30
0.0
 40
59.99650907339817
100
AcDbArc
 50
234.0000746293
 51
236.8650302942
  0
ARC
  5
129
330
11D
100
AcDbEntity
  8
LIVELLO1
 62
     0
100
AcDbCircle
 10
57.065
 20
-18.5417586228
 30
0.0
 40
59.99650907339817
100
AcDbArc
 50
231.1351189645
 51
234.0000746293
  0
ARC
  5
12A
330
11D
100
AcDbEntity
  8
LIVELLO1
 62
     0
100
AcDbCircle
 10
57.065
 20
-18.5417586228
 30
0.0
 40
60.00175862276893
100
AcDbArc
 50
23.7296063267
 51
84.2705899799
  0
ARC
  5
12B
330
11D
100
AcDbEntity
  8
LIVELLO1
 62
     0
100
AcDbCircle
 10
57.065
 20
-18.5417586228
 30
0.0
 40
60.00175862276892
100
AcDbArc
 50
95.7294100201
 51
156.2703936733
  0
ARC
  5
12C
330
11D
100
AcDbEntity
  8
LIVELLO1
 62
     0
100
AcDbCircle
 10
57.065
 20
-18.5417586228
 30
0.0
 40
60.00175862276892
100
AcDbArc
 50
167.7292137136
 51
12.2707862864
  0
ARC
  5
12D
330
11D
100
AcDbEntity
  8
LIVELLO1
 62
     0
100
AcDbCircle
 10
57.065
 20
-18.5417586228
 30
0.0
 40
59.99650907339817
100
AcDbArc
 50
239.729985959
 51
300.270014041
  0
ARC
  5
12E
330
11D
100
AcDbEntity
  8
LIVELLO1
 62
     0
100
AcDbCircle
 10
57.065
 20
-18.5417586228
 30
0.0
 40
59.99650907339816
100
AcDbArc
 50
311.7298367003
 51
228.2701632997
  0
LINE
  5
12F
330
11D
100
AcDbEntity
  8
LIVELLO1
 62
     0
100
AcDbLine
 10
0.0
 20
0.0
 30
0.0
 11
-2.8531663726
 21
0.9270607586
 31
0.0
  0
LINE
  5
130
330
11D
100
AcDbEntity
  8
LIVELLO1
 62
     0
100
AcDbLine
 10
0.0
 20
0.0
 30
0.0
 11
2.8531663726
 21
-0.9270607586
 31
0.0
  0
LINE
  5
131
330
11D
100
AcDbEntity
  8
LIVELLO1
 62
     0
100
AcDbLine
 10
-5.7063327452
 20
1.8541215173
 30
0.0
 11
-8.0839713891
 21
2.6266721495
 31
0.0
  0
LINE
  5
132
330
11D
100
AcDbEntity
  8
LIVELLO1
 62
     0
100
AcDbLine
 10
5.7063327452
 20
-1.8541215173
 30
0.0
 11
8.0839713891
 21
-2.6266721495
 31
0.0
  0
LINE
  5
133
330
11D
100
AcDbEntity
  8
LIVELLO1
 62
     0
100
AcDbLine
 10
57.065
 20
41.46
 30
0.0
 11
57.065
 21
44.46
 31
0.0
  0
LINE
  5
134
330
11D
100
AcDbEntity
  8
LIVELLO1
 62
     0
100
AcDbLine
 10
57.065
 20
41.46
 30
0.0
 11
57.065
 21
38.46
 31
0.0
  0
LINE
  5
135
330
11D
100
AcDbEntity
  8
LIVELLO1
 62
     0
100
AcDbLine
 10
57.065
 20
47.46
 30
0.0
 11
57.065
 21
49.96
 31
0.0
  0
LINE
  5
136
330
11D
100
AcDbEntity
  8
LIVELLO1
 62
     0
100
AcDbLine
 10
57.065
 20
35.46
 30
0.0
 11
57.065
 21
32.96
 31
0.0
  0
LINE
  5
137
330
11D
100
AcDbEntity
  8
LIVELLO1
 62
     0
100
AcDbLine
 10
114.13
 20
0.0
 30
0.0
 11
116.9831663726
 21
0.9270607586
 31
0.0
  0
LINE
  5
138
330
11D
100
AcDbEntity
  8
LIVELLO1
 62
     0
100
AcDbLine
 10
114.13
 20
0.0
 30
0.0
 11
111.2768336274
 21
-0.9270607586
 31
0.0
  0
LINE
  5
139
330
11D
100
AcDbEntity
  8
LIVELLO1
 62
     0
100
AcDbLine
 10
119.8363327452
 20
1.8541215173
 30
0.0
 11
122.2139713891
 21
2.6266721495
 31
0.0
  0
LINE
  5
13A
330
11D
100
AcDbEntity
  8
LIVELLO1
 62
     0
100
AcDbLine
 10
108.4236672548
 20
-1.8541215173
 30
0.0
 11
106.0460286109
 21
-2.6266721495
 31
0.0
  0
LINE
  5
13B
330
11D
100
AcDbEntity
  8
LIVELLO1
 62
     0
100
AcDbLine
 10
57.065
 20
-18.5417586228
 30
0.0
 11
57.065
 21
-15.5417586228
 31
0.0
  0
LINE
  5
13C
330
11D
100
AcDbEntity
  8
LIVELLO1
 62
     0
100
AcDbLine
 10
57.065
 20
-18.5417586228
 30
0.0
 11
54.065
 21
-18.5417586228
 31
0.0
  0
LINE
  5
13D
330
11D
100
AcDbEntity
  8
LIVELLO1
 62
     0
100
AcDbLine
 10
57.065
 20
-18.5417586228
 30
0.0
 11
57.065
 21
-21.5417586228
 31
0.0
  0
LINE
  5
13E
330
11D
100
AcDbEntity
  8
LIVELLO1
 62
     0
100
AcDbLine
 10
57.065
 20
-18.5417586228
 30
0.0
 11
60.065
 21
-18.5417586228
 31
0.0
  0
LINE
  5
13F
330
11D
100
AcDbEntity
  8
LIVELLO1
 62
     0
100
AcDbLine
 10
57.065
 20
-12.5417586228
 30
0.0
 11
57.065
 21
33.0007442131
 31
0.0
  0
LINE
  5
140
330
11D
100
AcDbEntity
  8
LIVELLO1
 62
     0
100
AcDbLine
 10
51.065
 20
-18.5417586228
 30
0.0
 11
5.5224971641
 21
-18.5417586228
 31
0.0
  0
LINE
  5
141
330
11D
100
AcDbEntity
  8
LIVELLO1
 62
     0
100
AcDbLine
 10
57.065
 20
-24.5417586228
 30
0.0
 11
57.065
 21
-70.0842614587
 31
0.0
  0
LINE
  5
142
330
11D
100
AcDbEntity
  8
LIVELLO1
 62
     0
100
AcDbLine
 10
63.065
 20
-18.5417586228
 30
0.0
 11
108.6075028359
 21
-18.5417586228
 31
0.0
  0
LINE
  5
143
330
11D
100
AcDbEntity
  8
LIVELLO1
 62
     0
100
AcDbLine
 10
92.33
 20
-67.08
 30
0.0
 11
94.0933525956
 21
-69.5070532799
 31
0.0
  0
LINE
  5
144
330
11D
100
AcDbEntity
  8
LIVELLO1
 62
     0
100
AcDbLine
 10
92.33
 20
-67.08
 30
0.0
 11
90.5666474044
 21
-64.6529467201
 31
0.0
  0
LINE
  5
145
330
11D
100
AcDbEntity
  8
LIVELLO1
 62
     0
100
AcDbLine
 10
95.8567051911
 20
-71.9341065599
 30
0.0
 11
97.3261656875
 21
-73.9566509598
 31
0.0
  0
LINE
  5
146
330
11D
100
AcDbEntity
  8
LIVELLO1
 62
     0
100
AcDbLine
 10
88.8032948089
 20
-62.2258934401
 30
0.0
 11
87.3338343125
 21
-60.2033490402
 31
0.0
  0
LINE
  5
147
330
11D
100
AcDbEntity
  8
LIVELLO1
 62
     0
100
AcDbLine
 10
21.8
 20
-67.08
 30
0.0
 11
20.0366474044
 21
-69.5070532799
 31
0.0
  0
LINE
  5
148
330
11D
100
AcDbEntity
  8
LIVELLO1
 62
     0
100
AcDbLine
 10
21.8
 20
-67.08
 30
0.0
 11
23.5633525956
 21
-64.6529467201
 31
0.0
  0
LINE
  5
149
330
11D
100
AcDbEntity
  8
LIVELLO1
 62
     0
100
AcDbLine
 10
18.2732948089
 20
-71.9341065599
 30
0.0
 11
16.8038343125
 21
-73.9566509598
 31
0.0
  0
LINE
  5
14A
330
11D
100
AcDbEntity
  8
LIVELLO1
 62
     0
100
AcDbLine
 10
25.3267051911
 20
-62.2258934401
 30
0.0
 11
26.7961656875
 21
-60.2033490402
 31
0.0
  0
ENDBLK
  5
11F
330
11D
100
AcDbEntity
  8
0
100
AcDbBlockEnd
  0
BLOCK
  5
14D
330
14C
100
AcDbEntity
  8
0
100
AcDbBlockBegin
  2
SW_CENTERMARKSYMBOL_2
 70
     0
 10
0.0
 20
0.0
 30
0.0
  3
SW_CENTERMARKSYMBOL_2
  1

  0
ARC
  5
14F
330
14C
100
AcDbEntity
  8
LIVELLO1
 62
     0
100
AcDbCircle
 10
35.85
 20
-49.3543886034
 30
0.0
 40
61.00064077051989
100
AcDbArc
 50
125.9938736346
 51
128.8116692572
  0
ARC
  5
150
330
14C
100
AcDbEntity
  8
LIVELLO1
 62
     0
100
AcDbCircle
 10
35.85
 20
-49.3543886034
 30
0.0
 40
61.00064077051989
100
AcDbArc
 50
123.176078012
 51
125.9938736346
  0
ARC
  5
151
330
14C
100
AcDbEntity
  8
LIVELLO1
 62
     0
100
AcDbCircle
 10
35.85
 20
-49.3543886034
 30
0.0
 40
61.00064077051989
100
AcDbArc
 50
54.0061263654
 51
56.823921988
  0
ARC
  5
152
330
14C
100
AcDbEntity
  8
LIVELLO1
 62
     0
100
AcDbCircle
 10
35.85
 20
-49.3543886034
 30
0.0
 40
61.00064077051989
100
AcDbArc
 50
51.1883307428
 51
54.0061263654
  0
ARC
  5
153
330
14C
100
AcDbEntity
  8
LIVELLO1
 62
     0
100
AcDbCircle
 10
35.85
 20
-49.3543886034
 30
0.0
 40
61.0006407705199
100
AcDbArc
 50
344.0082505363
 51
346.8260461589
  0
ARC
  5
154
330
14C
100
AcDbEntity
  8
LIVELLO1
 62
     0
100
AcDbCircle
 10
35.85
 20
-49.3543886034
 30
0.0
 40
61.0006407705199
100
AcDbArc
 50
341.1904549137
 51
344.0082505363
  0
ARC
  5
155
330
14C
100
AcDbEntity
  8
LIVELLO1
 62
     0
100
AcDbCircle
 10
35.85
 20
-49.3543886034
 30
0.0
 40
60.99561139661428
100
AcDbArc
 50
270.0
 51
272.8180279631
  0
ARC
  5
156
330
14C
100
AcDbEntity
  8
LIVELLO1
 62
     0
100
AcDbCircle
 10
35.85
 20
-49.3543886034
 30
0.0
 40
60.99561139661428
100
AcDbArc
 50
267.1819720369
 51
270.0
  0
ARC
  5
157
330
14C
100
AcDbEntity
  8
LIVELLO1
 62
     0
100
AcDbCircle
 10
35.85
 20
-49.3543886034
 30
0.0
 40
60.99561139661429
100
AcDbArc
 50
275.6360559261
 51
281.2721118522
  0
ARC
  5
158
330
14C
100
AcDbEntity
  8
LIVELLO1
 62
     0
100
AcDbCircle
 10
35.85
 20
-49.3543886034
 30
0.0
 40
60.99561139661427
100
AcDbArc
 50
258.7278881478
 51
264.3639440739
  0
ARC
  5
159
330
14C
100
AcDbEntity
  8
LIVELLO1
 62
     0
100
AcDbCircle
 10
35.85
 20
-49.3543886034
 30
0.0
 40
61.00064077051989
100
AcDbArc
 50
195.9917494637
 51
198.8095450863
  0
ARC
  5
15A
330
14C
100
AcDbEntity
  8
LIVELLO1
 62
     0
100
AcDbCircle
 10
35.85
 20
-49.3543886034
 30
0.0
 40
61.00064077051989
100
AcDbArc
 50
193.1739538411
 51
195.9917494637
  0
ARC
  5
15B
330
14C
100
AcDbEntity
  8
LIVELLO1
 62
     0
100
AcDbCircle
 10
35.85
 20
-49.3543886034
 30
0.0
 40
61.00064077051988
100
AcDbArc
 50
59.6417176107
 51
120.3582823893
  0
ARC
  5
15C
330
14C
100
AcDbEntity
  8
LIVELLO1
 62
     0
100
AcDbCircle
 10
35.85
 20
-49.3543886034
 30
0.0
 40
61.00064077051989
100
AcDbArc
 50
349.6438417816
 51
48.3705351202
  0
ARC
  5
15D
330
14C
100
AcDbEntity
  8
LIVELLO1
 62
     0
100
AcDbCircle
 10
35.85
 20
-49.3543886034
 30
0.0
 40
61.00064077051989
100
AcDbArc
 50
131.6294648798
 51
190.3561582184
  0
ARC
  5
15E
330
14C
100
AcDbEntity
  8
LIVELLO1
 62
     0
100
AcDbCircle
 10
35.85
 20
-49.3543886034
 30
0.0
 40
61.00064077051989
100
AcDbArc
 50
201.6273407089
 51
338.3726592911
  0
LINE
  5
15F
330
14C
100
AcDbEntity
  8
LIVELLO1
 62
     0
100
AcDbLine
 10
0.0
 20
0.0
 30
0.0
 11
-1.7630962338
 21
2.4272395165
 31
0.0
  0
LINE
  5
160
330
14C
100
AcDbEntity
  8
LIVELLO1
 62
     0
100
AcDbLine
 10
0.0
 20
0.0
 30
0.0
 11
1.7630962338
 21
-2.4272395165
 31
0.0
  0
LINE
  5
161
330
14C
100
AcDbEntity
  8
LIVELLO1
 62
     0
100
AcDbLine
 10
-3.5261924675
 20
4.854479033
 30
0.0
 11
-7.0523849351
 21
9.708958066
 31
0.0
  0
LINE
  5
162
330
14C
100
AcDbEntity
  8
LIVELLO1
 62
     0
100
AcDbLine
 10
3.5261924675
 20
-4.854479033
 30
0.0
 11
7.0523849351
 21
-9.708958066
 31
0.0
  0
LINE
  5
163
330
14C
100
AcDbEntity
  8
LIVELLO1
 62
     0
100
AcDbLine
 10
71.7
 20
0.0
 30
0.0
 11
73.4630962338
 21
2.4272395165
 31
0.0
  0
LINE
  5
164
330
14C
100
AcDbEntity
  8
LIVELLO1
 62
     0
100
AcDbLine
 10
71.7
 20
0.0
 30
0.0
 11
69.9369037662
 21
-2.4272395165
 31
0.0
  0
LINE
  5
165
330
14C
100
AcDbEntity
  8
LIVELLO1
 62
     0
100
AcDbLine
 10
75.2261924675
 20
4.854479033
 30
0.0
 11
78.7523849351
 21
9.708958066
 31
0.0
  0
LINE
  5
166
330
14C
100
AcDbEntity
  8
LIVELLO1
 62
     0
100
AcDbLine
 10
68.1738075325
 20
-4.854479033
 30
0.0
 11
64.6476150649
 21
-9.708958066
 31
0.0
  0
LINE
  5
167
330
14C
100
AcDbEntity
  8
LIVELLO1
 62
     0
100
AcDbLine
 10
94.49
 20
-66.16
 30
0.0
 11
97.3739041324
 21
-66.9864967966
 31
0.0
  0
LINE
  5
168
330
14C
100
AcDbEntity
  8
LIVELLO1
 62
     0
100
AcDbLine
 10
94.49
 20
-66.16
 30
0.0
 11
91.6060958676
 21
-65.3335032034
 31
0.0
  0
LINE
  5
169
330
14C
100
AcDbEntity
  8
LIVELLO1
 62
     0
100
AcDbLine
 10
100.2578082649
 20
-67.8129935933
 30
0.0
 11
106.0256165298
 21
-69.4659871866
 31
0.0
  0
LINE
  5
16A
330
14C
100
AcDbEntity
  8
LIVELLO1
 62
     0
100
AcDbLine
 10
88.7221917351
 20
-64.5070064067
 30
0.0
 11
82.9543834702
 21
-62.8540128134
 31
0.0
  0
LINE
  5
16B
330
14C
100
AcDbEntity
  8
LIVELLO1
 62
     0
100
AcDbLine
 10
35.85
 20
-49.3543886034
 30
0.0
 11
35.85
 21
-46.3543886034
 31
0.0
  0
LINE
  5
16C
330
14C
100
AcDbEntity
  8
LIVELLO1
 62
     0
100
AcDbLine
 10
35.85
 20
-49.3543886034
 30
0.0
 11
32.85
 21
-49.3543886034
 31
0.0
  0
LINE
  5
16D
330
14C
100
AcDbEntity
  8
LIVELLO1
 62
     0
100
AcDbLine
 10
35.85
 20
-49.3543886034
 30
0.0
 11
35.85
 21
-52.3543886034
 31
0.0
  0
LINE
  5
16E
330
14C
100
AcDbEntity
  8
LIVELLO1
 62
     0
100
AcDbLine
 10
35.85
 20
-49.3543886034
 30
0.0
 11
38.85
 21
-49.3543886034
 31
0.0
  0
LINE
  5
16F
330
14C
100
AcDbEntity
  8
LIVELLO1
 62
     0
100
AcDbLine
 10
35.85
 20
-43.3543886034
 30
0.0
 11
35.85
 21
3.0
 31
0.0
  0
LINE
  5
170
330
14C
100
AcDbEntity
  8
LIVELLO1
 62
     0
100
AcDbLine
 10
29.85
 20
-49.3543886034
 30
0.0
 11
-16.5043886034
 21
-49.3543886034
 31
0.0
  0
LINE
  5
171
330
14C
100
AcDbEntity
  8
LIVELLO1
 62
     0
100
AcDbLine
 10
35.85
 20
-55.3543886034
 30
0.0
 11
35.85
 21
-101.7087772068
 31
0.0
  0
LINE
  5
172
330
14C
100
AcDbEntity
  8
LIVELLO1
 62
     0
100
AcDbLine
 10
41.85
 20
-49.3543886034
 30
0.0
 11
88.2043886034
 21
-49.3543886034
 31
0.0
  0
LINE
  5
173
330
14C
100
AcDbEntity
  8
LIVELLO1
 62
     0
100
AcDbLine
 10
35.85
 20
-110.35
 30
0.0
 11
35.85
 21
-113.35
 31
0.0
  0
LINE
  5
174
330
14C
100
AcDbEntity
  8
LIVELLO1
 62
     0
100
AcDbLine
 10
35.85
 20
-110.35
 30
0.0
 11
35.85
 21
-107.35
 31
0.0
  0
LINE
  5
175
330
14C
100
AcDbEntity
  8
LIVELLO1
 62
     0
100
AcDbLine
 10
35.85
 20
-116.35
 30
0.0
 11
35.85
 21
-122.35
 31
0.0
  0
LINE
  5
176
330
14C
100
AcDbEntity
  8
LIVELLO1
 62
     0
100
AcDbLine
 10
35.85
 20
-104.35
 30
0.0
 11
35.85
 21
-98.35
 31
0.0
  0
LINE
  5
177
330
14C
100
AcDbEntity
  8
LIVELLO1
 62
     0
100
AcDbLine
 10
-22.79
 20
-66.16
 30
0.0
 11
-25.6739041324
 21
-66.9864967966
 31
0.0
  0
LINE
  5
178
330
14C
100
AcDbEntity
  8
LIVELLO1
 62
     0
100
AcDbLine
 10
-22.79
 20
-66.16
 30
0.0
 11
-19.9060958676
 21
-65.3335032034
 31
0.0
  0
LINE
  5
179
330
14C
100
AcDbEntity
  8
LIVELLO1
 62
     0
100
AcDbLine
 10
-28.5578082649
 20
-67.8129935933
 30
0.0
 11
-34.3256165298
 21
-69.4659871866
 31
0.0
  0
LINE
  5
17A
330
14C
100
AcDbEntity
  8
LIVELLO1
 62
     0
100
AcDbLine
 10
-17.0221917351
 20
-64.5070064067
 30
0.0
 11
-11.2543834702
 21
-62.8540128134
 31
0.0
  0
ENDBLK
  5
14E
330
14C
100
AcDbEntity
  8
0
100
AcDbBlockEnd
  0
BLOCK
  5
17D
330
17C
100
AcDbEntity
  8
0
100
AcDbBlockBegin
  2
SW_CENTERMARKSYMBOL_3
 70
     0
 10
0.0
 20
0.0
 30
0.0
  3
SW_CENTERMARKSYMBOL_3
  1

  0
ARC
  5
17F
330
17C
100
AcDbEntity
  8
LIVELLO1
 62
     0
100
AcDbCircle
 10
26.0
 20
-36.6875
 30
0.0
 40
44.96635026606008
100
AcDbArc
 50
125.3247521396
 51
129.1473291894
  0
ARC
  5
180
330
17C
100
AcDbEntity
  8
LIVELLO1
 62
     0
100
AcDbCircle
 10
26.0
 20
-36.6875
 30
0.0
 40
44.96635026606008
100
AcDbArc
 50
121.5021750899
 51
125.3247521396
  0
ARC
  5
181
330
17C
100
AcDbEntity
  8
LIVELLO1
 62
     0
100
AcDbCircle
 10
26.0
 20
-36.6875
 30
0.0
 40
44.96635026606008
100
AcDbArc
 50
54.6752478604
 51
58.4978249101
  0
ARC
  5
182
330
17C
100
AcDbEntity
  8
LIVELLO1
 62
     0
100
AcDbCircle
 10
26.0
 20
-36.6875
 30
0.0
 40
44.96635026606008
100
AcDbArc
 50
50.8526708106
 51
54.6752478604
  0
ARC
  5
183
330
17C
100
AcDbEntity
  8
LIVELLO1
 62
     0
100
AcDbCircle
 10
26.0
 20
-36.6875
 30
0.0
 40
44.96635026606006
100
AcDbArc
 50
19.0645474313
 51
22.8871244811
  0
ARC
  5
184
330
17C
100
AcDbEntity
  8
LIVELLO1
 62
     0
100
AcDbCircle
 10
26.0
 20
-36.6875
 30
0.0
 40
44.96635026606006
100
AcDbArc
 50
15.2419703816
 51
19.0645474313
  0
ARC
  5
185
330
17C
100
AcDbEntity
  8
LIVELLO1
 62
     0
100
AcDbCircle
 10
26.0
 20
-36.6875
 30
0.0
 40
45.17435839334079
100
AcDbArc
 50
340.1862067545
 51
343.9911825118
  0
ARC
  5
186
330
17C
100
AcDbEntity
  8
LIVELLO1
 62
     0
100
AcDbCircle
 10
26.0
 20
-36.6875
 30
0.0
 40
45.1743583933408
100
AcDbArc
 50
336.3812309972
 51
340.1862067545
  0
ARC
  5
187
330
17C
100
AcDbEntity
  8
LIVELLO1
 62
     0
100
AcDbCircle
 10
26.0
 20
-36.6875
 30
0.0
 40
45.47771604038621
100
AcDbArc
 50
304.8694556691
 51
308.6490504576
  0
ARC
  5
188
330
17C
100
AcDbEntity
  8
LIVELLO1
 62
     0
100
AcDbCircle
 10
26.0
 20
-36.6875
 30
0.0
 40
45.47771604038621
100
AcDbArc
 50
301.0898608806
 51
304.8694556691
  0
ARC
  5
189
330
17C
100
AcDbEntity
  8
LIVELLO1
 62
     0
100
AcDbCircle
 10
26.0
 20
-36.6875
 30
0.0
 40
45.47771604038621
100
AcDbArc
 50
235.1305443309
 51
238.9101391194
  0
ARC
  5
18A
330
17C
100
AcDbEntity
  8
LIVELLO1
 62
     0
100
AcDbCircle
 10
26.0
 20
-36.6875
 30
0.0
 40
45.47771604038621
100
AcDbArc
 50
231.3509495424
 51
235.1305443309
  0
ARC
  5
18B
330
17C
100
AcDbEntity
  8
LIVELLO1
 62
     0
100
AcDbCircle
 10
26.0
 20
-36.6875
 30
0.0
 40
45.1743583933408
100
AcDbArc
 50
199.8137932455
 51
203.6187690028
  0
ARC
  5
18C
330
17C
100
AcDbEntity
  8
LIVELLO1
 62
     0
100
AcDbCircle
 10
26.0
 20
-36.6875
 30
0.0
 40
45.1743583933408
100
AcDbArc
 50
196.0088174882
 51
199.8137932455
  0
ARC
  5
18D
330
17C
100
AcDbEntity
  8
LIVELLO1
 62
     0
100
AcDbCircle
 10
26.0
 20
-36.6875
 30
0.0
 40
44.96635026606008
100
AcDbArc
 50
160.9354525687
 51
164.7580296184
  0
ARC
  5
18E
330
17C
100
AcDbEntity
  8
LIVELLO1
 62
     0
100
AcDbCircle
 10
26.0
 20
-36.6875
 30
0.0
 40
44.96635026606007
100
AcDbArc
 50
157.1128755189
 51
160.9354525687
  0
ARC
  5
18F
330
17C
100
AcDbEntity
  8
LIVELLO1
 62
     0
100
AcDbCircle
 10
26.0
 20
-36.6875
 30
0.0
 40
44.96635026606008
100
AcDbArc
 50
26.7097015309
 51
47.0300937608
  0
ARC
  5
190
330
17C
100
AcDbEntity
  8
LIVELLO1
 62
     0
100
AcDbCircle
 10
26.0
 20
-36.6875
 30
0.0
 40
44.96635026606005
100
AcDbArc
 50
62.3204019599
 51
117.6795980401
  0
ARC
  5
191
330
17C
100
AcDbEntity
  8
LIVELLO1
 62
     0
100
AcDbCircle
 10
26.0
 20
-36.6875
 30
0.0
 40
45.47771604038619
100
AcDbArc
 50
242.6897339079
 51
297.3102660921
  0
ARC
  5
192
330
17C
100
AcDbEntity
  8
LIVELLO1
 62
     0
100
AcDbCircle
 10
26.0
 20
-36.6875
 30
0.0
 40
45.4777160403862
100
AcDbArc
 50
312.4286452462
 51
227.5713547538
  0
ARC
  5
193
330
17C
100
AcDbEntity
  8
LIVELLO1
 62
     0
100
AcDbCircle
 10
26.0
 20
-36.6875
 30
0.0
 40
45.1743583933408
100
AcDbArc
 50
207.4237447601
 51
332.5762552399
  0
ARC
  5
194
330
17C
100
AcDbEntity
  8
LIVELLO1
 62
     0
100
AcDbCircle
 10
26.0
 20
-36.6875
 30
0.0
 40
45.1743583933408
100
AcDbArc
 50
347.7961582691
 51
192.2038417309
  0
ARC
  5
195
330
17C
100
AcDbEntity
  8
LIVELLO1
 62
     0
100
AcDbCircle
 10
26.0
 20
-36.6875
 30
0.0
 40
44.96635026606008
100
AcDbArc
 50
132.9699062392
 51
153.2902984691
  0
ARC
  5
196
330
17C
100
AcDbEntity
  8
LIVELLO1
 62
     0
100
AcDbCircle
 10
26.0
 20
-36.6875
 30
0.0
 40
44.96635026606007
100
AcDbArc
 50
168.5806066682
 51
11.4193933318
  0
LINE
  5
197
330
17C
100
AcDbEntity
  8
LIVELLO1
 62
     0
100
AcDbLine
 10
0.0
 20
0.0
 30
0.0
 11
-1.7346304412
 21
2.4476636273
 31
0.0
  0
LINE
  5
198
330
17C
100
AcDbEntity
  8
LIVELLO1
 62
     0
100
AcDbLine
 10
0.0
 20
0.0
 30
0.0
 11
1.7346304412
 21
-2.4476636273
 31
0.0
  0
LINE
  5
199
330
17C
100
AcDbEntity
  8
LIVELLO1
 62
     0
100
AcDbLine
 10
-1.7346304412
 20
2.4476636273
 30
0.0
 11
-2.94887175
 21
4.1610281665
 31
0.0
  0
LINE
  5
19A
330
17C
100
AcDbEntity
  8
LIVELLO1
 62
     0
100
AcDbLine
 10
1.7346304412
 20
-2.4476636273
 30
0.0
 11
2.94887175
 21
-4.1610281665
 31
0.0
  0
LINE
  5
19B
330
17C
100
AcDbEntity
  8
LIVELLO1
 62
     0
100
AcDbLine
 10
52.0
 20
0.0
 30
0.0
 11
53.7346304412
 21
2.4476636273
 31
0.0
  0
LINE
  5
19C
330
17C
100
AcDbEntity
  8
LIVELLO1
 62
     0
100
AcDbLine
 10
52.0
 20
0.0
 30
0.0
 11
50.2653695588
 21
-2.4476636273
 31
0.0
  0
LINE
  5
19D
330
17C
100
AcDbEntity
  8
LIVELLO1
 62
     0
100
AcDbLine
 10
53.7346304412
 20
2.4476636273
 30
0.0
 11
54.94887175
 21
4.1610281665
 31
0.0
  0
LINE
  5
19E
330
17C
100
AcDbEntity
  8
LIVELLO1
 62
     0
100
AcDbLine
 10
50.2653695588
 20
-2.4476636273
 30
0.0
 11
49.05112825
 21
-4.1610281665
 31
0.0
  0
LINE
  5
19F
330
17C
100
AcDbEntity
  8
LIVELLO1
 62
     0
100
AcDbLine
 10
68.5
 20
-22.0
 30
0.0
 11
71.3354536058
 21
-21.0201005921
 31
0.0
  0
LINE
  5
1A0
330
17C
100
AcDbEntity
  8
LIVELLO1
 62
     0
100
AcDbLine
 10
68.5
 20
-22.0
 30
0.0
 11
65.6645463942
 21
-22.9798994079
 31
0.0
  0
LINE
  5
1A1
330
17C
100
AcDbEntity
  8
LIVELLO1
 62
     0
100
AcDbLine
 10
71.3354536058
 20
-21.0201005921
 30
0.0
 11
73.3202711298
 21
-20.3341710066
 31
0.0
  0
LINE
  5
1A2
330
17C
100
AcDbEntity
  8
LIVELLO1
 62
     0
100
AcDbLine
 10
65.6645463942
 20
-22.9798994079
 30
0.0
 11
63.6797288702
 21
-23.6658289934
 31
0.0
  0
LINE
  5
1A3
330
17C
100
AcDbEntity
  8
LIVELLO1
 62
     0
100
AcDbLine
 10
26.0
 20
-36.6875
 30
0.0
 11
26.0
 21
-33.6875
 31
0.0
  0
LINE
  5
1A4
330
17C
100
AcDbEntity
  8
LIVELLO1
 62
     0
100
AcDbLine
 10
26.0
 20
-36.6875
 30
0.0
 11
23.0
 21
-36.6875
 31
0.0
  0
LINE
  5
1A5
330
17C
100
AcDbEntity
  8
LIVELLO1
 62
     0
100
AcDbLine
 10
26.0
 20
-36.6875
 30
0.0
 11
26.0
 21
-39.6875
 31
0.0
  0
LINE
  5
1A6
330
17C
100
AcDbEntity
  8
LIVELLO1
 62
     0
100
AcDbLine
 10
26.0
 20
-36.6875
 30
0.0
 11
29.0
 21
-36.6875
 31
0.0
  0
LINE
  5
1A7
330
17C
100
AcDbEntity
  8
LIVELLO1
 62
     0
100
AcDbLine
 10
26.0
 20
-30.6875
 30
0.0
 11
26.0
 21
3.0
 31
0.0
  0
LINE
  5
1A8
330
17C
100
AcDbEntity
  8
LIVELLO1
 62
     0
100
AcDbLine
 10
20.0
 20
-36.6875
 30
0.0
 11
-13.6875
 21
-36.6875
 31
0.0
  0
LINE
  5
1A9
330
17C
100
AcDbEntity
  8
LIVELLO1
 62
     0
100
AcDbLine
 10
26.0
 20
-42.6875
 30
0.0
 11
26.0
 21
-76.375
 31
0.0
  0
LINE
  5
1AA
330
17C
100
AcDbEntity
  8
LIVELLO1
 62
     0
100
AcDbLine
 10
32.0
 20
-36.6875
 30
0.0
 11
65.6875
 21
-36.6875
 31
0.0
  0
LINE
  5
1AB
330
17C
100
AcDbEntity
  8
LIVELLO1
 62
     0
100
AcDbLine
 10
68.5
 20
-52.0
 30
0.0
 11
71.3223975843
 21
-53.0168932473
 31
0.0
  0
LINE
  5
1AC
330
17C
100
AcDbEntity
  8
LIVELLO1
 62
     0
100
AcDbLine
 10
68.5
 20
-52.0
 30
0.0
 11
65.6776024157
 21
-50.9831067527
 31
0.0
  0
LINE
  5
1AD
330
17C
100
AcDbEntity
  8
LIVELLO1
 62
     0
100
AcDbLine
 10
71.3223975843
 20
-53.0168932473
 30
0.0
 11
73.2980758932
 21
-53.7287185204
 31
0.0
  0
LINE
  5
1AE
330
17C
100
AcDbEntity
  8
LIVELLO1
 62
     0
100
AcDbLine
 10
65.6776024157
 20
-50.9831067527
 30
0.0
 11
63.7019241068
 21
-50.2712814796
 31
0.0
  0
LINE
  5
1AF
330
17C
100
AcDbEntity
  8
LIVELLO1
 62
     0
100
AcDbLine
 10
52.0
 20
-74.0
 30
0.0
 11
53.7151257097
 21
-76.4613703094
 31
0.0
  0
LINE
  5
1B0
330
17C
100
AcDbEntity
  8
LIVELLO1
 62
     0
100
AcDbLine
 10
52.0
 20
-74.0
 30
0.0
 11
50.2848742903
 21
-71.5386296906
 31
0.0
  0
LINE
  5
1B1
330
17C
100
AcDbEntity
  8
LIVELLO1
 62
     0
100
AcDbLine
 10
53.7151257097
 20
-76.4613703094
 30
0.0
 11
54.9157137065
 21
-78.1843295259
 31
0.0
  0
LINE
  5
1B2
330
17C
100
AcDbEntity
  8
LIVELLO1
 62
     0
100
AcDbLine
 10
50.2848742903
 20
-71.5386296906
 30
0.0
 11
49.0842862935
 21
-69.8156704741
 31
0.0
  0
LINE
  5
1B3
330
17C
100
AcDbEntity
  8
LIVELLO1
 62
     0
100
AcDbLine
 10
0.0
 20
-74.0
 30
0.0
 11
-1.7151257097
 21
-76.4613703094
 31
0.0
  0
LINE
  5
1B4
330
17C
100
AcDbEntity
  8
LIVELLO1
 62
     0
100
AcDbLine
 10
0.0
 20
-74.0
 30
0.0
 11
1.7151257097
 21
-71.5386296906
 31
0.0
  0
LINE
  5
1B5
330
17C
100
AcDbEntity
  8
LIVELLO1
 62
     0
100
AcDbLine
 10
-1.7151257097
 20
-76.4613703094
 30
0.0
 11
-2.9157137065
 21
-78.1843295259
 31
0.0
  0
LINE
  5
1B6
330
17C
100
AcDbEntity
  8
LIVELLO1
 62
     0
100
AcDbLine
 10
1.7151257097
 20
-71.5386296906
 30
0.0
 11
2.9157137065
 21
-69.8156704741
 31
0.0
  0
LINE
  5
1B7
330
17C
100
AcDbEntity
  8
LIVELLO1
 62
     0
100
AcDbLine
 10
-16.5
 20
-52.0
 30
0.0
 11
-19.3223975843
 21
-53.0168932473
 31
0.0
  0
LINE
  5
1B8
330
17C
100
AcDbEntity
  8
LIVELLO1
 62
     0
100
AcDbLine
 10
-16.5
 20
-52.0
 30
0.0
 11
-13.6776024157
 21
-50.9831067527
 31
0.0
  0
LINE
  5
1B9
330
17C
100
AcDbEntity
  8
LIVELLO1
 62
     0
100
AcDbLine
 10
-19.3223975843
 20
-53.0168932473
 30
0.0
 11
-21.2980758932
 21
-53.7287185204
 31
0.0
  0
LINE
  5
1BA
330
17C
100
AcDbEntity
  8
LIVELLO1
 62
     0
100
AcDbLine
 10
-13.6776024157
 20
-50.9831067527
 30
0.0
 11
-11.7019241068
 21
-50.2712814796
 31
0.0
  0
LINE
  5
1BB
330
17C
100
AcDbEntity
  8
LIVELLO1
 62
     0
100
AcDbLine
 10
-16.5
 20
-22.0
 30
0.0
 11
-19.3354536058
 21
-21.0201005921
 31
0.0
  0
LINE
  5
1BC
330
17C
100
AcDbEntity
  8
LIVELLO1
 62
     0
100
AcDbLine
 10
-16.5
 20
-22.0
 30
0.0
 11
-13.6645463942
 21
-22.9798994079
 31
0.0
  0
LINE
  5
1BD
330
17C
100
AcDbEntity
  8
LIVELLO1
 62
     0
100
AcDbLine
 10
-19.3354536058
 20
-21.0201005921
 30
0.0
 11
-21.3202711298
 21
-20.3341710066
 31
0.0
  0
LINE
  5
1BE
330
17C
100
AcDbEntity
  8
LIVELLO1
 62
     0
100
AcDbLine
 10
-13.6645463942
 20
-22.9798994079
 30
0.0
 11
-11.6797288702
 21
-23.6658289934
 31
0.0
  0
ENDBLK
  5
17E
330
17C
100
AcDbEntity
  8
0
100
AcDbBlockEnd
  0
BLOCK
  5
1C1
330
1C0
100
AcDbEntity
  8
0
100
AcDbBlockBegin
  2
SW_CENTERMARKSYMBOL_4
 70
     0
 10
0.0
 20
0.0
 30
0.0
  3
SW_CENTERMARKSYMBOL_4
  1

  0
ARC
  5
1C3
330
1C0
100
AcDbEntity
  8
LIVELLO1
 62
     0
100
AcDbCircle
 10
35.0
 20
0.0
 30
0.0
 40
35.00000000000003
100
AcDbArc
 50
180.0
 51
184.9110668154
  0
ARC
  5
1C4
330
1C0
100
AcDbEntity
  8
LIVELLO1
 62
     0
100
AcDbCircle
 10
35.0
 20
0.0
 30
0.0
 40
35.00000000000004
100
AcDbArc
 50
175.0889331846
 51
180.0
  0
ARC
  5
1C5
330
1C0
100
AcDbEntity
  8
LIVELLO1
 62
     0
100
AcDbCircle
 10
35.0
 20
0.0
 30
0.0
 40
35.00000000000003
100
AcDbArc
 50
144.0
 51
148.9110668154
  0
ARC
  5
1C6
330
1C0
100
AcDbEntity
  8
LIVELLO1
 62
     0
100
AcDbCircle
 10
35.0
 20
0.0
 30
0.0
 40
35.00000000000003
100
AcDbArc
 50
139.0889331846
 51
144.0
  0
ARC
  5
1C7
330
1C0
100
AcDbEntity
  8
LIVELLO1
 62
     0
100
AcDbCircle
 10
35.0
 20
0.0
 30
0.0
 40
35.00000000000003
100
AcDbArc
 50
108.0
 51
112.9110668154
  0
ARC
  5
1C8
330
1C0
100
AcDbEntity
  8
LIVELLO1
 62
     0
100
AcDbCircle
 10
35.0
 20
0.0
 30
0.0
 40
35.00000000000004
100
AcDbArc
 50
103.0889331846
 51
108.0
  0
ARC
  5
1C9
330
1C0
100
AcDbEntity
  8
LIVELLO1
 62
     0
100
AcDbCircle
 10
35.0
 20
0.0
 30
0.0
 40
35.00000000000003
100
AcDbArc
 50
72.0
 51
76.9110668154
  0
ARC
  5
1CA
330
1C0
100
AcDbEntity
  8
LIVELLO1
 62
     0
100
AcDbCircle
 10
35.0
 20
0.0
 30
0.0
 40
35.00000000000001
100
AcDbArc
 50
67.0889331846
 51
72.0
  0
ARC
  5
1CB
330
1C0
100
AcDbEntity
  8
LIVELLO1
 62
     0
100
AcDbCircle
 10
35.0
 20
0.0
 30
0.0
 40
34.99999999999999
100
AcDbArc
 50
36.0
 51
40.9110668154
  0
ARC
  5
1CC
330
1C0
100
AcDbEntity
  8
LIVELLO1
 62
     0
100
AcDbCircle
 10
35.0
 20
0.0
 30
0.0
 40
34.99999999999998
100
AcDbArc
 50
31.0889331846
 51
36.0
  0
ARC
  5
1CD
330
1C0
100
AcDbEntity
  8
LIVELLO1
 62
     0
100
AcDbCircle
 10
35.0
 20
0.0
 30
0.0
 40
34.99999999999999
100
AcDbArc
 50
0.0
 51
4.9110668154
  0
ARC
  5
1CE
330
1C0
100
AcDbEntity
  8
LIVELLO1
 62
     0
100
AcDbCircle
 10
35.0
 20
0.0
 30
0.0
 40
34.99999999999999
100
AcDbArc
 50
355.0889331846
 51
0.0
  0
ARC
  5
1CF
330
1C0
100
AcDbEntity
  8
LIVELLO1
 62
     0
100
AcDbCircle
 10
35.0
 20
0.0
 30
0.0
 40
35.00000000000005
100
AcDbArc
 50
324.0
 51
328.9110668154
  0
ARC
  5
1D0
330
1C0
100
AcDbEntity
  8
LIVELLO1
 62
     0
100
AcDbCircle
 10
35.0
 20
0.0
 30
0.0
 40
35.00000000000005
100
AcDbArc
 50
319.0889331846
 51
324.0
  0
ARC
  5
1D1
330
1C0
100
AcDbEntity
  8
LIVELLO1
 62
     0
100
AcDbCircle
 10
35.0
 20
0.0
 30
0.0
 40
35.00000000000012
100
AcDbArc
 50
288.0
 51
292.9110668154
  0
ARC
  5
1D2
330
1C0
100
AcDbEntity
  8
LIVELLO1
 62
     0
100
AcDbCircle
 10
35.0
 20
0.0
 30
0.0
 40
35.00000000000014
100
AcDbArc
 50
283.0889331846
 51
288.0
  0
ARC
  5
1D3
330
1C0
100
AcDbEntity
  8
LIVELLO1
 62
     0
100
AcDbCircle
 10
35.0
 20
0.0
 30
0.0
 40
35.00000000000015
100
AcDbArc
 50
252.0
 51
256.9110668154
  0
ARC
  5
1D4
330
1C0
100
AcDbEntity
  8
LIVELLO1
 62
     0
100
AcDbCircle
 10
35.0
 20
0.0
 30
0.0
 40
35.00000000000014
100
AcDbArc
 50
247.0889331846
 51
252.0
  0
ARC
  5
1D5
330
1C0
100
AcDbEntity
  8
LIVELLO1
 62
     0
100
AcDbCircle
 10
35.0
 20
0.0
 30
0.0
 40
35.00000000000009
100
AcDbArc
 50
216.0
 51
220.9110668154
  0
ARC
  5
1D6
330
1C0
100
AcDbEntity
  8
LIVELLO1
 62
     0
100
AcDbCircle
 10
35.0
 20
0.0
 30
0.0
 40
35.00000000000009
100
AcDbArc
 50
211.0889331846
 51
216.0
  0
ARC
  5
1D7
330
1C0
100
AcDbEntity
  8
LIVELLO1
 62
     0
100
AcDbCircle
 10
35.0
 20
0.0
 30
0.0
 40
35.00000000000003
100
AcDbArc
 50
117.8221336308
 51
134.1778663692
  0
ARC
  5
1D8
330
1C0
100
AcDbEntity
  8
LIVELLO1
 62
     0
100
AcDbCircle
 10
35.0
 20
0.0
 30
0.0
 40
35.00000000000003
100
AcDbArc
 50
153.8221336308
 51
170.1778663692
  0
ARC
  5
1D9
330
1C0
100
AcDbEntity
  8
LIVELLO1
 62
     0
100
AcDbCircle
 10
35.0
 20
0.0
 30
0.0
 40
35.00000000000001
100
AcDbArc
 50
81.8221336308
 51
98.1778663692
  0
ARC
  5
1DA
330
1C0
100
AcDbEntity
  8
LIVELLO1
 62
     0
100
AcDbCircle
 10
35.0
 20
0.0
 30
0.0
 40
35.00000000000001
100
AcDbArc
 50
45.8221336308
 51
62.1778663692
  0
ARC
  5
1DB
330
1C0
100
AcDbEntity
  8
LIVELLO1
 62
     0
100
AcDbCircle
 10
35.0
 20
0.0
 30
0.0
 40
34.99999999999999
100
AcDbArc
 50
9.8221336308
 51
26.1778663692
  0
ARC
  5
1DC
330
1C0
100
AcDbEntity
  8
LIVELLO1
 62
     0
100
AcDbCircle
 10
35.0
 20
0.0
 30
0.0
 40
35.00000000000005
100
AcDbArc
 50
333.8221336308
 51
350.1778663692
  0
ARC
  5
1DD
330
1C0
100
AcDbEntity
  8
LIVELLO1
 62
     0
100
AcDbCircle
 10
35.0
 20
0.0
 30
0.0
 40
35.00000000000011
100
AcDbArc
 50
297.8221336308
 51
314.1778663692
  0
ARC
  5
1DE
330
1C0
100
AcDbEntity
  8
LIVELLO1
 62
     0
100
AcDbCircle
 10
35.0
 20
0.0
 30
0.0
 40
35.00000000000012
100
AcDbArc
 50
261.8221336308
 51
278.1778663692
  0
ARC
  5
1DF
330
1C0
100
AcDbEntity
  8
LIVELLO1
 62
     0
100
AcDbCircle
 10
35.0
 20
0.0
 30
0.0
 40
35.00000000000008
100
AcDbArc
 50
189.8221336308
 51
206.1778663692
  0
ARC
  5
1E0
330
1C0
100
AcDbEntity
  8
LIVELLO1
 62
     0
100
AcDbCircle
 10
35.0
 20
0.0
 30
0.0
 40
35.00000000000011
100
AcDbArc
 50
225.8221336308
 51
242.1778663692
  0
LINE
  5
1E1
330
1C0
100
AcDbEntity
  8
LIVELLO1
 62
     0
100
AcDbLine
 10
0.0
 20
0.0
 30
0.0
 11
-3.0
 21
0.0
 31
0.0
  0
LINE
  5
1E2
330
1C0
100
AcDbEntity
  8
LIVELLO1
 62
     0
100
AcDbLine
 10
0.0
 20
0.0
 30
0.0
 11
3.0
 21
0.0
 31
0.0
  0
LINE
  5
1E3
330
1C0
100
AcDbEntity
  8
LIVELLO1
 62
     0
100
AcDbLine
 10
-6.0
 20
0.0
 30
0.0
 11
-11.5
 21
0.0
 31
0.0
  0
LINE
  5
1E4
330
1C0
100
AcDbEntity
  8
LIVELLO1
 62
     0
100
AcDbLine
 10
6.0
 20
0.0
 30
0.0
 11
11.5
 21
0.0
 31
0.0
  0
LINE
  5
1E5
330
1C0
100
AcDbEntity
  8
LIVELLO1
 62
     0
100
AcDbLine
 10
6.6844051969
 20
20.5724838302
 30
0.0
 11
4.2573542138
 21
22.3358395871
 31
0.0
  0
LINE
  5
1E6
330
1C0
100
AcDbEntity
  8
LIVELLO1
 62
     0
100
AcDbLine
 10
6.6844051969
 20
20.5724838302
 30
0.0
 11
9.11145618
 21
18.8091280734
 31
0.0
  0
LINE
  5
1E7
330
1C0
100
AcDbEntity
  8
LIVELLO1
 62
     0
100
AcDbLine
 10
1.8303032306
 20
24.099195344
 30
0.0
 11
-2.6192902384
 21
27.3320142316
 31
0.0
  0
LINE
  5
1E8
330
1C0
100
AcDbEntity
  8
LIVELLO1
 62
     0
100
AcDbLine
 10
11.5385071631
 20
17.0457723165
 30
0.0
 11
15.9881006322
 21
13.8129534289
 31
0.0
  0
LINE
  5
1E9
330
1C0
100
AcDbEntity
  8
LIVELLO1
 62
     0
100
AcDbLine
 10
24.1844051969
 20
33.2869780703
 30
0.0
 11
23.2573542138
 21
36.1401476192
 31
0.0
  0
LINE
  5
1EA
330
1C0
100
AcDbEntity
  8
LIVELLO1
 62
     0
100
AcDbLine
 10
24.1844051969
 20
33.2869780703
 30
0.0
 11
25.11145618
 21
30.4338085214
 31
0.0
  0
LINE
  5
1EB
330
1C0
100
AcDbEntity
  8
LIVELLO1
 62
     0
100
AcDbLine
 10
22.3303032306
 20
38.9933171681
 30
0.0
 11
20.6307097616
 21
44.2241280077
 31
0.0
  0
LINE
  5
1EC
330
1C0
100
AcDbEntity
  8
LIVELLO1
 62
     0
100
AcDbLine
 10
26.0385071631
 20
27.5806389726
 30
0.0
 11
27.7381006322
 21
22.3498281329
 31
0.0
  0
LINE
  5
1ED
330
1C0
100
AcDbEntity
  8
LIVELLO1
 62
     0
100
AcDbLine
 10
35.0
 20
0.0
 30
0.0
 11
35.0
 21
3.0
 31
0.0
  0
LINE
  5
1EE
330
1C0
100
AcDbEntity
  8
LIVELLO1
 62
     0
100
AcDbLine
 10
35.0
 20
0.0
 30
0.0
 11
32.0
 21
0.0
 31
0.0
  0
LINE
  5
1EF
330
1C0
100
AcDbEntity
  8
LIVELLO1
 62
     0
100
AcDbLine
 10
35.0
 20
0.0
 30
0.0
 11
35.0
 21
-3.0
 31
0.0
  0
LINE
  5
1F0
330
1C0
100
AcDbEntity
  8
LIVELLO1
 62
     0
100
AcDbLine
 10
35.0
 20
0.0
 30
0.0
 11
38.0
 21
0.0
 31
0.0
  0
LINE
  5
1F1
330
1C0
100
AcDbEntity
  8
LIVELLO1
 62
     0
100
AcDbLine
 10
35.0
 20
6.0
 30
0.0
 11
35.0
 21
36.2869780703
 31
0.0
  0
LINE
  5
1F2
330
1C0
100
AcDbEntity
  8
LIVELLO1
 62
     0
100
AcDbLine
 10
29.0
 20
0.0
 30
0.0
 11
-1.2869780703
 21
0.0
 31
0.0
  0
LINE
  5
1F3
330
1C0
100
AcDbEntity
  8
LIVELLO1
 62
     0
100
AcDbLine
 10
35.0
 20
-6.0
 30
0.0
 11
35.0
 21
-36.2869780703
 31
0.0
  0
LINE
  5
1F4
330
1C0
100
AcDbEntity
  8
LIVELLO1
 62
     0
100
AcDbLine
 10
41.0
 20
0.0
 30
0.0
 11
71.2869780703
 21
0.0
 31
0.0
  0
LINE
  5
1F5
330
1C0
100
AcDbEntity
  8
LIVELLO1
 62
     0
100
AcDbLine
 10
45.8155948031
 20
33.2869780703
 30
0.0
 11
46.7426457862
 21
36.1401476192
 31
0.0
  0
LINE
  5
1F6
330
1C0
100
AcDbEntity
  8
LIVELLO1
 62
     0
100
AcDbLine
 10
45.8155948031
 20
33.2869780703
 30
0.0
 11
44.88854382
 21
30.4338085214
 31
0.0
  0
LINE
  5
1F7
330
1C0
100
AcDbEntity
  8
LIVELLO1
 62
     0
100
AcDbLine
 10
47.6696967694
 20
38.9933171681
 30
0.0
 11
49.3692902384
 21
44.2241280077
 31
0.0
  0
LINE
  5
1F8
330
1C0
100
AcDbEntity
  8
LIVELLO1
 62
     0
100
AcDbLine
 10
43.9614928369
 20
27.5806389726
 30
0.0
 11
42.2618993678
 21
22.3498281329
 31
0.0
  0
LINE
  5
1F9
330
1C0
100
AcDbEntity
  8
LIVELLO1
 62
     0
100
AcDbLine
 10
63.3155948031
 20
20.5724838302
 30
0.0
 11
65.7426457862
 21
22.3358395871
 31
0.0
  0
LINE
  5
1FA
330
1C0
100
AcDbEntity
  8
LIVELLO1
 62
     0
100
AcDbLine
 10
63.3155948031
 20
20.5724838302
 30
0.0
 11
60.88854382
 21
18.8091280734
 31
0.0
  0
LINE
  5
1FB
330
1C0
100
AcDbEntity
  8
LIVELLO1
 62
     0
100
AcDbLine
 10
68.1696967694
 20
24.099195344
 30
0.0
 11
72.6192902384
 21
27.3320142316
 31
0.0
  0
LINE
  5
1FC
330
1C0
100
AcDbEntity
  8
LIVELLO1
 62
     0
100
AcDbLine
 10
58.4614928369
 20
17.0457723165
 30
0.0
 11
54.0118993678
 21
13.8129534289
 31
0.0
  0
LINE
  5
1FD
330
1C0
100
AcDbEntity
  8
LIVELLO1
 62
     0
100
AcDbLine
 10
70.0
 20
0.0
 30
0.0
 11
73.0
 21
0.0
 31
0.0
  0
LINE
  5
1FE
330
1C0
100
AcDbEntity
  8
LIVELLO1
 62
     0
100
AcDbLine
 10
70.0
 20
0.0
 30
0.0
 11
67.0
 21
0.0
 31
0.0
  0
LINE
  5
1FF
330
1C0
100
AcDbEntity
  8
LIVELLO1
 62
     0
100
AcDbLine
 10
76.0
 20
0.0
 30
0.0
 11
81.5
 21
0.0
 31
0.0
  0
LINE
  5
200
330
1C0
100
AcDbEntity
  8
LIVELLO1
 62
     0
100
AcDbLine
 10
64.0
 20
0.0
 30
0.0
 11
58.5
 21
0.0
 31
0.0
  0
LINE
  5
201
330
1C0
100
AcDbEntity
  8
LIVELLO1
 62
     0
100
AcDbLine
 10
63.3155948031
 20
-20.5724838302
 30
0.0
 11
65.7426457862
 21
-22.3358395871
 31
0.0
  0
LINE
  5
202
330
1C0
100
AcDbEntity
  8
LIVELLO1
 62
     0
100
AcDbLine
 10
63.3155948031
 20
-20.5724838302
 30
0.0
 11
60.88854382
 21
-18.8091280734
 31
0.0
  0
LINE
  5
203
330
1C0
100
AcDbEntity
  8
LIVELLO1
 62
     0
100
AcDbLine
 10
68.1696967694
 20
-24.099195344
 30
0.0
 11
72.6192902384
 21
-27.3320142316
 31
0.0
  0
LINE
  5
204
330
1C0
100
AcDbEntity
  8
LIVELLO1
 62
     0
100
AcDbLine
 10
58.4614928369
 20
-17.0457723165
 30
0.0
 11
54.0118993678
 21
-13.8129534289
 31
0.0
  0
LINE
  5
205
330
1C0
100
AcDbEntity
  8
LIVELLO1
 62
     0
100
AcDbLine
 10
45.8155948031
 20
-33.2869780703
 30
0.0
 11
46.7426457862
 21
-36.1401476192
 31
0.0
  0
LINE
  5
206
330
1C0
100
AcDbEntity
  8
LIVELLO1
 62
     0
100
AcDbLine
 10
45.8155948031
 20
-33.2869780703
 30
0.0
 11
44.88854382
 21
-30.4338085214
 31
0.0
  0
LINE
  5
207
330
1C0
100
AcDbEntity
  8
LIVELLO1
 62
     0
100
AcDbLine
 10
47.6696967694
 20
-38.9933171681
 30
0.0
 11
49.3692902384
 21
-44.2241280077
 31
0.0
  0
LINE
  5
208
330
1C0
100
AcDbEntity
  8
LIVELLO1
 62
     0
100
AcDbLine
 10
43.9614928369
 20
-27.5806389726
 30
0.0
 11
42.2618993678
 21
-22.3498281329
 31
0.0
  0
LINE
  5
209
330
1C0
100
AcDbEntity
  8
LIVELLO1
 62
     0
100
AcDbLine
 10
24.1844051969
 20
-33.2869780703
 30
0.0
 11
23.2573542138
 21
-36.1401476192
 31
0.0
  0
LINE
  5
20A
330
1C0
100
AcDbEntity
  8
LIVELLO1
 62
     0
100
AcDbLine
 10
24.1844051969
 20
-33.2869780703
 30
0.0
 11
25.11145618
 21
-30.4338085214
 31
0.0
  0
LINE
  5
20B
330
1C0
100
AcDbEntity
  8
LIVELLO1
 62
     0
100
AcDbLine
 10
22.3303032306
 20
-38.9933171681
 30
0.0
 11
20.6307097616
 21
-44.2241280077
 31
0.0
  0
LINE
  5
20C
330
1C0
100
AcDbEntity
  8
LIVELLO1
 62
     0
100
AcDbLine
 10
26.0385071631
 20
-27.5806389726
 30
0.0
 11
27.7381006322
 21
-22.3498281329
 31
0.0
  0
LINE
  5
20D
330
1C0
100
AcDbEntity
  8
LIVELLO1
 62
     0
100
AcDbLine
 10
6.6844051969
 20
-20.5724838302
 30
0.0
 11
4.2573542138
 21
-22.3358395871
 31
0.0
  0
LINE
  5
20E
330
1C0
100
AcDbEntity
  8
LIVELLO1
 62
     0
100
AcDbLine
 10
6.6844051969
 20
-20.5724838302
 30
0.0
 11
9.11145618
 21
-18.8091280734
 31
0.0
  0
LINE
  5
20F
330
1C0
100
AcDbEntity
  8
LIVELLO1
 62
     0
100
AcDbLine
 10
1.8303032306
 20
-24.099195344
 30
0.0
 11
-2.6192902384
 21
-27.3320142316
 31
0.0
  0
LINE
  5
210
330
1C0
100
AcDbEntity
  8
LIVELLO1
 62
     0
100
AcDbLine
 10
11.5385071631
 20
-17.0457723165
 30
0.0
 11
15.9881006322
 21
-13.8129534289
 31
0.0
  0
ENDBLK
  5
1C2
330
1C0
100
AcDbEntity
  8
0
100
AcDbBlockEnd
  0
BLOCK
  5
29D
330
29C
100
AcDbEntity
  8
0
100
AcDbBlockBegin
  2
_D_3
 70
     0
 10
0.0
 20
0.0
 30
0.0
  3
_D_3
  1

  0
SOLID
  5
29F
330
29C
100
AcDbEntity
  8
LIVELLO1
100
AcDbTrace
 10
13.54857835
 20
55.839770065
 30
0.0
 11
13.89857835
 21
58.639770065
 31
0.0
 12
13.19857835
 22
58.639770065
 32
0.0
 13
13.19857835
 23
58.639770065
 33
0.0
  0
SOLID
  5
2A0
330
29C
100
AcDbEntity
  8
LIVELLO1
100
AcDbTrace
 10
13.54857835
 20
96.639770065
 30
0.0
 11
13.19857835
 21
93.839770065
 31
0.0
 12
13.89857835
 22
93.839770065
 32
0.0
 13
13.89857835
 23
93.839770065
 33
0.0
  0
LINE
  5
2A1
330
29C
100
AcDbEntity
  8
LIVELLO1
100
AcDbLine
 10
42.1152801148
 20
55.839770065
 30
0.0
 11
12.54857835
 21
55.839770065
 31
0.0
  0
LINE
  5
2A2
330
29C
100
AcDbEntity
  8
LIVELLO1
100
AcDbLine
 10
53.8561541385
 20
96.639770065
 30
0.0
 11
12.54857835
 21
96.639770065
 31
0.0
  0
LINE
  5
2A3
330
29C
100
AcDbEntity
  8
LIVELLO1
100
AcDbLine
 10
13.54857835
 20
55.839770065
 30
0.0
 11
13.54857835
 21
96.639770065
 31
0.0
  0
MTEXT
  5
2A4
330
29C
100
AcDbEntity
  8
LIVELLO1
100
AcDbMText
 10
9.5999922318
 20
73.0085200825
 30
0.0
 40
3.0
 41
0.0
 71
     1
 72
     1
  1
40,8
  7
SLDTEXTSTYLE1
 11
2.503722994132712E-15
 21
1.0
 31
0.0
 73
     1
 44
1.0
  0
ENDBLK
  5
29E
330
29C
100
AcDbEntity
  8
0
100
AcDbBlockEnd
  0
BLOCK
  5
2A7
330
2A6
100
AcDbEntity
  8
0
100
AcDbBlockBegin
  2
_D_4
 70
     0
 10
0.0
 20
0.0
 30
0.0
  3
_D_4
  1

  0
SOLID
  5
2A9
330
2A6
100
AcDbEntity
  8
LIVELLO1
100
AcDbTrace
 10
201.54857835
 20
75.439770065
 30
0.0
 11
201.89857835
 21
78.239770065
 31
0.0
 12
201.19857835
 22
78.239770065
 32
0.0
 13
201.19857835
 23
78.239770065
 33
0.0
  0
SOLID
  5
2AA
330
2A6
100
AcDbEntity
  8
LIVELLO1
100
AcDbTrace
 10
201.54857835
 20
96.639770065
 30
0.0
 11
201.19857835
 21
93.839770065
 31
0.0
 12
201.89857835
 22
93.839770065
 32
0.0
 13
201.89857835
 23
93.839770065
 33
0.0
  0
LINE
  5
2AB
330
2A6
100
AcDbEntity
  8
LIVELLO1
100
AcDbLine
 10
182.54857835
 20
75.439770065
 30
0.0
 11
202.54857835
 21
75.439770065
 31
0.0
  0
LINE
  5
2AC
330
2A6
100
AcDbEntity
  8
LIVELLO1
100
AcDbLine
 10
182.54857835
 20
96.639770065
 30
0.0
 11
202.54857835
 21
96.639770065
 31
0.0
  0
LINE
  5
2AD
330
2A6
100
AcDbEntity
  8
LIVELLO1
100
AcDbLine
 10
201.54857835
 20
75.439770065
 30
0.0
 11
201.54857835
 21
96.639770065
 31
0.0
  0
MTEXT
  5
2AE
330
2A6
100
AcDbEntity
  8
LIVELLO1
100
AcDbMText
 10
197.5999922318
 20
82.8085200825
 30
0.0
 40
3.0
 41
0.0
 71
     1
 72
     1
  1
21,2
  7
SLDTEXTSTYLE1
 11
6.123233995736766E-17
 21
1.0
 31
0.0
 73
     1
 44
1.0
  0
ENDBLK
  5
2A8
330
2A6
100
AcDbEntity
  8
0
100
AcDbBlockEnd
  0
BLOCK
  5
2B2
330
2B1
100
AcDbEntity
  8
0
100
AcDbBlockBegin
  2
_D_5
 70
     0
 10
0.0
 20
0.0
 30
0.0
  3
_D_5
  1

  0
SOLID
  5
2B4
330
2B1
100
AcDbEntity
  8
LIVELLO1
100
AcDbTrace
 10
166.0507448385
 20
91.5343593897
 30
0.0
 11
165.6641255514
 21
94.3295383691
 31
0.0
 12
164.987977473
 22
94.1483650376
 32
0.0
 13
164.987977473
 23
94.1483650376
 33
0.0
  0
LINE
  5
2B5
330
2B1
100
AcDbEntity
  8
LIVELLO1
100
AcDbLine
 10
166.0507448385
 20
91.5343593897
 30
0.0
 11
162.3939065828
 21
105.1818655548
 31
0.0
  0
LINE
  5
2B6
330
2B1
100
AcDbEntity
  8
LIVELLO1
100
AcDbLine
 10
167.4158359338
 20
86.439770065
 30
0.0
 11
166.0507448385
 21
91.5343593897
 31
0.0
  0
LINE
  5
2B7
330
2B1
100
AcDbEntity
  8
LIVELLO1
100
AcDbLine
 10
162.3939065828
 20
105.1818655548
 30
0.0
 11
145.4689073458
 21
105.1818655548
 31
0.0
  0
MTEXT
  5
2B8
330
2B1
100
AcDbEntity
  8
LIVELLO1
100
AcDbMText
 10
145.4689073458
 20
109.130451673
 30
0.0
 40
3.0
 41
0.0
 71
     1
 72
     1
  1
G1/4 (10X)
  7
SLDTEXTSTYLE1
 73
     1
 44
1.0
  0
ENDBLK
  5
2B3
330
2B1
100
AcDbEntity
  8
0
100
AcDbBlockEnd
  0
ENDSEC
  0
SECTION
  2
ENTITIES
  0
ARC
  5
89
330
1F
100
AcDbEntity
  8
0
  6
Continuous
 62
     7
370
    35
100
AcDbCircle
 10
107.54857835
 20
202.1209717602
 30
0.0
 40
53.25000000000005
100
AcDbArc
 50
274.6012627118
 51
339.3987372882
  0
ARC
  5
8A
330
1F
100
AcDbEntity
  8
0
  6
Continuous
 62
     7
370
    35
100
AcDbCircle
 10
107.54857835
 20
202.1209717602
 30
0.0
 40
53.25000000000005
100
AcDbArc
 50
200.6012627118
 51
265.3987372882
  0
ARC
  5
8B
330
1F
100
AcDbEntity
  8
0
  6
Continuous
 62
     7
370
    35
100
AcDbCircle
 10
107.54857835
 20
202.1209717602
 30
0.0
 40
53.25000000000006
100
AcDbArc
 50
130.6012627118
 51
191.3987372882
  0
ARC
  5
8C
330
1F
100
AcDbEntity
  8
0
  6
Continuous
 62
     7
370
    35
100
AcDbCircle
 10
107.54857835
 20
202.1209717602
 30
0.0
 40
53.25000000000005
100
AcDbArc
 50
58.6012627118
 51
121.3987372882
  0
ARC
  5
8D
330
1F
100
AcDbEntity
  8
0
  6
Continuous
 62
     7
370
    35
100
AcDbCircle
 10
107.54857835
 20
202.1209717602
 30
0.0
 40
53.25000000000005
100
AcDbArc
 50
348.6012627118
 51
49.3987372882
  0
CIRCLE
  5
8E
330
1F
100
AcDbEntity
  8
0
  6
Continuous
 62
     7
370
    35
100
AcDbCircle
 10
107.54857835
 20
202.1209717602
 30
0.0
 40
49.25000000000006
  0
CIRCLE
  5
8F
330
1F
100
AcDbEntity
  8
0
  6
Continuous
 62
     7
370
    35
100
AcDbCircle
 10
107.54857835
 20
262.1209717602
 30
0.0
 40
5.5
  0
CIRCLE
  5
90
330
1F
100
AcDbEntity
  8
0
  6
Continuous
 62
     7
370
    35
100
AcDbCircle
 10
142.81357835
 20
153.5809717602
 30
0.0
 40
5.500000000000028
  0
CIRCLE
  5
91
330
1F
100
AcDbEntity
  8
0
  6
Continuous
 62
     7
370
    35
100
AcDbCircle
 10
164.61357835
 20
220.6609717602
 30
0.0
 40
5.5
  0
LINE
  5
92
330
1F
100
AcDbEntity
  8
0
  6
Continuous
 62
     7
370
    35
100
AcDbLine
 10
181.54857835
 20
214.327527376
 30
0.0
 11
181.54857835
 21
189.9144161445
 31
0.0
  0
ARC
  5
93
330
1F
100
AcDbEntity
  8
0
  6
Continuous
 62
     7
370
    35
100
AcDbCircle
 10
107.54857835
 20
202.1209717602
 30
0.0
 40
75.0
100
AcDbArc
 50
333.3667888844
 51
350.6332111156
  0
LINE
  5
94
330
1F
100
AcDbEntity
  8
0
  6
Continuous
 62
     7
370
    35
100
AcDbLine
 10
174.590669306
 20
168.5001740265
 30
0.0
 11
160.2410025616
 21
148.7495521547
 31
0.0
  0
ARC
  5
95
330
1F
100
AcDbEntity
  8
0
  6
Continuous
 62
     7
370
    35
100
AcDbCircle
 10
107.54857835
 20
202.1209717602
 30
0.0
 40
75.00000000000001
100
AcDbArc
 50
297.3667888844
 51
314.6332111156
  0
LINE
  5
96
330
1F
100
AcDbEntity
  8
0
  6
Continuous
 62
     7
370
    35
100
AcDbLine
 10
142.0249601936
 20
135.5148226824
 30
0.0
 11
120.8078687026
 21
128.6209717602
 31
0.0
  0
LINE
  5
97
330
1F
100
AcDbEntity
  8
0
  6
Continuous
 62
     7
370
    35
100
AcDbLine
 10
120.8078687026
 20
128.6209717602
 30
0.0
 11
94.2892879974
 21
128.6209717602
 31
0.0
  0
LINE
  5
98
330
1F
100
AcDbEntity
  8
0
  6
Continuous
 62
     7
370
    35
100
AcDbLine
 10
94.2892879974
 20
128.6209717602
 30
0.0
 11
73.0721965064
 21
135.5148226824
 31
0.0
  0
ARC
  5
99
330
1F
100
AcDbEntity
  8
0
  6
Continuous
 62
     7
370
    35
100
AcDbCircle
 10
107.54857835
 20
202.1209717602
 30
0.0
 40
75.0
100
AcDbArc
 50
225.3667888844
 51
242.6332111156
  0
LINE
  5
9A
330
1F
100
AcDbEntity
  8
0
  6
Continuous
 62
     7
370
    35
100
AcDbLine
 10
54.8561541385
 20
148.7495521547
 30
0.0
 11
40.5064873941
 21
168.5001740265
 31
0.0
  0
ARC
  5
9B
330
1F
100
AcDbEntity
  8
0
  6
Continuous
 62
     7
370
    35
100
AcDbCircle
 10
107.54857835
 20
202.1209717602
 30
0.0
 40
75.0
100
AcDbArc
 50
189.3667888844
 51
206.6332111156
  0
LINE
  5
9C
330
1F
100
AcDbEntity
  8
0
  6
Continuous
 62
     7
370
    35
100
AcDbLine
 10
33.54857835
 20
189.9144161445
 30
0.0
 11
33.54857835
 21
214.327527376
 31
0.0
  0
ARC
  5
9D
330
1F
100
AcDbEntity
  8
0
  6
Continuous
 62
     7
370
    35
100
AcDbCircle
 10
107.54857835
 20
202.1209717602
 30
0.0
 40
75.0
100
AcDbArc
 50
153.3667888844
 51
170.6332111156
  0
LINE
  5
9E
330
1F
100
AcDbEntity
  8
0
  6
Continuous
 62
     7
370
    35
100
AcDbLine
 10
40.5064873941
 20
235.741769494
 30
0.0
 11
54.8561541385
 21
255.4923913658
 31
0.0
  0
ARC
  5
9F
330
1F
100
AcDbEntity
  8
0
  6
Continuous
 62
     7
370
    35
100
AcDbCircle
 10
107.54857835
 20
202.1209717602
 30
0.0
 40
75.00000000000001
100
AcDbArc
 50
117.3667888844
 51
134.6332111156
  0
LINE
  5
A0
330
1F
100
AcDbEntity
  8
0
  6
Continuous
 62
     7
370
    35
100
AcDbLine
 10
73.0721965064
 20
268.727120838
 30
0.0
 11
96.2904450262
 21
276.2711870941
 31
0.0
  0
ARC
  5
A1
330
1F
100
AcDbEntity
  8
0
  6
Continuous
 62
     7
370
    35
100
AcDbCircle
 10
107.54857835
 20
202.1209717602
 30
0.0
 40
74.99999999999996
100
AcDbArc
 50
81.3667888844
 51
98.6332111156
  0
LINE
  5
A2
330
1F
100
AcDbEntity
  8
0
  6
Continuous
 62
     7
370
    35
100
AcDbLine
 10
118.8067116739
 20
276.2711870941
 30
0.0
 11
142.0249601936
 21
268.727120838
 31
0.0
  0
ARC
  5
A3
330
1F
100
AcDbEntity
  8
0
  6
Continuous
 62
     7
370
    35
100
AcDbCircle
 10
107.54857835
 20
202.1209717602
 30
0.0
 40
75.00000000000004
100
AcDbArc
 50
45.3667888844
 51
62.6332111156
  0
LINE
  5
A4
330
1F
100
AcDbEntity
  8
0
  6
Continuous
 62
     7
370
    35
100
AcDbLine
 10
160.2410025616
 20
255.4923913658
 30
0.0
 11
174.590669306
 21
235.741769494
 31
0.0
  0
ARC
  5
A5
330
1F
100
AcDbEntity
  8
0
  6
Continuous
 62
     7
370
    35
100
AcDbCircle
 10
107.54857835
 20
202.1209717602
 30
0.0
 40
75.0
100
AcDbArc
 50
9.3667888844
 51
26.6332111156
  0
CIRCLE
  5
A6
330
1F
100
AcDbEntity
  8
0
  6
Continuous
 62
     7
370
    35
100
AcDbCircle
 10
72.28357835
 20
153.5809717602
 30
0.0
 40
5.500000000000014
  0
CIRCLE
  5
A7
330
1F
100
AcDbEntity
  8
0
  6
Continuous
 62
     7
370
    35
100
AcDbCircle
 10
50.48357835
 20
220.6609717602
 30
0.0
 40
5.500000000000007
  0
ARC
  5
A8
330
1F
100
AcDbEntity
  8
0
  6
Continuous
 62
     7
370
    35
100
AcDbCircle
 10
107.54857835
 20
141.1209717602
 30
0.0
 40
9.000000000000004
100
AcDbArc
 50
61.6640689486
 51
89.5847904086
  0
ARC
  5
A9
330
1F
100
AcDbEntity
  8
0
  6
Continuous
 62
     7
370
    35
100
AcDbCircle
 10
48.9116148978
 20
185.3070930554
 30
0.0
 40
9.000000000000004
100
AcDbArc
 50
347.6640689486
 51
44.3359310515
  0
CIRCLE
  5
AA
330
1F
100
AcDbEntity
  8
0
  6
Continuous
 62
     7
370
    35
100
AcDbCircle
 10
107.54857835
 20
202.1209717602
 30
0.0
 40
20.0
  0
CIRCLE
  5
AB
330
1F
100
AcDbEntity
  8
0
  6
Continuous
 62
     7
370
    35
100
AcDbCircle
 10
150.04857835
 20
187.1209717602
 30
0.0
 40
2.099999999999994
  0
CIRCLE
  5
AC
330
1F
100
AcDbEntity
  8
0
  6
Continuous
 62
     7
370
    35
100
AcDbCircle
 10
133.54857835
 20
165.1209717602
 30
0.0
 40
2.099999999999994
  0
CIRCLE
  5
AD
330
1F
100
AcDbEntity
  8
0
  6
Continuous
 62
     7
370
    35
100
AcDbCircle
 10
65.04857835
 20
217.1209717602
 30
0.0
 40
2.100000000000001
  0
CIRCLE
  5
AE
330
1F
100
AcDbEntity
  8
0
  6
Continuous
 62
     7
370
    35
100
AcDbCircle
 10
133.54857835
 20
239.1209717602
 30
0.0
 40
2.099999999999994
  0
CIRCLE
  5
AF
330
1F
100
AcDbEntity
  8
0
  6
Continuous
 62
     7
370
    35
100
AcDbCircle
 10
81.54857835
 20
239.1209717602
 30
0.0
 40
2.099999999999994
  0
CIRCLE
  5
B0
330
1F
100
AcDbEntity
  8
0
  6
Continuous
 62
     7
370
    35
100
AcDbCircle
 10
81.54857835
 20
165.1209717602
 30
0.0
 40
2.099999999999994
  0
CIRCLE
  5
B1
330
1F
100
AcDbEntity
  8
0
  6
Continuous
 62
     7
370
    35
100
AcDbCircle
 10
150.04857835
 20
217.1209717602
 30
0.0
 40
2.099999999999994
  0
CIRCLE
  5
B2
330
1F
100
AcDbEntity
  8
0
  6
Continuous
 62
     7
370
    35
100
AcDbCircle
 10
65.04857835
 20
187.1209717602
 30
0.0
 40
2.100000000000001
  0
CIRCLE
  5
B3
330
1F
100
AcDbEntity
  8
0
  6
Continuous
 62
     7
370
    35
100
AcDbCircle
 10
72.54857835
 20
202.1209717602
 30
0.0
 40
8.499999999999957
  0
CIRCLE
  5
B4
330
1F
100
AcDbEntity
  8
0
  6
Continuous
 62
     7
370
    35
100
AcDbCircle
 10
79.2329835469
 20
181.54848793
 30
0.0
 40
8.499999999999972
  0
CIRCLE
  5
B5
330
1F
100
AcDbEntity
  8
0
  6
Continuous
 62
     7
370
    35
100
AcDbCircle
 10
96.7329835469
 20
168.8339936899
 30
0.0
 40
8.499999999999943
  0
CIRCLE
  5
B6
330
1F
100
AcDbEntity
  8
0
  6
Continuous
 62
     7
370
    35
100
AcDbCircle
 10
118.3641731532
 20
168.8339936899
 30
0.0
 40
8.499999999999943
  0
CIRCLE
  5
B7
330
1F
100
AcDbEntity
  8
0
  6
Continuous
 62
     7
370
    35
100
AcDbCircle
 10
135.8641731532
 20
181.54848793
 30
0.0
 40
8.499999999999957
  0
CIRCLE
  5
B8
330
1F
100
AcDbEntity
  8
0
  6
Continuous
 62
     7
370
    35
100
AcDbCircle
 10
142.54857835
 20
202.1209717602
 30
0.0
 40
8.499999999999943
  0
CIRCLE
  5
B9
330
1F
100
AcDbEntity
  8
0
  6
Continuous
 62
     7
370
    35
100
AcDbCircle
 10
135.8641731532
 20
222.6934555905
 30
0.0
 40
8.499999999999957
  0
CIRCLE
  5
BA
330
1F
100
AcDbEntity
  8
0
  6
Continuous
 62
     7
370
    35
100
AcDbCircle
 10
118.3641731532
 20
235.4079498306
 30
0.0
 40
8.499999999999943
  0
CIRCLE
  5
BB
330
1F
100
AcDbEntity
  8
0
  6
Continuous
 62
     7
370
    35
100
AcDbCircle
 10
96.7329835469
 20
235.4079498306
 30
0.0
 40
8.499999999999943
  0
CIRCLE
  5
BC
330
1F
100
AcDbEntity
  8
0
  6
Continuous
 62
     7
370
    35
100
AcDbCircle
 10
79.2329835469
 20
222.6934555905
 30
0.0
 40
8.499999999999972
  0
CIRCLE
  5
BD
330
1F
100
AcDbEntity
  8
0
  6
Continuous
 62
     7
370
    35
100
AcDbCircle
 10
96.7329835469
 20
235.4079498306
 30
0.0
 40
7.999999999999986
  0
CIRCLE
  5
BE
330
1F
100
AcDbEntity
  8
0
  6
Continuous
 62
     7
370
    35
100
AcDbCircle
 10
118.3641731532
 20
235.4079498306
 30
0.0
 40
7.999999999999972
  0
CIRCLE
  5
BF
330
1F
100
AcDbEntity
  8
0
  6
Continuous
 62
     7
370
    35
100
AcDbCircle
 10
118.3641731532
 20
168.8339936899
 30
0.0
 40
7.999999999999972
  0
CIRCLE
  5
C0
330
1F
100
AcDbEntity
  8
0
  6
Continuous
 62
     7
370
    35
100
AcDbCircle
 10
96.7329835469
 20
168.8339936899
 30
0.0
 40
7.999999999999986
  0
CIRCLE
  5
C1
330
1F
100
AcDbEntity
  8
0
  6
Continuous
 62
     7
370
    35
100
AcDbCircle
 10
135.8641731532
 20
181.54848793
 30
0.0
 40
8.0
  0
CIRCLE
  5
C2
330
1F
100
AcDbEntity
  8
0
  6
Continuous
 62
     7
370
    35
100
AcDbCircle
 10
135.8641731532
 20
222.6934555905
 30
0.0
 40
8.0
  0
CIRCLE
  5
C3
330
1F
100
AcDbEntity
  8
0
  6
Continuous
 62
     7
370
    35
100
AcDbCircle
 10
142.54857835
 20
202.1209717602
 30
0.0
 40
8.0
  0
CIRCLE
  5
C4
330
1F
100
AcDbEntity
  8
0
  6
Continuous
 62
     7
370
    35
100
AcDbCircle
 10
79.2329835469
 20
222.6934555905
 30
0.0
 40
7.999999999999972
  0
CIRCLE
  5
C5
330
1F
100
AcDbEntity
  8
0
  6
Continuous
 62
     7
370
    35
100
AcDbCircle
 10
79.2329835469
 20
181.54848793
 30
0.0
 40
7.999999999999972
  0
CIRCLE
  5
C6
330
1F
100
AcDbEntity
  8
0
  6
Continuous
 62
     7
370
    35
100
AcDbCircle
 10
72.54857835
 20
202.1209717602
 30
0.0
 40
8.0
  0
CIRCLE
  5
C7
330
1F
100
AcDbEntity
  8
0
  6
Continuous
 62
     7
370
    35
100
AcDbCircle
 10
107.54857835
 20
262.1209717602
 30
0.0
 40
3.400000000000006
  0
CIRCLE
  5
C8
330
1F
100
AcDbEntity
  8
0
  6
Continuous
 62
     7
370
    35
100
AcDbCircle
 10
164.61357835
 20
220.6609717602
 30
0.0
 40
3.400000000000006
  0
CIRCLE
  5
C9
330
1F
100
AcDbEntity
  8
0
  6
Continuous
 62
     7
370
    35
100
AcDbCircle
 10
50.48357835
 20
220.6609717602
 30
0.0
 40
3.399999999999999
  0
CIRCLE
  5
CA
330
1F
100
AcDbEntity
  8
0
  6
Continuous
 62
     7
370
    35
100
AcDbCircle
 10
72.28357835
 20
153.5809717602
 30
0.0
 40
3.399999999999991
  0
CIRCLE
  5
CB
330
1F
100
AcDbEntity
  8
0
  6
Continuous
 62
     7
370
    35
100
AcDbCircle
 10
142.81357835
 20
153.5809717602
 30
0.0
 40
3.399999999999977
  0
CIRCLE
  5
CC
330
1F
100
AcDbEntity
  8
0
  6
Continuous
 62
     7
370
    35
100
AcDbCircle
 10
166.1836779602
 20
185.3110084171
 30
0.0
 40
5.788397845353494
  0
CIRCLE
  5
CD
330
1F
100
AcDbEntity
  8
0
  6
Continuous
 62
     7
370
    35
100
AcDbCircle
 10
166.1836779602
 20
185.3110084171
 30
0.0
 40
6.728090466139414
  0
CIRCLE
  5
CE
330
1F
100
AcDbEntity
  8
0
  6
Continuous
 62
     7
370
    35
100
AcDbCircle
 10
166.1836779602
 20
185.3110084171
 30
0.0
 40
3.649999999999995
  0
CIRCLE
  5
CF
330
1F
100
AcDbEntity
  8
0
  6
Continuous
 62
     7
370
    35
100
AcDbCircle
 10
166.1836779602
 20
185.3110084171
 30
0.0
 40
8.999999999999991
  0
CIRCLE
  5
D0
330
1F
100
AcDbEntity
  8
0
  6
Continuous
 62
     7
370
    35
100
AcDbCircle
 10
166.1836779602
 20
185.3110084171
 30
0.0
 40
2.067000000000023
  0
CIRCLE
  5
D1
330
1F
100
AcDbEntity
  8
0
  6
Continuous
 62
     7
370
    35
100
AcDbCircle
 10
71.6936779602
 20
251.4710084171
 30
0.0
 40
5.788397845353494
  0
CIRCLE
  5
D2
330
1F
100
AcDbEntity
  8
0
  6
Continuous
 62
     7
370
    35
100
AcDbCircle
 10
71.6936779602
 20
251.4710084171
 30
0.0
 40
3.650000000000001
  0
CIRCLE
  5
D3
330
1F
100
AcDbEntity
  8
0
  6
Continuous
 62
     7
370
    35
100
AcDbCircle
 10
71.6936779602
 20
251.4710084171
 30
0.0
 40
6.728090466139452
  0
CIRCLE
  5
D4
330
1F
100
AcDbEntity
  8
0
  6
Continuous
 62
     7
370
    35
100
AcDbCircle
 10
71.6936779602
 20
251.4710084171
 30
0.0
 40
9.000000000000028
  0
CIRCLE
  5
D5
330
1F
100
AcDbEntity
  8
0
  6
Continuous
 62
     7
370
    35
100
AcDbCircle
 10
71.6936779602
 20
251.4710084171
 30
0.0
 40
2.067000000000029
  0
CIRCLE
  5
D6
330
1F
100
AcDbEntity
  8
0
  6
Continuous
 62
     7
370
    35
100
AcDbCircle
 10
107.5436779602
 20
141.1210084171
 30
0.0
 40
5.78839784535347
  0
CIRCLE
  5
D7
330
1F
100
AcDbEntity
  8
0
  6
Continuous
 62
     7
370
    35
100
AcDbCircle
 10
107.5436779602
 20
141.1210084171
 30
0.0
 40
3.649999999999978
  0
CIRCLE
  5
D8
330
1F
100
AcDbEntity
  8
0
  6
Continuous
 62
     7
370
    35
100
AcDbCircle
 10
107.5436779602
 20
141.1210084171
 30
0.0
 40
6.728090466139406
  0
CIRCLE
  5
D9
330
1F
100
AcDbEntity
  8
0
  6
Continuous
 62
     7
370
    35
100
AcDbCircle
 10
107.5436779602
 20
141.1210084171
 30
0.0
 40
8.999999999999982
  0
CIRCLE
  5
DA
330
1F
100
AcDbEntity
  8
0
  6
Continuous
 62
     7
370
    35
100
AcDbCircle
 10
107.5436779602
 20
141.1210084171
 30
0.0
 40
2.067000000000006
  0
CIRCLE
  5
DB
330
1F
100
AcDbEntity
  8
0
  6
Continuous
 62
     7
370
    35
100
AcDbCircle
 10
143.3936779602
 20
251.4710084171
 30
0.0
 40
5.788397845353494
  0
CIRCLE
  5
DC
330
1F
100
AcDbEntity
  8
0
  6
Continuous
 62
     7
370
    35
100
AcDbCircle
 10
143.3936779602
 20
251.4710084171
 30
0.0
 40
3.649999999999984
  0
CIRCLE
  5
DD
330
1F
100
AcDbEntity
  8
0
  6
Continuous
 62
     7
370
    35
100
AcDbCircle
 10
143.3936779602
 20
251.4710084171
 30
0.0
 40
6.728090466139443
  0
CIRCLE
  5
DE
330
1F
100
AcDbEntity
  8
0
  6
Continuous
 62
     7
370
    35
100
AcDbCircle
 10
143.3936779602
 20
251.4710084171
 30
0.0
 40
9.000000000000021
  0
CIRCLE
  5
DF
330
1F
100
AcDbEntity
  8
0
  6
Continuous
 62
     7
370
    35
100
AcDbCircle
 10
143.3936779602
 20
251.4710084171
 30
0.0
 40
2.067000000000013
  0
CIRCLE
  5
E0
330
1F
100
AcDbEntity
  8
0
  6
Continuous
 62
     7
370
    35
100
AcDbCircle
 10
48.9036779602
 20
185.3110084171
 30
0.0
 40
5.788397845353497
  0
CIRCLE
  5
E1
330
1F
100
AcDbEntity
  8
0
  6
Continuous
 62
     7
370
    35
100
AcDbCircle
 10
48.9036779602
 20
185.3110084171
 30
0.0
 40
3.649999999999982
  0
CIRCLE
  5
E2
330
1F
100
AcDbEntity
  8
0
  6
Continuous
 62
     7
370
    35
100
AcDbCircle
 10
48.9036779602
 20
185.3110084171
 30
0.0
 40
6.728090466139406
  0
CIRCLE
  5
E3
330
1F
100
AcDbEntity
  8
0
  6
Continuous
 62
     7
370
    35
100
AcDbCircle
 10
48.9036779602
 20
185.3110084171
 30
0.0
 40
8.999999999999982
  0
CIRCLE
  5
E4
330
1F
100
AcDbEntity
  8
0
  6
Continuous
 62
     7
370
    35
100
AcDbCircle
 10
48.9036779602
 20
185.3110084171
 30
0.0
 40
2.067000000000002
  0
LINE
  5
E5
330
1F
100
AcDbEntity
  8
0
  6
Continuous
 62
     7
370
    35
100
AcDbLine
 10
50.8241314311
 20
184.5668740559
 30
0.0
 11
50.9634092454
 21
185.28460907
 31
0.0
  0
LINE
  5
E6
330
1F
100
AcDbEntity
  8
0
  6
Continuous
 62
     7
370
    35
100
AcDbLine
 10
47.9700197525
 20
187.1391218523
 30
0.0
 11
47.4478192984
 21
186.7563810424
 31
0.0
  0
LINE
  5
E7
330
1F
100
AcDbEntity
  8
0
  6
Continuous
 62
     7
370
    35
100
AcDbLine
 10
50.7810547664
 20
184.4642976375
 30
0.0
 11
50.8241314311
 21
184.5668740559
 31
0.0
  0
LINE
  5
E8
330
1F
100
AcDbEntity
  8
0
  6
Continuous
 62
     7
370
    35
100
AcDbLine
 10
145.3141314311
 20
250.7268740559
 30
0.0
 11
145.3869221145
 21
250.9518243105
 31
0.0
  0
LINE
  5
E9
330
1F
100
AcDbEntity
  8
0
  6
Continuous
 62
     7
370
    35
100
AcDbLine
 10
142.4600197525
 20
253.2991218523
 30
0.0
 11
141.9378192984
 21
252.9163810424
 31
0.0
  0
LINE
  5
EA
330
1F
100
AcDbEntity
  8
0
  6
Continuous
 62
     7
370
    35
100
AcDbLine
 10
145.2710547664
 20
250.6242976375
 30
0.0
 11
145.3141314311
 21
250.7268740559
 31
0.0
  0
LINE
  5
EB
330
1F
100
AcDbEntity
  8
0
  6
Continuous
 62
     7
370
    35
100
AcDbLine
 10
109.4641314311
 20
140.3768740559
 30
0.0
 11
109.5369221145
 21
140.6018243105
 31
0.0
  0
LWPOLYLINE
  5
EC
330
1F
100
AcDbEntity
  8
0
  6
Continuous
 62
     7
370
    35
100
AcDbPolyline
 90
        3
 70
   128
 43
0.0
 10
106.6100197525
 20
142.9491218523
 10
106.0635919285
 20
142.5414788274
 10
105.9200634838
 20
142.3743529195
  0
LINE
  5
ED
330
1F
100
AcDbEntity
  8
0
  6
Continuous
 62
     7
370
    35
100
AcDbLine
 10
109.4210547664
 20
140.2742976375
 30
0.0
 11
109.4641314311
 21
140.3768740559
 31
0.0
  0
LINE
  5
EE
330
1F
100
AcDbEntity
  8
0
  6
Continuous
 62
     7
370
    35
100
AcDbLine
 10
168.1041314311
 20
184.5668740559
 30
0.0
 11
168.1769221145
 21
184.7918243105
 31
0.0
  0
LWPOLYLINE
  5
EF
330
1F
100
AcDbEntity
  8
0
  6
Continuous
 62
     7
370
    35
100
AcDbPolyline
 90
        3
 70
   128
 43
0.0
 10
165.2500197525
 20
187.1391218523
 10
164.7035919285
 20
186.7314788274
 10
164.5600634838
 20
186.5643529195
  0
LINE
  5
F0
330
1F
100
AcDbEntity
  8
0
  6
Continuous
 62
     7
370
    35
100
AcDbLine
 10
168.0610547664
 20
184.4642976375
 30
0.0
 11
168.1041314311
 21
184.5668740559
 31
0.0
  0
DIMENSION
  5
F1
330
1F
100
AcDbEntity
  8
LIVELLO1
100
AcDbDimension
  2
_D
 10
166.1836779602
 20
118.5497881971
 30
0.0
 11
107.5436779602
 21
118.5497881971
 31
0.0
 70
   160
  1
<>
 71
     2
 42
-1.0
  3
SLDDIMSTYLE0
100
AcDbAlignedDimension
 13
48.9036779602
 23
185.3110084171
 33
0.0
 14
166.1836779602
 24
185.3110084171
 34
0.0
100
AcDbRotatedDimension
  0
DIMENSION
  5
FD
330
1F
100
AcDbEntity
  8
LIVELLO1
100
AcDbDimension
  2
_D_1
 10
71.6936779602
 20
287.1209717602
 30
0.0
 11
107.5436779602
 21
287.1209717602
 31
0.0
 70
   160
  1
<>
 71
     2
 42
-1.0
  3
SLDDIMSTYLE0
100
AcDbAlignedDimension
 13
143.3936779602
 23
251.4710084171
 33
0.0
 14
71.6936779602
 24
251.4710084171
 34
0.0
100
AcDbRotatedDimension
  0
DIMENSION
  5
107
330
1F
100
AcDbEntity
  8
LIVELLO1
100
AcDbDimension
  2
_D_2
 10
70.1857180519
 20
131.9032362303
 30
0.0
 11
21.194782153
 21
263.1014754829
 31
0.0
 70
   163
  1
<>
 71
     1
 42
-1.0
  3
SLDDIMSTYLE1
100
AcDbDiametricDimension
 15
0.0
 25
0.0
 35
0.0
 40
0.0
  0
INSERT
  5
11C
330
1F
100
AcDbEntity
  8
LIVELLO1
100
AcDbBlockReference
  2
SW_CENTERMARKSYMBOL_0
 10
107.54857835
 20
202.1209717602
 30
0.0
  0
INSERT
  5
14B
330
1F
100
AcDbEntity
  8
LIVELLO1
100
AcDbBlockReference
  2
SW_CENTERMARKSYMBOL_1
 10
50.48357835
 20
220.6609717602
 30
0.0
  0
INSERT
  5
17B
330
1F
100
AcDbEntity
  8
LIVELLO1
100
AcDbBlockReference
  2
SW_CENTERMARKSYMBOL_2
 10
71.6936779602
 20
251.4710084171
 30
0.0
  0
INSERT
  5
1BF
330
1F
100
AcDbEntity
  8
LIVELLO1
100
AcDbBlockReference
  2
SW_CENTERMARKSYMBOL_3
 10
81.54857835
 20
239.1209717602
 30
0.0
  0
INSERT
  5
211
330
1F
100
AcDbEntity
  8
LIVELLO1
100
AcDbBlockReference
  2
SW_CENTERMARKSYMBOL_4
 10
72.54857835
 20
202.1209717602
 30
0.0
  0
SOLID
  5
212
330
1F
100
AcDbEntity
  8
LIVELLO1
100
AcDbTrace
 10
46.2843557807
 20
245.3840626458
 30
0.0
 11
44.1990525622
 21
247.2851177442
 31
0.0
 12
43.795263714
 22
246.7133183335
 32
0.0
 13
43.795263714
 23
246.7133183335
 33
0.0
  0
LINE
  5
213
330
1F
100
AcDbEntity
  8
LIVELLO1
100
AcDbLine
 10
46.2843557807
 20
245.3840626458
 30
0.0
 11
17.1739009179
 21
265.9410566242
 31
0.0
  0
LINE
  5
214
330
1F
100
AcDbEntity
  8
0
  6
Continuous
 62
     7
370
    35
100
AcDbLine
 10
175.1836779602
 20
70.539770065
 30
0.0
 11
174.9836779602
 21
70.739770065
 31
0.0
  0
LINE
  5
215
330
1F
100
AcDbEntity
  8
0
  6
Continuous
 62
     7
370
    35
100
AcDbLine
 10
157.3836779602
 20
70.739770065
 30
0.0
 11
157.1836779602
 21
70.539770065
 31
0.0
  0
LINE
  5
216
330
1F
100
AcDbEntity
  8
0
  6
Continuous
 62
     7
370
    35
100
AcDbLine
 10
175.1836779602
 20
62.739770065
 30
0.0
 11
175.1836779602
 21
70.539770065
 31
0.0
  0
LINE
  5
217
330
1F
100
AcDbEntity
  8
0
  6
Continuous
 62
     7
370
    35
100
AcDbLine
 10
157.1836779602
 20
70.539770065
 30
0.0
 11
157.1836779602
 21
62.739770065
 31
0.0
  0
LINE
  5
218
330
1F
100
AcDbEntity
  8
0
  6
Continuous
 62
     7
370
    35
100
AcDbLine
 10
157.1836779602
 20
62.739770065
 30
0.0
 11
159.4555874941
 21
56.4977499217
 31
0.0
  0
LINE
  5
219
330
1F
100
AcDbEntity
  8
0
  6
Continuous
 62
     7
370
    35
100
AcDbLine
 10
172.9117684263
 20
56.4977499217
 30
0.0
 11
175.1836779602
 21
62.739770065
 31
0.0
  0
ARC
  5
21A
330
1F
100
AcDbEntity
  8
0
  6
Continuous
 62
     7
370
    35
100
AcDbCircle
 10
171.9720758056
 20
56.839770065
 30
0.0
 40
1.000000000000002
100
AcDbArc
 50
270.0
 51
340.0
  0
ARC
  5
21B
330
1F
100
AcDbEntity
  8
0
  6
Continuous
 62
     7
370
    35
100
AcDbCircle
 10
160.3952801148
 20
56.839770065
 30
0.0
 40
1.0
100
AcDbArc
 50
200.0
 51
270.0
  0
LINE
  5
21C
330
1F
100
AcDbEntity
  8
0
  6
Continuous
 62
     7
370
    35
100
AcDbLine
 10
171.1836779602
 20
70.739770065
 30
0.0
 11
171.1836779602
 21
75.439770065
 31
0.0
  0
LINE
  5
21D
330
1F
100
AcDbEntity
  8
0
  6
Continuous
 62
     7
370
    35
100
AcDbLine
 10
161.1836779602
 20
75.439770065
 30
0.0
 11
161.1836779602
 21
70.739770065
 31
0.0
  0
LINE
  5
21E
330
1F
100
AcDbEntity
  8
0
  6
Continuous
 62
     7
370
    35
100
AcDbLine
 10
80.6936779602
 20
70.539770065
 30
0.0
 11
80.4936779602
 21
70.739770065
 31
0.0
  0
LINE
  5
21F
330
1F
100
AcDbEntity
  8
0
  6
Continuous
 62
     7
370
    35
100
AcDbLine
 10
62.8936779602
 20
70.739770065
 30
0.0
 11
62.6936779602
 21
70.539770065
 31
0.0
  0
LINE
  5
220
330
1F
100
AcDbEntity
  8
0
  6
Continuous
 62
     7
370
    35
100
AcDbLine
 10
80.6936779602
 20
62.739770065
 30
0.0
 11
80.6936779602
 21
70.539770065
 31
0.0
  0
LINE
  5
221
330
1F
100
AcDbEntity
  8
0
  6
Continuous
 62
     7
370
    35
100
AcDbLine
 10
62.6936779602
 20
70.539770065
 30
0.0
 11
62.6936779602
 21
62.739770065
 31
0.0
  0
LINE
  5
222
330
1F
100
AcDbEntity
  8
0
  6
Continuous
 62
     7
370
    35
100
AcDbLine
 10
62.6936779602
 20
62.739770065
 30
0.0
 11
64.9655874941
 21
56.4977499217
 31
0.0
  0
LINE
  5
223
330
1F
100
AcDbEntity
  8
0
  6
Continuous
 62
     7
370
    35
100
AcDbLine
 10
78.4217684263
 20
56.4977499217
 30
0.0
 11
80.6936779602
 21
62.739770065
 31
0.0
  0
ARC
  5
224
330
1F
100
AcDbEntity
  8
0
  6
Continuous
 62
     7
370
    35
100
AcDbCircle
 10
77.4820758056
 20
56.839770065
 30
0.0
 40
1.0
100
AcDbArc
 50
270.0
 51
340.0
  0
ARC
  5
225
330
1F
100
AcDbEntity
  8
0
  6
Continuous
 62
     7
370
    35
100
AcDbCircle
 10
65.9052801148
 20
56.839770065
 30
0.0
 40
1.0
100
AcDbArc
 50
200.0
 51
270.0
  0
LINE
  5
226
330
1F
100
AcDbEntity
  8
0
  6
Continuous
 62
     7
370
    35
100
AcDbLine
 10
76.6936779602
 20
70.739770065
 30
0.0
 11
76.6936779602
 21
75.439770065
 31
0.0
  0
LINE
  5
227
330
1F
100
AcDbEntity
  8
0
  6
Continuous
 62
     7
370
    35
100
AcDbLine
 10
66.6936779602
 20
75.439770065
 30
0.0
 11
66.6936779602
 21
70.739770065
 31
0.0
  0
LINE
  5
228
330
1F
100
AcDbEntity
  8
0
  6
Continuous
 62
     7
370
    35
100
AcDbLine
 10
116.5436779602
 20
70.539770065
 30
0.0
 11
116.3436779602
 21
70.739770065
 31
0.0
  0
LINE
  5
229
330
1F
100
AcDbEntity
  8
0
  6
Continuous
 62
     7
370
    35
100
AcDbLine
 10
98.7436779602
 20
70.739770065
 30
0.0
 11
98.5436779602
 21
70.539770065
 31
0.0
  0
LINE
  5
22A
330
1F
100
AcDbEntity
  8
0
  6
Continuous
 62
     7
370
    35
100
AcDbLine
 10
116.5436779602
 20
62.739770065
 30
0.0
 11
116.5436779602
 21
70.539770065
 31
0.0
  0
LINE
  5
22B
330
1F
100
AcDbEntity
  8
0
  6
Continuous
 62
     7
370
    35
100
AcDbLine
 10
98.5436779602
 20
70.539770065
 30
0.0
 11
98.5436779602
 21
62.739770065
 31
0.0
  0
LINE
  5
22C
330
1F
100
AcDbEntity
  8
0
  6
Continuous
 62
     7
370
    35
100
AcDbLine
 10
98.5436779602
 20
62.739770065
 30
0.0
 11
100.8155874941
 21
56.4977499217
 31
0.0
  0
LINE
  5
22D
330
1F
100
AcDbEntity
  8
0
  6
Continuous
 62
     7
370
    35
100
AcDbLine
 10
114.2717684263
 20
56.4977499217
 30
0.0
 11
116.5436779602
 21
62.739770065
 31
0.0
  0
ARC
  5
22E
330
1F
100
AcDbEntity
  8
0
  6
Continuous
 62
     7
370
    35
100
AcDbCircle
 10
113.3320758055
 20
56.839770065
 30
0.0
 40
1.0
100
AcDbArc
 50
270.0
 51
340.0
  0
ARC
  5
22F
330
1F
100
AcDbEntity
  8
0
  6
Continuous
 62
     7
370
    35
100
AcDbCircle
 10
101.7552801148
 20
56.839770065
 30
0.0
 40
1.0
100
AcDbArc
 50
200.0
 51
270.0
  0
LINE
  5
230
330
1F
100
AcDbEntity
  8
0
  6
Continuous
 62
     7
370
    35
100
AcDbLine
 10
112.5436779602
 20
70.739770065
 30
0.0
 11
112.5436779602
 21
75.439770065
 31
0.0
  0
LINE
  5
231
330
1F
100
AcDbEntity
  8
0
  6
Continuous
 62
     7
370
    35
100
AcDbLine
 10
102.5436779602
 20
75.439770065
 30
0.0
 11
102.5436779602
 21
70.739770065
 31
0.0
  0
LINE
  5
232
330
1F
100
AcDbEntity
  8
0
  6
Continuous
 62
     7
370
    35
100
AcDbLine
 10
152.3936779602
 20
70.539770065
 30
0.0
 11
152.1936779602
 21
70.739770065
 31
0.0
  0
LINE
  5
233
330
1F
100
AcDbEntity
  8
0
  6
Continuous
 62
     7
370
    35
100
AcDbLine
 10
134.5936779602
 20
70.739770065
 30
0.0
 11
134.3936779602
 21
70.539770065
 31
0.0
  0
LINE
  5
234
330
1F
100
AcDbEntity
  8
0
  6
Continuous
 62
     7
370
    35
100
AcDbLine
 10
152.3936779602
 20
62.739770065
 30
0.0
 11
152.3936779602
 21
70.539770065
 31
0.0
  0
LINE
  5
235
330
1F
100
AcDbEntity
  8
0
  6
Continuous
 62
     7
370
    35
100
AcDbLine
 10
134.3936779602
 20
70.539770065
 30
0.0
 11
134.3936779602
 21
62.739770065
 31
0.0
  0
LINE
  5
236
330
1F
100
AcDbEntity
  8
0
  6
Continuous
 62
     7
370
    35
100
AcDbLine
 10
134.3936779602
 20
62.739770065
 30
0.0
 11
136.6655874941
 21
56.4977499217
 31
0.0
  0
LINE
  5
237
330
1F
100
AcDbEntity
  8
0
  6
Continuous
 62
     7
370
    35
100
AcDbLine
 10
150.1217684263
 20
56.4977499217
 30
0.0
 11
152.3936779602
 21
62.739770065
 31
0.0
  0
ARC
  5
238
330
1F
100
AcDbEntity
  8
0
  6
Continuous
 62
     7
370
    35
100
AcDbCircle
 10
149.1820758056
 20
56.839770065
 30
0.0
 40
1.0
100
AcDbArc
 50
270.0
 51
340.0
  0
ARC
  5
239
330
1F
100
AcDbEntity
  8
0
  6
Continuous
 62
     7
370
    35
100
AcDbCircle
 10
137.6052801148
 20
56.839770065
 30
0.0
 40
1.000000000000002
100
AcDbArc
 50
200.0
 51
270.0
  0
LINE
  5
23A
330
1F
100
AcDbEntity
  8
0
  6
Continuous
 62
     7
370
    35
100
AcDbLine
 10
148.3936779602
 20
70.739770065
 30
0.0
 11
148.3936779602
 21
75.439770065
 31
0.0
  0
LINE
  5
23B
330
1F
100
AcDbEntity
  8
0
  6
Continuous
 62
     7
370
    35
100
AcDbLine
 10
138.3936779602
 20
75.439770065
 30
0.0
 11
138.3936779602
 21
70.739770065
 31
0.0
  0
LINE
  5
23C
330
1F
100
AcDbEntity
  8
0
  6
Continuous
 62
     7
370
    35
100
AcDbLine
 10
57.9036779602
 20
70.539770065
 30
0.0
 11
57.7036779602
 21
70.739770065
 31
0.0
  0
LINE
  5
23D
330
1F
100
AcDbEntity
  8
0
  6
Continuous
 62
     7
370
    35
100
AcDbLine
 10
40.1036779602
 20
70.739770065
 30
0.0
 11
39.9036779602
 21
70.539770065
 31
0.0
  0
LINE
  5
23E
330
1F
100
AcDbEntity
  8
0
  6
Continuous
 62
     7
370
    35
100
AcDbLine
 10
57.9036779602
 20
62.739770065
 30
0.0
 11
57.9036779602
 21
70.539770065
 31
0.0
  0
LINE
  5
23F
330
1F
100
AcDbEntity
  8
0
  6
Continuous
 62
     7
370
    35
100
AcDbLine
 10
39.9036779602
 20
70.539770065
 30
0.0
 11
39.9036779602
 21
62.739770065
 31
0.0
  0
LINE
  5
240
330
1F
100
AcDbEntity
  8
0
  6
Continuous
 62
     7
370
    35
100
AcDbLine
 10
39.9036779602
 20
62.739770065
 30
0.0
 11
42.1755874941
 21
56.4977499217
 31
0.0
  0
LINE
  5
241
330
1F
100
AcDbEntity
  8
0
  6
Continuous
 62
     7
370
    35
100
AcDbLine
 10
55.6317684263
 20
56.4977499217
 30
0.0
 11
57.9036779602
 21
62.739770065
 31
0.0
  0
ARC
  5
242
330
1F
100
AcDbEntity
  8
0
  6
Continuous
 62
     7
370
    35
100
AcDbCircle
 10
54.6920758056
 20
56.839770065
 30
0.0
 40
1.0
100
AcDbArc
 50
270.0
 51
340.0
  0
ARC
  5
243
330
1F
100
AcDbEntity
  8
0
  6
Continuous
 62
     7
370
    35
100
AcDbCircle
 10
43.1152801148
 20
56.839770065
 30
0.0
 40
1.0
100
AcDbArc
 50
200.0
 51
270.0
  0
LINE
  5
244
330
1F
100
AcDbEntity
  8
0
  6
Continuous
 62
     7
370
    35
100
AcDbLine
 10
53.9036779602
 20
70.739770065
 30
0.0
 11
53.9036779602
 21
75.439770065
 31
0.0
  0
LINE
  5
245
330
1F
100
AcDbEntity
  8
0
  6
Continuous
 62
     7
370
    35
100
AcDbLine
 10
43.9036779602
 20
75.439770065
 30
0.0
 11
43.9036779602
 21
70.739770065
 31
0.0
  0
LINE
  5
246
330
1F
100
AcDbEntity
  8
0
  6
Continuous
 62
     7
370
    35
100
AcDbLine
 10
118.8067116739
 20
75.439770065
 30
0.0
 11
118.8067116739
 21
96.639770065
 31
0.0
  0
LINE
  5
247
330
1F
100
AcDbEntity
  8
0
  6
Continuous
 62
     7
370
    35
100
AcDbLine
 10
96.2904450262
 20
75.439770065
 30
0.0
 11
118.8067116739
 21
75.439770065
 31
0.0
  0
LINE
  5
248
330
1F
100
AcDbEntity
  8
0
  6
Continuous
 62
     7
370
    35
100
AcDbLine
 10
96.2904450262
 20
75.439770065
 30
0.0
 11
96.2904450262
 21
96.639770065
 31
0.0
  0
LINE
  5
249
330
1F
100
AcDbEntity
  8
0
  6
Continuous
 62
     7
370
    35
100
AcDbLine
 10
96.2904450262
 20
96.639770065
 30
0.0
 11
118.8067116739
 21
96.639770065
 31
0.0
  0
LINE
  5
24A
330
1F
100
AcDbEntity
  8
0
  6
Continuous
 62
     7
370
    35
100
AcDbLine
 10
142.0249601936
 20
75.439770065
 30
0.0
 11
142.0249601936
 21
96.639770065
 31
0.0
  0
LWPOLYLINE
  5
24B
330
1F
100
AcDbEntity
  8
0
  6
Continuous
 62
     7
370
    35
100
AcDbPolyline
 90
       29
 70
   128
 43
0.0
 10
136.0270693799
 20
86.439770065
 10
135.8863840422
 20
87.7526435754
 10
135.4713825793
 20
88.9996841258
 10
134.8028748975
 20
90.118359896
 10
133.9143827633
 20
91.0525758116
 10
132.8504588825
 20
91.7554863857
 10
131.6644528409
 20
92.1918447469
 10
130.4158359338
 20
92.339770065
 10
129.1672190267
 20
92.1918447469
 10
127.9812129851
 20
91.7554863857
 10
126.9172891043
 20
91.0525758116
 10
126.0287969701
 20
90.118359896
 10
125.3602892883
 20
88.9996841258
 10
124.9452878254
 20
87.7526435754
 10
124.8046024876
 20
86.439770065
 10
124.9452878254
 20
85.1268965547
 10
125.3602892883
 20
83.8798560042
 10
126.0287969701
 20
82.7611802341
 10
126.9172891043
 20
81.8269643185
 10
127.9812129851
 20
81.1240537444
 10
129.1672190267
 20
80.6876953832
 10
130.4158359338
 20
80.539770065
 10
131.6644528409
 20
80.6876953832
 10
132.8504588825
 20
81.1240537444
 10
133.9143827633
 20
81.8269643185
 10
134.8028748975
 20
82.7611802341
 10
135.4713825793
 20
83.8798560042
 10
135.8863840422
 20
85.1268965547
 10
136.0270693799
 20
86.439770065
  0
LINE
  5
24C
330
1F
100
AcDbEntity
  8
0
  6
Continuous
 62
     7
370
    35
100
AcDbLine
 10
118.8067116739
 20
75.439770065
 30
0.0
 11
142.0249601936
 21
75.439770065
 31
0.0
  0
LINE
  5
24D
330
1F
100
AcDbEntity
  8
0
  6
Continuous
 62
     7
370
    35
100
AcDbLine
 10
118.8067116739
 20
96.639770065
 30
0.0
 11
142.0249601936
 21
96.639770065
 31
0.0
  0
LINE
  5
24E
330
1F
100
AcDbEntity
  8
0
  6
Continuous
 62
     7
370
    35
100
AcDbLine
 10
73.0721965064
 20
75.439770065
 30
0.0
 11
73.0721965064
 21
96.639770065
 31
0.0
  0
LWPOLYLINE
  5
24F
330
1F
100
AcDbEntity
  8
0
  6
Continuous
 62
     7
370
    35
100
AcDbPolyline
 90
       29
 70
   128
 43
0.0
 10
90.2925542124
 20
86.439770065
 10
90.1518688747
 20
87.7526435754
 10
89.7368674118
 20
88.9996841258
 10
89.06835973
 20
90.118359896
 10
88.1798675958
 20
91.0525758116
 10
87.115943715
 20
91.7554863857
 10
85.9299376734
 20
92.1918447469
 10
84.6813207663
 20
92.339770065
 10
83.4327038592
 20
92.1918447469
 10
82.2466978176
 20
91.7554863857
 10
81.1827739368
 20
91.0525758116
 10
80.2942818026
 20
90.118359896
 10
79.6257741208
 20
88.9996841258
 10
79.2107726579
 20
87.7526435754
 10
79.0700873202
 20
86.439770065
 10
79.2107726579
 20
85.1268965547
 10
79.6257741208
 20
83.8798560042
 10
80.2942818026
 20
82.7611802341
 10
81.1827739368
 20
81.8269643185
 10
82.2466978176
 20
81.1240537444
 10
83.4327038592
 20
80.6876953832
 10
84.6813207663
 20
80.539770065
 10
85.9299376734
 20
80.6876953832
 10
87.115943715
 20
81.1240537444
 10
88.1798675958
 20
81.8269643185
 10
89.06835973
 20
82.7611802341
 10
89.7368674118
 20
83.8798560042
 10
90.1518688747
 20
85.1268965547
 10
90.2925542124
 20
86.439770065
  0
LINE
  5
250
330
1F
100
AcDbEntity
  8
0
  6
Continuous
 62
     7
370
    35
100
AcDbLine
 10
73.0721965064
 20
75.439770065
 30
0.0
 11
96.2904450262
 21
75.439770065
 31
0.0
  0
LINE
  5
251
330
1F
100
AcDbEntity
  8
0
  6
Continuous
 62
     7
370
    35
100
AcDbLine
 10
73.0721965064
 20
96.639770065
 30
0.0
 11
96.2904450262
 21
96.639770065
 31
0.0
  0
ARC
  5
252
330
1F
100
AcDbEntity
  8
0
  6
Continuous
 62
     7
370
    35
100
AcDbCircle
 10
124.5260799566
 20
86.5035886703
 30
0.0
 40
5.939026420125683
100
AcDbArc
 50
359.3843086644
 51
58.4380854867
  0
ARC
  5
253
330
1F
100
AcDbEntity
  8
0
  6
Continuous
 62
     7
370
    35
100
AcDbCircle
 10
124.5091540437
 20
86.3852993819
 30
0.0
 40
5.955858529839149
100
AcDbArc
 50
301.6535867268
 51
0.5240191221
  0
ARC
  5
254
330
1F
100
AcDbEntity
  8
0
  6
Continuous
 62
     7
370
    35
100
AcDbCircle
 10
90.6435500179
 20
86.439770065
 30
0.0
 40
6.031405218678225
100
AcDbArc
 50
121.8312166256
 51
238.1687833744
  0
LINE
  5
255
330
1F
100
AcDbEntity
  8
0
  6
Continuous
 62
     7
370
    35
100
AcDbLine
 10
160.2410025616
 20
75.439770065
 30
0.0
 11
160.2410025616
 21
96.639770065
 31
0.0
  0
LINE
  5
256
330
1F
100
AcDbEntity
  8
0
  6
Continuous
 62
     7
370
    35
100
AcDbLine
 10
142.0249601936
 20
75.439770065
 30
0.0
 11
160.2410025616
 21
75.439770065
 31
0.0
  0
LINE
  5
257
330
1F
100
AcDbEntity
  8
0
  6
Continuous
 62
     7
370
    35
100
AcDbLine
 10
142.0249601936
 20
96.639770065
 30
0.0
 11
160.2410025616
 21
96.639770065
 31
0.0
  0
LINE
  5
258
330
1F
100
AcDbEntity
  8
0
  6
Continuous
 62
     7
370
    35
100
AcDbLine
 10
54.8561541385
 20
75.439770065
 30
0.0
 11
54.8561541385
 21
96.639770065
 31
0.0
  0
LINE
  5
259
330
1F
100
AcDbEntity
  8
0
  6
Continuous
 62
     7
370
    35
100
AcDbLine
 10
54.8561541385
 20
75.439770065
 30
0.0
 11
73.0721965064
 21
75.439770065
 31
0.0
  0
LINE
  5
25A
330
1F
100
AcDbEntity
  8
0
  6
Continuous
 62
     7
370
    35
100
AcDbLine
 10
54.8561541385
 20
96.639770065
 30
0.0
 11
73.0721965064
 21
96.639770065
 31
0.0
  0
LINE
  5
25B
330
1F
100
AcDbEntity
  8
0
  6
Continuous
 62
     7
370
    35
100
AcDbLine
 10
174.590669306
 20
75.439770065
 30
0.0
 11
174.590669306
 21
96.639770065
 31
0.0
  0
LWPOLYLINE
  5
25C
330
1F
100
AcDbEntity
  8
0
  6
Continuous
 62
     7
370
    35
100
AcDbPolyline
 90
       29
 70
   128
 43
0.0
 10
170.8837689223
 20
86.439770065
 10
170.7968206019
 20
87.7526435754
 10
170.5403355924
 20
88.9996841258
 10
170.1271751233
 20
90.118359896
 10
169.5780567857
 20
91.0525758116
 10
168.9205156659
 20
91.7554863857
 10
168.1875236213
 20
92.1918447469
 10
167.4158359338
 20
92.339770065
 10
166.6441482463
 20
92.1918447469
 10
165.9111562017
 20
91.7554863857
 10
165.2536150819
 20
91.0525758116
 10
164.7044967443
 20
90.118359896
 10
164.2913362752
 20
88.9996841258
 10
164.0348512657
 20
87.7526435754
 10
163.9479029453
 20
86.439770065
 10
164.0348512657
 20
85.1268965547
 10
164.2913362752
 20
83.8798560042
 10
164.7044967443
 20
82.7611802341
 10
165.2536150819
 20
81.8269643185
 10
165.9111562017
 20
81.1240537444
 10
166.6441482463
 20
80.6876953832
 10
167.4158359338
 20
80.539770065
 10
168.1875236213
 20
80.6876953832
 10
168.9205156659
 20
81.1240537444
 10
169.5780567857
 20
81.8269643185
 10
170.1271751233
 20
82.7611802341
 10
170.5403355924
 20
83.8798560042
 10
170.7968206019
 20
85.1268965547
 10
170.8837689223
 20
86.439770065
  0
LINE
  5
25D
330
1F
100
AcDbEntity
  8
0
  6
Continuous
 62
     7
370
    35
100
AcDbLine
 10
160.2410025616
 20
75.439770065
 30
0.0
 11
174.590669306
 21
75.439770065
 31
0.0
  0
LINE
  5
25E
330
1F
100
AcDbEntity
  8
0
  6
Continuous
 62
     7
370
    35
100
AcDbLine
 10
160.2410025616
 20
96.639770065
 30
0.0
 11
174.590669306
 21
96.639770065
 31
0.0
  0
LINE
  5
25F
330
1F
100
AcDbEntity
  8
0
  6
Continuous
 62
     7
370
    35
100
AcDbLine
 10
40.5064873941
 20
75.439770065
 30
0.0
 11
40.5064873941
 21
96.639770065
 31
0.0
  0
LWPOLYLINE
  5
260
330
1F
100
AcDbEntity
  8
0
  6
Continuous
 62
     7
370
    35
100
AcDbPolyline
 90
       29
 70
   128
 43
0.0
 10
51.1492537548
 20
86.439770065
 10
51.0623054344
 20
87.7526435754
 10
50.8058204249
 20
88.9996841258
 10
50.3926599558
 20
90.118359896
 10
49.8435416182
 20
91.0525758116
 10
49.1860004984
 20
91.7554863857
 10
48.4530084538
 20
92.1918447469
 10
47.6813207663
 20
92.339770065
 10
46.9096330788
 20
92.1918447469
 10
46.1766410342
 20
91.7554863857
 10
45.5190999144
 20
91.0525758116
 10
44.9699815768
 20
90.118359896
 10
44.5568211077
 20
88.9996841258
 10
44.3003360982
 20
87.7526435754
 10
44.2133877778
 20
86.439770065
 10
44.3003360982
 20
85.1268965547
 10
44.5568211077
 20
83.8798560042
 10
44.9699815768
 20
82.7611802341
 10
45.5190999144
 20
81.8269643185
 10
46.1766410342
 20
81.1240537444
 10
46.9096330788
 20
80.6876953832
 10
47.6813207663
 20
80.539770065
 10
48.4530084538
 20
80.6876953832
 10
49.1860004984
 20
81.1240537444
 10
49.8435416182
 20
81.8269643185
 10
50.3926599558
 20
82.7611802341
 10
50.8058204249
 20
83.8798560042
 10
51.0623054344
 20
85.1268965547
 10
51.1492537548
 20
86.439770065
  0
LINE
  5
261
330
1F
100
AcDbEntity
  8
0
  6
Continuous
 62
     7
370
    35
100
AcDbLine
 10
40.5064873941
 20
75.439770065
 30
0.0
 11
54.8561541385
 21
75.439770065
 31
0.0
  0
LINE
  5
262
330
1F
100
AcDbEntity
  8
0
  6
Continuous
 62
     7
370
    35
100
AcDbLine
 10
40.5064873941
 20
96.639770065
 30
0.0
 11
54.8561541385
 21
96.639770065
 31
0.0
  0
LINE
  5
263
330
1F
100
AcDbEntity
  8
0
  6
Continuous
 62
     7
370
    35
100
AcDbLine
 10
33.54857835
 20
75.439770065
 30
0.0
 11
33.54857835
 21
96.639770065
 31
0.0
  0
LINE
  5
264
330
1F
100
AcDbEntity
  8
0
  6
Continuous
 62
     7
370
    35
100
AcDbLine
 10
33.54857835
 20
75.439770065
 30
0.0
 11
40.5064873941
 21
75.439770065
 31
0.0
  0
LINE
  5
265
330
1F
100
AcDbEntity
  8
0
  6
Continuous
 62
     7
370
    35
100
AcDbLine
 10
33.54857835
 20
96.639770065
 30
0.0
 11
40.5064873941
 21
96.639770065
 31
0.0
  0
LINE
  5
266
330
1F
100
AcDbEntity
  8
0
  6
Continuous
 62
     7
370
    35
100
AcDbLine
 10
181.54857835
 20
75.439770065
 30
0.0
 11
181.54857835
 21
96.639770065
 31
0.0
  0
LINE
  5
267
330
1F
100
AcDbEntity
  8
0
  6
Continuous
 62
     7
370
    35
100
AcDbLine
 10
174.590669306
 20
75.439770065
 30
0.0
 11
181.54857835
 21
75.439770065
 31
0.0
  0
LINE
  5
268
330
1F
100
AcDbEntity
  8
0
  6
Continuous
 62
     7
370
    35
100
AcDbLine
 10
174.590669306
 20
96.639770065
 30
0.0
 11
181.54857835
 21
96.639770065
 31
0.0
  0
LINE
  5
269
330
1F
100
AcDbEntity
  8
0
  6
Continuous
 62
     7
370
    35
100
AcDbLine
 10
160.8936106896
 20
70.539770065
 30
0.0
 11
157.1836779602
 21
70.539770065
 31
0.0
  0
LINE
  5
26A
330
1F
100
AcDbEntity
  8
0
  6
Continuous
 62
     7
370
    35
100
AcDbLine
 10
175.1836779602
 20
70.539770065
 30
0.0
 11
160.8936106896
 21
70.539770065
 31
0.0
  0
LINE
  5
26B
330
1F
100
AcDbEntity
  8
0
  6
Continuous
 62
     7
370
    35
100
AcDbLine
 10
161.01116774
 20
70.739770065
 30
0.0
 11
157.3836779602
 21
70.739770065
 31
0.0
  0
LINE
  5
26C
330
1F
100
AcDbEntity
  8
0
  6
Continuous
 62
     7
370
    35
100
AcDbLine
 10
174.9836779602
 20
70.739770065
 30
0.0
 11
161.01116774
 21
70.739770065
 31
0.0
  0
LINE
  5
26D
330
1F
100
AcDbEntity
  8
0
  6
Continuous
 62
     7
370
    35
100
AcDbLine
 10
160.8936106896
 20
62.739770065
 30
0.0
 11
157.1836779602
 21
62.739770065
 31
0.0
  0
LINE
  5
26E
330
1F
100
AcDbEntity
  8
0
  6
Continuous
 62
     7
370
    35
100
AcDbLine
 10
175.1836779602
 20
62.739770065
 30
0.0
 11
160.8936106896
 21
62.739770065
 31
0.0
  0
LINE
  5
26F
330
1F
100
AcDbEntity
  8
0
  6
Continuous
 62
     7
370
    35
100
AcDbLine
 10
162.7813430723
 20
55.839770065
 30
0.0
 11
160.3952801148
 21
55.839770065
 31
0.0
  0
LINE
  5
270
330
1F
100
AcDbEntity
  8
0
  6
Continuous
 62
     7
370
    35
100
AcDbLine
 10
171.9720758056
 20
55.839770065
 30
0.0
 11
162.7813430723
 21
55.839770065
 31
0.0
  0
LINE
  5
271
330
1F
100
AcDbEntity
  8
0
  6
Continuous
 62
     7
370
    35
100
AcDbLine
 10
66.4036106896
 20
70.539770065
 30
0.0
 11
62.6936779602
 21
70.539770065
 31
0.0
  0
LINE
  5
272
330
1F
100
AcDbEntity
  8
0
  6
Continuous
 62
     7
370
    35
100
AcDbLine
 10
80.6936779602
 20
70.539770065
 30
0.0
 11
66.4036106896
 21
70.539770065
 31
0.0
  0
LINE
  5
273
330
1F
100
AcDbEntity
  8
0
  6
Continuous
 62
     7
370
    35
100
AcDbLine
 10
66.52116774
 20
70.739770065
 30
0.0
 11
62.8936779602
 21
70.739770065
 31
0.0
  0
LINE
  5
274
330
1F
100
AcDbEntity
  8
0
  6
Continuous
 62
     7
370
    35
100
AcDbLine
 10
80.4936779602
 20
70.739770065
 30
0.0
 11
66.52116774
 21
70.739770065
 31
0.0
  0
LINE
  5
275
330
1F
100
AcDbEntity
  8
0
  6
Continuous
 62
     7
370
    35
100
AcDbLine
 10
66.4036106896
 20
62.739770065
 30
0.0
 11
62.6936779602
 21
62.739770065
 31
0.0
  0
LINE
  5
276
330
1F
100
AcDbEntity
  8
0
  6
Continuous
 62
     7
370
    35
100
AcDbLine
 10
80.6936779602
 20
62.739770065
 30
0.0
 11
66.4036106896
 21
62.739770065
 31
0.0
  0
LINE
  5
277
330
1F
100
AcDbEntity
  8
0
  6
Continuous
 62
     7
370
    35
100
AcDbLine
 10
68.2913430723
 20
55.839770065
 30
0.0
 11
65.9052801148
 21
55.839770065
 31
0.0
  0
LINE
  5
278
330
1F
100
AcDbEntity
  8
0
  6
Continuous
 62
     7
370
    35
100
AcDbLine
 10
77.4820758056
 20
55.839770065
 30
0.0
 11
68.2913430723
 21
55.839770065
 31
0.0
  0
LINE
  5
279
330
1F
100
AcDbEntity
  8
0
  6
Continuous
 62
     7
370
    35
100
AcDbLine
 10
102.2536106896
 20
70.539770065
 30
0.0
 11
98.5436779602
 21
70.539770065
 31
0.0
  0
LINE
  5
27A
330
1F
100
AcDbEntity
  8
0
  6
Continuous
 62
     7
370
    35
100
AcDbLine
 10
116.5436779602
 20
70.539770065
 30
0.0
 11
102.2536106896
 21
70.539770065
 31
0.0
  0
LINE
  5
27B
330
1F
100
AcDbEntity
  8
0
  6
Continuous
 62
     7
370
    35
100
AcDbLine
 10
102.37116774
 20
70.739770065
 30
0.0
 11
98.7436779602
 21
70.739770065
 31
0.0
  0
LINE
  5
27C
330
1F
100
AcDbEntity
  8
0
  6
Continuous
 62
     7
370
    35
100
AcDbLine
 10
116.3436779602
 20
70.739770065
 30
0.0
 11
102.37116774
 21
70.739770065
 31
0.0
  0
LINE
  5
27D
330
1F
100
AcDbEntity
  8
0
  6
Continuous
 62
     7
370
    35
100
AcDbLine
 10
102.2536106896
 20
62.739770065
 30
0.0
 11
98.5436779602
 21
62.739770065
 31
0.0
  0
LINE
  5
27E
330
1F
100
AcDbEntity
  8
0
  6
Continuous
 62
     7
370
    35
100
AcDbLine
 10
116.5436779602
 20
62.739770065
 30
0.0
 11
102.2536106896
 21
62.739770065
 31
0.0
  0
LINE
  5
27F
330
1F
100
AcDbEntity
  8
0
  6
Continuous
 62
     7
370
    35
100
AcDbLine
 10
104.1413430723
 20
55.839770065
 30
0.0
 11
101.7552801148
 21
55.839770065
 31
0.0
  0
LINE
  5
280
330
1F
100
AcDbEntity
  8
0
  6
Continuous
 62
     7
370
    35
100
AcDbLine
 10
113.3320758055
 20
55.839770065
 30
0.0
 11
104.1413430723
 21
55.839770065
 31
0.0
  0
LINE
  5
281
330
1F
100
AcDbEntity
  8
0
  6
Continuous
 62
     7
370
    35
100
AcDbLine
 10
138.1036106896
 20
70.539770065
 30
0.0
 11
134.3936779602
 21
70.539770065
 31
0.0
  0
LINE
  5
282
330
1F
100
AcDbEntity
  8
0
  6
Continuous
 62
     7
370
    35
100
AcDbLine
 10
152.3936779602
 20
70.539770065
 30
0.0
 11
138.1036106896
 21
70.539770065
 31
0.0
  0
LINE
  5
283
330
1F
100
AcDbEntity
  8
0
  6
Continuous
 62
     7
370
    35
100
AcDbLine
 10
138.22116774
 20
70.739770065
 30
0.0
 11
134.5936779602
 21
70.739770065
 31
0.0
  0
LINE
  5
284
330
1F
100
AcDbEntity
  8
0
  6
Continuous
 62
     7
370
    35
100
AcDbLine
 10
152.1936779602
 20
70.739770065
 30
0.0
 11
138.22116774
 21
70.739770065
 31
0.0
  0
LINE
  5
285
330
1F
100
AcDbEntity
  8
0
  6
Continuous
 62
     7
370
    35
100
AcDbLine
 10
138.1036106896
 20
62.739770065
 30
0.0
 11
134.3936779602
 21
62.739770065
 31
0.0
  0
LINE
  5
286
330
1F
100
AcDbEntity
  8
0
  6
Continuous
 62
     7
370
    35
100
AcDbLine
 10
152.3936779602
 20
62.739770065
 30
0.0
 11
138.1036106896
 21
62.739770065
 31
0.0
  0
LINE
  5
287
330
1F
100
AcDbEntity
  8
0
  6
Continuous
 62
     7
370
    35
100
AcDbLine
 10
139.9913430723
 20
55.839770065
 30
0.0
 11
137.6052801148
 21
55.839770065
 31
0.0
  0
LINE
  5
288
330
1F
100
AcDbEntity
  8
0
  6
Continuous
 62
     7
370
    35
100
AcDbLine
 10
149.1820758056
 20
55.839770065
 30
0.0
 11
139.9913430723
 21
55.839770065
 31
0.0
  0
LINE
  5
289
330
1F
100
AcDbEntity
  8
0
  6
Continuous
 62
     7
370
    35
100
AcDbLine
 10
43.6136106896
 20
70.539770065
 30
0.0
 11
39.9036779602
 21
70.539770065
 31
0.0
  0
LINE
  5
28A
330
1F
100
AcDbEntity
  8
0
  6
Continuous
 62
     7
370
    35
100
AcDbLine
 10
57.9036779602
 20
70.539770065
 30
0.0
 11
43.6136106896
 21
70.539770065
 31
0.0
  0
LINE
  5
28B
330
1F
100
AcDbEntity
  8
0
  6
Continuous
 62
     7
370
    35
100
AcDbLine
 10
43.73116774
 20
70.739770065
 30
0.0
 11
40.1036779602
 21
70.739770065
 31
0.0
  0
LINE
  5
28C
330
1F
100
AcDbEntity
  8
0
  6
Continuous
 62
     7
370
    35
100
AcDbLine
 10
57.7036779602
 20
70.739770065
 30
0.0
 11
43.73116774
 21
70.739770065
 31
0.0
  0
LINE
  5
28D
330
1F
100
AcDbEntity
  8
0
  6
Continuous
 62
     7
370
    35
100
AcDbLine
 10
43.6136106896
 20
62.739770065
 30
0.0
 11
39.9036779602
 21
62.739770065
 31
0.0
  0
LINE
  5
28E
330
1F
100
AcDbEntity
  8
0
  6
Continuous
 62
     7
370
    35
100
AcDbLine
 10
57.9036779602
 20
62.739770065
 30
0.0
 11
43.6136106896
 21
62.739770065
 31
0.0
  0
LINE
  5
28F
330
1F
100
AcDbEntity
  8
0
  6
Continuous
 62
     7
370
    35
100
AcDbLine
 10
45.5013430723
 20
55.839770065
 30
0.0
 11
43.1152801148
 21
55.839770065
 31
0.0
  0
LINE
  5
290
330
1F
100
AcDbEntity
  8
0
  6
Continuous
 62
     7
370
    35
100
AcDbLine
 10
54.6920758056
 20
55.839770065
 30
0.0
 11
45.5013430723
 21
55.839770065
 31
0.0
  0
LINE
  5
291
330
1F
100
AcDbEntity
  8
0
  6
Continuous
 62
    18
370
    35
100
AcDbLine
 10
162.2290056081
 20
56.4977499217
 30
0.0
 11
159.4555874941
 21
56.4977499217
 31
0.0
  0
LINE
  5
292
330
1F
100
AcDbEntity
  8
0
  6
Continuous
 62
    18
370
    35
100
AcDbLine
 10
172.9117684263
 20
56.4977499217
 30
0.0
 11
162.2290056081
 21
56.4977499217
 31
0.0
  0
LINE
  5
293
330
1F
100
AcDbEntity
  8
0
  6
Continuous
 62
    18
370
    35
100
AcDbLine
 10
67.7390056081
 20
56.4977499217
 30
0.0
 11
64.9655874941
 21
56.4977499217
 31
0.0
  0
LINE
  5
294
330
1F
100
AcDbEntity
  8
0
  6
Continuous
 62
    18
370
    35
100
AcDbLine
 10
78.4217684263
 20
56.4977499217
 30
0.0
 11
67.7390056081
 21
56.4977499217
 31
0.0
  0
LINE
  5
295
330
1F
100
AcDbEntity
  8
0
  6
Continuous
 62
    18
370
    35
100
AcDbLine
 10
103.5890056081
 20
56.4977499217
 30
0.0
 11
100.8155874941
 21
56.4977499217
 31
0.0
  0
LINE
  5
296
330
1F
100
AcDbEntity
  8
0
  6
Continuous
 62
    18
370
    35
100
AcDbLine
 10
114.2717684263
 20
56.4977499217
 30
0.0
 11
103.5890056081
 21
56.4977499217
 31
0.0
  0
LINE
  5
297
330
1F
100
AcDbEntity
  8
0
  6
Continuous
 62
    18
370
    35
100
AcDbLine
 10
139.4390056081
 20
56.4977499217
 30
0.0
 11
136.6655874941
 21
56.4977499217
 31
0.0
  0
LINE
  5
298
330
1F
100
AcDbEntity
  8
0
  6
Continuous
 62
    18
370
    35
100
AcDbLine
 10
150.1217684263
 20
56.4977499217
 30
0.0
 11
139.4390056081
 21
56.4977499217
 31
0.0
  0
LINE
  5
299
330
1F
100
AcDbEntity
  8
0
  6
Continuous
 62
    18
370
    35
100
AcDbLine
 10
44.9490056081
 20
56.4977499217
 30
0.0
 11
42.1755874941
 21
56.4977499217
 31
0.0
  0
LINE
  5
29A
330
1F
100
AcDbEntity
  8
0
  6
Continuous
 62
    18
370
    35
100
AcDbLine
 10
55.6317684263
 20
56.4977499217
 30
0.0
 11
44.9490056081
 21
56.4977499217
 31
0.0
  0
DIMENSION
  5
29B
330
1F
100
AcDbEntity
  8
LIVELLO1
100
AcDbDimension
  2
_D_3
 10
13.54857835
 20
96.639770065
 30
0.0
 11
13.54857835
 21
76.239770065
 31
0.0
 70
   160
  1
<>
 71
     2
 42
-1.0
  3
SLDDIMSTYLE0
100
AcDbAlignedDimension
 13
43.1152801148
 23
55.839770065
 33
0.0
 14
54.8561541385
 24
96.639770065
 34
0.0
 50
90.0
100
AcDbRotatedDimension
  0
DIMENSION
  5
2A5
330
1F
100
AcDbEntity
  8
LIVELLO1
100
AcDbDimension
  2
_D_4
 10
201.54857835
 20
96.639770065
 30
0.0
 11
201.54857835
 21
86.039770065
 31
0.0
 70
   160
  1
<>
 71
     2
 42
-1.0
  3
SLDDIMSTYLE0
100
AcDbAlignedDimension
 13
181.54857835
 23
75.439770065
 33
0.0
 14
181.54857835
 24
96.639770065
 34
0.0
 50
90.0
100
AcDbRotatedDimension
  0
DIMENSION
  5
2AF
330
1F
100
AcDbEntity
  8
LIVELLO1
100
AcDbDimension
  2
_D_5
 10
167.4158359338
 20
86.439770065
 30
0.0
 11
153.3689069643
 21
107.5506156054
 31
0.0
 70
   164
  1
G1/4 (10X)\P
 71
     1
 42
-1.0
  3
SLDDIMSTYLE2
100
AcDbRadialDimension
 15
166.0507448385
 25
91.5343593897
 35
0.0
 40
0.0
  0
LWPOLYLINE
  5
2B9
330
1F
100
AcDbEntity
  8
LIVELLO1
100
AcDbPolyline
 90
       35
 70
   128
 43
0.0
 10
130.4157972336
 20
93.018270065
 10
131.5654694395
 20
92.9062586013
 10
132.675953555
 20
92.5740386262
 10
133.7094720756
 20
92.0329234924
 10
134.6308297677
 20
91.301340227
 10
135.4086509001
 20
90.4042020204
 10
136.016447707
 20
89.3720598385
 10
136.4335223972
 20
88.2400620452
 10
136.6456719923
 20
87.0467574678
 10
136.6456719923
 20
85.8327826623
 10
136.4335223972
 20
84.6394780848
 10
136.016447707
 20
83.5074802916
 10
135.4086509001
 20
82.4753381096
 10
134.6308297677
 20
81.5781999031
 10
133.7094720756
 20
80.8466166376
 10
132.675953555
 20
80.3055015039
 10
131.5654694395
 20
79.9732815288
 10
130.4158359338
 20
79.861270065
 10
129.2662024281
 20
79.9732815288
 10
128.1557183126
 20
80.3055015039
 10
127.122199792
 20
80.8466166376
 10
126.2008420999
 20
81.5781999031
 10
125.4230209675
 20
82.4753381096
 10
124.8152241606
 20
83.5074802916
 10
124.3981494704
 20
84.6394780848
 10
124.1859998752
 20
85.8327826623
 10
124.1859998752
 20
87.0467574678
 10
124.3981494704
 20
88.2400620452
 10
124.8152241606
 20
89.3720598385
 10
125.4230209675
 20
90.4042020204
 10
126.2008420999
 20
91.301340227
 10
127.122199792
 20
92.0329234924
 10
128.1557183126
 20
92.5740386262
 10
129.2662024281
 20
92.9062586013
 10
130.4158359338
 20
93.018270065
  0
LWPOLYLINE
  5
2BA
330
1F
100
AcDbEntity
  8
LIVELLO1
100
AcDbPolyline
 90
       35
 70
   128
 43
0.0
 10
167.4157381058
 20
93.018270065
 10
168.1263485149
 20
92.9062586013
 10
168.8126654423
 20
92.5740386262
 10
169.451415016
 20
92.0329234924
 10
170.0208453855
 20
91.301340227
 10
170.5015652825
 20
90.4042020204
 10
170.8772043674
 20
89.3720598385
 10
171.1349707018
 20
88.2400620452
 10
171.2660863623
 20
87.0467574678
 10
171.2660863623
 20
85.8327826623
 10
171.1349707018
 20
84.6394780848
 10
170.8772043674
 20
83.5074802916
 10
170.5015652825
 20
82.4753381096
 10
170.0208453855
 20
81.5781999031
 10
169.451415016
 20
80.8466166376
 10
168.8126654423
 20
80.3055015039
 10
168.1263485149
 20
79.9732815288
 10
167.4158359338
 20
79.861270065
 10
166.7053233527
 20
79.9732815288
 10
166.0190064253
 20
80.3055015039
 10
165.3802568516
 20
80.8466166376
 10
164.8108264821
 20
81.5781999031
 10
164.3301065851
 20
82.4753381096
 10
163.9544675001
 20
83.5074802916
 10
163.6967011657
 20
84.6394780848
 10
163.5655855053
 20
85.8327826623
 10
163.5655855053
 20
87.0467574678
 10
163.6967011657
 20
88.2400620452
 10
163.9544675001
 20
89.3720598385
 10
164.3301065851
 20
90.4042020204
 10
164.8108264821
 20
91.301340227
 10
165.3802568516
 20
92.0329234924
 10
166.0190064253
 20
92.5740386262
 10
166.7053233527
 20
92.9062586013
 10
167.4158359338
 20
93.018270065
  0
LWPOLYLINE
  5
2BB
330
1F
100
AcDbEntity
  8
LIVELLO1
100
AcDbPolyline
 90
       35
 70
   128
 43
0.0
 10
84.6812725067
 20
93.018270065
 10
85.830954272
 20
92.9062586013
 10
86.9414383875
 20
92.5740386262
 10
87.9749569081
 20
92.0329234924
 10
88.8963146002
 20
91.301340227
 10
89.6741357326
 20
90.4042020204
 10
90.2819325395
 20
89.3720598385
 10
90.6990072297
 20
88.2400620452
 10
90.9111568248
 20
87.0467574678
 10
90.9111568248
 20
85.8327826623
 10
90.6990072297
 20
84.6394780848
 10
90.2819325395
 20
83.5074802916
 10
89.6741357326
 20
82.4753381096
 10
88.8963146002
 20
81.5781999031
 10
87.9749569081
 20
80.8466166376
 10
86.9414383875
 20
80.3055015039
 10
85.830954272
 20
79.9732815288
 10
84.6813207663
 20
79.861270065
 10
83.5316872606
 20
79.9732815288
 10
82.4212031451
 20
80.3055015039
 10
81.3876846245
 20
80.8466166376
 10
80.4663269324
 20
81.5781999031
 10
79.6885058
 20
82.4753381096
 10
79.0807089931
 20
83.5074802916
 10
78.6636343029
 20
84.6394780848
 10
78.4514847077
 20
85.8327826623
 10
78.4514847077
 20
87.0467574678
 10
78.6636343029
 20
88.2400620452
 10
79.0807089931
 20
89.3720598385
 10
79.6885058
 20
90.4042020204
 10
80.4663269324
 20
91.301340227
 10
81.3876846245
 20
92.0329234924
 10
82.4212031451
 20
92.5740386262
 10
83.5316872606
 20
92.9062586013
 10
84.6813207663
 20
93.018270065
  0
LWPOLYLINE
  5
2BC
330
1F
100
AcDbEntity
  8
LIVELLO1
100
AcDbPolyline
 90
       35
 70
   128
 43
0.0
 10
47.6813018322
 20
93.018270065
 10
48.3918333474
 20
92.9062586013
 10
49.0781502748
 20
92.5740386262
 10
49.7168998485
 20
92.0329234924
 10
50.286330218
 20
91.301340227
 10
50.767050115
 20
90.4042020204
 10
51.1426891999
 20
89.3720598385
 10
51.4004555343
 20
88.2400620452
 10
51.5315711948
 20
87.0467574678
 10
51.5315711948
 20
85.8327826623
 10
51.4004555343
 20
84.6394780848
 10
51.1426891999
 20
83.5074802916
 10
50.767050115
 20
82.4753381096
 10
50.286330218
 20
81.5781999031
 10
49.7168998485
 20
80.8466166376
 10
49.0781502748
 20
80.3055015039
 10
48.3918333474
 20
79.9732815288
 10
47.6813207663
 20
79.861270065
 10
46.9708081852
 20
79.9732815288
 10
46.2844912578
 20
80.3055015039
 10
45.6457416841
 20
80.8466166376
 10
45.0763113146
 20
81.5781999031
 10
44.5955914176
 20
82.4753381096
 10
44.2199523326
 20
83.5074802916
 10
43.9621859982
 20
84.6394780848
 10
43.8310703378
 20
85.8327826623
 10
43.8310703378
 20
87.0467574678
 10
43.9621859982
 20
88.2400620452
 10
44.2199523326
 20
89.3720598385
 10
44.5955914176
 20
90.4042020204
 10
45.0763113146
 20
91.301340227
 10
45.6457416841
 20
92.0329234924
 10
46.2844912578
 20
92.5740386262
 10
46.9708081852
 20
92.9062586013
 10
47.6813207663
 20
93.018270065
  0
ENDSEC
  0
SECTION
  2
OBJECTS
  0
DICTIONARY
  5
C
330
0
100
AcDbDictionary
281
     1
  3
ACAD_GROUP
350
D
  3
ACAD_LAYOUT
350
1A
  3
ACAD_MLINESTYLE
350
17
  3
ACAD_PLOTSETTINGS
350
19
  3
ACAD_PLOTSTYLENAME
350
E
  3
ACAD_SCALELIST
350
47
  3
DWGPROPS
350
2BD
  0
DICTIONARY
  5
D
102
{ACAD_REACTORS
330
C
102
}
330
C
100
AcDbDictionary
281
     1
  0
DICTIONARY
  5
1A
102
{ACAD_REACTORS
330
C
102
}
330
C
100
AcDbDictionary
281
     1
  3
Layout1
350
1E
  3
Layout2
350
26
  3
Model
350
22
  0
DICTIONARY
  5
17
102
{ACAD_REACTORS
330
C
102
}
330
C
100
AcDbDictionary
281
     1
  3
Standard
350
18
  0
DICTIONARY
  5
19
102
{ACAD_REACTORS
330
C
102
}
330
C
100
AcDbDictionary
281
     1
  0
ACDBDICTIONARYWDFLT
  5
E
102
{ACAD_REACTORS
330
C
102
}
330
C
100
AcDbDictionary
281
     1
  3
Normal
350
F
100
AcDbDictionaryWithDefault
340
F
  0
DICTIONARY
  5
47
102
{ACAD_REACTORS
330
C
102
}
330
C
100
AcDbDictionary
281
     1
  3
A0
350
48
  3
A1
350
49
  3
A2
350
4A
  3
A3
350
4B
  3
A4
350
4C
  3
A5
350
4D
  3
A6
350
4E
  3
A7
350
4F
  3
A8
350
50
  3
A9
350
51
  3
B0
350
52
  3
B1
350
53
  3
B2
350
54
  3
B3
350
55
  3
B4
350
56
  3
B5
350
57
  3
B6
350
58
  3
B7
350
59
  3
B8
350
5A
  3
B9
350
5B
  3
C0
350
5C
  3
C1
350
5D
  3
C2
350
5E
  3
C3
350
5F
  3
C4
350
60
  3
C5
350
61
  3
C6
350
62
  3
C7
350
63
  3
C8
350
64
  3
C9
350
65
  3
D0
350
66
  3
D1
350
67
  3
D2
350
68
  0
XRECORD
  5
2BD
102
{ACAD_REACTORS
330
C
102
}
330
C
100
AcDbXrecord
280
     1
  1
DWGPROPS COOKIE
  2

  3

  4

  6

  7

  8
ftodaro
  9

300
=
301
=
302
=
303
=
304
=
305
=
306
=
307
=
308
=
309
=
 40
0.0
 41
2459985.466702616
 42
2459985.46670331
  1

 90
        0
  0
LAYOUT
  5
1E
102
{ACAD_REACTORS
330
1A
102
}
330
1A
100
AcDbPlotSettings
  1

  2
none_device
  4

  6

 40
0.0
 41
0.0
 42
0.0
 43
0.0
 44
0.0
 45
0.0
 46
0.0
 47
0.0
 48
0.0
 49
0.0
140
0.0
141
0.0
142
1.0
143
1.0
 70
   688
 72
     1
 73
     0
 74
     5
  7

 75
    16
147
1.0
148
0.0
149
0.0
100
AcDbLayout
  1
Layout1
 70
     1
 71
     1
 10
0.0
 20
0.0
 11
420.0
 21
297.0
 12
0.0
 22
0.0
 32
0.0
 14
1.0000000000E+20
 24
1.0000000000E+20
 34
1.0000000000E+20
 15
-1.0000000000E+20
 25
-1.0000000000E+20
 35
-1.0000000000E+20
146
0.0
 13
0.0
 23
0.0
 33
0.0
 16
1.0
 26
0.0
 36
0.0
 17
0.0
 27
1.0
 37
0.0
 76
     0
330
1B
  0
LAYOUT
  5
26
102
{ACAD_REACTORS
330
1A
102
}
330
1A
100
AcDbPlotSettings
  1

  2
none_device
  4

  6

 40
0.0
 41
0.0
 42
0.0
 43
0.0
 44
0.0
 45
0.0
 46
0.0
 47
0.0
 48
0.0
 49
0.0
140
0.0
141
0.0
142
1.0
143
1.0
 70
   688
 72
     1
 73
     0
 74
     5
  7

 75
    16
147
1.0
148
0.0
149
0.0
100
AcDbLayout
  1
Layout2
 70
     1
 71
     2
 10
0.0
 20
0.0
 11
0.0
 21
0.0
 12
0.0
 22
0.0
 32
0.0
 14
0.0
 24
0.0
 34
0.0
 15
0.0
 25
0.0
 35
0.0
146
0.0
 13
0.0
 23
0.0
 33
0.0
 16
1.0
 26
0.0
 36
0.0
 17
0.0
 27
1.0
 37
0.0
 76
     0
330
23
  0
LAYOUT
  5
22
102
{ACAD_REACTORS
330
1A
102
}
330
1A
100
AcDbPlotSettings
  1

  2
none_device
  4
Letter_(8.50_x_11.00_Inches)
  6

 40
6.35
 41
6.35
 42
6.35000508
 43
6.35000508
 44
215.9
 45
279.4
 46
0.0
 47
0.0
 48
0.0
 49
0.0
140
0.0
141
0.0
142
1.0
143
1.0
 70
  1712
 72
     1
 73
     0
 74
     0
  7

 75
     0
147
1.0
148
0.0
149
0.0
100
AcDbLayout
  1
Model
 70
     1
 71
     0
 10
0.0
 20
0.0
 11
210.0
 21
297.0
 12
0.0
 22
0.0
 32
0.0
 14
0.0
 24
0.0
 34
0.0
 15
210.0
 25
297.0
 35
0.0
146
0.0
 13
0.0
 23
0.0
 33
0.0
 16
1.0
 26
0.0
 36
0.0
 17
0.0
 27
1.0
 37
0.0
 76
     0
330
1F
331
29
  0
MLINESTYLE
  5
18
102
{ACAD_REACTORS
330
17
102
}
330
17
100
AcDbMlineStyle
  2
Standard
 70
     0
  3

 62
   256
 51
90.0
 52
90.0
 71
     2
 49
0.5
 62
   256
  6
BYLAYER
 49
-0.5
 62
   256
  6
BYLAYER
  0
ACDBPLACEHOLDER
  5
F
102
{ACAD_REACTORS
330
E
102
}
330
E
  0
SCALE
  5
48
102
{ACAD_REACTORS
330
47
102
}
330
47
100
AcDbScale
 70
     0
300
1:1
140
1.0
141
1.0
290
     1
  0
SCALE
  5
49
102
{ACAD_REACTORS
330
47
102
}
330
47
100
AcDbScale
 70
     0
300
1:2
140
1.0
141
2.0
290
     0
  0
SCALE
  5
4A
102
{ACAD_REACTORS
330
47
102
}
330
47
100
AcDbScale
 70
     0
300
1:4
140
1.0
141
4.0
290
     0
  0
SCALE
  5
4B
102
{ACAD_REACTORS
330
47
102
}
330
47
100
AcDbScale
 70
     0
300
1:5
140
1.0
141
5.0
290
     0
  0
SCALE
  5
4C
102
{ACAD_REACTORS
330
47
102
}
330
47
100
AcDbScale
 70
     0
300
1:8
140
1.0
141
8.0
290
     0
  0
SCALE
  5
4D
102
{ACAD_REACTORS
330
47
102
}
330
47
100
AcDbScale
 70
     0
300
1:10
140
1.0
141
10.0
290
     0
  0
SCALE
  5
4E
102
{ACAD_REACTORS
330
47
102
}
330
47
100
AcDbScale
 70
     0
300
1:16
140
1.0
141
16.0
290
     0
  0
SCALE
  5
4F
102
{ACAD_REACTORS
330
47
102
}
330
47
100
AcDbScale
 70
     0
300
1:20
140
1.0
141
20.0
290
     0
  0
SCALE
  5
50
102
{ACAD_REACTORS
330
47
102
}
330
47
100
AcDbScale
 70
     0
300
1:30
140
1.0
141
30.0
290
     0
  0
SCALE
  5
51
102
{ACAD_REACTORS
330
47
102
}
330
47
100
AcDbScale
 70
     0
300
1:40
140
1.0
141
40.0
290
     0
  0
SCALE
  5
52
102
{ACAD_REACTORS
330
47
102
}
330
47
100
AcDbScale
 70
     0
300
1:50
140
1.0
141
50.0
290
     0
  0
SCALE
  5
53
102
{ACAD_REACTORS
330
47
102
}
330
47
100
AcDbScale
 70
     0
300
1:100
140
1.0
141
100.0
290
     0
  0
SCALE
  5
54
102
{ACAD_REACTORS
330
47
102
}
330
47
100
AcDbScale
 70
     0
300
2:1
140
2.0
141
1.0
290
     0
  0
SCALE
  5
55
102
{ACAD_REACTORS
330
47
102
}
330
47
100
AcDbScale
 70
     0
300
4:1
140
4.0
141
1.0
290
     0
  0
SCALE
  5
56
102
{ACAD_REACTORS
330
47
102
}
330
47
100
AcDbScale
 70
     0
300
8:1
140
8.0
141
1.0
290
     0
  0
SCALE
  5
57
102
{ACAD_REACTORS
330
47
102
}
330
47
100
AcDbScale
 70
     0
300
10:1
140
10.0
141
1.0
290
     0
  0
SCALE
  5
58
102
{ACAD_REACTORS
330
47
102
}
330
47
100
AcDbScale
 70
     0
300
100:1
140
100.0
141
1.0
290
     0
  0
SCALE
  5
59
102
{ACAD_REACTORS
330
47
102
}
330
47
100
AcDbScale
 70
     0
300
1/128" = 1'-0"
140
0.0078125
141
12.0
290
     0
  0
SCALE
  5
5A
102
{ACAD_REACTORS
330
47
102
}
330
47
100
AcDbScale
 70
     0
300
1/64" = 1'-0"
140
0.015625
141
12.0
290
     0
  0
SCALE
  5
5B
102
{ACAD_REACTORS
330
47
102
}
330
47
100
AcDbScale
 70
     0
300
1/32" = 1'-0"
140
0.03125
141
12.0
290
     0
  0
SCALE
  5
5C
102
{ACAD_REACTORS
330
47
102
}
330
47
100
AcDbScale
 70
     0
300
1/16" = 1'-0"
140
0.0625
141
12.0
290
     0
  0
SCALE
  5
5D
102
{ACAD_REACTORS
330
47
102
}
330
47
100
AcDbScale
 70
     0
300
3/32" = 1'-0"
140
0.09375
141
12.0
290
     0
  0
SCALE
  5
5E
102
{ACAD_REACTORS
330
47
102
}
330
47
100
AcDbScale
 70
     0
300
1/8" = 1'-0"
140
0.125
141
12.0
290
     0
  0
SCALE
  5
5F
102
{ACAD_REACTORS
330
47
102
}
330
47
100
AcDbScale
 70
     0
300
3/16" = 1'-0"
140
0.1875
141
12.0
290
     0
  0
SCALE
  5
60
102
{ACAD_REACTORS
330
47
102
}
330
47
100
AcDbScale
 70
     0
300
1/4" = 1'-0"
140
0.25
141
12.0
290
     0
  0
SCALE
  5
61
102
{ACAD_REACTORS
330
47
102
}
330
47
100
AcDbScale
 70
     0
300
3/8" = 1'-0"
140
0.375
141
12.0
290
     0
  0
SCALE
  5
62
102
{ACAD_REACTORS
330
47
102
}
330
47
100
AcDbScale
 70
     0
300
1/2" = 1'-0"
140
0.5
141
12.0
290
     0
  0
SCALE
  5
63
102
{ACAD_REACTORS
330
47
102
}
330
47
100
AcDbScale
 70
     0
300
3/4" = 1'-0"
140
0.75
141
12.0
290
     0
  0
SCALE
  5
64
102
{ACAD_REACTORS
330
47
102
}
330
47
100
AcDbScale
 70
     0
300
1" = 1'-0"
140
1.0
141
12.0
290
     0
  0
SCALE
  5
65
102
{ACAD_REACTORS
330
47
102
}
330
47
100
AcDbScale
 70
     0
300
1-1/2" = 1'-0"
140
1.5
141
12.0
290
     0
  0
SCALE
  5
66
102
{ACAD_REACTORS
330
47
102
}
330
47
100
AcDbScale
 70
     0
300
3" = 1'-0"
140
3.0
141
12.0
290
     0
  0
SCALE
  5
67
102
{ACAD_REACTORS
330
47
102
}
330
47
100
AcDbScale
 70
     0
300
6" = 1'-0"
140
6.0
141
12.0
290
     0
  0
SCALE
  5
68
102
{ACAD_REACTORS
330
47
102
}
330
47
100
AcDbScale
 70
     0
300
1'-0" = 1'-0"
140
12.0
141
12.0
290
     0
  0
ENDSEC
  0
EOF
