  0
SECTION
  2
HEADER
  9
$ACADVER
  1
AC1015
  9
$ACADMAINTVER
 70
    20
  9
$DWGCODEPAGE
  3
ANSI_950
  9
$INSBASE
 10
0.0
 20
0.0
 30
0.0
  9
$EXTMIN
 10
590.1004486151491
 20
20.31633067121299
 30
-0.002806814255564
  9
$EXTMAX
 10
798.0323707612283
 20
171.5218511313687
 30
99.08417671782894
  9
$LIMMIN
 10
0.0
 20
0.0
  9
$LIMMAX
 10
420.0
 20
297.0
  9
$ORTHOMODE
 70
     1
  9
$REGENMODE
 70
     1
  9
$FILLMODE
 70
     1
  9
$QTEXTMODE
 70
     0
  9
$MIRRTEXT
 70
     1
  9
$LTSCALE
 40
1.0
  9
$ATTMODE
 70
     1
  9
$TEXTSIZE
 40
3.0
  9
$TRACEWID
 40
1.0
  9
$TEXTSTYLE
  7
CHINESET
  9
$CLAYER
  8
0
  9
$CELTYPE
  6
ByLayer
  9
$CECOLOR
 62
   256
  9
$CELTSCALE
 40
1.0
  9
$DISPSILH
 70
     0
  9
$DIMSCALE
 40
1.0
  9
$DIMASZ
 40
1.5
  9
$DIMEXO
 40
1.0
  9
$DIMDLI
 40
4.0
  9
$DIMRND
 40
0.0
  9
$DIMDLE
 40
0.0
  9
$DIMEXE
 40
1.0
  9
$DIMTP
 40
0.1
  9
$DIMTM
 40
0.1
  9
$DIMTXT
 40
2.0
  9
$DIMCEN
 40
3.0
  9
$DIMTSZ
 40
0.0
  9
$DIMTOL
 70
     0
  9
$DIMLIM
 70
     0
  9
$DIMTIH
 70
     0
  9
$DIMTOH
 70
     0
  9
$DIMSE1
 70
     0
  9
$DIMSE2
 70
     0
  9
$DIMTAD
 70
     1
  9
$DIMZIN
 70
     8
  9
$DIMBLK
  1

  9
$DIMASO
 70
     1
  9
$DIMSHO
 70
     1
  9
$DIMPOST
  1

  9
$DIMAPOST
  1
"
  9
$DIMALT
 70
     0
  9
$DIMALTD
 70
     2
  9
$DIMALTF
 40
0.0393701
  9
$DIMLFAC
 40
1.0
  9
$DIMTOFL
 70
     1
  9
$DIMTVP
 40
0.0
  9
$DIMTIX
 70
     0
  9
$DIMSOXD
 70
     0
  9
$DIMSAH
 70
     0
  9
$DIMBLK1
  1

  9
$DIMBLK2
  1

  9
$DIMSTYLE
  2
AM_ISO
  9
$DIMCLRD
 70
   256
  9
$DIMCLRE
 70
   256
  9
$DIMCLRT
 70
   256
  9
$DIMTFAC
 40
0.71
  9
$DIMGAP
 40
0.8
  9
$DIMJUST
 70
     0
  9
$DIMSD1
 70
     0
  9
$DIMSD2
 70
     0
  9
$DIMTOLJ
 70
     0
  9
$DIMTZIN
 70
     8
  9
$DIMALTZ
 70
     0
  9
$DIMALTTZ
 70
     0
  9
$DIMUPT
 70
     0
  9
$DIMDEC
 70
     2
  9
$DIMTDEC
 70
     8
  9
$DIMALTU
 70
     2
  9
$DIMALTTD
 70
     2
  9
$DIMTXSTY
  7
STANDARD
  9
$DIMAUNIT
 70
     0
  9
$DIMADEC
 70
     0
  9
$DIMALTRND
 40
0.0
  9
$DIMAZIN
 70
     2
  9
$DIMDSEP
 70
    46
  9
$DIMATFIT
 70
     3
  9
$DIMFRAC
 70
     0
  9
$DIMLDRBLK
  1

  9
$DIMLUNIT
 70
     2
  9
$DIMLWD
 70
    -1
  9
$DIMLWE
 70
    -1
  9
$DIMTMOVE
 70
     0
  9
$LUNITS
 70
     2
  9
$LUPREC
 70
     2
  9
$SKETCHINC
 40
1.0
  9
$FILLETRAD
 40
2.5
  9
$AUNITS
 70
     0
  9
$AUPREC
 70
     0
  9
$MENU
  1
.
  9
$ELEVATION
 40
0.0
  9
$PELEVATION
 40
0.0
  9
$THICKNESS
 40
0.0
  9
$LIMCHECK
 70
     0
  9
$CHAMFERA
 40
2.5
  9
$CHAMFERB
 40
2.5
  9
$CHAMFERC
 40
20.0
  9
$CHAMFERD
 40
0.0
  9
$SKPOLY
 70
     0
  9
$TDCREATE
 40
2453021.369367211
  9
$TDUCREATE
 40
2453021.036033877
  9
$TDUPDATE
 40
2454728.625441076
  9
$TDUUPDATE
 40
2454728.292107744
  9
$TDINDWG
 40
0.4720036806
  9
$TDUSRTIMER
 40
0.4720029745
  9
$USRTIMER
 70
     1
  9
$ANGBASE
 50
0.0
  9
$ANGDIR
 70
     0
  9
$PDMODE
 70
     0
  9
$PDSIZE
 40
0.0
  9
$PLINEWID
 40
0.0
  9
$SPLFRAME
 70
     0
  9
$SPLINETYPE
 70
     6
  9
$SPLINESEGS
 70
     8
  9
$HANDSEED
  5
3D4F
  9
$SURFTAB1
 70
     6
  9
$SURFTAB2
 70
     6
  9
$SURFTYPE
 70
     6
  9
$SURFU
 70
     6
  9
$SURFV
 70
     6
  9
$UCSBASE
  2

  9
$UCSNAME
  2

  9
$UCSORG
 10
0.0
 20
0.0
 30
0.0
  9
$UCSXDIR
 10
1.0
 20
0.0
 30
0.0
  9
$UCSYDIR
 10
0.0
 20
1.0
 30
0.0
  9
$UCSORTHOREF
  2

  9
$UCSORTHOVIEW
 70
     0
  9
$UCSORGTOP
 10
0.0
 20
0.0
 30
0.0
  9
$UCSORGBOTTOM
 10
0.0
 20
0.0
 30
0.0
  9
$UCSORGLEFT
 10
0.0
 20
0.0
 30
0.0
  9
$UCSORGRIGHT
 10
0.0
 20
0.0
 30
0.0
  9
$UCSORGFRONT
 10
0.0
 20
0.0
 30
0.0
  9
$UCSORGBACK
 10
0.0
 20
0.0
 30
0.0
  9
$PUCSBASE
  2

  9
$PUCSNAME
  2

  9
$PUCSORG
 10
0.0
 20
0.0
 30
0.0
  9
$PUCSXDIR
 10
1.0
 20
0.0
 30
0.0
  9
$PUCSYDIR
 10
0.0
 20
1.0
 30
0.0
  9
$PUCSORTHOREF
  2

  9
$PUCSORTHOVIEW
 70
     0
  9
$PUCSORGTOP
 10
0.0
 20
0.0
 30
0.0
  9
$PUCSORGBOTTOM
 10
0.0
 20
0.0
 30
0.0
  9
$PUCSORGLEFT
 10
0.0
 20
0.0
 30
0.0
  9
$PUCSORGRIGHT
 10
0.0
 20
0.0
 30
0.0
  9
$PUCSORGFRONT
 10
0.0
 20
0.0
 30
0.0
  9
$PUCSORGBACK
 10
0.0
 20
0.0
 30
0.0
  9
$USERI1
 70
     0
  9
$USERI2
 70
     0
  9
$USERI3
 70
     0
  9
$USERI4
 70
     0
  9
$USERI5
 70
     0
  9
$USERR1
 40
0.0
  9
$USERR2
 40
0.0
  9
$USERR3
 40
0.0
  9
$USERR4
 40
0.0
  9
$USERR5
 40
0.0
  9
$WORLDVIEW
 70
     1
  9
$SHADEDGE
 70
     3
  9
$SHADEDIF
 70
    70
  9
$TILEMODE
 70
     1
  9
$MAXACTVP
 70
    64
  9
$PINSBASE
 10
0.0
 20
0.0
 30
0.0
  9
$PLIMCHECK
 70
     0
  9
$PEXTMIN
 10
1.000000000000000E+20
 20
1.000000000000000E+20
 30
1.000000000000000E+20
  9
$PEXTMAX
 10
-1.000000000000000E+20
 20
-1.000000000000000E+20
 30
-1.000000000000000E+20
  9
$PLIMMIN
 10
0.0
 20
0.0
  9
$PLIMMAX
 10
420.0
 20
297.0
  9
$UNITMODE
 70
     0
  9
$VISRETAIN
 70
     1
  9
$PLINEGEN
 70
     0
  9
$PSLTSCALE
 70
     1
  9
$TREEDEPTH
 70
  3020
  9
$CMLSTYLE
  2
Standard
  9
$CMLJUST
 70
     0
  9
$CMLSCALE
 40
20.0
  9
$PROXYGRAPHICS
 70
     1
  9
$MEASUREMENT
 70
     1
  9
$CELWEIGHT
370
    -1
  9
$ENDCAPS
280
     0
  9
$JOINSTYLE
280
     0
  9
$LWDISPLAY
290
     0
  9
$INSUNITS
 70
     4
  9
$HYPERLINKBASE
  1

  9
$STYLESHEET
  1
彩色出圖.CTB
  9
$XEDIT
290
     1
  9
$CEPSNTYPE
380
     0
  9
$PSTYLEMODE
290
     1
  9
$FINGERPRINTGUID
  2
{6C02722A-18D3-491A-897A-B8025DE410A9}
  9
$VERSIONGUID
  2
{EBE738FF-0D62-4F3D-979A-3A68FF7B9FE5}
  9
$EXTNAMES
290
     1
  9
$PSVPSCALE
 40
0.0
  9
$OLESTARTUP
290
     0
  0
ENDSEC
  0
SECTION
  2
CLASSES
  0
CLASS
  1
ACDBDICTIONARYWDFLT
  2
AcDbDictionaryWithDefault
  3
ObjectDBX Classes
 90
        0
280
     0
281
     0
  0
CLASS
  1
ACDBPLACEHOLDER
  2
AcDbPlaceHolder
  3
ObjectDBX Classes
 90
        0
280
     0
281
     0
  0
CLASS
  1
LAYOUT
  2
AcDbLayout
  3
ObjectDBX Classes
 90
        0
280
     0
281
     0
  0
CLASS
  1
AMGSETTINGSOBJ
  2
AmgSettingsObj
  3
"AcadM|Product Description: AutoCAD Mechanical 2000|Company: Autodesk"
 90
        0
280
     0
281
     0
  0
CLASS
  1
ACME_DOCUMENT
  2
AcMeDbDoc
  3
AcMeServices
 90
        0
280
     0
281
     0
  0
CLASS
  1
ACMESCOPE
  2
AcMeScope
  3
AcMeServices
 90
        0
280
     0
281
     0
  0
CLASS
  1
ACMECOMMANDHISTORY
  2
AcMeCommandHistory
  3
AcMeServices
 90
        0
280
     0
281
     0
  0
CLASS
  1
ACIMSYSVARMAN
  2
AcImSysVarManager
  3
AcMeServices
 90
        0
280
     0
281
     0
  0
CLASS
  1
ACIMREALSYSVAR
  2
AcImRealSysVar
  3
AcMeServices
 90
        0
280
     0
281
     0
  0
CLASS
  1
ACIMINTSYSVAR
  2
AcImIntSysVar
  3
AcMeServices
 90
        0
280
     0
281
     0
  0
CLASS
  1
ACMEDRAWINGMAN
  2
AcMeDrawingMan
  3
AcMeServices
 90
        0
280
     0
281
     0
  0
CLASS
  1
ACMEVIEW
  2
AcMeView
  3
AcMeServices
 90
        0
280
     0
281
     0
  0
CLASS
  1
ACDBENTITYCACHE
  2
AcMeEntityCache
  3
AcMeServices
 90
        0
280
     0
281
     0
  0
CLASS
  1
GSMANAGER
  2
AcMeGSManager
  3
AcMeServices
 90
        0
280
     0
281
     0
  0
CLASS
  1
AMDTINTERNALREACTOR
  2
AmdtInternalReactor
  3
AcMeServices
 90
        0
280
     0
281
     0
  0
CLASS
  1
ACMESTATEMGR
  2
AcMeStateMgr
  3
AcMeServices
 90
        0
280
     0
281
     0
  0
CLASS
  1
ACGREFMASTER
  2
AcGrefMaster
  3
AcAttribServices
 90
        0
280
     0
281
     0
  0
CLASS
  1
ACME_DATABASE
  2
AcMeDbDatabase
  3
AcMeServices
 90
        0
280
     0
281
     0
  0
CLASS
  1
ACRFINSADJUSTERMGR
  2
AcRfInsAdjusterMgr
  3
AcMeServices
 90
        0
280
     0
281
     0
  0
CLASS
  1
ACGREFACADMASTER
  2
AcGrefacadMaster
  3
AcGrefServices
 90
        0
280
     0
281
     0
  0
CLASS
  1
AMIMASTER
  2
AmiMaster
  3
AmiServices
 90
        0
280
     0
281
     0
  0
CLASS
  1
ACMDATADICTIONARY
  2
AcmDataDictionary
  3
"AcmSymBB|Product Description: AutoCAD Mechanical 2004 DX|Company: Autodesk"
 90
        0
280
     0
281
     0
  0
CLASS
  1
ACMDATAENTRYBLOCK
  2
AcmDataEntryBlock
  3
"AcmSymBB|Product Description: AutoCAD Mechanical 2004 DX|Company: Autodesk"
 90
    32768
280
     0
281
     0
  0
CLASS
  1
ACIMSTRSYSVAR
  2
AcImStrSysVar
  3
AcMeServices
 90
        0
280
     0
281
     0
  0
CLASS
  1
ACMSTANDARDISO
  2
AcmStandardISO
  3
"Amdt_StdImp|Product Description: AutoCAD Mechanical 2004 DX|Company: Autodesk"
 90
        0
280
     0
281
     0
  0
CLASS
  1
AMGOBJPROPCFG
  2
AmgObjPropCfg
  3
"AmgLay|Product Description: AutoCAD Mechanical 2000|Company: Autodesk"
 90
        1
280
     0
281
     0
  0
CLASS
  1
AMDTEDGESTANDARDISO
  2
AmdtEdgeStdISO
  3
"Amdt_StdImp|Product Description: AutoCAD Mechanical 2004 DX|Company: Autodesk"
 90
    32768
280
     0
281
     0
  0
CLASS
  1
ACMSURFSTANDARDISO
  2
AcmSurfTextStdISO
  3
"Amdt_StdImp|Product Description: AutoCAD Mechanical 2004 DX|Company: Autodesk"
 90
        0
280
     0
281
     0
  0
CLASS
  1
ACMFCFSTANDARDISO
  2
AcmFCFStdISO
  3
"Amdt_StdImp|Product Description: AutoCAD Mechanical 2004 DX|Company: Autodesk"
 90
        0
280
     0
281
     0
  0
CLASS
  1
ACMWELDSTANDARDISO
  2
AcmWeldingStdISO
  3
"Amdt_StdImp|Product Description: AutoCAD Mechanical 2004 DX|Company: Autodesk"
 90
        0
280
     0
281
     0
  0
CLASS
  1
ACMIDSTANDARDISO
  2
AcmIdStdISO
  3
"Amdt_StdImp|Product Description: AutoCAD Mechanical 2004 DX|Company: Autodesk"
 90
        0
280
     0
281
     0
  0
CLASS
  1
ACMDATUMSTANDARDISO
  2
AcmDatumStdISO
  3
"Amdt_StdImp|Product Description: AutoCAD Mechanical 2004 DX|Company: Autodesk"
 90
        0
280
     0
281
     0
  0
CLASS
  1
ACMBOMSTANDARDISO
  2
AcmBOMStdISO
  3
"Amdt_StdImp|Product Description: AutoCAD Mechanical 2004 DX|Company: Autodesk"
 90
        0
280
     0
281
     0
  0
CLASS
  1
ACMDETAILSTANDARDISO
  2
AmdtDetailSymStdISO
  3
"Amdt_StdImp|Product Description: AutoCAD Mechanical 2004 DX|Company: Autodesk"
 90
        0
280
     0
281
     0
  0
CLASS
  1
ACMSECTIONSTANDARDISO
  2
AmdtSectionSymStdISO
  3
"Amdt_StdImp|Product Description: AutoCAD Mechanical 2004 DX|Company: Autodesk"
 90
        0
280
     0
281
     0
  0
CLASS
  1
ACMCENTERLINESTANDARDISO
  2
AmdtCenterLineStdISO
  3
"Amdt_StdImp|Product Description: AutoCAD Mechanical 2004 DX|Company: Autodesk"
 90
        0
280
     0
281
     0
  0
CLASS
  1
ACMNOTESTANDARDISO
  2
AmdtNoteStdISO
  3
"Amdt_StdImp|Product Description: AutoCAD Mechanical 2004 DX|Company: Autodesk"
 90
        0
280
     0
281
     0
  0
CLASS
  1
ACAMGLAYSTD
  2
AcAmgLayStd
  3
"AcAmgLayStd|Product Description: AutoCAD Mechanical 2000|Company: Autodesk"
 90
        0
280
     0
281
     0
  0
CLASS
  1
ACAMGDIMSTD
  2
AcAmgDimStd
  3
"AcAmgDimStd|Product Description: AutoCAD Mechanical 2000|Company: Autodesk"
 90
        0
280
     0
281
     0
  0
CLASS
  1
ACAMGHOLECHARTSTDISO
  2
AcAmgHoleChartStdISO
  3
ACMSYMBB_MODULE_NAME
 90
        0
280
     0
281
     0
  0
CLASS
  1
ACAMGTITLESTD
  2
AcAmgTitleStd
  3
"TITLEAPP"
 90
        0
280
     0
281
     0
  0
CLASS
  1
LAYER_INDEX
  2
AcDbLayerIndex
  3
ObjectDBX Classes
 90
    32768
280
     0
281
     0
  0
CLASS
  1
IDBUFFER
  2
AcDbIdBuffer
  3
ObjectDBX Classes
 90
    32768
280
     0
281
     0
  0
CLASS
  1
DICTIONARYVAR
  2
AcDbDictionaryVar
  3
ObjectDBX Classes
 90
        0
280
     0
281
     0
  0
CLASS
  1
ACAMGFILTERDAT
  2
AcAmgFilterDat
  3
"AcadM|Product Description: AutoCAD Mechanical 2000|Company: Autodesk"
 90
    32768
280
     0
281
     0
  0
CLASS
  1
AMDTFORMULAUPDATEDISPATCHER
  2
AmdtFormulaUpdateDispatcher
  3
AcMeServices
 90
    32768
280
     0
281
     0
  0
CLASS
  1
DIMASSOC
  2
AcDbDimAssoc
  3
"AcDbDimAssoc|Product Desc:     AcDim ARX App For Dimension|Company:          Autodesk, Inc.|WEB Address:      www.autodesk.com"
 90
        0
280
     0
281
     0
  0
CLASS
  1
AMDTNOTE
  2
AmdtNote
  3
"AcmSymBB|Product Description: AutoCAD Mechanical 2004 DX|Company: Autodesk"
 90
    33791
280
     0
281
     1
  0
CLASS
  1
TABLESTYLE
  2
AcDbTableStyle
  3
ObjectDBX Classes
 90
     2047
280
     0
281
     0
  0
CLASS
  1
AM_DRAWING_MGR
  2
AcDmDwgMgr
  3
AcMechDwgViewMgmt
 90
        0
280
     0
281
     0
  0
CLASS
  1
AM_DWG_DOCUMENT
  2
AcDmDwgDocument
  3
AcMechDwgViewMgmt
 90
        0
280
     0
281
     0
  0
CLASS
  1
AM_DWG_SHEET
  2
AcDmSheet
  3
AcMechDwgViewMgmt
 90
        0
280
     0
281
     0
  0
CLASS
  1
AM_VIEWDIMPARMAP
  2
AcDmViewDimParMap
  3
AcMechDwgViewMgmt
 90
        0
280
     0
281
     0
  0
CLASS
  1
AM_DWGMGR_NAME
  2
AcDmDwgMgrName
  3
AcMechDwgViewMgmt
 90
        0
280
     0
281
     0
  0
CLASS
  1
AMDTMENUSTATEMGR
  2
AmdtMenuStateMgr
  3
McadcomServices
 90
        0
280
     0
281
     0
  0
CLASS
  1
AMDTMCOMMENUSTATE
  2
AmdtMcomMenuState
  3
McadcomServices
 90
        0
280
     0
281
     0
  0
CLASS
  1
MAPIAMMOUDLE
  2
MApiAmModule
  3
MApiAmServices
 90
        0
280
     0
281
     0
  0
CLASS
  1
AMDTADMENUSTATE
  2
AmdtAdMenuState
  3
DesignerServices
 90
        0
280
     0
281
     0
  0
CLASS
  1
ADAPPL
  2
AcAdAppl
  3
DesignerServices
 90
        0
280
     0
281
     0
  0
CLASS
  1
DEPMGR
  2
AcAdDepMgr
  3
DesignerServices
 90
        0
280
     0
281
     0
  0
CLASS
  1
PARAMMGR
  2
AcAdParamMgr
  3
DesignerServices
 90
        0
280
     0
281
     0
  0
CLASS
  1
PARAMSCOPE
  2
AcAdParamScope
  3
DesignerServices
 90
        0
280
     0
281
     0
  0
CLASS
  1
NAMEDAPPL
  2
AcAdNamedAppl
  3
DesignerServices
 90
        0
280
     0
281
     0
  0
CLASS
  1
AMDTDMMENUSTATE
  2
AmdtDmMenuState
  3
AcMechDwgViewMgmt
 90
        0
280
     0
281
     0
  0
CLASS
  1
AMDTAMMENUSTATE
  2
AmdtAmMenuState
  3
DesignerAssemblies
 90
        0
280
     0
281
     0
  0
CLASS
  1
ACAMPROJECT
  2
AcAmProject
  3
DesignerAssemblies
 90
        0
280
     0
281
     0
  0
CLASS
  1
ACAMGRCOMPDEF
  2
AcAmGrCompDef
  3
DesignerAssemblies
 90
        0
280
     0
281
     0
  0
CLASS
  1
ACCMCONTEXT
  2
AcCmContext
  3
DesignerAssemblies
 90
        0
280
     0
281
     0
  0
CLASS
  1
ACAMCOMPDEF
  2
AcAmCompDef
  3
DesignerAssemblies
 90
        0
280
     0
281
     0
  0
CLASS
  1
ACAMCOMPDEFMGR
  2
AcAmCompDefMgr
  3
DesignerAssemblies
 90
        0
280
     0
281
     0
  0
CLASS
  1
AMCONTEXTMGR
  2
AcAmContextMgr
  3
DesignerAssemblies
 90
        0
280
     0
281
     0
  0
CLASS
  1
ACAMCONTEXTMODELER
  2
AcAmContextModeler
  3
DesignerAssemblies
 90
        0
280
     0
281
     0
  0
CLASS
  1
ACMTHREADLINESTANDARDISO
  2
AmdtThreadLineStdISO
  3
"Amdt_StdImp|Product Description: AutoCAD Mechanical 2004 DX|Company: Autodesk"
 90
        0
280
     0
281
     0
  0
CLASS
  1
CATALOGSTATE
  2
AcAmCatalogState
  3
DesignerAssemblies
 90
        0
280
     0
281
     0
  0
CLASS
  1
ACAMGRCOMPDEFSET
  2
AcAmGrCompDefSet
  3
DesignerAssemblies
 90
        0
280
     0
281
     0
  0
CLASS
  1
AMDTBROWSERDBTAB
  2
AmdtBrowserDbTab
  3
McadcomServices
 90
        0
280
     0
281
     0
  0
CLASS
  1
CBROWSERAPPOBJECT
  2
CBrowserAppObject
  3
McadcomServices
 90
        0
280
     0
281
     0
  0
CLASS
  1
DM_PLACEHOLDER
  2
AcDmSelsetPlaceholder
  3
AcMechDwgViewMgmt
 90
        0
280
     0
281
     0
  0
CLASS
  1
VAACXREFPANELOBJECT
  2
VaAcXREFPanelObject
  3
VAAC_ADDIN
 90
    32768
280
     0
281
     0
  0
CLASS
  1
VAACIMAGEINVENTORY
  2
VaAcImageInventory
  3
VAAC_ADDIN
 90
    32768
280
     0
281
     0
  0
CLASS
  1
AMDTEDGESTANDARDISO13715
  2
AmdtEdgeStdISO13715
  3
"Amdt_StdImp|Product Description: AutoCAD Mechanical 2004 DX|Company: Autodesk"
 90
        0
280
     0
281
     0
  0
CLASS
  1
AMDTNOTETEMPLATEDB
  2
AmdtNoteTemplateDB
  3
AMDT_STDIMP_MODULE_NAME
 90
        0
280
     0
281
     0
  0
CLASS
  1
ACRFATTGENMGR
  2
AcRfAttGeneralMgr
  3
AcAttribServices
 90
    32768
280
     0
281
     0
  0
CLASS
  1
STDPART2D
  2
AmgStdPart
  3
"AmgStdPart|Product Description: AutoCAD Mechanical 2000|Company: Autodesk"
 90
    33791
280
     0
281
     1
  0
CLASS
  1
ACAMSTDPCOMPDEF
  2
AcAmStdpCompDef
  3
DesignerAssemblies
 90
    32768
280
     0
281
     0
  0
CLASS
  1
ACRFOBJATTMGR
  2
AcRfObjAttGroupMgr
  3
AcAttribServices
 90
    32768
280
     0
281
     0
  0
CLASS
  1
ACRFMCADAPIATTHOLDER
  2
AcRfMCADAPIAttHolder
  3
AcAttribServices
 90
    32768
280
     0
281
     0
  0
CLASS
  1
AMDTSYSATTR
  2
AmdtSystemAttribute
  3
AcAttribServices
 90
    32768
280
     0
281
     0
  0
CLASS
  1
ACAMCOMP
  2
AcAmComp
  3
DesignerAssemblies
 90
    32768
280
     0
281
     0
  0
CLASS
  1
AC_AM_STDP_VIEW_DEF
  2
AcAmStdpViewDef
  3
DesignerAssemblies
 90
    32768
280
     0
281
     0
  0
CLASS
  1
AC_AM_MVD_DEP_MGR
  2
AcAmMVDdepMgr
  3
DesignerAssemblies
 90
    32768
280
     0
281
     0
  0
CLASS
  1
AC_AM_MASTER_VIEW_DEF
  2
AcAmMasterViewDef
  3
DesignerAssemblies
 90
    32768
280
     0
281
     0
  0
CLASS
  1
AC_AM_DIRTY_NODES
  2
AcAmDirtyNodes
  3
DesignerAssemblies
 90
    32768
280
     0
281
     0
  0
CLASS
  1
AC_AM_MAPPER_CACHE
  2
AcAmMapperCache
  3
DesignerAssemblies
 90
    32768
280
     0
281
     0
  0
CLASS
  1
ACAMMVDBACKUPOBJECT
  2
AcAmMVDBackupObject
  3
DesignerAssemblies
 90
    32768
280
     0
281
     0
  0
CLASS
  1
AC_AM_COMP_VIEW_INST
  2
AcAmCompView
  3
DesignerAssemblies
 90
    32768
280
     0
281
     0
  0
CLASS
  1
AC_AM_2D_XREF_MGR
  2
AcAmXrefMgr2d
  3
DesignerAssemblies
 90
    32768
280
     0
281
     0
  0
CLASS
  1
SORTENTSTABLE
  2
AcDbSortentsTable
  3
ObjectDBX Classes
 90
        0
280
     0
281
     0
  0
ENDSEC
  0
SECTION
  2
TABLES
  0
TABLE
  2
VPORT
  5
8
330
0
100
AcDbSymbolTable
 70
     4
  0
VPORT
  5
3D46
330
8
100
AcDbSymbolTableRecord
100
AcDbViewportTableRecord
  2
*Active
 70
     0
 10
0.0
 20
0.0
 11
1.0
 21
1.0
 12
694.0664096881887
 22
95.91909090129087
 13
0.0
 23
0.0
 14
2.5
 24
2.5
 15
10.0
 25
10.0
 16
0.0
 26
0.0
 36
1.0
 17
0.0
 27
0.0
 37
0.0
 40
157.6742893376466
 41
1.326923076923076
 42
50.0
 43
0.0
 44
0.0
 50
0.0
 51
0.0
 71
     0
 72
   100
 73
     1
 74
     3
 75
     0
 76
     0
 77
     0
 78
     0
281
     0
 65
     0
110
0.0
120
0.0
130
0.0
111
1.0
121
0.0
131
0.0
112
0.0
122
1.0
132
0.0
 79
     0
146
0.0
  0
ENDTAB
  0
TABLE
  2
LTYPE
  5
5
330
0
100
AcDbSymbolTable
 70
    14
  0
LTYPE
  5
14
330
5
100
AcDbSymbolTableRecord
100
AcDbLinetypeTableRecord
  2
ByBlock
 70
     0
  3

 72
    65
 73
     0
 40
0.0
  0
LTYPE
  5
15
330
5
100
AcDbSymbolTableRecord
100
AcDbLinetypeTableRecord
  2
ByLayer
 70
     0
  3

 72
    65
 73
     0
 40
0.0
  0
LTYPE
  5
16
330
5
100
AcDbSymbolTableRecord
100
AcDbLinetypeTableRecord
  2
Continuous
 70
     0
  3
Solid line
 72
    65
 73
     0
 40
0.0
  0
LTYPE
  5
4D
330
5
100
AcDbSymbolTableRecord
100
AcDbLinetypeTableRecord
  2
AM_ISO02W050
 70
     0
  3
__ __ __ __ __ __ __ __ __ __ __ __ __ __ __
 72
    65
 73
     2
 40
7.5
 49
6.0
 74
     0
 49
-1.5
 74
     0
  0
LTYPE
  5
4E
330
5
100
AcDbSymbolTableRecord
100
AcDbLinetypeTableRecord
  2
AM_ISO08W050
 70
     0
  3
____ . ____ . ____ . ____ . ____ . ____ . ____
 72
    65
 73
     4
 40
18.0
 49
12.0
 74
     0
 49
-1.5
 74
     0
 49
3.0
 74
     0
 49
-1.5
 74
     0
  0
LTYPE
  5
4F
330
5
100
AcDbSymbolTableRecord
100
AcDbLinetypeTableRecord
  2
AM_ISO09W050
 70
     0
  3
_____ . . _____ . . _____ . . ____ .. ____
 72
    65
 73
     6
 40
22.5
 49
12.0
 74
     0
 49
-1.5
 74
     0
 49
3.0
 74
     0
 49
-1.5
 74
     0
 49
3.0
 74
     0
 49
-1.5
 74
     0
  0
LTYPE
  5
50
330
5
100
AcDbSymbolTableRecord
100
AcDbLinetypeTableRecord
  2
Amconstr
 70
     0
  3
_______________________
 72
    65
 73
     2
 40
9999.0
 49
9999.0
 74
     0
 49
0.0
 74
     0
  0
LTYPE
  5
51
330
5
100
AcDbSymbolTableRecord
100
AcDbLinetypeTableRecord
  2
AM_ISO08W050x2
 70
     0
  3
__ . __ . __ . __ . __ . __
 72
    65
 73
     4
 40
9.0
 49
6.0
 74
     0
 49
-0.75
 74
     0
 49
1.5
 74
     0
 49
-0.75
 74
     0
  0
LTYPE
  5
52
330
5
100
AcDbSymbolTableRecord
100
AcDbLinetypeTableRecord
  2
AM_ISO02W050x2
 70
     0
  3
 _ _ _ _ _ _ _ _ _ _ _ _
 72
    65
 73
     2
 40
3.75
 49
3.0
 74
     0
 49
-0.75
 74
     0
  0
LTYPE
  5
55
330
5
100
AcDbSymbolTableRecord
100
AcDbLinetypeTableRecord
  2
Amzigzag
 70
     0
  3
/\/-/\/-/\/-/\/-/\/-/\/
 72
    65
 73
     2
 40
11.0001
 49
0.0001
 74
     4
 75
   135
340
54
 46
0.04
 50
0.0
 44
0.0
 45
0.0
 49
-11.0
 74
     0
  0
LTYPE
  5
63
330
5
100
AcDbSymbolTableRecord
100
AcDbLinetypeTableRecord
  2
ACISOWELD
 70
     0
  3
_ _ _ _ _
 72
    65
 73
     2
 40
2.0
 49
2.0
 74
     0
 49
-1.0
 74
     0
  0
LTYPE
  5
64
330
5
100
AcDbSymbolTableRecord
100
AcDbLinetypeTableRecord
  2
ACISOTGB
 70
     0
  3
__ . . __ . .
 72
    65
 73
     6
 40
9.0
 49
4.0
 74
     0
 49
-1.0
 74
     0
 49
1.0
 74
     0
 49
-1.0
 74
     0
 49
1.0
 74
     0
 49
-1.0
 74
     0
  0
LTYPE
  5
65
330
5
100
AcDbSymbolTableRecord
100
AcDbLinetypeTableRecord
  2
ACISOTGL
 70
     0
  3
_ _ _ _ _
 72
    65
 73
     2
 40
3.0
 49
2.0
 74
     0
 49
-1.0
 74
     0
  0
LTYPE
  5
68
330
5
100
AcDbSymbolTableRecord
100
AcDbLinetypeTableRecord
  2
CENTER
 70
     0
  3
__ . __
 72
    65
 73
     4
 40
7.0
 49
4.0
 74
     0
 49
-1.0
 74
     0
 49
1.0
 74
     0
 49
-1.0
 74
     0
  0
LTYPE
  5
932
330
5
100
AcDbSymbolTableRecord
100
AcDbLinetypeTableRecord
  2
HIDDEN
 70
     0
  3
Hidden __ __ __ __ __ __ __ __ __ __ __ __ __ _
 72
    65
 73
     2
 40
9.524999999999996
 49
6.349999999999998
 74
     0
 49
-3.174999999999998
 74
     0
  0
LTYPE
  5
933
330
5
100
AcDbSymbolTableRecord
100
AcDbLinetypeTableRecord
  2
PHANTOM2
 70
     0
  3
Phantom (.5x) ___ _ _ ___ _ _ ___ _ _ ___ _ _
 72
    65
 73
     6
 40
31.75
 49
15.875
 74
     0
 49
-3.174999999999998
 74
     0
 49
3.174999999999998
 74
     0
 49
-3.174999999999998
 74
     0
 49
3.174999999999998
 74
     0
 49
-3.174999999999998
 74
     0
  0
ENDTAB
  0
TABLE
  2
LAYER
  5
2
102
{ACAD_XDICTIONARY
360
E05
102
}
330
0
100
AcDbSymbolTable
 70
     6
  0
LAYER
  5
10
330
2
100
AcDbSymbolTableRecord
100
AcDbLayerTableRecord
  2
0
 70
     0
 62
     7
  6
Continuous
370
    -3
390
F
  0
LAYER
  5
2D7
330
2
100
AcDbSymbolTableRecord
100
AcDbLayerTableRecord
  2
M_1
 70
     0
 62
     7
  6
Continuous
370
    -3
390
F
  0
LAYER
  5
42A
330
2
100
AcDbSymbolTableRecord
100
AcDbLayerTableRecord
  2
AM_5
 70
     0
 62
     5
  6
Continuous
370
    50
390
F
  0
LAYER
  5
43E
330
2
100
AcDbSymbolTableRecord
100
AcDbLayerTableRecord
  2
Defpoints
 70
     0
 62
     7
  6
Continuous
290
     0
370
    -3
390
F
  0
LAYER
  5
E7E
330
2
100
AcDbSymbolTableRecord
100
AcDbLayerTableRecord
  2
AM_7
 70
     0
 62
     1
  6
CENTER
370
    25
390
F
  0
LAYER
  5
2787
330
2
100
AcDbSymbolTableRecord
100
AcDbLayerTableRecord
  2
LOGO
 70
     0
 62
     7
  6
Continuous
370
    -3
390
F
  0
ENDTAB
  0
TABLE
  2
STYLE
  5
3
330
0
100
AcDbSymbolTable
 70
     6
  0
STYLE
  5
11
330
3
100
AcDbSymbolTableRecord
100
AcDbTextStyleTableRecord
  2
STANDARD
 70
     0
 40
0.0
 41
1.0
 50
0.0
 71
     0
 42
3.5
  3
ISOCP.SHX
  4
CHINESET.SHX
  0
STYLE
  5
54
330
3
100
AcDbSymbolTableRecord
100
AcDbTextStyleTableRecord
  2

 70
     1
 40
0.0
 41
1.0
 50
0.0
 71
     0
 42
2.5
  3
ltypeshp.shx
  4

  0
STYLE
  5
56
330
3
100
AcDbSymbolTableRecord
100
AcDbTextStyleTableRecord
  2
ACISOTS
 70
     0
 40
1.0
 41
1.0
 50
0.0
 71
     0
 42
2.5
  3
isocp.shx
  4
chineset.shx
  0
STYLE
  5
62
330
3
100
AcDbSymbolTableRecord
100
AcDbTextStyleTableRecord
  2
ACISOGDT
 70
     0
 40
0.0
 41
1.0
 50
0.0
 71
     0
 42
3.5
  3
amgdt.shx
  4

  0
STYLE
  5
9E
330
3
100
AcDbSymbolTableRecord
100
AcDbTextStyleTableRecord
  2
DAYUS
 70
     0
 40
0.0
 41
1.0
 50
0.0
 71
     0
 42
2.5
  3
simplex
  4
dayus
  0
STYLE
  5
10CF
330
3
100
AcDbSymbolTableRecord
100
AcDbTextStyleTableRecord
  2
CHINESET
 70
     0
 40
0.0
 41
0.75
 50
0.0
 71
     0
 42
3.0
  3
simplex.shx
  4
CHINESET.SHX
  0
ENDTAB
  0
TABLE
  2
VIEW
  5
6
330
0
100
AcDbSymbolTable
 70
     0
  0
ENDTAB
  0
TABLE
  2
UCS
  5
7
330
0
100
AcDbSymbolTable
 70
     0
  0
ENDTAB
  0
TABLE
  2
APPID
  5
9
330
0
100
AcDbSymbolTable
 70
    31
  0
APPID
  5
12
330
9
100
AcDbSymbolTableRecord
100
AcDbRegAppTableRecord
  2
ACAD
 70
     0
  0
APPID
  5
30
330
9
100
AcDbSymbolTableRecord
100
AcDbRegAppTableRecord
  2
MCAD_NO_VIS
 70
     0
  0
APPID
  5
31
330
9
100
AcDbSymbolTableRecord
100
AcDbRegAppTableRecord
  2
ACAD_TEMP_GRAPHIC
 70
     0
  0
APPID
  5
42
330
9
100
AcDbSymbolTableRecord
100
AcDbRegAppTableRecord
  2
ACATTRIBSERVICES
 70
     0
  0
APPID
  5
20A
330
9
100
AcDbSymbolTableRecord
100
AcDbRegAppTableRecord
  2
GENIUS_GENODEF_13
 70
     0
  0
APPID
  5
20B
330
9
100
AcDbSymbolTableRecord
100
AcDbRegAppTableRecord
  2
GENIUS_GENOBJ-N-HTC_13
 70
     0
  0
APPID
  5
20C
330
9
100
AcDbSymbolTableRecord
100
AcDbRegAppTableRecord
  2
GENIUS_GENHATCH_13
 70
     0
  0
APPID
  5
935
330
9
100
AcDbSymbolTableRecord
100
AcDbRegAppTableRecord
  2
AD_DRAW
 70
     0
  0
APPID
  5
953
330
9
100
AcDbSymbolTableRecord
100
AcDbRegAppTableRecord
  2
DESIGNERASSEMBLIES
 70
     0
  0
APPID
  5
958
330
9
100
AcDbSymbolTableRecord
100
AcDbRegAppTableRecord
  2
ACADM_DIM_EDIT
 70
     0
  0
APPID
  5
959
330
9
100
AcDbSymbolTableRecord
100
AcDbRegAppTableRecord
  2
AMDT_DM_ADJ
 70
     0
  0
APPID
  5
E24
330
9
100
AcDbSymbolTableRecord
100
AcDbRegAppTableRecord
  2
ACAD_DSTYLE_DIMTEXT_FILL
 70
     0
  0
APPID
  5
10D0
330
9
100
AcDbSymbolTableRecord
100
AcDbRegAppTableRecord
  2
ACAD_PSEXT
 70
     0
  0
APPID
  5
16F7
330
9
100
AcDbSymbolTableRecord
100
AcDbRegAppTableRecord
  2
ACAD_DIMASSOC_DIMLFAC
 70
     0
  0
APPID
  5
16F8
330
9
100
AcDbSymbolTableRecord
100
AcDbRegAppTableRecord
  2
ACAD_DIMASSOC_CALC_DIMLFAC
 70
     0
  0
APPID
  5
16F9
330
9
100
AcDbSymbolTableRecord
100
AcDbRegAppTableRecord
  2
ACAD_DIMASSOC_OVERRIDDEN_DIMLFAC
 70
     0
  0
APPID
  5
1997
330
9
100
AcDbSymbolTableRecord
100
AcDbRegAppTableRecord
  2
GEVID1139552286
 70
     0
  0
APPID
  5
1998
330
9
100
AcDbSymbolTableRecord
100
AcDbRegAppTableRecord
  2
GEVDC
 70
     0
  0
APPID
  5
1999
330
9
100
AcDbSymbolTableRecord
100
AcDbRegAppTableRecord
  2
GEVRADREF
 70
     0
  0
APPID
  5
19A2
330
9
100
AcDbSymbolTableRecord
100
AcDbRegAppTableRecord
  2
AMG_2DHIDE
 70
     0
  0
APPID
  5
19A3
330
9
100
AcDbSymbolTableRecord
100
AcDbRegAppTableRecord
  2
AMG_2DSTRUCT_BTR
 70
     0
  0
APPID
  5
19B4
330
9
100
AcDbSymbolTableRecord
100
AcDbRegAppTableRecord
  2
ACADM_2DVIEW_IGN_NOTIFY
 70
     0
  0
APPID
  5
19DC
330
9
100
AcDbSymbolTableRecord
100
AcDbRegAppTableRecord
  2
GENIUS_GENOENT_13
 70
     0
  0
APPID
  5
19DD
330
9
100
AcDbSymbolTableRecord
100
AcDbRegAppTableRecord
  2
GENIUS_GENOBJ-N-CRS_13
 70
     0
  0
APPID
  5
19DE
330
9
100
AcDbSymbolTableRecord
100
AcDbRegAppTableRecord
  2
GENIUS_GENOLIS_13
 70
     0
  0
APPID
  5
19DF
330
9
100
AcDbSymbolTableRecord
100
AcDbRegAppTableRecord
  2
GENIUS_GENOREF_13
 70
     0
  0
APPID
  5
1B28
330
9
100
AcDbSymbolTableRecord
100
AcDbRegAppTableRecord
  2
GENIUS_GENOBJ-N-CEN_13
 70
     0
  0
APPID
  5
1B29
330
9
100
AcDbSymbolTableRecord
100
AcDbRegAppTableRecord
  2
GENIUS_GENCEN_19
 70
     0
  0
APPID
  5
2753
330
9
100
AcDbSymbolTableRecord
100
AcDbRegAppTableRecord
  2
GENIUS_GENDTOL_13
 70
     0
  0
APPID
  5
2788
330
9
100
AcDbSymbolTableRecord
100
AcDbRegAppTableRecord
  2
GENIUS_GENREC_14
 70
     0
  0
APPID
  5
2789
330
9
100
AcDbSymbolTableRecord
100
AcDbRegAppTableRecord
  2
GENIUS_GENOBJ-N-REC_13
 70
     0
  0
ENDTAB
  0
TABLE
  2
DIMSTYLE
  5
A
330
0
100
AcDbSymbolTable
 70
     9
100
AcDbDimStyleTable
 71
     2
340
6B
340
75
  0
DIMSTYLE
105
6B
330
A
100
AcDbSymbolTableRecord
100
AcDbDimStyleTableRecord
  2
AM_ISO
 70
     0
  4
"
 41
1.5
 42
1.0
 43
4.0
 44
1.0
 47
0.1
 48
0.1
 73
     0
 74
     0
 77
     1
 78
     8
 79
     2
140
2.0
141
3.0
143
0.0393701
146
0.71
147
0.8
172
     1
176
   256
177
   256
178
   256
271
     2
272
     2
283
     0
284
     8
340
11
371
    -1
372
    -1
  0
DIMSTYLE
105
6C
330
A
100
AcDbSymbolTableRecord
100
AcDbDimStyleTableRecord
  2
AM_ISO$3
 70
     0
  4
"
 41
1.5
 42
1.0
 43
4.0
 44
1.0
 47
0.1
 48
0.1
 73
     0
 77
     1
 78
     8
 79
     2
140
2.0
141
3.0
143
0.0393701
146
0.71
147
0.8
176
   256
177
   256
178
   256
271
     2
272
     2
283
     0
284
     8
288
     1
289
     0
340
11
371
    -1
372
    -1
  0
DIMSTYLE
105
6D
330
A
100
AcDbSymbolTableRecord
100
AcDbDimStyleTableRecord
  2
AM_ISO$4
 70
     0
  4
"
 41
1.5
 42
1.0
 43
4.0
 44
1.0
 47
0.1
 48
0.1
 73
     0
 77
     1
 78
     8
 79
     2
140
2.0
141
3.0
143
0.0393701
146
0.71
147
0.8
176
   256
177
   256
178
   256
271
     2
272
     2
283
     0
284
     8
288
     1
289
     0
340
11
371
    -1
372
    -1
  0
DIMSTYLE
105
6E
330
A
100
AcDbSymbolTableRecord
100
AcDbDimStyleTableRecord
  2
AM_ISO$6
 70
     0
  4
"
 41
1.5
 42
1.0
 43
4.0
 44
1.0
 47
0.1
 48
0.1
 73
     0
 74
     0
 78
     8
 79
     2
140
2.0
141
3.0
143
0.0393701
146
0.71
147
0.8
172
     1
176
   256
177
   256
178
   256
271
     2
272
     2
283
     0
284
     8
340
11
371
    -1
372
    -1
  0
DIMSTYLE
105
6F
330
A
100
AcDbSymbolTableRecord
100
AcDbDimStyleTableRecord
  2
AM_ISO$7
 70
     0
  4
"
 41
1.5
 42
1.0
 43
4.0
 44
1.0
 47
0.1
 48
0.1
 73
     0
 74
     0
 77
     1
 78
     8
 79
     2
140
5.0
141
3.0
143
0.0393701
146
0.71
147
0.8
172
     1
176
   256
177
   256
178
   256
271
     2
272
     2
283
     0
284
     8
340
11
371
    -1
372
    -1
  0
DIMSTYLE
105
70
330
A
100
AcDbSymbolTableRecord
100
AcDbDimStyleTableRecord
  2
AM_ISO$SF
 70
     0
  4
"
 41
2.5
 42
1.0
 43
10.0
 44
1.0
 47
0.1
 48
0.1
 73
     0
 74
     0
 75
     1
 76
     1
 77
     1
 78
     8
 79
     2
140
3.5
141
0.0
143
0.0393701
146
0.71
147
1.5
172
     1
176
   256
177
   256
178
     2
271
     2
272
     3
274
     4
283
     0
284
     8
340
11
371
    -1
372
    -1
  0
DIMSTYLE
105
75
330
A
100
AcDbSymbolTableRecord
100
AcDbDimStyleTableRecord
  2
AM_ISO$SH
 70
     0
  4
"
 41
2.5
 42
1.0
 43
10.0
 44
1.0
 47
0.1
 48
0.1
 73
     0
 74
     0
 75
     1
 76
     1
 77
     1
 78
     8
 79
     2
140
3.5
141
0.0
143
0.0393701
144
2.0
146
0.71
147
1.5
172
     1
173
     1
176
   256
177
   256
178
     2
271
     2
272
     3
274
     4
283
     0
284
     8
340
11
343
71
371
    -1
372
    -1
  0
DIMSTYLE
105
E7F
102
{ACAD_REACTORS
330
3663
330
3689
330
36AF
330
36D5
330
36FB
330
3721
330
37D1
330
37F7
330
390A
330
394A
330
3970
330
39B9
330
39DF
102
}
330
A
100
AcDbSymbolTableRecord
100
AcDbDimStyleTableRecord
  2
AM_ISO$0
 70
     0
  4
"
 41
1.5
 42
1.0
 43
4.0
 44
1.0
 47
0.1
 48
0.1
 73
     0
 74
     0
 77
     1
 78
     8
 79
     2
140
2.0
141
3.0
143
0.0393701
146
0.71
147
0.8
172
     1
176
   256
177
   256
178
   256
271
     2
272
     2
283
     0
284
     8
340
11
371
    -1
372
    -1
  0
DIMSTYLE
105
1597
330
A
100
AcDbSymbolTableRecord
100
AcDbDimStyleTableRecord
  2
AM_ISO$2
 70
     0
  4
"
 41
1.5
 42
1.0
 43
4.0
 44
1.0
 47
0.1
 48
0.1
 73
     0
 74
     0
 77
     1
 78
     8
 79
     2
140
2.0
141
3.0
143
0.0393701
146
0.71
147
0.8
172
     1
176
   256
177
   256
178
   256
271
     2
272
     2
283
     0
284
     8
340
11
371
    -1
372
    -1
  0
ENDTAB
  0
TABLE
  2
BLOCK_RECORD
  5
1
330
0
100
AcDbSymbolTable
 70
    19
  0
BLOCK_RECORD
  5
1F
102
{ACAD_XDICTIONARY
360
7D
102
}
330
1
100
AcDbSymbolTableRecord
100
AcDbBlockTableRecord
  2
*Model_Space
340
22
  0
BLOCK_RECORD
  5
1B
330
1
100
AcDbSymbolTableRecord
100
AcDbBlockTableRecord
  2
*Paper_Space
340
1E
  0
BLOCK_RECORD
  5
23
330
1
100
AcDbSymbolTableRecord
100
AcDbBlockTableRecord
  2
*Paper_Space0
340
26
  0
BLOCK_RECORD
  5
71
330
1
100
AcDbSymbolTableRecord
100
AcDbBlockTableRecord
  2
GENAXEH
340
0
  0
BLOCK_RECORD
  5
19B9
330
1
100
AcDbSymbolTableRecord
100
AcDbBlockTableRecord
  2
*U2
340
0
  0
BLOCK_RECORD
  5
3664
330
1
100
AcDbSymbolTableRecord
100
AcDbBlockTableRecord
  2
*D3
340
0
  0
BLOCK_RECORD
  5
368A
330
1
100
AcDbSymbolTableRecord
100
AcDbBlockTableRecord
  2
*D4
340
0
  0
BLOCK_RECORD
  5
36B0
330
1
100
AcDbSymbolTableRecord
100
AcDbBlockTableRecord
  2
*D5
340
0
  0
BLOCK_RECORD
  5
36D6
330
1
100
AcDbSymbolTableRecord
100
AcDbBlockTableRecord
  2
*D6
340
0
  0
BLOCK_RECORD
  5
36FC
330
1
100
AcDbSymbolTableRecord
100
AcDbBlockTableRecord
  2
*D7
340
0
  0
BLOCK_RECORD
  5
3722
330
1
100
AcDbSymbolTableRecord
100
AcDbBlockTableRecord
  2
*D8
340
0
  0
BLOCK_RECORD
  5
37D2
330
1
100
AcDbSymbolTableRecord
100
AcDbBlockTableRecord
  2
*D9
340
0
  0
BLOCK_RECORD
  5
37F8
330
1
100
AcDbSymbolTableRecord
100
AcDbBlockTableRecord
  2
*D10
340
0
  0
BLOCK_RECORD
  5
390B
330
1
100
AcDbSymbolTableRecord
100
AcDbBlockTableRecord
  2
*D11
340
0
  0
BLOCK_RECORD
  5
394B
330
1
100
AcDbSymbolTableRecord
100
AcDbBlockTableRecord
  2
*D12
340
0
  0
BLOCK_RECORD
  5
3971
330
1
100
AcDbSymbolTableRecord
100
AcDbBlockTableRecord
  2
*D13
340
0
  0
BLOCK_RECORD
  5
39BA
330
1
100
AcDbSymbolTableRecord
100
AcDbBlockTableRecord
  2
*D14
340
0
  0
BLOCK_RECORD
  5
39E0
330
1
100
AcDbSymbolTableRecord
100
AcDbBlockTableRecord
  2
*D15
340
0
  0
BLOCK_RECORD
  5
3CB0
330
1
100
AcDbSymbolTableRecord
100
AcDbBlockTableRecord
  2
*S2016
340
0
102
{BLKREFS
331
3A09
102
}
  0
BLOCK_RECORD
  5
3CB8
330
1
100
AcDbSymbolTableRecord
100
AcDbBlockTableRecord
  2
*S2117
340
0
102
{BLKREFS
331
3A0B
102
}
  0
ENDTAB
  0
ENDSEC
  0
SECTION
  2
BLOCKS
  0
BLOCK
  5
20
330
1F
100
AcDbEntity
  8
0
100
AcDbBlockBegin
  2
*Model_Space
 70
     0
 10
0.0
 20
0.0
 30
0.0
  3
*Model_Space
  1

  0
ENDBLK
  5
21
330
1F
100
AcDbEntity
  8
0
100
AcDbBlockEnd
  0
BLOCK
  5
1C
330
1B
100
AcDbEntity
 67
     1
  8
0
100
AcDbBlockBegin
  2
*Paper_Space
 70
     0
 10
0.0
 20
0.0
 30
0.0
  3
*Paper_Space
  1

  0
ENDBLK
  5
1D
330
1B
100
AcDbEntity
 67
     1
  8
0
100
AcDbBlockEnd
  0
BLOCK
  5
24
330
23
100
AcDbEntity
  8
0
100
AcDbBlockBegin
  2
*Paper_Space0
 70
     0
 10
0.0
 20
0.0
 30
0.0
  3
*Paper_Space0
  1

  0
ENDBLK
  5
25
330
23
100
AcDbEntity
  8
0
100
AcDbBlockEnd
  0
BLOCK
  5
73
330
71
100
AcDbEntity
  8
0
100
AcDbBlockBegin
  2
GENAXEH
 70
     0
 10
0.0
 20
0.0
 30
0.0
  3
GENAXEH
  1

  0
LINE
  5
72
330
71
100
AcDbEntity
  8
0
100
AcDbLine
 10
-1.0
 20
0.0
 30
0.0
 11
1.0
 21
0.0
 31
0.0
  0
ENDBLK
  5
74
330
71
100
AcDbEntity
  8
0
100
AcDbBlockEnd
  0
BLOCK
  5
19BA
330
19B9
100
AcDbEntity
  8
0
100
AcDbBlockBegin
  2
*U2
 70
     1
 10
0.0
 20
0.0
 30
0.0
  3
*U2
  1

  0
ENDBLK
  5
19BB
330
19B9
100
AcDbEntity
  8
0
100
AcDbBlockEnd
  0
BLOCK
  5
366E
330
3664
100
AcDbEntity
  8
0
100
AcDbBlockBegin
  2
*D3
 70
     1
 10
0.0
 20
0.0
 30
0.0
  3
*D3
  1

  0
LINE
  5
3BA2
330
3664
100
AcDbEntity
  8
AM_5
100
AcDbLine
 10
703.9373624900921
 20
144.5958159542729
 30
0.0
 11
703.9373624900921
 21
155.1412146551996
 31
0.0
  0
LINE
  5
3BA3
330
3664
100
AcDbEntity
  8
AM_5
100
AcDbLine
 10
710.9373624900921
 20
145.5408159542729
 30
0.0
 11
710.9373624900921
 21
155.1412146551996
 31
0.0
  0
LINE
  5
3BA4
330
3664
100
AcDbEntity
  8
AM_5
100
AcDbLine
 10
705.4373624900921
 20
154.1412146551996
 30
0.0
 11
709.4373624900921
 21
154.1412146551996
 31
0.0
  0
SOLID
  5
3BA5
330
3664
100
AcDbEntity
  8
AM_5
100
AcDbTrace
 10
705.4373624900921
 20
154.3912146551996
 30
0.0
 11
705.4373624900921
 21
153.8912146551995
 31
0.0
 12
703.9373624900921
 22
154.1412146551996
 32
0.0
 13
703.9373624900921
 23
154.1412146551996
 33
0.0
  0
SOLID
  5
3BA6
330
3664
100
AcDbEntity
  8
AM_5
100
AcDbTrace
 10
709.4373624900921
 20
154.3912146551996
 30
0.0
 11
709.4373624900921
 21
153.8912146551995
 31
0.0
 12
710.9373624900921
 22
154.1412146551996
 32
0.0
 13
710.9373624900921
 23
154.1412146551996
 33
0.0
  0
MTEXT
  5
3BA7
330
3664
100
AcDbEntity
  8
AM_5
100
AcDbMText
 10
707.4373624900921
 20
155.9412146551996
 30
0.0
 40
2.0
 41
0.0
 71
     5
 72
     1
  1
7
 73
     1
 44
1.0
1001
ACAD
1000
MTEXTBEGIN
1070
    73
1070
     1
1070
    44
1040
1.0
1070
    74
1070
     0
1000
MTEXTEND
  0
POINT
  5
3BA8
330
3664
100
AcDbEntity
  8
Defpoints
 62
     0
100
AcDbPoint
 10
703.9373624900921
 20
143.5958159542729
 30
0.0
  0
POINT
  5
3BA9
330
3664
100
AcDbEntity
  8
Defpoints
 62
     0
100
AcDbPoint
 10
710.9373624900921
 20
144.5408159542729
 30
0.0
  0
POINT
  5
3BAA
330
3664
100
AcDbEntity
  8
Defpoints
 62
     0
100
AcDbPoint
 10
710.9373624900921
 20
154.1412146551996
 30
0.0
  0
ENDBLK
  5
366F
330
3664
100
AcDbEntity
  8
0
100
AcDbBlockEnd
  0
BLOCK
  5
3694
330
368A
100
AcDbEntity
  8
0
100
AcDbBlockBegin
  2
*D4
 70
     1
 10
0.0
 20
0.0
 30
0.0
  3
*D4
  1

  0
LINE
  5
3B99
330
368A
100
AcDbEntity
  8
AM_5
100
AcDbLine
 10
692.9373624900921
 20
137.0864115631928
 30
0.0
 11
692.9373624900921
 21
155.1412146551996
 31
0.0
  0
LINE
  5
3B9A
330
368A
100
AcDbEntity
  8
AM_5
100
AcDbLine
 10
703.9373624900921
 20
144.5958159542729
 30
0.0
 11
703.9373624900921
 21
155.1412146551996
 31
0.0
  0
LINE
  5
3B9B
330
368A
100
AcDbEntity
  8
AM_5
100
AcDbLine
 10
694.4373624900921
 20
154.1412146551996
 30
0.0
 11
702.4373624900921
 21
154.1412146551996
 31
0.0
  0
SOLID
  5
3B9C
330
368A
100
AcDbEntity
  8
AM_5
100
AcDbTrace
 10
694.4373624900921
 20
154.3912146551996
 30
0.0
 11
694.4373624900921
 21
153.8912146551995
 31
0.0
 12
692.9373624900921
 22
154.1412146551996
 32
0.0
 13
692.9373624900921
 23
154.1412146551996
 33
0.0
  0
SOLID
  5
3B9D
330
368A
100
AcDbEntity
  8
AM_5
100
AcDbTrace
 10
702.4373624900921
 20
154.3912146551996
 30
0.0
 11
702.4373624900921
 21
153.8912146551995
 31
0.0
 12
703.9373624900921
 22
154.1412146551996
 32
0.0
 13
703.9373624900921
 23
154.1412146551996
 33
0.0
  0
MTEXT
  5
3B9E
330
368A
100
AcDbEntity
  8
AM_5
100
AcDbMText
 10
698.4373624900921
 20
155.9412146551996
 30
0.0
 40
2.0
 41
0.0
 71
     5
 72
     1
  1
11
 73
     1
 44
1.0
1001
ACAD
1000
MTEXTBEGIN
1070
    73
1070
     1
1070
    44
1040
1.0
1070
    74
1070
     0
1000
MTEXTEND
  0
POINT
  5
3B9F
330
368A
100
AcDbEntity
  8
Defpoints
 62
     0
100
AcDbPoint
 10
692.9373624900921
 20
136.0864115631928
 30
0.0
  0
POINT
  5
3BA0
330
368A
100
AcDbEntity
  8
Defpoints
 62
     0
100
AcDbPoint
 10
703.9373624900921
 20
143.5958159542729
 30
0.0
  0
POINT
  5
3BA1
330
368A
100
AcDbEntity
  8
Defpoints
 62
     0
100
AcDbPoint
 10
703.9373624900921
 20
154.1412146551996
 30
0.0
  0
ENDBLK
  5
3695
330
368A
100
AcDbEntity
  8
0
100
AcDbBlockEnd
  0
BLOCK
  5
36BA
330
36B0
100
AcDbEntity
  8
0
100
AcDbBlockBegin
  2
*D5
 70
     1
 10
0.0
 20
0.0
 30
0.0
  3
*D5
  1

  0
LINE
  5
3B90
330
36B0
100
AcDbEntity
  8
AM_5
100
AcDbLine
 10
675.9373624900921
 20
147.5408159542729
 30
0.0
 11
675.9373624900921
 21
163.1412146551995
 31
0.0
  0
LINE
  5
3B91
330
36B0
100
AcDbEntity
  8
AM_5
100
AcDbLine
 10
710.9373624900921
 20
145.5408159542729
 30
0.0
 11
710.9373624900921
 21
163.1412146551995
 31
0.0
  0
LINE
  5
3B92
330
36B0
100
AcDbEntity
  8
AM_5
100
AcDbLine
 10
677.4373624900921
 20
162.1412146551995
 30
0.0
 11
709.4373624900921
 21
162.1412146551995
 31
0.0
  0
SOLID
  5
3B93
330
36B0
100
AcDbEntity
  8
AM_5
100
AcDbTrace
 10
677.4373624900921
 20
162.3912146551996
 30
0.0
 11
677.4373624900921
 21
161.8912146551996
 31
0.0
 12
675.9373624900921
 22
162.1412146551995
 32
0.0
 13
675.9373624900921
 23
162.1412146551995
 33
0.0
  0
SOLID
  5
3B94
330
36B0
100
AcDbEntity
  8
AM_5
100
AcDbTrace
 10
709.4373624900921
 20
162.3912146551996
 30
0.0
 11
709.4373624900921
 21
161.8912146551996
 31
0.0
 12
710.9373624900921
 22
162.1412146551995
 32
0.0
 13
710.9373624900921
 23
162.1412146551995
 33
0.0
  0
MTEXT
  5
3B95
330
36B0
100
AcDbEntity
  8
AM_5
100
AcDbMText
 10
693.4373624900921
 20
163.9412146551996
 30
0.0
 40
2.0
 41
0.0
 71
     5
 72
     1
  1
35
 73
     1
 44
1.0
1001
ACAD
1000
MTEXTBEGIN
1070
    73
1070
     1
1070
    44
1040
1.0
1070
    74
1070
     0
1000
MTEXTEND
  0
POINT
  5
3B96
330
36B0
100
AcDbEntity
  8
Defpoints
 62
     0
100
AcDbPoint
 10
675.9373624900921
 20
146.5408159542729
 30
0.0
  0
POINT
  5
3B97
330
36B0
100
AcDbEntity
  8
Defpoints
 62
     0
100
AcDbPoint
 10
710.9373624900921
 20
144.5408159542729
 30
0.0
  0
POINT
  5
3B98
330
36B0
100
AcDbEntity
  8
Defpoints
 62
     0
100
AcDbPoint
 10
710.9373624900921
 20
162.1412146551995
 30
0.0
  0
ENDBLK
  5
36BB
330
36B0
100
AcDbEntity
  8
0
100
AcDbBlockEnd
  0
BLOCK
  5
36E0
330
36D6
100
AcDbEntity
  8
0
100
AcDbBlockBegin
  2
*D6
 70
     1
 10
0.0
 20
0.0
 30
0.0
  3
*D6
  1

  0
LINE
  5
3AE0
330
36D6
100
AcDbEntity
  8
AM_5
100
AcDbLine
 10
711.9373624900921
 20
144.5408159542729
 30
0.0
 11
720.138448450941
 21
144.5408159542729
 31
0.0
  0
LINE
  5
3AE1
330
36D6
100
AcDbEntity
  8
AM_5
100
AcDbLine
 10
711.9373624900921
 20
114.5408159542729
 30
0.0
 11
720.138448450941
 21
114.5408159542729
 31
0.0
  0
LINE
  5
3AE2
330
36D6
100
AcDbEntity
  8
AM_5
100
AcDbLine
 10
719.138448450941
 20
143.0408159542729
 30
0.0
 11
719.138448450941
 21
116.0408159542729
 31
0.0
  0
SOLID
  5
3AE3
330
36D6
100
AcDbEntity
  8
AM_5
100
AcDbTrace
 10
718.888448450941
 20
143.0408159542729
 30
0.0
 11
719.388448450941
 21
143.0408159542729
 31
0.0
 12
719.138448450941
 22
144.5408159542729
 32
0.0
 13
719.138448450941
 23
144.5408159542729
 33
0.0
  0
SOLID
  5
3AE4
330
36D6
100
AcDbEntity
  8
AM_5
100
AcDbTrace
 10
718.888448450941
 20
116.0408159542729
 30
0.0
 11
719.388448450941
 21
116.0408159542729
 31
0.0
 12
719.138448450941
 22
114.5408159542729
 32
0.0
 13
719.138448450941
 23
114.5408159542729
 33
0.0
  0
MTEXT
  5
3AE5
330
36D6
100
AcDbEntity
  8
AM_5
100
AcDbMText
 10
717.3384484509409
 20
129.540815954273
 30
0.0
 40
2.0
 41
0.0
 71
     5
 72
     1
  1
%%c30
 11
0.0000000000000001
 21
1.0
 31
0.0
 73
     1
 44
1.0
1001
ACAD
1000
MTEXTBEGIN
1070
    73
1070
     1
1070
    44
1040
1.0
1070
    74
1070
     0
1000
MTEXTEND
  0
POINT
  5
3AE6
330
36D6
100
AcDbEntity
  8
Defpoints
 62
     0
100
AcDbPoint
 10
710.9373624900921
 20
144.5408159542729
 30
0.0
  0
POINT
  5
3AE7
330
36D6
100
AcDbEntity
  8
Defpoints
 62
     0
100
AcDbPoint
 10
710.9373624900921
 20
114.5408159542729
 30
0.0
  0
POINT
  5
3AE8
330
36D6
100
AcDbEntity
  8
Defpoints
 62
     0
100
AcDbPoint
 10
719.138448450941
 20
114.5408159542729
 30
0.0
  0
ENDBLK
  5
36E1
330
36D6
100
AcDbEntity
  8
0
100
AcDbBlockEnd
  0
BLOCK
  5
3706
330
36FC
100
AcDbEntity
  8
0
100
AcDbBlockBegin
  2
*D7
 70
     1
 10
0.0
 20
0.0
 30
0.0
  3
*D7
  1

  0
LINE
  5
3C13
330
36FC
100
AcDbEntity
  8
AM_5
100
AcDbLine
 10
685.9373624900921
 20
60.36940932054814
 30
0.0
 11
685.9373624900921
 21
54.33831998076652
 31
0.0
  0
LINE
  5
3C14
330
36FC
100
AcDbEntity
  8
AM_5
100
AcDbLine
 10
710.9373624900921
 20
62.09240932054814
 30
0.0
 11
710.9373624900921
 21
54.33831998076652
 31
0.0
  0
LINE
  5
3C15
330
36FC
100
AcDbEntity
  8
AM_5
100
AcDbLine
 10
687.4373624900921
 20
55.33831998076653
 30
0.0
 11
709.4373624900921
 21
55.33831998076653
 31
0.0
  0
SOLID
  5
3C16
330
36FC
100
AcDbEntity
  8
AM_5
100
AcDbTrace
 10
687.4373624900921
 20
55.58831998076652
 30
0.0
 11
687.4373624900921
 21
55.08831998076654
 31
0.0
 12
685.9373624900921
 22
55.33831998076653
 32
0.0
 13
685.9373624900921
 23
55.33831998076653
 33
0.0
  0
SOLID
  5
3C17
330
36FC
100
AcDbEntity
  8
AM_5
100
AcDbTrace
 10
709.4373624900921
 20
55.58831998076652
 30
0.0
 11
709.4373624900921
 21
55.08831998076654
 31
0.0
 12
710.9373624900921
 22
55.33831998076653
 32
0.0
 13
710.9373624900921
 23
55.33831998076653
 33
0.0
  0
MTEXT
  5
3C18
330
36FC
100
AcDbEntity
  8
AM_5
100
AcDbMText
 10
698.4373624900921
 20
57.13851683116023
 30
0.0
 40
2.0
 41
0.0
 71
     5
 72
     1
  1
25
 73
     1
 44
1.0
1001
ACAD
1000
MTEXTBEGIN
1070
    73
1070
     1
1070
    44
1040
1.0
1070
    74
1070
     0
1000
MTEXTEND
  0
POINT
  5
3C19
330
36FC
100
AcDbEntity
  8
Defpoints
 62
     0
100
AcDbPoint
 10
685.9373624900921
 20
61.36940932054812
 30
0.0
  0
POINT
  5
3C1A
330
36FC
100
AcDbEntity
  8
Defpoints
 62
     0
100
AcDbPoint
 10
710.9373624900921
 20
63.09240932054814
 30
0.0
  0
POINT
  5
3C1B
330
36FC
100
AcDbEntity
  8
Defpoints
 62
     0
100
AcDbPoint
 10
710.9373624900921
 20
55.33831998076653
 30
0.0
  0
ENDBLK
  5
3707
330
36FC
100
AcDbEntity
  8
0
100
AcDbBlockEnd
  0
BLOCK
  5
372E
330
3722
100
AcDbEntity
  8
0
100
AcDbBlockBegin
  2
*D8
 70
     1
 10
0.0
 20
0.0
 30
0.0
  3
*D8
  1

  0
LINE
  5
3C08
330
3722
100
AcDbEntity
  8
AM_5
100
AcDbLine
 10
681.9373624900921
 20
60.36940932054814
 30
0.0
 11
681.9373624900921
 21
54.33831998076652
 31
0.0
  0
LINE
  5
3C09
330
3722
100
AcDbEntity
  8
AM_5
100
AcDbLine
 10
685.9373624900921
 20
60.36940932054814
 30
0.0
 11
685.9373624900921
 21
54.33831998076652
 31
0.0
  0
LINE
  5
3C0A
330
3722
100
AcDbEntity
  8
AM_5
100
AcDbLine
 10
680.4373624900921
 20
55.33831998076653
 30
0.0
 11
678.9373624900921
 21
55.33831998076653
 31
0.0
  0
LINE
  5
3C0B
330
3722
100
AcDbEntity
  8
AM_5
100
AcDbLine
 10
687.4373624900921
 20
55.33831998076653
 30
0.0
 11
688.9373624900921
 21
55.33831998076653
 31
0.0
  0
LINE
  5
3C0C
330
3722
100
AcDbEntity
  8
AM_5
100
AcDbLine
 10
681.9373624900921
 20
55.33831998076653
 30
0.0
 11
685.9373624900921
 21
55.33831998076653
 31
0.0
  0
SOLID
  5
3C0D
330
3722
100
AcDbEntity
  8
AM_5
100
AcDbTrace
 10
680.4373624900921
 20
55.58831998076652
 30
0.0
 11
680.4373624900921
 21
55.08831998076654
 31
0.0
 12
681.9373624900921
 22
55.33831998076653
 32
0.0
 13
681.9373624900921
 23
55.33831998076653
 33
0.0
  0
SOLID
  5
3C0E
330
3722
100
AcDbEntity
  8
AM_5
100
AcDbTrace
 10
687.4373624900921
 20
55.58831998076652
 30
0.0
 11
687.4373624900921
 21
55.08831998076654
 31
0.0
 12
685.9373624900921
 22
55.33831998076653
 32
0.0
 13
685.9373624900921
 23
55.33831998076653
 33
0.0
  0
MTEXT
  5
3C0F
330
3722
100
AcDbEntity
  8
AM_5
100
AcDbMText
 10
683.9373624900921
 20
57.13831998076653
 30
0.0
 40
2.0
 41
0.0
 71
     5
 72
     1
  1
4
 73
     1
 44
1.0
1001
ACAD
1000
MTEXTBEGIN
1070
    73
1070
     1
1070
    44
1040
1.0
1070
    74
1070
     0
1000
MTEXTEND
  0
POINT
  5
3C10
330
3722
100
AcDbEntity
  8
Defpoints
 62
     0
100
AcDbPoint
 10
681.9373624900921
 20
61.36940932054812
 30
0.0
  0
POINT
  5
3C11
330
3722
100
AcDbEntity
  8
Defpoints
 62
     0
100
AcDbPoint
 10
685.9373624900921
 20
61.36940932054812
 30
0.0
  0
POINT
  5
3C12
330
3722
100
AcDbEntity
  8
Defpoints
 62
     0
100
AcDbPoint
 10
685.9373624900921
 20
55.33831998076653
 30
0.0
  0
ENDBLK
  5
372F
330
3722
100
AcDbEntity
  8
0
100
AcDbBlockEnd
  0
BLOCK
  5
37DC
330
37D2
100
AcDbEntity
  8
0
100
AcDbBlockBegin
  2
*D9
 70
     1
 10
0.0
 20
0.0
 30
0.0
  3
*D9
  1

  0
LINE
  5
3BC5
330
37D2
100
AcDbEntity
  8
AM_5
100
AcDbLine
 10
626.9188184242042
 20
73.09240932054814
 30
0.0
 11
626.9188184242042
 21
48.44374792494001
 31
0.0
  0
LINE
  5
3BC6
330
37D2
100
AcDbEntity
  8
AM_5
100
AcDbLine
 10
643.9188184242044
 20
59.22439533174514
 30
0.0
 11
643.9188184242044
 21
48.44374792494001
 31
0.0
  0
LINE
  5
3BC7
330
37D2
100
AcDbEntity
  8
AM_5
100
AcDbLine
 10
628.4188184242042
 20
49.44374792494
 30
0.0
 11
642.4188184242044
 21
49.44374792494
 31
0.0
  0
SOLID
  5
3BC8
330
37D2
100
AcDbEntity
  8
AM_5
100
AcDbTrace
 10
628.4188184242042
 20
49.69374792494001
 30
0.0
 11
628.4188184242042
 21
49.19374792494
 31
0.0
 12
626.9188184242042
 22
49.44374792494
 32
0.0
 13
626.9188184242042
 23
49.44374792494
 33
0.0
  0
SOLID
  5
3BC9
330
37D2
100
AcDbEntity
  8
AM_5
100
AcDbTrace
 10
642.4188184242044
 20
49.69374792494001
 30
0.0
 11
642.4188184242044
 21
49.19374792494
 31
0.0
 12
643.9188184242044
 22
49.44374792494
 32
0.0
 13
643.9188184242044
 23
49.44374792494
 33
0.0
  0
MTEXT
  5
3BCA
330
37D2
100
AcDbEntity
  8
AM_5
100
AcDbMText
 10
635.4188184242042
 20
51.24374792493999
 30
0.0
 40
2.0
 41
0.0
 71
     5
 72
     1
  1
17
 73
     1
 44
1.0
1001
ACAD
1000
MTEXTBEGIN
1070
    73
1070
     1
1070
    44
1040
1.0
1070
    74
1070
     0
1000
MTEXTEND
  0
POINT
  5
3BCB
330
37D2
100
AcDbEntity
  8
Defpoints
 62
     0
100
AcDbPoint
 10
626.9188184242042
 20
74.09240932054814
 30
0.0
  0
POINT
  5
3BCC
330
37D2
100
AcDbEntity
  8
Defpoints
 62
     0
100
AcDbPoint
 10
643.9188184242044
 20
60.22439533174513
 30
0.0
  0
POINT
  5
3BCD
330
37D2
100
AcDbEntity
  8
Defpoints
 62
     0
100
AcDbPoint
 10
643.9188184242044
 20
49.44374792494
 30
0.0
  0
ENDBLK
  5
37DD
330
37D2
100
AcDbEntity
  8
0
100
AcDbBlockEnd
  0
BLOCK
  5
3804
330
37F8
100
AcDbEntity
  8
0
100
AcDbBlockBegin
  2
*D10
 70
     1
 10
0.0
 20
0.0
 30
0.0
  3
*D10
  1

  0
LINE
  5
3BBA
330
37F8
100
AcDbEntity
  8
AM_5
100
AcDbLine
 10
626.9188184242042
 20
73.09240932054814
 30
0.0
 11
626.9188184242042
 21
52.44374792493999
 31
0.0
  0
LINE
  5
3BBB
330
37F8
100
AcDbEntity
  8
AM_5
100
AcDbLine
 10
628.9188184242042
 20
74.59240932054814
 30
0.0
 11
628.9188184242042
 21
52.44374792493999
 31
0.0
  0
LINE
  5
3BBC
330
37F8
100
AcDbEntity
  8
AM_5
100
AcDbLine
 10
630.4188184242042
 20
53.44374792494001
 30
0.0
 11
631.9188184242042
 21
53.44374792494001
 31
0.0
  0
LINE
  5
3BBD
330
37F8
100
AcDbEntity
  8
AM_5
100
AcDbLine
 10
625.4188184242042
 20
53.44374792494001
 30
0.0
 11
621.3479129123932
 21
53.44374792494001
 31
0.0
  0
LINE
  5
3BBE
330
37F8
100
AcDbEntity
  8
AM_5
100
AcDbLine
 10
628.9188184242042
 20
53.44374792494001
 30
0.0
 11
626.9188184242042
 21
53.44374792494001
 31
0.0
  0
SOLID
  5
3BBF
330
37F8
100
AcDbEntity
  8
AM_5
100
AcDbTrace
 10
630.4188184242042
 20
53.69374792493999
 30
0.0
 11
630.4188184242042
 21
53.19374792494
 31
0.0
 12
628.9188184242042
 22
53.44374792494001
 32
0.0
 13
628.9188184242042
 23
53.44374792494001
 33
0.0
  0
SOLID
  5
3BC0
330
37F8
100
AcDbEntity
  8
AM_5
100
AcDbTrace
 10
625.4188184242042
 20
53.69374792493999
 30
0.0
 11
625.4188184242042
 21
53.19374792494
 31
0.0
 12
626.9188184242042
 22
53.44374792494001
 32
0.0
 13
626.9188184242042
 23
53.44374792494001
 33
0.0
  0
MTEXT
  5
3BC1
330
37F8
100
AcDbEntity
  8
AM_5
100
AcDbMText
 10
622.6333656682986
 20
55.2439447753337
 30
0.0
 40
2.0
 41
0.0
 71
     5
 72
     1
  1
2
 73
     1
 44
1.0
1001
ACAD
1000
MTEXTBEGIN
1070
    73
1070
     1
1070
    44
1040
1.0
1070
    74
1070
     0
1000
MTEXTEND
  0
POINT
  5
3BC2
330
37F8
100
AcDbEntity
  8
Defpoints
 62
     0
100
AcDbPoint
 10
626.9188184242042
 20
74.09240932054814
 30
0.0
  0
POINT
  5
3BC3
330
37F8
100
AcDbEntity
  8
Defpoints
 62
     0
100
AcDbPoint
 10
628.9188184242042
 20
75.59240932054814
 30
0.0
  0
POINT
  5
3BC4
330
37F8
100
AcDbEntity
  8
Defpoints
 62
     0
100
AcDbPoint
 10
628.9188184242042
 20
53.44374792494001
 30
0.0
  0
ENDBLK
  5
3805
330
37F8
100
AcDbEntity
  8
0
100
AcDbBlockEnd
  0
BLOCK
  5
3915
330
390B
100
AcDbEntity
  8
0
100
AcDbBlockBegin
  2
*D11
 70
     1
 10
0.0
 20
0.0
 30
0.0
  3
*D11
  1

  0
LINE
  5
3BB1
330
390B
100
AcDbEntity
  8
AM_5
100
AcDbLine
 10
628.9188184242042
 20
74.59240932054814
 30
0.0
 11
628.9188184242042
 21
52.44374792493999
 31
0.0
  0
LINE
  5
3BB2
330
390B
100
AcDbEntity
  8
AM_5
100
AcDbLine
 10
634.9188184242044
 20
74.86290932054817
 30
0.0
 11
634.9188184242044
 21
52.44374792493999
 31
0.0
  0
LINE
  5
3BB3
330
390B
100
AcDbEntity
  8
AM_5
100
AcDbLine
 10
630.4188184242042
 20
53.44374792494001
 30
0.0
 11
633.4188184242044
 21
53.44374792494001
 31
0.0
  0
SOLID
  5
3BB4
330
390B
100
AcDbEntity
  8
AM_5
100
AcDbTrace
 10
630.4188184242042
 20
53.69374792493999
 30
0.0
 11
630.4188184242042
 21
53.19374792494
 31
0.0
 12
628.9188184242042
 22
53.44374792494001
 32
0.0
 13
628.9188184242042
 23
53.44374792494001
 33
0.0
  0
SOLID
  5
3BB5
330
390B
100
AcDbEntity
  8
AM_5
100
AcDbTrace
 10
633.4188184242044
 20
53.69374792493999
 30
0.0
 11
633.4188184242044
 21
53.19374792494
 31
0.0
 12
634.9188184242044
 22
53.44374792494001
 32
0.0
 13
634.9188184242044
 23
53.44374792494001
 33
0.0
  0
MTEXT
  5
3BB6
330
390B
100
AcDbEntity
  8
AM_5
100
AcDbMText
 10
631.9188184242042
 20
55.24374792494
 30
0.0
 40
2.0
 41
0.0
 71
     5
 72
     1
  1
6
 73
     1
 44
1.0
1001
ACAD
1000
MTEXTBEGIN
1070
    73
1070
     1
1070
    44
1040
1.0
1070
    74
1070
     0
1000
MTEXTEND
  0
POINT
  5
3BB7
330
390B
100
AcDbEntity
  8
Defpoints
 62
     0
100
AcDbPoint
 10
628.9188184242042
 20
75.59240932054814
 30
0.0
  0
POINT
  5
3BB8
330
390B
100
AcDbEntity
  8
Defpoints
 62
     0
100
AcDbPoint
 10
634.9188184242044
 20
75.86290932054817
 30
0.0
  0
POINT
  5
3BB9
330
390B
100
AcDbEntity
  8
Defpoints
 62
     0
100
AcDbPoint
 10
634.9188184242044
 20
53.44374792494001
 30
0.0
  0
ENDBLK
  5
3916
330
390B
100
AcDbEntity
  8
0
100
AcDbBlockEnd
  0
BLOCK
  5
3955
330
394B
100
AcDbEntity
  8
0
100
AcDbBlockBegin
  2
*D12
 70
     1
 10
0.0
 20
0.0
 30
0.0
  3
*D12
  1

  0
LINE
  5
3C2B
330
394B
100
AcDbEntity
  8
AM_5
100
AcDbLine
 10
625.9188184242042
 20
75.59240932054814
 30
0.0
 11
617.9188184242042
 21
75.59240932054814
 31
0.0
  0
LINE
  5
3C2C
330
394B
100
AcDbEntity
  8
AM_5
100
AcDbLine
 10
625.9188184242042
 20
80.59240932054814
 30
0.0
 11
617.9188184242042
 21
80.59240932054814
 31
0.0
  0
LINE
  5
3C2D
330
394B
100
AcDbEntity
  8
AM_5
100
AcDbLine
 10
618.9188184242042
 20
77.09240932054814
 30
0.0
 11
618.9188184242042
 21
79.09240932054814
 31
0.0
  0
LINE
  5
3C2E
330
394B
100
AcDbEntity
  8
AM_5
100
AcDbLine
 10
618.9188184242042
 20
80.59240932054814
 30
0.0
 11
618.9188184242042
 21
88.43559627855166
 31
0.0
  0
SOLID
  5
3C2F
330
394B
100
AcDbEntity
  8
AM_5
100
AcDbTrace
 10
618.6688184242044
 20
77.09240932054814
 30
0.0
 11
619.1688184242042
 21
77.09240932054814
 31
0.0
 12
618.9188184242042
 22
75.59240932054814
 32
0.0
 13
618.9188184242042
 23
75.59240932054814
 33
0.0
  0
SOLID
  5
3C30
330
394B
100
AcDbEntity
  8
AM_5
100
AcDbTrace
 10
618.6688184242044
 20
79.09240932054814
 30
0.0
 11
619.1688184242042
 21
79.09240932054814
 31
0.0
 12
618.9188184242042
 22
80.59240932054814
 32
0.0
 13
618.9188184242042
 23
80.59240932054814
 33
0.0
  0
MTEXT
  5
3C31
330
394B
100
AcDbEntity
  8
AM_5
100
AcDbMText
 10
617.1188184242042
 20
85.26400279955
 30
0.0
 40
2.0
 41
0.0
 71
     5
 72
     1
  1
5{}{\C2; H9}
 11
0.0000000000000001
 21
1.0
 31
0.0
 73
     1
 44
1.0
1001
ACAD
1000
MTEXTBEGIN
1070
    73
1070
     1
1070
    44
1040
1.0
1070
    74
1070
     0
1000
MTEXTEND
  0
POINT
  5
3C32
330
394B
100
AcDbEntity
  8
Defpoints
 62
     0
100
AcDbPoint
 10
626.9188184242042
 20
75.59240932054814
 30
0.0
  0
POINT
  5
3C33
330
394B
100
AcDbEntity
  8
Defpoints
 62
     0
100
AcDbPoint
 10
626.9188184242042
 20
80.59240932054814
 30
0.0
  0
POINT
  5
3C34
330
394B
100
AcDbEntity
  8
Defpoints
 62
     0
100
AcDbPoint
 10
618.9188184242042
 20
80.59240932054814
 30
0.0
  0
ENDBLK
  5
3956
330
394B
100
AcDbEntity
  8
0
100
AcDbBlockEnd
  0
BLOCK
  5
397B
330
3971
100
AcDbEntity
  8
0
100
AcDbBlockBegin
  2
*D13
 70
     1
 10
0.0
 20
0.0
 30
0.0
  3
*D13
  1

  0
LINE
  5
3C22
330
3971
100
AcDbEntity
  8
AM_5
100
AcDbLine
 10
625.9188184242042
 20
74.09240932054814
 30
0.0
 11
613.9188184242042
 21
74.09240932054814
 31
0.0
  0
LINE
  5
3C23
330
3971
100
AcDbEntity
  8
AM_5
100
AcDbLine
 10
625.9188184242042
 20
82.09240932054814
 30
0.0
 11
613.9188184242042
 21
82.09240932054814
 31
0.0
  0
LINE
  5
3C24
330
3971
100
AcDbEntity
  8
AM_5
100
AcDbLine
 10
614.9188184242042
 20
75.59240932054814
 30
0.0
 11
614.9188184242042
 21
80.59240932054814
 31
0.0
  0
SOLID
  5
3C25
330
3971
100
AcDbEntity
  8
AM_5
100
AcDbTrace
 10
614.6688184242042
 20
75.59240932054814
 30
0.0
 11
615.1688184242042
 21
75.59240932054814
 31
0.0
 12
614.9188184242042
 22
74.09240932054814
 32
0.0
 13
614.9188184242042
 23
74.09240932054814
 33
0.0
  0
SOLID
  5
3C26
330
3971
100
AcDbEntity
  8
AM_5
100
AcDbTrace
 10
614.6688184242042
 20
80.59240932054814
 30
0.0
 11
615.1688184242042
 21
80.59240932054814
 31
0.0
 12
614.9188184242042
 22
82.09240932054814
 32
0.0
 13
614.9188184242042
 23
82.09240932054814
 33
0.0
  0
MTEXT
  5
3C27
330
3971
100
AcDbEntity
  8
AM_5
100
AcDbMText
 10
613.1188184242042
 20
78.09240932054824
 30
0.0
 40
2.0
 41
0.0
 71
     5
 72
     1
  1
8
 11
0.0000000000000001
 21
1.0
 31
0.0
 73
     1
 44
1.0
1001
ACAD
1000
MTEXTBEGIN
1070
    73
1070
     1
1070
    44
1040
1.0
1070
    74
1070
     0
1000
MTEXTEND
  0
POINT
  5
3C28
330
3971
100
AcDbEntity
  8
Defpoints
 62
     0
100
AcDbPoint
 10
626.9188184242042
 20
74.09240932054814
 30
0.0
  0
POINT
  5
3C29
330
3971
100
AcDbEntity
  8
Defpoints
 62
     0
100
AcDbPoint
 10
626.9188184242042
 20
82.09240932054814
 30
0.0
  0
POINT
  5
3C2A
330
3971
100
AcDbEntity
  8
Defpoints
 62
     0
100
AcDbPoint
 10
614.9188184242042
 20
82.09240932054814
 30
0.0
  0
ENDBLK
  5
397C
330
3971
100
AcDbEntity
  8
0
100
AcDbBlockEnd
  0
BLOCK
  5
39C4
330
39BA
100
AcDbEntity
  8
0
100
AcDbBlockBegin
  2
*D14
 70
     1
 10
0.0
 20
0.0
 30
0.0
  3
*D14
  1

  0
LINE
  5
3B87
330
39BA
100
AcDbEntity
  8
AM_5
100
AcDbLine
 10
678.9373624900921
 20
143.2988159542729
 30
0.0
 11
678.9373624900921
 21
159.1412146551995
 31
0.0
  0
LINE
  5
3B88
330
39BA
100
AcDbEntity
  8
AM_5
100
AcDbLine
 10
710.9373624900921
 20
145.5408159542729
 30
0.0
 11
710.9373624900921
 21
159.1412146551995
 31
0.0
  0
LINE
  5
3B89
330
39BA
100
AcDbEntity
  8
AM_5
100
AcDbLine
 10
680.4373624900921
 20
158.1412146551995
 30
0.0
 11
709.4373624900921
 21
158.1412146551995
 31
0.0
  0
SOLID
  5
3B8A
330
39BA
100
AcDbEntity
  8
AM_5
100
AcDbTrace
 10
680.4373624900921
 20
158.3912146551996
 30
0.0
 11
680.4373624900921
 21
157.8912146551996
 31
0.0
 12
678.9373624900921
 22
158.1412146551995
 32
0.0
 13
678.9373624900921
 23
158.1412146551995
 33
0.0
  0
SOLID
  5
3B8B
330
39BA
100
AcDbEntity
  8
AM_5
100
AcDbTrace
 10
709.4373624900921
 20
158.3912146551996
 30
0.0
 11
709.4373624900921
 21
157.8912146551996
 31
0.0
 12
710.9373624900921
 22
158.1412146551995
 32
0.0
 13
710.9373624900921
 23
158.1412146551995
 33
0.0
  0
MTEXT
  5
3B8C
330
39BA
100
AcDbEntity
  8
AM_5
100
AcDbMText
 10
694.9373624900921
 20
159.9414115055933
 30
0.0
 40
2.0
 41
0.0
 71
     5
 72
     1
  1
32
 73
     1
 44
1.0
1001
ACAD
1000
MTEXTBEGIN
1070
    73
1070
     1
1070
    44
1040
1.0
1070
    74
1070
     0
1000
MTEXTEND
  0
POINT
  5
3B8D
330
39BA
100
AcDbEntity
  8
Defpoints
 62
     0
100
AcDbPoint
 10
678.9373624900921
 20
142.2988159542729
 30
0.0
  0
POINT
  5
3B8E
330
39BA
100
AcDbEntity
  8
Defpoints
 62
     0
100
AcDbPoint
 10
710.9373624900921
 20
144.5408159542729
 30
0.0
  0
POINT
  5
3B8F
330
39BA
100
AcDbEntity
  8
Defpoints
 62
     0
100
AcDbPoint
 10
710.9373624900921
 20
158.1412146551995
 30
0.0
  0
ENDBLK
  5
39C5
330
39BA
100
AcDbEntity
  8
0
100
AcDbBlockEnd
  0
BLOCK
  5
39EC
330
39E0
100
AcDbEntity
  8
0
100
AcDbBlockBegin
  2
*D15
 70
     1
 10
0.0
 20
0.0
 30
0.0
  3
*D15
  1

  0
LINE
  5
3C58
330
39E0
100
AcDbEntity
  8
AM_5
100
AcDbLine
 10
675.9373624900921
 20
147.5408159542729
 30
0.0
 11
675.9373624900921
 21
155.1412146551996
 31
0.0
  0
LINE
  5
3C59
330
39E0
100
AcDbEntity
  8
AM_5
100
AcDbLine
 10
677.9373624900921
 20
143.5408159542729
 30
0.0
 11
677.9373624900921
 21
155.1412146551996
 31
0.0
  0
LINE
  5
3C5A
330
39E0
100
AcDbEntity
  8
AM_5
100
AcDbLine
 10
674.4373624900921
 20
154.1412146551996
 30
0.0
 11
672.9373624900921
 21
154.1412146551996
 31
0.0
  0
LINE
  5
3C5B
330
39E0
100
AcDbEntity
  8
AM_5
100
AcDbLine
 10
679.4373624900921
 20
154.1412146551996
 30
0.0
 11
680.9373624900921
 21
154.1412146551996
 31
0.0
  0
LINE
  5
3C5C
330
39E0
100
AcDbEntity
  8
AM_5
100
AcDbLine
 10
675.9373624900921
 20
154.1412146551996
 30
0.0
 11
677.9373624900921
 21
154.1412146551996
 31
0.0
  0
SOLID
  5
3C5D
330
39E0
100
AcDbEntity
  8
AM_5
100
AcDbTrace
 10
674.4373624900921
 20
154.3912146551996
 30
0.0
 11
674.4373624900921
 21
153.8912146551995
 31
0.0
 12
675.9373624900921
 22
154.1412146551996
 32
0.0
 13
675.9373624900921
 23
154.1412146551996
 33
0.0
  0
SOLID
  5
3C5E
330
39E0
100
AcDbEntity
  8
AM_5
100
AcDbTrace
 10
679.4373624900921
 20
154.3912146551996
 30
0.0
 11
679.4373624900921
 21
153.8912146551995
 31
0.0
 12
677.9373624900921
 22
154.1412146551996
 32
0.0
 13
677.9373624900921
 23
154.1412146551996
 33
0.0
  0
MTEXT
  5
3C5F
330
39E0
100
AcDbEntity
  8
AM_5
100
AcDbMText
 10
676.9373624900921
 20
155.9414115055933
 30
0.0
 40
2.0
 41
0.0
 71
     5
 72
     1
  1
2
 73
     1
 44
1.0
1001
ACAD
1000
MTEXTBEGIN
1070
    73
1070
     1
1070
    44
1040
1.0
1070
    74
1070
     0
1000
MTEXTEND
  0
POINT
  5
3C60
330
39E0
100
AcDbEntity
  8
Defpoints
 62
     0
100
AcDbPoint
 10
675.9373624900921
 20
146.5408159542729
 30
0.0
  0
POINT
  5
3C61
330
39E0
100
AcDbEntity
  8
Defpoints
 62
     0
100
AcDbPoint
 10
677.9373624900921
 20
142.5408159542729
 30
0.0
  0
POINT
  5
3C62
330
39E0
100
AcDbEntity
  8
Defpoints
 62
     0
100
AcDbPoint
 10
677.9373624900921
 20
154.1412146551996
 30
0.0
  0
ENDBLK
  5
39ED
330
39E0
100
AcDbEntity
  8
0
100
AcDbBlockEnd
  0
BLOCK
  5
3CB5
330
3CB0
100
AcDbEntity
  8
0
100
AcDbBlockBegin
  2
*S2016
 70
     1
 10
0.0
 20
0.0
 30
0.0
  3
*S2016
  1

  0
LINE
  5
3CB1
330
3CB0
100
AcDbEntity
  8
AM_5
 62
     5
100
AcDbLine
 10
727.6543771402996
 20
152.6817984876629
 30
0.0
 11
719.1313441472381
 21
152.6817984876629
 31
0.0
  0
LINE
  5
3CB2
330
3CB0
100
AcDbEntity
  8
AM_5
 62
     5
100
AcDbLine
 10
719.1313441472381
 20
152.6817984876629
 30
0.0
 11
707.7254102404504
 21
143.1360877741425
 31
0.0
  0
TRACE
  5
3CB3
330
3CB0
100
AcDbEntity
  8
AM_5
 62
     5
370
    35
100
AcDbTrace
 10
707.5775446139522
 20
143.3127687582557
 30
0.0
 11
707.8732758669486
 21
142.9594067900294
 31
0.0
 12
706.3833849227449
 22
142.0129368285269
 32
0.0
 13
706.3833849227449
 23
142.0129368285269
 33
0.0
  0
MTEXT
  5
3CB4
330
3CB0
100
AcDbEntity
  8
AM_5
 62
     2
100
AcDbMText
 10
727.6543771402996
 20
149.402251415889
 30
0.0
 40
1.75
 41
0.0
 71
     7
 72
     5
  1

  7
ACISOTS
 73
     1
 44
1.0
1001
ACAD
1000
MTEXTBEGIN
1070
    73
1070
     1
1070
    44
1040
1.0
1070
    74
1070
     0
1000
MTEXTEND
  0
ENDBLK
  5
3CB6
330
3CB0
100
AcDbEntity
  8
0
100
AcDbBlockEnd
  0
BLOCK
  5
3CBD
330
3CB8
100
AcDbEntity
  8
0
100
AcDbBlockBegin
  2
*S2117
 70
     1
 10
0.0
 20
0.0
 30
0.0
  3
*S2117
  1

  0
LINE
  5
3CB9
330
3CB8
100
AcDbEntity
  8
AM_5
 62
     5
100
AcDbLine
 10
737.3995141528427
 20
119.1740794898189
 30
0.0
 11
729.4024279791931
 21
119.1740794898189
 31
0.0
  0
LINE
  5
3CBA
330
3CB8
100
AcDbEntity
  8
AM_5
 62
     5
100
AcDbLine
 10
729.4024279791931
 20
119.1740794898189
 30
0.0
 11
697.3274417966952
 21
129.7923382868327
 31
0.0
  0
TRACE
  5
3CBB
330
3CB8
100
AcDbEntity
  8
AM_5
 62
     5
370
    35
100
AcDbTrace
 10
697.3998474665338
 20
130.0110569020032
 30
0.0
 11
697.2550361268567
 21
129.5736196716622
 31
0.0
 12
695.6661089685715
 22
130.3423139537473
 32
0.0
 13
695.6661089685715
 23
130.3423139537473
 33
0.0
  0
MTEXT
  5
3CBC
330
3CB8
100
AcDbEntity
  8
AM_5
 62
     2
100
AcDbMText
 10
737.3995141528427
 20
117.966864632028
 30
0.0
 40
1.75
 41
0.0
 71
     7
 72
     5
  1

  7
ACISOTS
 73
     1
 44
1.0
1001
ACAD
1000
MTEXTBEGIN
1070
    73
1070
     1
1070
    44
1040
1.0
1070
    74
1070
     0
1000
MTEXTEND
  0
ENDBLK
  5
3CBE
330
3CB8
100
AcDbEntity
  8
0
100
AcDbBlockEnd
  0
ENDSEC
  0
SECTION
  2
ENTITIES
  0
TEXT
  5
AE3
330
1F
100
AcDbEntity
  8
M_1
 62
     4
100
AcDbText
 10
298.4979942115772
 20
71.23545134413652
 30
0.0
 40
5.0
  1

 41
0.75
  7
DAYUS
 11
298.4979942115772
 21
71.23545134413652
 31
0.0
100
AcDbText
 73
     1
  0
LINE
  5
2824
330
1F
100
AcDbEntity
  8
LOGO
 62
     1
100
AcDbLine
 10
798.0263303484088
 20
35.4354220807529
 30
0.0
 11
590.1263303484086
 21
35.4354220807529
 31
0.0
  0
LWPOLYLINE
  5
2838
330
1F
100
AcDbEntity
  8
0
 62
     4
100
AcDbPolyline
 90
        4
 70
     1
 43
0.0
 10
590.1263303484086
 20
35.4354220807529
 10
798.0263303484088
 20
35.4354220807529
 10
798.0263303484088
 20
171.5176114020195
 10
590.1263303484086
 20
171.5176114020195
1001
GENIUS_GENREC_14
1002
{
1000
PYDIR
1011
590.1263303484086
1021
171.5176114020195
1031
0.0
1002
}
1002
{
1000
PXDIR
1011
798.0263303484088
1021
35.4354220807529
1031
0.0
1002
}
1002
{
1000
PORI
1011
590.1263303484086
1021
35.4354220807529
1031
0.0
1002
}
1002
{
1000
PINS
1011
590.1263303484086
1021
35.4354220807529
1031
0.0
1002
}
1002
{
1000
PINS2
1011
798.0263303484088
1021
171.5176114020195
1031
0.0
1002
}
1002
{
1000
C
1070
     1
1002
}
1001
GENIUS_GENODEF_13
1002
{
1000
HIER
1070
     0
1002
}
1002
{
1000
MANEDIT
1070
     0
1002
}
1002
{
1000
NOSEL
1070
     0
1002
}
1002
{
1000
BEHIND
1070
     0
1002
}
1002
{
1000
OTHER
1070
     0
1002
}
1002
{
1000
REACTOR
1002
}
1001
GENIUS_GENOBJ-N-REC_13
1002
{
1000
OWNER
1000
GEN
1002
}
  0
LWPOLYLINE
  5
2872
330
1F
100
AcDbEntity
  8
LOGO
 62
     4
100
AcDbPolyline
 90
        4
 70
     1
 43
0.0
 10
590.1263303484086
 20
35.4354220807529
 10
798.0263303484088
 20
35.4354220807529
 10
798.0263303484088
 20
20.31761140201961
 10
590.1263303484086
 20
20.31761140201961
1001
GENIUS_GENREC_14
1002
{
1000
PYDIR
1011
590.1263303484086
1021
20.31761140201961
1031
0.0
1002
}
1002
{
1000
PXDIR
1011
798.0263303484088
1021
35.4354220807529
1031
0.0
1002
}
1002
{
1000
PORI
1011
590.1263303484086
1021
35.4354220807529
1031
0.0
1002
}
1002
{
1000
PINS
1011
590.1263303484086
1021
35.4354220807529
1031
0.0
1002
}
1002
{
1000
PINS2
1011
798.0263303484088
1021
20.31761140201961
1031
0.0
1002
}
1002
{
1000
C
1070
     1
1002
}
1001
GENIUS_GENOBJ-N-REC_13
1002
{
1000
OWNER
1000
GEN
1002
}
1001
GENIUS_GENODEF_13
1002
{
1000
HIER
1070
     0
1002
}
1002
{
1000
MANEDIT
1070
     0
1002
}
1002
{
1000
NOSEL
1070
     0
1002
}
1002
{
1000
BEHIND
1070
     0
1002
}
1002
{
1000
OTHER
1070
     0
1002
}
1002
{
1000
REACTOR
1002
}
  0
LINE
  5
2873
330
1F
100
AcDbEntity
  8
LOGO
 62
     4
100
AcDbLine
 10
654.2579319202083
 20
27.1206262074499
 30
0.0
 11
654.2579319202083
 21
21.57742895858083
 31
0.0
  0
LINE
  5
2874
330
1F
100
AcDbEntity
  8
LOGO
 62
     4
100
AcDbLine
 10
644.1793914677194
 20
27.1206262074499
 30
0.0
 11
644.1793914677194
 21
21.57742895858083
 31
0.0
  0
LINE
  5
2875
330
1F
100
AcDbEntity
  8
LOGO
 62
     4
100
AcDbLine
 10
654.2579319202083
 20
21.57742895858083
 30
0.0
 11
644.1793914677194
 21
21.57742895858083
 31
0.0
  0
LINE
  5
2876
330
1F
100
AcDbEntity
  8
LOGO
 62
     4
100
AcDbLine
 10
658.9503406207336
 20
33.9236410128795
 30
0.0
 11
644.1793914677194
 21
33.9236410128795
 31
0.0
  0
LINE
  5
2877
330
1F
100
AcDbEntity
  8
LOGO
 62
     4
100
AcDbLine
 10
658.9503406207336
 20
29.38829780925966
 30
0.0
 11
644.1793914677194
 21
29.38829780925966
 31
0.0
  0
LINE
  5
2878
330
1F
100
AcDbEntity
  8
LOGO
 62
     4
100
AcDbLine
 10
644.1793914677194
 20
33.9236410128795
 30
0.0
 11
644.1793914677194
 21
29.38829780925966
 31
0.0
  0
LINE
  5
2879
330
1F
100
AcDbEntity
  8
LOGO
 62
     4
100
AcDbLine
 10
658.9503406207336
 20
33.9236410128795
 30
0.0
 11
658.9503406207336
 21
29.38829780925966
 31
0.0
  0
LINE
  5
287A
330
1F
100
AcDbEntity
  8
LOGO
 62
     4
100
AcDbLine
 10
649.7445083639103
 20
29.38829780925966
 30
0.0
 11
649.7445083639103
 21
27.1206262074499
 31
0.0
  0
TEXT
  5
287B
330
1F
100
AcDbEntity
  8
LOGO
  6
Continuous
100
AcDbText
 10
644.9852509251591
 20
30.33504407234422
 30
0.0
 40
2.645999999999999
  1
MCHG2
  7
CHINESET
100
AcDbText
  0
LINE
  5
287C
330
1F
100
AcDbEntity
  8
LOGO
 62
     4
100
AcDbLine
 10
654.2579319202083
 20
27.1206262074499
 30
0.0
 11
644.1793914677194
 21
27.1206262074499
 31
0.0
  0
TEXT
  5
287D
330
1F
100
AcDbEntity
  8
LOGO
  6
Continuous
100
AcDbText
 10
647.4135631907495
 20
22.35983949563587
 30
99.07964067459765
 40
1.133999999999999
  1
Model
 41
0.8
  7
CHINESET
100
AcDbText
  0
TEXT
  5
287E
330
1F
100
AcDbEntity
  8
LOGO
100
AcDbText
 10
647.1117292548221
 20
24.46203110119296
 30
99.07964067459765
 40
1.889999999999998
  1
型號
  7
CHINESET
100
AcDbText
  0
LINE
  5
288A
330
1F
100
AcDbEntity
  8
LOGO
  6
Continuous
100
AcDbLine
 10
659.5929469872661
 20
31.6399045086888
 30
0.0
 11
661.5955890586644
 21
31.6399045086888
 31
0.0
  0
LINE
  5
288B
330
1F
100
AcDbEntity
  8
LOGO
 62
     4
100
AcDbLine
 10
665.655427555245
 20
27.1206262074499
 30
0.0
 11
665.655427555245
 21
21.57742895858083
 31
0.0
  0
LINE
  5
288C
330
1F
100
AcDbEntity
  8
LOGO
 62
     4
100
AcDbLine
 10
655.5768871027562
 20
27.1206262074499
 30
0.0
 11
655.5768871027562
 21
21.57742895858083
 31
0.0
  0
LINE
  5
288D
330
1F
100
AcDbEntity
  8
LOGO
 62
     4
100
AcDbLine
 10
665.655427555245
 20
21.57742895858083
 30
0.0
 11
655.5768871027562
 21
21.57742895858083
 31
0.0
  0
LINE
  5
288E
330
1F
100
AcDbEntity
  8
LOGO
 62
     4
100
AcDbLine
 10
669.9770689715867
 20
33.9236410128795
 30
0.0
 11
662.2273170666272
 21
33.9236410128795
 31
0.0
  0
LINE
  5
288F
330
1F
100
AcDbEntity
  8
LOGO
 62
     4
100
AcDbLine
 10
669.9770689715867
 20
29.38829780925966
 30
0.0
 11
662.2273170666272
 21
29.38829780925966
 31
0.0
  0
LINE
  5
2890
330
1F
100
AcDbEntity
  8
LOGO
 62
     4
100
AcDbLine
 10
662.2273170666272
 20
33.9236410128795
 30
0.0
 11
662.2273170666272
 21
29.38829780925966
 31
0.0
  0
LINE
  5
2891
330
1F
100
AcDbEntity
  8
LOGO
 62
     4
100
AcDbLine
 10
669.9770689715867
 20
33.9236410128795
 30
0.0
 11
669.9770689715867
 21
29.38829780925966
 31
0.0
  0
LINE
  5
2892
330
1F
100
AcDbEntity
  8
LOGO
 62
     4
100
AcDbLine
 10
665.7119051990689
 20
29.38829780925966
 30
0.0
 11
665.7119051990689
 21
28.25446200835478
 31
0.0
  0
TEXT
  5
2893
330
1F
100
AcDbEntity
  8
LOGO
  6
Continuous
100
AcDbText
 10
664.1626633918274
 20
30.33504407234422
 30
0.0
 40
2.645999999999999
  1
16
  7
CHINESET
100
AcDbText
  0
LINE
  5
2894
330
1F
100
AcDbEntity
  8
LOGO
 62
     4
100
AcDbLine
 10
665.655427555245
 20
27.1206262074499
 30
0.0
 11
655.5768871027562
 21
27.1206262074499
 31
0.0
  0
LINE
  5
2895
330
1F
100
AcDbEntity
  8
LOGO
  6
Continuous
100
AcDbLine
 10
678.6590580301536
 20
31.6399045086888
 30
0.0
 11
680.6617001015521
 21
31.6399045086888
 31
0.0
  0
LINE
  5
2896
330
1F
100
AcDbEntity
  8
LOGO
 62
     4
100
AcDbLine
 10
689.1851499240048
 20
27.1206262074499
 30
0.0
 11
689.1851499240048
 21
21.57742895858083
 31
0.0
  0
LINE
  5
2897
330
1F
100
AcDbEntity
  8
LOGO
 62
     4
100
AcDbLine
 10
677.5829743493594
 20
27.1206262074499
 30
0.0
 11
677.5829743493594
 21
21.57742895858083
 31
0.0
  0
LINE
  5
2898
330
1F
100
AcDbEntity
  8
LOGO
 62
     4
100
AcDbLine
 10
689.1851499240048
 20
21.57742895858083
 30
0.0
 11
677.5829743493594
 21
21.57742895858083
 31
0.0
  0
LINE
  5
2899
330
1F
100
AcDbEntity
  8
LOGO
 62
     4
100
AcDbLine
 10
686.1189073325837
 20
33.9236410128795
 30
0.0
 11
681.2934281095143
 21
33.9236410128795
 31
0.0
  0
LINE
  5
289A
330
1F
100
AcDbEntity
  8
LOGO
 62
     4
100
AcDbLine
 10
686.1189073325837
 20
29.38829780925966
 30
0.0
 11
681.2934281095143
 21
29.38829780925966
 31
0.0
  0
LINE
  5
289B
330
1F
100
AcDbEntity
  8
LOGO
 62
     4
100
AcDbLine
 10
681.2934281095143
 20
33.9236410128795
 30
0.0
 11
681.2934281095143
 21
29.38829780925966
 31
0.0
  0
LINE
  5
289C
330
1F
100
AcDbEntity
  8
LOGO
 62
     4
100
AcDbLine
 10
686.1189073325837
 20
33.9236410128795
 30
0.0
 11
686.1189073325837
 21
29.38829780925966
 31
0.0
  0
LINE
  5
289D
330
1F
100
AcDbEntity
  8
LOGO
 62
     4
100
AcDbLine
 10
683.7061677210491
 20
29.38829780925966
 30
0.0
 11
683.7061677210491
 21
27.1206262074499
 31
0.0
  0
LINE
  5
289F
330
1F
100
AcDbEntity
  8
LOGO
 62
     4
100
AcDbLine
 10
689.1851499240048
 20
27.1206262074499
 30
0.0
 11
677.5829743493594
 21
27.1206262074499
 31
0.0
  0
TEXT
  5
28A2
330
1F
100
AcDbEntity
  8
LOGO
  6
Continuous
100
AcDbText
 10
657.6879294066494
 20
22.35983949563587
 30
99.07964067459765
 40
1.133999999999999
  1
Tube I.D.
 41
0.8
  7
CHINESET
100
AcDbText
  0
TEXT
  5
28A3
330
1F
100
AcDbEntity
  8
LOGO
100
AcDbText
 10
658.1451704243471
 20
24.46203110119296
 30
99.07964067459765
 40
1.889999999999998
  1
內徑
  7
CHINESET
100
AcDbText
  0
TEXT
  5
28A4
330
1F
100
AcDbEntity
  8
LOGO
  6
Continuous
100
AcDbText
 10
678.6369008751092
 20
22.35983949563587
 30
99.07964067459765
 40
1.133999999999999
  1
Sensor switch
 41
0.8
  7
CHINESET
100
AcDbText
  0
TEXT
  5
28A5
330
1F
100
AcDbEntity
  8
LOGO
100
AcDbText
 10
678.55827304288
 20
24.46203110119296
 30
99.07964067459765
 40
1.889999999999998
  1
感應器型式
  7
CHINESET
100
AcDbText
  0
LINE
  5
28A6
330
1F
100
AcDbEntity
  8
LOGO
 62
     4
100
AcDbLine
 10
677.7873617772351
 20
33.9236410128795
 30
0.0
 11
670.6172217425451
 21
33.9236410128795
 31
0.0
  0
LINE
  5
28A7
330
1F
100
AcDbEntity
  8
LOGO
 62
     4
100
AcDbLine
 10
677.7873617772351
 20
29.38829780925966
 30
0.0
 11
670.6172217425451
 21
29.38829780925966
 31
0.0
  0
LINE
  5
28A8
330
1F
100
AcDbEntity
  8
LOGO
 62
     4
100
AcDbLine
 10
670.6172217425451
 20
33.9236410128795
 30
0.0
 11
670.6172217425451
 21
29.38829780925966
 31
0.0
  0
LINE
  5
28A9
330
1F
100
AcDbEntity
  8
LOGO
 62
     4
100
AcDbLine
 10
677.7873617772351
 20
33.9236410128795
 30
0.0
 11
677.7873617772351
 21
29.38829780925966
 31
0.0
  0
TEXT
  5
28AA
330
1F
100
AcDbEntity
  8
LOGO
  6
Continuous
100
AcDbText
 10
671.671247288709
 20
30.33504407234422
 30
0.0
 40
2.645999999999999
  1
(M)
  7
CHINESET
100
AcDbText
  0
LINE
  5
28AB
330
1F
100
AcDbEntity
  8
LOGO
 62
     4
100
AcDbLine
 10
675.9263177932044
 20
27.1206262074499
 30
0.0
 11
675.9263177932044
 21
21.57742895858083
 31
0.0
  0
LINE
  5
28AC
330
1F
100
AcDbEntity
  8
LOGO
 62
     4
100
AcDbLine
 10
667.715739862478
 20
27.1206262074499
 30
0.0
 11
667.715739862478
 21
21.57742895858083
 31
0.0
  0
LINE
  5
28AD
330
1F
100
AcDbEntity
  8
LOGO
 62
     4
100
AcDbLine
 10
675.9263177932044
 20
21.57742895858083
 30
0.0
 11
667.715739862478
 21
21.57742895858083
 31
0.0
  0
LINE
  5
28AE
330
1F
100
AcDbEntity
  8
LOGO
 62
     4
100
AcDbLine
 10
675.9263177932044
 20
27.1206262074499
 30
0.0
 11
667.715739862478
 21
27.1206262074499
 31
0.0
  0
TEXT
  5
28AF
330
1F
100
AcDbEntity
  8
LOGO
  6
Continuous
100
AcDbText
 10
669.5005081989092
 20
22.35983949563587
 30
99.07964067459765
 40
1.133999999999999
  1
Magnet
 41
0.8
  7
CHINESET
100
AcDbText
  0
TEXT
  5
28B0
330
1F
100
AcDbEntity
  8
LOGO
100
AcDbText
 10
668.8957633770574
 20
24.46203110119296
 30
99.07964067459765
 40
1.889999999999998
  1
附磁石
  7
CHINESET
100
AcDbText
  0
LINE
  5
28B1
330
1F
100
AcDbEntity
  8
LOGO
 62
     4
100
AcDbLine
 10
674.2022917598903
 20
29.38829780925966
 30
0.0
 11
674.2022917598903
 21
28.25446200835478
 31
0.0
  0
LINE
  5
28B9
330
1F
100
AcDbEntity
  8
LOGO
 62
     4
100
AcDbLine
 10
665.7119051990689
 20
28.25446200835478
 30
0.0
 11
660.6161573290006
 21
28.25446200835478
 31
0.0
  0
LINE
  5
28BA
330
1F
100
AcDbEntity
  8
LOGO
 62
     4
100
AcDbLine
 10
660.6161573290006
 20
27.1206262074499
 30
0.0
 11
660.6161573290006
 21
28.25446200835478
 31
0.0
  0
LINE
  5
28BB
330
1F
100
AcDbEntity
  8
LOGO
 62
     4
100
AcDbLine
 10
674.2022917598903
 20
28.25446200835478
 30
0.0
 11
671.8210288278412
 21
28.25446200835478
 31
0.0
  0
LINE
  5
28BC
330
1F
100
AcDbEntity
  8
LOGO
 62
     4
100
AcDbLine
 10
671.8210288278411
 20
27.1206262074499
 30
0.0
 11
671.8210288278412
 21
28.25446200835478
 31
0.0
  0
TEXT
  5
299D
330
1F
100
AcDbEntity
  8
LOGO
 62
     7
100
AcDbText
 10
624.2613458438317
 20
28.81256647393076
 30
0.0
 40
2.015708090497736
  1
Order example:
 41
0.8
  7
CHINESET
100
AcDbText
  0
TEXT
  5
299E
330
1F
100
AcDbEntity
  8
LOGO
 62
     7
100
AcDbText
 10
624.6229805444946
 20
31.650266107666
 30
0.0
 40
3.023562135746604
  1
訂購代號:
  7
CHINESET
100
AcDbText
  0
LINE
  5
29A0
330
1F
100
AcDbEntity
  8
LOGO
 62
     4
100
AcDbLine
 10
623.3855138416214
 20
20.31761140201979
 30
0.0
 11
623.3855138416214
 21
35.43542208075292
 31
0.0
  0
TEXT
  5
29A1
330
1F
100
AcDbEntity
  8
LOGO
  6
Continuous
100
AcDbText
 10
595.5567159000834
 20
23.28748249509137
 30
0.0
 40
2.267671601809953
  1
金器工業股份有限公司
  7
CHINESET
100
AcDbText
  0
TEXT
  5
29A2
330
1F
100
AcDbEntity
  8
LOGO
  6
Continuous
100
AcDbText
 10
591.3914518042608
 20
21.01936660743981
 30
0.0
 40
1.511781067873301
  1
MINDMAN INDUSTRIAL CO., LTD.
 41
0.85
  7
CHINESET
100
AcDbText
  0
LINE
  5
29A3
330
1F
100
AcDbEntity
  8
LOGO
100
AcDbLine
 10
623.3855138416214
 20
32.41185994500629
 30
0.0
 11
601.2127248461462
 21
32.41185994500629
 31
0.0
  0
LINE
  5
29A4
330
1F
100
AcDbEntity
  8
LOGO
100
AcDbLine
 10
623.3855138416214
 20
29.38829780925969
 30
0.0
 11
601.2127248461462
 21
29.38829780925969
 31
0.0
  0
LINE
  5
29A5
330
1F
100
AcDbEntity
  8
LOGO
 62
     4
100
AcDbLine
 10
623.3855138416214
 20
26.36473567351322
 30
0.0
 11
590.1263303484086
 21
26.36473567351322
 31
0.0
  0
LINE
  5
29A6
330
1F
100
AcDbEntity
  8
LOGO
 62
     4
100
AcDbLine
 10
601.2127248461462
 20
26.36473567351322
 30
0.0
 11
601.2127248461462
 21
35.43542208075292
 31
0.0
  0
TEXT
  5
29A7
330
1F
100
AcDbEntity
  8
LOGO
100
AcDbText
 10
616.3667795848538
 20
27.12062620744963
 30
0.0
 40
1.511781067873301
  1
mm
  7
CHINESET
 72
     1
 11
618.2385085260302
 21
27.87651674138628
 31
0.0
100
AcDbText
 73
     2
  0
TEXT
  5
29A8
330
1F
100
AcDbEntity
  8
LOGO
100
AcDbText
 10
615.5748942635868
 20
33.16775047894288
 30
0.0
 40
1.511781067873301
  1
1 : 1
  7
CHINESET
 72
     1
 11
618.2385085260302
 21
33.92364101287953
 31
0.0
100
AcDbText
 73
     2
  0
LINE
  5
29A9
330
1F
100
AcDbEntity
  8
LOGO
 62
     4
100
AcDbLine
 10
613.3069733891327
 20
26.36473567351322
 30
0.0
 11
613.3069733891327
 21
35.43542208075292
 31
0.0
  0
CIRCLE
  5
29AA
330
1F
100
AcDbEntity
  8
LOGO
  6
Continuous
100
AcDbCircle
 10
616.1062251268869
 20
30.90331258790016
 30
0.0
 40
0.8777756713223974
  0
CIRCLE
  5
29AB
330
1F
100
AcDbEntity
  8
LOGO
  6
Continuous
100
AcDbCircle
 10
616.1062251268869
 20
30.90331258790016
 30
0.0
 40
0.5142988383111914
  0
LINE
  5
29AC
330
1F
100
AcDbEntity
  8
LOGO
100
AcDbLine
 10
621.6222692982586
 20
30.02553691657758
 30
0.0
 11
621.6222692982586
 21
31.78108825922271
 31
0.0
  0
LINE
  5
29AD
330
1F
100
AcDbEntity
  8
LOGO
100
AcDbLine
 10
618.8704929553908
 20
30.38901374958904
 30
0.0
 11
618.8704929553908
 21
31.41761142621142
 31
0.0
  0
LINE
  5
29AE
330
1F
100
AcDbEntity
  8
LOGO
  6
Continuous
100
AcDbLine
 10
618.8704929553908
 20
31.41761142621142
 30
0.0
 11
621.6222692982586
 21
31.78108825922271
 31
0.0
  0
LINE
  5
29AF
330
1F
100
AcDbEntity
  8
LOGO
  6
Continuous
100
AcDbLine
 10
618.8704929553908
 20
30.38901374958904
 30
0.0
 11
621.6222692982586
 21
30.02553691657758
 31
0.0
  0
TEXT
  5
29B0
330
1F
100
AcDbEntity
  8
LOGO
100
AcDbText
 10
602.4592693248791
 20
33.16849446568888
 30
99.07964067459765
 40
1.511781067873301
  1
比例 Scale:
 41
0.9
  7
CHINESET
 72
     4
 11
607.2598491176393
 21
33.92364101287953
 31
99.07964067459765
100
AcDbText
  0
TEXT
  5
29B1
330
1F
100
AcDbEntity
  8
LOGO
100
AcDbText
 10
602.372206933024
 20
30.16545396435277
 30
99.07964067459765
 40
1.511781067873301
  1
投影  View:
 41
0.9
  7
CHINESET
 72
     4
 11
607.2598491176393
 21
30.9000788771329
 31
99.07964067459765
100
AcDbText
  0
TEXT
  5
29B2
330
1F
100
AcDbEntity
  8
LOGO
100
AcDbText
 10
602.5200105284991
 20
27.12062620744963
 30
99.07964067459765
 40
1.511781067873301
  1
單位  Unit:
 41
0.9
  7
CHINESET
 72
     4
 11
607.2598491176393
 21
27.87651674138628
 31
99.07964067459765
100
AcDbText
  0
SOLID
  5
29B4
330
1F
100
AcDbEntity
  8
LOGO
 62
     5
100
AcDbTrace
 10
591.6948274685678
 20
28.87785651376231
 30
0.0
 11
592.3484819331811
 21
28.87785651376214
 31
0.0
 12
595.0757988372568
 22
35.07630402302551
 32
0.0
 13
595.7294533018703
 23
35.07630402302517
 33
0.0
  0
SOLID
  5
29B5
330
1F
100
AcDbEntity
  8
LOGO
 62
     5
100
AcDbTrace
 10
592.6189596426771
 20
28.87785651376231
 30
0.0
 11
593.2726141072902
 21
28.87785651376231
 31
0.0
 12
595.7294533018703
 22
34.58042822228421
 32
0.0
 13
595.0757988372568
 23
32.1836951853691
 33
0.0
  0
SOLID
  5
29B6
330
1F
100
AcDbEntity
  8
LOGO
 62
     2
100
AcDbTrace
 10
592.3484819331811
 20
28.87785651376214
 30
0.0
 11
592.6189596426771
 21
28.87785651376231
 31
0.0
 12
595.7294533018703
 22
35.07630402302517
 32
0.0
 13
595.9999310113658
 23
35.07630402302517
 33
0.0
  0
SOLID
  5
29B7
330
1F
100
AcDbEntity
  8
LOGO
 62
     5
100
AcDbTrace
 10
590.6468590660832
 20
26.62387560130317
 30
0.0
 11
590.8722571573292
 21
26.62387560130317
 31
0.0
 12
591.5069957258632
 22
27.75086605753266
 32
0.0
 13
591.7323938171088
 23
27.75086605753266
 33
0.0
  0
SOLID
  5
29B8
330
1F
100
AcDbEntity
  8
LOGO
 62
     5
100
AcDbTrace
 10
591.5069957258632
 20
27.75086605753266
 30
0.0
 11
591.7323938171088
 21
27.75086605753266
 31
0.0
 12
591.5069957258632
 22
26.62387560130317
 32
0.0
 13
591.7323938171088
 23
26.62387560130317
 33
0.0
  0
SOLID
  5
29B9
330
1F
100
AcDbEntity
  8
LOGO
 62
     5
100
AcDbTrace
 10
591.5069957258632
 20
26.62387560130317
 30
0.0
 11
591.7323938171088
 21
26.62387560130317
 31
0.0
 12
592.3671323856438
 22
27.75086605753266
 32
0.0
 13
592.5925304768894
 23
27.75086605753266
 33
0.0
  0
SOLID
  5
29BA
330
1F
100
AcDbEntity
  8
LOGO
 62
     5
100
AcDbTrace
 10
592.3671323856438
 20
27.75086605753266
 30
0.0
 11
592.5925304768894
 21
27.75086605753266
 31
0.0
 12
592.3671323856438
 22
26.62387560130317
 32
0.0
 13
592.5925304768894
 23
26.62387560130317
 33
0.0
  0
POLYLINE
  5
29BB
330
1F
100
AcDbEntity
  8
LOGO
 62
     5
100
AcDb2dPolyline
 66
     1
 10
0.0
 20
0.0
 30
0.0
 40
0.2257593061357465
 41
0.2257593061357465
  0
VERTEX
  5
29BC
330
29BB
100
AcDbEntity
  8
LOGO
 62
     5
100
AcDbVertex
100
AcDb2dVertex
 10
599.9223996213796
 20
27.30006987504082
 30
0.0
 42
1.0
  0
VERTEX
  5
29BD
330
29BB
100
AcDbEntity
  8
LOGO
 62
     5
100
AcDbVertex
100
AcDb2dVertex
 10
599.2451217029723
 20
27.30006987504082
 30
0.0
 42
1.0
  0
SEQEND
  5
29BE
330
29BB
100
AcDbEntity
  8
LOGO
 62
     5
  0
POLYLINE
  5
29BF
330
1F
100
AcDbEntity
  8
LOGO
 62
     5
100
AcDb2dPolyline
 66
     1
 10
0.0
 20
0.0
 30
0.0
 70
     1
  0
VERTEX
  5
29C0
330
29BF
100
AcDbEntity
  8
LOGO
 62
     5
100
AcDbVertex
100
AcDb2dVertex
 10
597.9684227014522
 20
27.18737082941775
 30
0.0
 42
1.000000057330635
  0
VERTEX
  5
29C1
330
29BF
100
AcDbEntity
  8
LOGO
 62
     5
100
AcDbVertex
100
AcDb2dVertex
 10
598.6446169751903
 20
27.18737082941775
 30
0.0
 42
1.000000057330635
  0
SEQEND
  5
29C2
330
29BF
100
AcDbEntity
  8
LOGO
 62
     5
  0
CIRCLE
  5
29C3
330
1F
100
AcDbEntity
  8
LOGO
 62
     5
100
AcDbCircle
 10
598.3065198383218
 20
27.18737082941775
 30
0.0
 40
0.3380971368688941
  0
POLYLINE
  5
29C4
330
1F
100
AcDbEntity
  8
LOGO
 62
     5
100
AcDb2dPolyline
 66
     1
 10
0.0
 20
0.0
 30
0.0
 70
     1
 40
0.2257593061357465
 41
0.2257593061357465
  0
VERTEX
  5
29C5
330
29C4
100
AcDbEntity
  8
LOGO
 62
     5
100
AcDbVertex
100
AcDb2dVertex
 10
597.85500122605
 20
27.18737082941775
 30
0.0
 42
1.0
  0
VERTEX
  5
29C6
330
29C4
100
AcDbEntity
  8
LOGO
 62
     5
100
AcDbVertex
100
AcDb2dVertex
 10
598.7580384505928
 20
27.18737082941775
 30
0.0
 42
1.0
  0
SEQEND
  5
29C7
330
29C4
100
AcDbEntity
  8
LOGO
 62
     5
  0
LINE
  5
29C8
330
1F
100
AcDbEntity
  8
LOGO
100
AcDbLine
 10
600.0345568446673
 20
26.62387560130317
 30
0.0
 11
600.0345568446673
 21
27.30006987504082
 31
0.0
  0
SOLID
  5
29C9
330
1F
100
AcDbEntity
  8
LOGO
 62
     5
100
AcDbTrace
 10
598.6445944353821
 20
27.75086605753266
 30
0.0
 11
598.8699925266274
 21
27.75086605753266
 31
0.0
 12
598.6445944353821
 22
26.62387560130317
 32
0.0
 13
598.8699925266274
 23
26.62387560130317
 33
0.0
  0
SOLID
  5
29CA
330
1F
100
AcDbEntity
  8
LOGO
 62
     5
100
AcDbTrace
 10
599.1329644796837
 20
26.62387560130317
 30
0.0
 11
599.3583625709298
 21
26.62387560130317
 31
0.0
 12
599.1329644796837
 22
27.75086605753266
 32
0.0
 13
599.3583625709298
 23
27.75086605753266
 33
0.0
  0
SOLID
  5
29CB
330
1F
100
AcDbEntity
  8
LOGO
 62
     5
100
AcDbTrace
 10
599.8091587534219
 20
27.30006987504082
 30
0.0
 11
600.0345568446673
 21
27.30006987504082
 31
0.0
 12
599.8091587534219
 22
26.62387560130317
 32
0.0
 13
600.0345568446673
 23
26.62387560130317
 33
0.0
  0
SOLID
  5
29CC
330
1F
100
AcDbEntity
  8
LOGO
 62
     5
100
AcDbTrace
 10
599.1104246705591
 20
34.58042822228421
 30
0.0
 11
598.4567702059463
 21
32.1836951853691
 31
0.0
 12
599.1104246705591
 22
28.87785651376214
 32
0.0
 13
598.4567702059463
 23
28.87785651376214
 33
0.0
  0
SOLID
  5
29CD
330
1F
100
AcDbEntity
  8
LOGO
 62
     5
100
AcDbTrace
 10
599.3809023800545
 20
28.87785651376214
 30
0.0
 11
600.0345568446673
 21
28.87785651376214
 31
0.0
 12
599.3809023800545
 22
35.07630402302517
 32
0.0
 13
600.0345568446673
 23
35.07630402302551
 33
0.0
  0
SOLID
  5
29CE
330
1F
100
AcDbEntity
  8
LOGO
 62
     2
100
AcDbTrace
 10
599.1104246705591
 20
35.07630402302551
 30
0.0
 11
599.3809023800545
 21
35.07630402302517
 31
0.0
 12
599.1104246705591
 22
28.87785651376214
 32
0.0
 13
599.3809023800545
 23
28.87785651376214
 33
0.0
  0
POLYLINE
  5
29CF
330
1F
100
AcDbEntity
  8
LOGO
 62
     5
100
AcDb2dPolyline
 66
     1
 10
0.0
 20
0.0
 30
0.0
 40
0.2257593061357465
 41
0.2257593061357465
  0
VERTEX
  5
29D0
330
29CF
100
AcDbEntity
  8
LOGO
 62
     5
100
AcDbVertex
100
AcDb2dVertex
 10
596.6916786203151
 20
27.30006987504082
 30
0.0
 42
1.0
  0
VERTEX
  5
29D1
330
29CF
100
AcDbEntity
  8
LOGO
 62
     5
100
AcDbVertex
100
AcDb2dVertex
 10
596.0144007019079
 20
27.30006987504082
 30
0.0
 42
1.0
  0
SEQEND
  5
29D2
330
29CF
100
AcDbEntity
  8
LOGO
 62
     5
  0
POLYLINE
  5
29D3
330
1F
100
AcDbEntity
  8
LOGO
 62
     5
100
AcDb2dPolyline
 66
     1
 10
0.0
 20
0.0
 30
0.0
 40
0.2257593061357465
 41
0.2257593061357465
  0
VERTEX
  5
29D4
330
29D3
100
AcDbEntity
  8
LOGO
 62
     5
100
AcDbVertex
100
AcDb2dVertex
 10
597.3678728940523
 20
27.30006987504082
 30
0.0
 42
1.0
  0
VERTEX
  5
29D5
330
29D3
100
AcDbEntity
  8
LOGO
 62
     5
100
AcDbVertex
100
AcDb2dVertex
 10
596.6905949756452
 20
27.30006987504082
 30
0.0
 42
1.0
  0
SEQEND
  5
29D6
330
29D3
100
AcDbEntity
  8
LOGO
 62
     5
  0
POLYLINE
  5
29D7
330
1F
100
AcDbEntity
  8
LOGO
 62
     5
100
AcDb2dPolyline
 66
     1
 10
0.0
 20
0.0
 30
0.0
 40
0.2257593061357465
 41
0.2257593061357465
  0
VERTEX
  5
29D8
330
29D7
100
AcDbEntity
  8
LOGO
 62
     5
100
AcDbVertex
100
AcDb2dVertex
 10
594.1371518929879
 20
27.30006987504082
 30
0.0
 42
1.0
  0
VERTEX
  5
29D9
330
29D7
100
AcDbEntity
  8
LOGO
 62
     5
100
AcDbVertex
100
AcDb2dVertex
 10
593.4598739745811
 20
27.30006987504082
 30
0.0
 42
1.0
  0
SEQEND
  5
29DA
330
29D7
100
AcDbEntity
  8
LOGO
 62
     5
  0
SOLID
  5
29DB
330
1F
100
AcDbEntity
  8
LOGO
 62
     5
100
AcDbTrace
 10
593.3477167512927
 20
27.75086605753266
 30
0.0
 11
593.5731148425384
 21
27.75086605753266
 31
0.0
 12
593.3477167512927
 22
26.62387560130317
 32
0.0
 13
593.5731148425384
 23
26.62387560130317
 33
0.0
  0
SOLID
  5
29DC
330
1F
100
AcDbEntity
  8
LOGO
 62
     5
100
AcDbTrace
 10
594.0239110250307
 20
27.30006987504082
 30
0.0
 11
594.2493091162767
 21
27.30006987504082
 31
0.0
 12
594.0239110250307
 22
26.62387560130317
 32
0.0
 13
594.2493091162767
 23
26.62387560130317
 33
0.0
  0
POLYLINE
  5
29DD
330
1F
100
AcDbEntity
  8
LOGO
 62
     5
100
AcDb2dPolyline
 66
     1
 10
0.0
 20
0.0
 30
0.0
 70
     1
 40
0.2257593061357465
 41
0.2257593061357465
  0
VERTEX
  5
29DE
330
29DD
100
AcDbEntity
  8
LOGO
 62
     5
100
AcDbVertex
100
AcDb2dVertex
 10
594.6242802249852
 20
27.18737082941775
 30
0.0
 42
1.0
  0
VERTEX
  5
29DF
330
29DD
100
AcDbEntity
  8
LOGO
 62
     5
100
AcDbVertex
100
AcDb2dVertex
 10
595.5273174495284
 20
27.18737082941775
 30
0.0
 42
1.0
  0
SEQEND
  5
29E0
330
29DD
100
AcDbEntity
  8
LOGO
 62
     5
  0
SOLID
  5
29E1
330
1F
100
AcDbEntity
  8
LOGO
 62
     5
100
AcDbTrace
 10
595.4138734343171
 20
28.08896319440174
 30
0.0
 11
595.6392715255629
 21
28.08896319440174
 31
0.0
 12
595.4138734343171
 22
26.62387560130317
 32
0.0
 13
595.6392715255629
 23
26.62387560130317
 33
0.0
  0
SOLID
  5
29E2
330
1F
100
AcDbEntity
  8
LOGO
 62
     5
100
AcDbTrace
 10
595.9022434786199
 20
27.75086605753266
 30
0.0
 11
596.1276415698656
 21
27.75086605753266
 31
0.0
 12
595.9022434786199
 22
26.62387560130317
 32
0.0
 13
596.1276415698656
 23
26.62387560130317
 33
0.0
  0
SOLID
  5
29E3
330
1F
100
AcDbEntity
  8
LOGO
 62
     5
100
AcDbTrace
 10
596.5784377523572
 20
27.30006987504082
 30
0.0
 11
596.8038358436033
 21
27.30006987504082
 31
0.0
 12
596.5784377523572
 22
26.62387560130317
 32
0.0
 13
596.8038358436033
 23
26.62387560130317
 33
0.0
  0
SOLID
  5
29E4
330
1F
100
AcDbEntity
  8
LOGO
 62
     5
100
AcDbTrace
 10
597.2546320260951
 20
27.30006987504082
 30
0.0
 11
597.4800301173408
 21
27.30006987504082
 31
0.0
 12
597.2546320260951
 22
26.62387560130283
 32
0.0
 13
597.4800301173408
 23
26.62387560130283
 33
0.0
  0
SOLID
  5
29E5
330
1F
100
AcDbEntity
  8
LOGO
 62
     5
100
AcDbTrace
 10
592.8593467069902
 20
27.90864472140488
 30
0.0
 11
593.0847447982367
 21
27.90864472140488
 31
0.0
 12
592.8593467069902
 22
28.08896319440174
 32
0.0
 13
593.0847447982367
 23
28.08896319440174
 33
0.0
  0
SOLID
  5
29E6
330
1F
100
AcDbEntity
  8
LOGO
 62
     5
100
AcDbTrace
 10
592.8593467069902
 20
27.75086605753266
 30
0.0
 11
593.0847447982367
 21
27.75086605753266
 31
0.0
 12
592.8593467069902
 22
26.62387560130283
 32
0.0
 13
593.0847447982367
 23
26.62387560130317
 33
0.0
  0
SOLID
  5
29E7
330
1F
100
AcDbEntity
  8
LOGO
 62
     5
100
AcDbTrace
 10
595.0757988372568
 20
28.87785651376231
 30
0.0
 11
595.7294533018703
 21
28.87785651376231
 31
0.0
 12
595.0757988372568
 22
32.1836951853691
 32
0.0
 13
595.7294533018703
 23
34.58042822228421
 33
0.0
  0
SOLID
  5
29E8
330
1F
100
AcDbEntity
  8
LOGO
 62
     5
100
AcDbTrace
 10
595.9999310113658
 20
35.07630402302517
 30
0.0
 11
596.6535854759785
 21
35.07630402302551
 31
0.0
 12
595.9999310113658
 22
29.37373231450327
 32
0.0
 13
596.6535854759785
 23
31.77046535141837
 33
0.0
  0
SOLID
  5
29E9
330
1F
100
AcDbEntity
  8
LOGO
 62
     2
100
AcDbTrace
 10
595.7294533018703
 20
35.07630402302517
 30
0.0
 11
595.9999310113658
 21
35.07630402302517
 31
0.0
 12
595.7294533018703
 22
28.87785651376231
 32
0.0
 13
595.9999310113658
 23
28.87785651376231
 33
0.0
  0
SOLID
  5
29EA
330
1F
100
AcDbEntity
  8
LOGO
 62
     5
100
AcDbTrace
 10
595.9999310113658
 20
29.37373231450327
 30
0.0
 11
596.6535854759785
 21
31.77046535141837
 31
0.0
 12
599.1104246705591
 22
35.07630402302551
 32
0.0
 13
598.4567702059463
 23
35.07630402302551
 33
0.0
  0
SOLID
  5
29EB
330
1F
100
AcDbEntity
  8
LOGO
 62
     5
100
AcDbTrace
 10
595.9999310113658
 20
28.87785651376231
 30
0.0
 11
596.6535854759785
 21
28.87785651376231
 31
0.0
 12
599.1104246705591
 22
34.58042822228421
 32
0.0
 13
598.4567702059463
 23
32.1836951853691
 33
0.0
  0
SOLID
  5
29EC
330
1F
100
AcDbEntity
  8
LOGO
 62
     2
100
AcDbTrace
 10
595.7294533018703
 20
28.87785651376231
 30
0.0
 11
595.9999310113658
 21
28.87785651376231
 31
0.0
 12
599.1104246705591
 22
35.07630402302551
 32
0.0
 13
599.3809023800545
 23
35.07630402302517
 33
0.0
  0
TEXT
  5
2A2D
330
1F
100
AcDbEntity
  8
LOGO
100
AcDbText
 10
624.0859747485971
 20
21.12187296322433
 30
0.0
 40
1.511999999999999
  1
10603100
 41
0.7
  7
CHINESET
 72
     1
 11
627.7651747485971
 21
21.12187296322433
 31
0.0
100
AcDbText
  0
LINE
  5
2A2E
330
1F
100
AcDbEntity
  8
LOGO
 62
     4
100
AcDbLine
 10
632.4575138416207
 20
23.34117353776676
 30
0.0
 11
632.4575138416214
 21
20.31761140201997
 31
0.0
  0
LINE
  5
2A2F
330
1F
100
AcDbEntity
  8
LOGO
 62
     4
100
AcDbLine
 10
632.4575138416207
 20
23.34117353776676
 30
0.0
 11
623.3855138416214
 21
23.34117353776676
 31
0.0
  0
LINE
  5
2A30
330
1F
100
AcDbEntity
  8
LOGO
  6
AM_ISO08W050x2
 48
0.2
100
AcDbLine
 10
614.8961982203132
 20
30.90331258790016
 30
0.0
 11
617.3162520334606
 21
30.90331258790016
 31
0.0
1001
GENIUS_GENOREF_13
1005
2A35
  0
LINE
  5
2A31
330
1F
100
AcDbEntity
  8
LOGO
  6
AM_ISO08W050x2
 48
0.2
100
AcDbLine
 10
616.1062251268869
 20
29.69328568132655
 30
0.0
 11
616.1062251268869
 21
32.11333949447375
 31
0.0
1001
GENIUS_GENOREF_13
1005
2A34
  0
LINE
  5
2A32
330
1F
100
AcDbEntity
  8
LOGO
  6
AM_ISO08W050x2
 48
0.3
100
AcDbLine
 10
618.6504273332267
 20
30.90331258790016
 30
0.0
 11
621.8993642680261
 21
30.90331258790016
 31
0.0
1001
GENIUS_GENOREF_13
1005
2A33
  0
POINT
  5
2A33
330
1F
100
AcDbEntity
  8
0
 60
     1
100
AcDbPoint
 10
-1846.718893173345
 20
-1185.064967107847
 30
0.0
1001
GENIUS_GENOBJ-N-CRS_13
1002
{
1000
OWNER
1000
GEN
1002
}
1001
GENIUS_GENOLIS_13
1002
{
1000
ENT
1005
0
1005
0
1005
0
1005
2A32
1002
}
1001
GENIUS_GENOENT_13
1002
{
1000
MYREF
1005
2A33
1002
}
1002
{
1000
GRP
1005
0
1002
}
1001
GENIUS_GENODEF_13
1002
{
1000
HIER
1070
    10
1002
}
1002
{
1000
MANEDIT
1070
     1
1002
}
1002
{
1000
NOSEL
1070
     0
1002
}
1002
{
1000
BEHIND
1070
     0
1002
}
1002
{
1000
OTHER
1070
     0
1002
}
1002
{
1000
REACTOR
1002
}
  0
POINT
  5
2A34
330
1F
100
AcDbEntity
  8
0
 60
     1
100
AcDbPoint
 10
-1858.0434783962
 20
-1176.18938062921
 30
0.0
1001
GENIUS_GENOBJ-N-CRS_13
1002
{
1000
OWNER
1000
GEN
1002
}
1001
GENIUS_GENOLIS_13
1002
{
1000
ENT
1005
0
1005
0
1005
0
1005
2A31
1002
}
1001
GENIUS_GENOENT_13
1002
{
1000
MYREF
1005
2A34
1002
}
1002
{
1000
GRP
1005
0
1002
}
1001
GENIUS_GENODEF_13
1002
{
1000
HIER
1070
    10
1002
}
1002
{
1000
MANEDIT
1070
     1
1002
}
1002
{
1000
NOSEL
1070
     0
1002
}
1002
{
1000
BEHIND
1070
     0
1002
}
1002
{
1000
OTHER
1070
     0
1002
}
1002
{
1000
REACTOR
1002
}
  0
POINT
  5
2A35
330
1F
100
AcDbEntity
  8
0
 60
     1
100
AcDbPoint
 10
-1851.684804698363
 20
-1185.064967107847
 30
0.0
1001
GENIUS_GENOBJ-N-CRS_13
1002
{
1000
OWNER
1000
GEN
1002
}
1001
GENIUS_GENOLIS_13
1002
{
1000
ENT
1005
0
1005
0
1005
0
1005
2A30
1002
}
1001
GENIUS_GENOENT_13
1002
{
1000
MYREF
1005
2A35
1002
}
1002
{
1000
GRP
1005
0
1002
}
1001
GENIUS_GENODEF_13
1002
{
1000
HIER
1070
    10
1002
}
1002
{
1000
MANEDIT
1070
     1
1002
}
1002
{
1000
NOSEL
1070
     0
1002
}
1002
{
1000
BEHIND
1070
     0
1002
}
1002
{
1000
OTHER
1070
     0
1002
}
1002
{
1000
REACTOR
1002
}
  0
LINE
  5
2CF9
330
1F
100
AcDbEntity
  8
0
  6
Continuous
 62
     7
100
AcDbLine
 10
648.9548184242043
 20
61.36940932054812
 30
0.0
 11
655.8828184242043
 21
65.36940932054813
 31
0.0
  0
LINE
  5
2CFA
330
1F
100
AcDbEntity
  8
0
  6
Continuous
 62
     7
100
AcDbLine
 10
648.9548184242043
 20
61.36940932054812
 30
0.0
 11
647.6838184242041
 21
63.57140932054814
 31
0.0
  0
ARC
  5
2CFB
330
1F
100
AcDbEntity
  8
0
  6
Continuous
 62
     7
100
AcDbCircle
 10
643.9188184242044
 20
78.09240932054814
 30
0.0
 40
15.0
100
AcDbArc
 50
189.5939999999981
 51
290.4059999999987
  0
LINE
  5
2D0D
330
1F
100
AcDbEntity
  8
0
  6
Continuous
 62
     7
100
AcDbLine
 10
647.9338184242042
 20
76.13740932054816
 30
0.0
 11
654.5838184242044
 21
64.61940932054813
 31
0.0
  0
LINE
  5
2D0E
330
1F
100
AcDbEntity
  8
0
  6
Continuous
 62
     7
100
AcDbLine
 10
643.6038184242042
 20
73.63740932054816
 30
0.0
 11
650.2538184242042
 21
62.11940932054814
 31
0.0
  0
LINE
  5
2D0F
330
1F
100
AcDbEntity
  8
0
  6
Continuous
 62
     7
100
AcDbLine
 10
647.2538184242043
 20
67.31540932054816
 30
0.0
 11
651.5838184242044
 21
69.81540932054816
 31
0.0
  0
LINE
  5
2D12
330
1F
100
AcDbEntity
  8
0
  6
Continuous
 62
     7
100
AcDbLine
 10
643.6038184242042
 20
82.54640932054815
 30
0.0
 11
650.2538184242042
 21
94.06540932054815
 31
0.0
  0
LINE
  5
2D13
330
1F
100
AcDbEntity
  8
0
  6
Continuous
 62
     7
100
AcDbLine
 10
647.9338184242042
 20
80.04640932054815
 30
0.0
 11
654.5838184242044
 21
91.56540932054815
 31
0.0
  0
LINE
  5
2D14
330
1F
100
AcDbEntity
  8
0
  6
Continuous
 62
     7
100
AcDbLine
 10
648.9548184242043
 20
94.81540932054816
 30
0.0
 11
647.6828184242044
 21
92.61240932054814
 31
0.0
  0
LINE
  5
2D15
330
1F
100
AcDbEntity
  8
0
  6
Continuous
 62
     7
100
AcDbLine
 10
648.2538184242042
 20
65.58340932054813
 30
0.0
 11
652.5838184242044
 21
68.08340932054813
 31
0.0
  0
LINE
  5
2D16
330
1F
100
AcDbEntity
  8
0
  6
Continuous
 62
     7
100
AcDbLine
 10
645.2538184242042
 20
70.77940932054815
 30
0.0
 11
649.5838184242044
 21
73.27940932054815
 31
0.0
  0
LINE
  5
2D17
330
1F
100
AcDbEntity
  8
0
  6
Continuous
 62
     7
100
AcDbLine
 10
651.5838184242044
 20
86.36840932054814
 30
0.0
 11
647.2538184242043
 21
88.86840932054814
 31
0.0
  0
LINE
  5
2D19
330
1F
100
AcDbEntity
  8
0
  6
Continuous
 62
     7
100
AcDbLine
 10
652.5838184242044
 20
88.10040932054814
 30
0.0
 11
648.2538184242042
 21
90.60040932054814
 31
0.0
  0
LINE
  5
2D1A
330
1F
100
AcDbEntity
  8
0
  6
Continuous
 62
     7
100
AcDbLine
 10
649.5838184242044
 20
82.90440932054815
 30
0.0
 11
645.2538184242042
 21
85.40440932054815
 31
0.0
  0
CIRCLE
  5
2D1C
330
1F
100
AcDbEntity
  8
0
  6
Continuous
 62
     3
100
AcDbCircle
 10
648.4188184242044
 20
70.29840932054816
 30
0.0
 40
1.5
  0
CIRCLE
  5
2D1D
330
1F
100
AcDbEntity
  8
0
  6
Continuous
 62
     3
100
AcDbCircle
 10
648.4188184242044
 20
85.88640932054813
 30
0.0
 40
1.5
  0
ARC
  5
2D1E
330
1F
100
AcDbEntity
  8
0
  6
Continuous
 62
     7
100
AcDbCircle
 10
643.9188184242044
 20
78.09240932054814
 30
0.0
 40
15.0
100
AcDbArc
 50
69.59299999999871
 51
170.4070000000001
  0
CIRCLE
  5
2D1F
330
1F
100
AcDbEntity
  8
0
  6
Continuous
 62
     7
100
AcDbCircle
 10
648.4188184242044
 20
85.88640932054813
 30
0.0
 40
1.2295
  0
CIRCLE
  5
2D20
330
1F
100
AcDbEntity
  8
0
  6
Continuous
 62
     7
100
AcDbCircle
 10
648.4188184242044
 20
70.29740932054814
 30
0.0
 40
1.2295
  0
ARC
  5
2D21
330
1F
100
AcDbEntity
  8
0
  6
Continuous
 62
     7
100
AcDbCircle
 10
643.9188184242044
 20
78.09240932054814
 30
0.0
 40
9.0
100
AcDbArc
 50
76.12579999999903
 51
163.8740000000015
  0
ARC
  5
2D22
330
1F
100
AcDbEntity
  8
0
  6
Continuous
 62
     7
100
AcDbCircle
 10
643.9188184242044
 20
78.09240932054814
 30
0.0
 40
13.0
100
AcDbArc
 50
134.4779999999996
 51
168.9140000000019
  0
LINE
  5
2D23
102
{ACAD_REACTORS
330
3958
102
}
330
1F
100
AcDbEntity
  8
0
  6
Continuous
 62
     7
100
AcDbLine
 10
640.2188184242044
 20
80.59240932054814
 30
0.0
 11
626.9188184242042
 21
80.59240932054814
 31
0.0
  0
LINE
  5
2D24
102
{ACAD_REACTORS
330
3958
102
}
330
1F
100
AcDbEntity
  8
0
  6
Continuous
 62
     7
100
AcDbLine
 10
626.9188184242042
 20
75.59240932054814
 30
0.0
 11
640.2188184242044
 21
75.59240932054814
 31
0.0
  0
ARC
  5
2D25
330
1F
100
AcDbEntity
  8
0
  6
Continuous
 62
     7
100
AcDbCircle
 10
643.9188184242044
 20
78.09240932054814
 30
0.0
 40
13.0
100
AcDbArc
 50
191.0880000000002
 51
225.522999999999
  0
LINE
  5
2D27
330
1F
100
AcDbEntity
  8
0
  6
Continuous
 62
     7
100
AcDbLine
 10
626.9188184242042
 20
82.09240932054814
 30
0.0
 11
626.9188184242042
 21
74.09240932054814
 31
0.0
  0
LINE
  5
2D28
102
{ACAD_REACTORS
330
397E
102
}
330
1F
100
AcDbEntity
  8
0
  6
Continuous
 62
     7
100
AcDbLine
 10
626.9188184242042
 20
82.09240932054814
 30
0.0
 11
629.4618184242042
 21
82.09240932054814
 31
0.0
  0
LINE
  5
2D29
102
{ACAD_REACTORS
330
37DF
330
3807
330
397E
102
}
330
1F
100
AcDbEntity
  8
0
  6
Continuous
 62
     7
100
AcDbLine
 10
626.9188184242042
 20
74.09240932054814
 30
0.0
 11
629.4618184242042
 21
74.09240932054814
 31
0.0
  0
LINE
  5
2D2B
330
1F
100
AcDbEntity
  8
0
  6
Continuous
 62
     7
100
AcDbLine
 10
630.9188184242042
 20
80.59240932054814
 30
0.0
 11
630.9188184242042
 21
75.59240932054814
 31
0.0
  0
CIRCLE
  5
2D2C
330
1F
100
AcDbEntity
  8
0
  6
Continuous
 62
     3
100
AcDbCircle
 10
628.9188184242042
 20
78.09240932054814
 30
0.0
 40
1.5
  0
CIRCLE
  5
2D2D
330
1F
100
AcDbEntity
  8
0
  6
Continuous
 62
     7
100
AcDbCircle
 10
628.9188184242042
 20
78.09240932054814
 30
0.0
 40
1.2295
  0
ARC
  5
2D2E
330
1F
100
AcDbEntity
  8
0
  6
Continuous
 62
     7
100
AcDbCircle
 10
643.9188184242044
 20
78.09240932054814
 30
0.0
 40
9.0
100
AcDbArc
 50
196.1279999999978
 51
283.8729999999991
  0
LINE
  5
2D2F
330
1F
100
AcDbEntity
  8
0
  6
Continuous
 62
     7
100
AcDbLine
 10
639.4118184242044
 20
63.78540932054811
 30
0.0
 11
640.4838184242042
 21
65.64140932054812
 31
0.0
  0
ARC
  5
2D30
330
1F
100
AcDbEntity
  8
0
  6
Continuous
 62
     7
100
AcDbCircle
 10
637.6688184242044
 20
67.26740932054815
 30
0.0
 40
3.25
100
AcDbArc
 50
329.9999999999995
 51
149.9999999999995
  0
LINE
  5
2D31
330
1F
100
AcDbEntity
  8
0
  6
Continuous
 62
     7
100
AcDbLine
 10
633.7828184242042
 20
67.03540932054814
 30
0.0
 11
634.8548184242043
 21
68.89140932054812
 31
0.0
  0
CIRCLE
  5
2D32
330
1F
100
AcDbEntity
  8
0
  6
Continuous
 62
     7
100
AcDbCircle
 10
637.6688184242044
 20
67.26740932054815
 30
0.0
 40
1.7
  0
ARC
  5
2D34
330
1F
100
AcDbEntity
  8
0
  6
Continuous
 62
     7
100
AcDbCircle
 10
643.9188184242044
 20
78.09240932054814
 30
0.0
 40
13.0
100
AcDbArc
 50
254.4780000000018
 51
288.9129999999997
  0
LINE
  5
2D35
330
1F
100
AcDbEntity
  8
0
  6
Continuous
 62
     7
100
AcDbLine
 10
632.9188184242042
 20
80.59240932054814
 30
0.0
 11
632.9188184242042
 21
75.59240932054814
 31
0.0
  0
LINE
  5
2D37
330
1F
100
AcDbEntity
  8
0
  6
Continuous
 62
     7
100
AcDbLine
 10
636.9188184242045
 20
80.59240932054814
 30
0.0
 11
636.9188184242045
 21
75.59240932054814
 31
0.0
  0
LINE
  5
2D38
330
1F
100
AcDbEntity
  8
0
  6
Continuous
 62
     7
100
AcDbLine
 10
640.2188184242044
 20
80.59240932054814
 30
0.0
 11
640.2188184242044
 21
75.59240932054814
 31
0.0
  0
CIRCLE
  5
2D39
330
1F
100
AcDbEntity
  8
0
  6
Continuous
 62
     3
100
AcDbCircle
 10
634.9188184242044
 20
78.09240932054814
 30
0.0
 40
1.5
  0
CIRCLE
  5
2D3A
330
1F
100
AcDbEntity
  8
0
  6
Continuous
 62
     7
100
AcDbCircle
 10
634.9188184242044
 20
78.09240932054814
 30
0.0
 40
1.2295
  0
LINE
  5
2D3C
330
1F
100
AcDbEntity
  8
0
  6
Continuous
 62
     7
100
AcDbLine
 10
643.6038184242042
 20
73.63740932054816
 30
0.0
 11
647.9338184242042
 21
76.13740932054816
 31
0.0
  0
LINE
  5
2D3D
330
1F
100
AcDbEntity
  8
0
  6
Continuous
 62
     7
100
AcDbLine
 10
647.9338184242042
 20
80.04640932054815
 30
0.0
 11
643.6038184242042
 21
82.54640932054815
 31
0.0
  0
LINE
  5
2D3E
330
1F
100
AcDbEntity
  8
0
  6
Continuous
 62
     7
100
AcDbLine
 10
640.4838184242042
 20
90.54240932054813
 30
0.0
 11
639.4118184242044
 21
92.39840932054814
 31
0.0
  0
ARC
  5
2D3F
330
1F
100
AcDbEntity
  8
0
  6
Continuous
 62
     7
100
AcDbCircle
 10
637.6688184242044
 20
88.91740932054814
 30
0.0
 40
3.25
100
AcDbArc
 50
210.0000000000005
 51
30.0000000000005
  0
LINE
  5
2D40
330
1F
100
AcDbEntity
  8
0
  6
Continuous
 62
     7
100
AcDbLine
 10
634.8548184242043
 20
87.29240932054812
 30
0.0
 11
633.7818184242043
 21
89.14940932054816
 31
0.0
  0
CIRCLE
  5
2D41
330
1F
100
AcDbEntity
  8
0
  6
Continuous
 62
     7
100
AcDbCircle
 10
637.6688184242044
 20
88.91740932054814
 30
0.0
 40
1.7
  0
ARC
  5
2D43
330
1F
100
AcDbEntity
  8
0
  6
Continuous
 62
     7
100
AcDbCircle
 10
643.9188184242044
 20
78.09240932054814
 30
0.0
 40
13.0
100
AcDbArc
 50
71.0863000000011
 51
105.5230000000002
  0
ARC
  5
2D44
330
1F
100
AcDbEntity
  8
0
  6
Continuous
 62
     7
100
AcDbCircle
 10
654.6108184242044
 20
83.54040932054813
 30
0.0
 40
2.0
100
AcDbArc
 50
75.55409999999764
 51
338.3730000000003
  0
LINE
  5
2D45
330
1F
100
AcDbEntity
  8
0
  6
Continuous
 62
     7
100
AcDbLine
 10
657.8978184242043
 20
72.65240932054815
 30
0.0
 11
656.4708184242042
 21
73.38040932054815
 31
0.0
  0
ARC
  5
2D46
330
1F
100
AcDbEntity
  8
0
  6
Continuous
 62
     7
100
AcDbCircle
 10
654.6108184242044
 20
72.64440932054815
 30
0.0
 40
2.0
100
AcDbArc
 50
21.5903
 51
284.4099999999976
  0
ARC
  5
2D47
330
1F
100
AcDbEntity
  8
0
  6
Continuous
 62
     7
100
AcDbCircle
 10
643.9188184242044
 20
78.09240932054814
 30
0.0
 40
9.0
100
AcDbArc
 50
316.1279999999986
 51
43.87360000000017
  0
ARC
  5
2D48
330
1F
100
AcDbEntity
  8
0
  6
Continuous
 62
     7
100
AcDbCircle
 10
643.9188184242044
 20
78.09240932054814
 30
0.0
 40
15.0
100
AcDbArc
 50
338.7400000000001
 51
21.26029999999856
  0
LINE
  5
2D4A
330
1F
100
AcDbEntity
  8
0
  6
Continuous
 62
     7
100
AcDbLine
 10
655.8828184242043
 20
65.36940932054813
 30
0.0
 11
654.6118184242044
 21
67.57140932054813
 31
0.0
  0
LINE
  5
2D4B
330
1F
100
AcDbEntity
  8
0
  6
Continuous
 62
     7
100
AcDbLine
 10
656.5358184242044
 20
69.97940932054814
 30
0.0
 11
655.1078184242043
 21
70.70740932054815
 31
0.0
  0
CIRCLE
  5
2D4C
330
1F
100
AcDbEntity
  8
0
  6
Continuous
 62
     3
100
AcDbCircle
 10
651.4188184242044
 20
65.10140932054816
 30
0.0
 40
1.5
  0
ARC
  5
2D4D
330
1F
100
AcDbEntity
  8
0
  6
Continuous
 62
     7
100
AcDbCircle
 10
643.9188184242044
 20
78.09240932054814
 30
0.0
 40
13.0
100
AcDbArc
 50
311.0870000000003
 51
325.0490000000004
  0
ARC
  5
2D4E
330
1F
100
AcDbEntity
  8
0
  6
Continuous
 62
     7
100
AcDbCircle
 10
643.9188184242044
 20
78.09240932054814
 30
0.0
 40
15.0
100
AcDbArc
 50
309.5940000000021
 51
327.2609999999982
  0
CIRCLE
  5
2D4F
330
1F
100
AcDbEntity
  8
0
  6
Continuous
 62
     7
100
AcDbCircle
 10
651.4188184242044
 20
65.10140932054816
 30
0.0
 40
1.2295
  0
LINE
  5
2D50
330
1F
100
AcDbEntity
  8
0
  6
Continuous
 62
     7
100
AcDbLine
 10
658.5628184242042
 20
81.34240932054813
 30
0.0
 11
656.4188184242044
 21
81.34240932054813
 31
0.0
  0
LINE
  5
2D51
330
1F
100
AcDbEntity
  8
0
  6
Continuous
 62
     7
100
AcDbLine
 10
658.5628184242042
 20
74.84240932054814
 30
0.0
 11
656.4188184242044
 21
74.84240932054814
 31
0.0
  0
LINE
  5
2D52
330
1F
100
AcDbEntity
  8
0
  6
Continuous
 62
     7
100
AcDbLine
 10
657.8978184242043
 20
83.53040932054813
 30
0.0
 11
656.4698184242042
 21
82.80340932054816
 31
0.0
  0
CIRCLE
  5
2D53
330
1F
100
AcDbEntity
  8
0
  6
Continuous
 62
     7
100
AcDbCircle
 10
656.4188184242044
 20
78.09240932054814
 30
0.0
 40
1.7
  0
POINT
  5
2D54
330
1F
100
AcDbEntity
  8
0
100
AcDbPoint
 10
652.8288184242041
 20
82.63140932054813
 30
0.0
  0
POINT
  5
2D55
330
1F
100
AcDbEntity
  8
0
100
AcDbPoint
 10
652.8288184242041
 20
73.55240932054812
 30
0.0
  0
ARC
  5
2D56
330
1F
100
AcDbEntity
  8
0
  6
Continuous
 62
     7
100
AcDbCircle
 10
656.4188184242044
 20
78.09240932054814
 30
0.0
 40
3.25
100
AcDbArc
 50
90.0
 51
270.0
  0
ARC
  5
2D57
330
1F
100
AcDbEntity
  8
0
  6
Continuous
 62
     7
100
AcDbCircle
 10
643.9188184242044
 20
78.09240932054814
 30
0.0
 40
13.0
100
AcDbArc
 50
340.9519999999993
 51
345.5219999999993
  0
ARC
  5
2D58
330
1F
100
AcDbEntity
  8
0
  6
Continuous
 62
     7
100
AcDbCircle
 10
643.9188184242044
 20
78.09240932054814
 30
0.0
 40
13.0
100
AcDbArc
 50
14.47710000000097
 51
19.04830000000205
  0
LINE
  5
2D5B
330
1F
100
AcDbEntity
  8
0
  6
Continuous
 62
     7
100
AcDbLine
 10
656.5358184242044
 20
86.20340932054814
 30
0.0
 11
655.1098184242042
 21
85.47640932054816
 31
0.0
  0
LINE
  5
2D5C
330
1F
100
AcDbEntity
  8
0
  6
Continuous
 62
     7
100
AcDbLine
 10
655.8828184242043
 20
90.81440932054814
 30
0.0
 11
648.9548184242043
 21
94.81440932054814
 31
0.0
  0
LINE
  5
2D5D
330
1F
100
AcDbEntity
  8
0
  6
Continuous
 62
     7
100
AcDbLine
 10
655.8828184242043
 20
90.81440932054814
 30
0.0
 11
654.6118184242044
 21
88.61240932054814
 31
0.0
  0
ARC
  5
2D5F
330
1F
100
AcDbEntity
  8
0
  6
Continuous
 62
     7
100
AcDbCircle
 10
643.9188184242044
 20
78.09240932054814
 30
0.0
 40
13.0
100
AcDbArc
 50
34.95189999999991
 51
48.91230000000144
  0
CIRCLE
  5
2D60
330
1F
100
AcDbEntity
  8
0
  6
Continuous
 62
     3
100
AcDbCircle
 10
651.4188184242044
 20
91.08240932054815
 30
0.0
 40
1.5
  0
ARC
  5
2D61
330
1F
100
AcDbEntity
  8
0
  6
Continuous
 62
     7
100
AcDbCircle
 10
643.9188184242044
 20
78.09240932054814
 30
0.0
 40
15.0
100
AcDbArc
 50
32.73860000000084
 51
50.40660000000265
  0
CIRCLE
  5
2D62
330
1F
100
AcDbEntity
  8
0
  6
Continuous
 62
     7
100
AcDbCircle
 10
651.4188184242044
 20
91.08240932054815
 30
0.0
 40
1.2295
  0
LINE
  5
2D71
330
1F
100
AcDbEntity
  8
0
  6
Continuous
 62
     7
100
AcDbLine
 10
710.9373624900921
 20
114.5408159542729
 30
0.0
 11
710.9373624900921
 21
144.5408159542729
 31
0.0
  0
LINE
  5
2D72
330
1F
100
AcDbEntity
  8
0
  6
Continuous
 62
     7
100
AcDbLine
 10
675.9373624900921
 20
118.8758159542729
 30
0.0
 11
675.9373624900921
 21
128.2058159542728
 31
0.0
  0
LINE
  5
2D73
330
1F
100
AcDbEntity
  8
0
  6
Continuous
 62
     7
100
AcDbLine
 10
685.9373624900921
 20
117.5768159542729
 30
0.0
 11
685.9373624900921
 21
125.7768159542729
 31
0.0
  0
LINE
  5
2D79
330
1F
100
AcDbEntity
  8
0
  6
Continuous
 62
     7
100
AcDbLine
 10
741.8283643890227
 20
61.36940932054812
 30
0.0
 11
743.0993643890225
 21
63.57240932054815
 31
0.0
  0
LINE
  5
2D7A
330
1F
100
AcDbEntity
  8
0
  6
Continuous
 62
     7
100
AcDbLine
 10
741.8283643890227
 20
61.36940932054812
 30
0.0
 11
734.8993643890223
 21
65.36940932054813
 31
0.0
  0
LINE
  5
2D7B
330
1F
100
AcDbEntity
  8
0
  6
Continuous
 62
     7
100
AcDbLine
 10
685.9373624900921
 20
61.36940932054812
 30
0.0
 11
685.9373624900921
 21
67.57240932054815
 31
0.0
  0
LINE
  5
2D7C
330
1F
100
AcDbEntity
  8
0
  6
Continuous
 62
     7
100
AcDbLine
 10
681.9373624900921
 20
61.36940932054812
 30
0.0
 11
681.9373624900921
 21
62.11940932054814
 31
0.0
  0
LINE
  5
2D7E
102
{ACAD_REACTORS
330
3709
330
3731
102
}
330
1F
100
AcDbEntity
  8
0
  6
Continuous
 62
     7
100
AcDbLine
 10
685.9373624900921
 20
61.36940932054812
 30
0.0
 11
681.9373624900921
 21
61.36940932054812
 31
0.0
  0
LINE
  5
2D81
330
1F
100
AcDbEntity
  8
AM_7
  6
AM_ISO08W050x2
100
AcDbLine
 10
674.5143624900919
 20
78.09240932054814
 30
0.0
 11
713.5543624900922
 21
78.09240932054814
 31
0.0
  0
LINE
  5
2D82
330
1F
100
AcDbEntity
  8
0
  6
Continuous
 62
     7
100
AcDbLine
 10
680.0923624900921
 20
86.20440932054817
 30
0.0
 11
710.9373624900921
 21
86.20440932054817
 31
0.0
  0
LINE
  5
2D83
330
1F
100
AcDbEntity
  8
0
  6
Continuous
 62
     7
100
AcDbLine
 10
680.0923624900921
 20
83.53140932054818
 30
0.0
 11
710.9373624900921
 21
83.53140932054818
 31
0.0
  0
LINE
  5
2D84
330
1F
100
AcDbEntity
  8
0
  6
Continuous
 62
     7
100
AcDbLine
 10
680.0923624900921
 20
72.65340932054812
 30
0.0
 11
710.9373624900921
 21
72.65340932054812
 31
0.0
  0
LINE
  5
2D85
330
1F
100
AcDbEntity
  8
0
  6
Continuous
 62
     7
100
AcDbLine
 10
680.0923624900921
 20
69.98040932054812
 30
0.0
 11
710.9373624900921
 21
69.98040932054812
 31
0.0
  0
LINE
  5
2D86
330
1F
100
AcDbEntity
  8
0
  6
Continuous
 62
     7
100
AcDbLine
 10
685.9373624900921
 20
63.09240932054814
 30
0.0
 11
710.9373624900921
 21
63.09240932054814
 31
0.0
  0
LINE
  5
2D87
330
1F
100
AcDbEntity
  8
0
  6
Continuous
 62
     7
100
AcDbLine
 10
685.9373624900921
 20
93.09240932054812
 30
0.0
 11
710.9373624900921
 21
93.09240932054812
 31
0.0
  0
LINE
  5
2D88
330
1F
100
AcDbEntity
  8
0
  6
Continuous
 62
     7
100
AcDbLine
 10
678.9373624900921
 20
68.07440932054809
 30
0.0
 11
678.9373624900921
 21
88.10840932054814
 31
0.0
  0
LINE
  5
2D89
330
1F
100
AcDbEntity
  8
0
  6
Continuous
 62
     7
100
AcDbLine
 10
675.9373624900921
 20
94.06540932054815
 30
0.0
 11
675.9373624900921
 21
82.90440932054815
 31
0.0
  0
LINE
  5
2D8A
330
1F
100
AcDbEntity
  8
0
  6
Continuous
 62
     7
100
AcDbLine
 10
680.0923624900921
 20
74.84240932054814
 30
0.0
 11
685.9373624900921
 21
74.84240932054814
 31
0.0
  0
LINE
  5
2D8B
330
1F
100
AcDbEntity
  8
0
  6
Continuous
 62
     7
100
AcDbLine
 10
680.0923624900921
 20
81.34240932054813
 30
0.0
 11
685.9373624900921
 21
81.34240932054813
 31
0.0
  0
LINE
  5
2D8C
330
1F
100
AcDbEntity
  8
0
  6
Continuous
 62
     7
100
AcDbLine
 10
685.9373624900921
 20
65.36940932054813
 30
0.0
 11
681.9373624900921
 21
65.36940932054813
 31
0.0
  0
LINE
  5
2D8D
330
1F
100
AcDbEntity
  8
0
  6
Continuous
 62
     7
100
AcDbLine
 10
685.9373624900921
 20
67.57240932054815
 30
0.0
 11
681.9373624900921
 21
67.57240932054815
 31
0.0
  0
LINE
  5
2D8E
330
1F
100
AcDbEntity
  8
0
  6
Continuous
 62
     7
100
AcDbLine
 10
675.9373624900921
 20
62.11940932054814
 30
0.0
 11
675.9373624900921
 21
73.27940932054815
 31
0.0
  0
LINE
  5
2D8F
330
1F
100
AcDbEntity
  8
0
  6
Continuous
 62
     7
100
AcDbLine
 10
680.0923624900921
 20
72.65340932054812
 30
0.0
 11
680.0923624900921
 21
74.84240932054814
 31
0.0
  0
LINE
  5
2D90
330
1F
100
AcDbEntity
  8
0
  6
Continuous
 62
     7
100
AcDbLine
 10
680.0923624900921
 20
72.65340932054812
 30
0.0
 11
678.9373624900921
 21
73.37840932054814
 31
0.0
  0
LINE
  5
2D91
330
1F
100
AcDbEntity
  8
0
  6
Continuous
 62
     7
100
AcDbLine
 10
681.9373624900921
 20
62.11940932054814
 30
0.0
 11
675.9373624900921
 21
62.11940932054814
 31
0.0
  0
LINE
  5
2D92
330
1F
100
AcDbEntity
  8
0
  6
Continuous
 62
     7
100
AcDbLine
 10
681.9373624900921
 20
64.61940932054813
 30
0.0
 11
675.9373624900921
 21
64.61940932054813
 31
0.0
  0
LINE
  5
2D93
330
1F
100
AcDbEntity
  8
0
  6
Continuous
 62
     7
100
AcDbLine
 10
675.9373624900921
 20
68.08340932054813
 30
0.0
 11
677.4373624900921
 21
68.08340932054813
 31
0.0
  0
LINE
  5
2D94
330
1F
100
AcDbEntity
  8
0
  6
Continuous
 62
     7
100
AcDbLine
 10
675.9373624900921
 20
69.81540932054816
 30
0.0
 11
677.4373624900921
 21
69.81540932054816
 31
0.0
  0
LINE
  5
2D95
330
1F
100
AcDbEntity
  8
0
  6
Continuous
 62
     7
100
AcDbLine
 10
680.0923624900921
 20
66.53340932054812
 30
0.0
 11
680.0923624900921
 21
69.98040932054812
 31
0.0
  0
LINE
  5
2D96
330
1F
100
AcDbEntity
  8
0
  6
Continuous
 62
     7
100
AcDbLine
 10
677.4373624900921
 20
68.08340932054813
 30
0.0
 11
677.4373624900921
 21
69.81540932054816
 31
0.0
  0
LINE
  5
2D97
330
1F
100
AcDbEntity
  8
0
  6
Continuous
 62
     7
100
AcDbLine
 10
681.9373624900921
 20
64.61940932054813
 30
0.0
 11
681.9373624900921
 21
67.57240932054815
 31
0.0
  0
LINE
  5
2D98
330
1F
100
AcDbEntity
  8
0
  6
Continuous
 62
     7
100
AcDbLine
 10
681.9373624900921
 20
66.53340932054812
 30
0.0
 11
680.0923624900921
 21
66.53340932054812
 31
0.0
  0
LINE
  5
2D99
330
1F
100
AcDbEntity
  8
0
  6
Continuous
 62
     7
100
AcDbLine
 10
680.0923624900921
 20
66.53340932054812
 30
0.0
 11
678.9373624900921
 21
68.07440932054809
 31
0.0
  0
LINE
  5
2D9A
330
1F
100
AcDbEntity
  8
0
  6
Continuous
 62
     7
100
AcDbLine
 10
678.9373624900921
 20
71.06140932054812
 30
0.0
 11
680.0923624900921
 21
69.98040932054812
 31
0.0
  0
LINE
  5
2D9B
330
1F
100
AcDbEntity
  8
0
  6
Continuous
 62
     7
100
AcDbLine
 10
678.9373624900921
 20
73.27940932054815
 30
0.0
 11
675.9373624900921
 21
73.27940932054815
 31
0.0
  0
LINE
  5
2D9C
330
1F
100
AcDbEntity
  8
0
  6
Continuous
 62
     7
100
AcDbLine
 10
678.9373624900921
 20
82.90440932054815
 30
0.0
 11
675.9373624900921
 21
82.90440932054815
 31
0.0
  0
LINE
  5
2D9D
330
1F
100
AcDbEntity
  8
0
  6
Continuous
 62
     7
100
AcDbLine
 10
678.9373624900921
 20
75.59240932054814
 30
0.0
 11
675.9373624900921
 21
75.59240932054814
 31
0.0
  0
LINE
  5
2D9E
330
1F
100
AcDbEntity
  8
0
  6
Continuous
 62
     7
100
AcDbLine
 10
678.9373624900921
 20
80.59240932054814
 30
0.0
 11
675.9373624900921
 21
80.59240932054814
 31
0.0
  0
LINE
  5
2D9F
330
1F
100
AcDbEntity
  8
0
  6
Continuous
 62
     7
100
AcDbLine
 10
675.9373624900921
 20
75.59240932054814
 30
0.0
 11
675.9373624900921
 21
80.59240932054814
 31
0.0
  0
LINE
  5
2DA0
330
1F
100
AcDbEntity
  8
0
  6
Continuous
 62
     7
100
AcDbLine
 10
680.0923624900921
 20
83.53140932054818
 30
0.0
 11
680.0923624900921
 21
81.34240932054813
 31
0.0
  0
LINE
  5
2DA1
330
1F
100
AcDbEntity
  8
0
  6
Continuous
 62
     7
100
AcDbLine
 10
678.9373624900921
 20
80.90940932054815
 30
0.0
 11
680.0923624900921
 21
81.34240932054813
 31
0.0
  0
LINE
  5
2DA2
330
1F
100
AcDbEntity
  8
0
  6
Continuous
 62
     7
100
AcDbLine
 10
678.9373624900921
 20
75.27540932054812
 30
0.0
 11
680.0923624900921
 21
74.84240932054814
 31
0.0
  0
LINE
  5
2DA3
330
1F
100
AcDbEntity
  8
0
  6
Continuous
 62
     7
100
AcDbLine
 10
678.9373624900921
 20
82.80540932054817
 30
0.0
 11
680.0923624900921
 21
83.53140932054818
 31
0.0
  0
LINE
  5
2DA4
330
1F
100
AcDbEntity
  8
0
  6
Continuous
 62
     7
100
AcDbLine
 10
685.9373624900921
 20
74.84240932054814
 30
0.0
 11
685.9373624900921
 21
81.34240932054813
 31
0.0
  0
LINE
  5
2DA5
330
1F
100
AcDbEntity
  8
0
  6
Continuous
 62
     7
100
AcDbLine
 10
685.9373624900921
 20
94.81540932054816
 30
0.0
 11
681.9373624900921
 21
94.81540932054816
 31
0.0
  0
LINE
  5
2DA6
330
1F
100
AcDbEntity
  8
0
  6
Continuous
 62
     7
100
AcDbLine
 10
685.9373624900921
 20
90.81540932054815
 30
0.0
 11
681.9373624900921
 21
90.81540932054815
 31
0.0
  0
LINE
  5
2DA7
330
1F
100
AcDbEntity
  8
0
  6
Continuous
 62
     7
100
AcDbLine
 10
685.9373624900921
 20
88.61240932054814
 30
0.0
 11
681.9373624900921
 21
88.61240932054814
 31
0.0
  0
LINE
  5
2DA8
330
1F
100
AcDbEntity
  8
0
  6
Continuous
 62
     7
100
AcDbLine
 10
681.9373624900921
 20
94.06540932054815
 30
0.0
 11
675.9373624900921
 21
94.06540932054815
 31
0.0
  0
LINE
  5
2DA9
330
1F
100
AcDbEntity
  8
0
  6
Continuous
 62
     7
100
AcDbLine
 10
681.9373624900921
 20
91.56540932054815
 30
0.0
 11
675.9373624900921
 21
91.56540932054815
 31
0.0
  0
LINE
  5
2DAA
330
1F
100
AcDbEntity
  8
0
  6
Continuous
 62
     7
100
AcDbLine
 10
675.9373624900921
 20
88.10140932054816
 30
0.0
 11
677.4373624900921
 21
88.10140932054816
 31
0.0
  0
LINE
  5
2DAB
330
1F
100
AcDbEntity
  8
0
  6
Continuous
 62
     7
100
AcDbLine
 10
675.9373624900921
 20
86.36940932054812
 30
0.0
 11
677.4373624900921
 21
86.36940932054812
 31
0.0
  0
LINE
  5
2DAC
330
1F
100
AcDbEntity
  8
0
  6
Continuous
 62
     7
100
AcDbLine
 10
681.9373624900921
 20
94.81540932054816
 30
0.0
 11
681.9373624900921
 21
94.06540932054815
 31
0.0
  0
LINE
  5
2DAD
330
1F
100
AcDbEntity
  8
0
  6
Continuous
 62
     7
100
AcDbLine
 10
677.4373624900921
 20
88.10140932054816
 30
0.0
 11
677.4373624900921
 21
86.36940932054812
 31
0.0
  0
LINE
  5
2DAE
330
1F
100
AcDbEntity
  8
0
  6
Continuous
 62
     7
100
AcDbLine
 10
681.9373624900921
 20
91.56540932054815
 30
0.0
 11
681.9373624900921
 21
88.61240932054814
 31
0.0
  0
LINE
  5
2DAF
330
1F
100
AcDbEntity
  8
0
  6
Continuous
 62
     7
100
AcDbLine
 10
681.9373624900921
 20
89.65140932054811
 30
0.0
 11
680.0923624900921
 21
89.65140932054811
 31
0.0
  0
LINE
  5
2DB0
330
1F
100
AcDbEntity
  8
0
  6
Continuous
 62
     7
100
AcDbLine
 10
680.0923624900921
 20
86.20440932054817
 30
0.0
 11
680.0923624900921
 21
89.65140932054811
 31
0.0
  0
LINE
  5
2DB1
330
1F
100
AcDbEntity
  8
0
  6
Continuous
 62
     7
100
AcDbLine
 10
680.0923624900921
 20
86.20440932054817
 30
0.0
 11
678.9373624900921
 21
85.12240932054814
 31
0.0
  0
LINE
  5
2DB2
330
1F
100
AcDbEntity
  8
0
  6
Continuous
 62
     7
100
AcDbLine
 10
678.9373624900921
 20
88.10840932054814
 30
0.0
 11
680.0923624900921
 21
89.65140932054811
 31
0.0
  0
LINE
  5
2DB3
330
1F
100
AcDbEntity
  8
0
  6
Continuous
 62
     7
100
AcDbLine
 10
685.9373624900921
 20
94.81540932054816
 30
0.0
 11
685.9373624900921
 21
88.61240932054814
 31
0.0
  0
LINE
  5
2DB4
102
{ACAD_REACTORS
330
3709
102
}
330
1F
100
AcDbEntity
  8
0
  6
Continuous
 62
     7
100
AcDbLine
 10
710.9373624900921
 20
63.09240932054814
 30
0.0
 11
710.9373624900921
 21
93.09240932054812
 31
0.0
  0
POINT
  5
2DB5
330
1F
100
AcDbEntity
  8
0
100
AcDbPoint
 10
710.9373624900921
 20
78.09240932054814
 30
0.0
  0
LINE
  5
2DB6
102
{ACAD_REACTORS
330
36E3
102
}
330
1F
100
AcDbEntity
  8
0
  6
Continuous
 62
     7
100
AcDbLine
 10
680.0923624900921
 20
114.5408159542729
 30
0.0
 11
710.9373624900921
 21
114.5408159542729
 31
0.0
  0
LINE
  5
2DB7
330
1F
100
AcDbEntity
  8
0
  6
Continuous
 62
     7
100
AcDbLine
 10
680.0923624900921
 20
116.9238159542729
 30
0.0
 11
710.9373624900921
 21
116.9238159542729
 31
0.0
  0
LINE
  5
2DB8
330
1F
100
AcDbEntity
  8
0
  6
Continuous
 62
     7
100
AcDbLine
 10
680.0923624900921
 20
115.5618159542729
 30
0.0
 11
710.9373624900921
 21
115.5618159542729
 31
0.0
  0
LINE
  5
2DB9
330
1F
100
AcDbEntity
  8
0
  6
Continuous
 62
     7
100
AcDbLine
 10
681.9373624900921
 20
117.5768159542729
 30
0.0
 11
685.9373624900921
 21
117.5768159542729
 31
0.0
  0
LINE
  5
2DBA
330
1F
100
AcDbEntity
  8
0
  6
Continuous
 62
     7
100
AcDbLine
 10
675.9373624900921
 20
118.8758159542729
 30
0.0
 11
681.9373624900921
 21
118.8758159542729
 31
0.0
  0
LINE
  5
2DBB
330
1F
100
AcDbEntity
  8
0
  6
Continuous
 62
     7
100
AcDbLine
 10
678.9373624900921
 20
116.5408159542729
 30
0.0
 11
678.9373624900921
 21
118.8758159542729
 31
0.0
  0
LINE
  5
2DBC
330
1F
100
AcDbEntity
  8
0
  6
Continuous
 62
     7
100
AcDbLine
 10
681.9373624900921
 20
117.5768159542729
 30
0.0
 11
681.9373624900921
 21
118.8758159542729
 31
0.0
  0
LINE
  5
2DBD
330
1F
100
AcDbEntity
  8
0
  6
Continuous
 62
     7
100
AcDbLine
 10
680.0923624900921
 20
114.5408159542729
 30
0.0
 11
680.0923624900921
 21
115.5618159542729
 31
0.0
  0
LINE
  5
2DBE
330
1F
100
AcDbEntity
  8
0
  6
Continuous
 62
     7
100
AcDbLine
 10
680.0923624900921
 20
116.9238159542729
 30
0.0
 11
680.0923624900921
 21
118.8758159542729
 31
0.0
  0
LINE
  5
2DBF
330
1F
100
AcDbEntity
  8
0
  6
Continuous
 62
     7
100
AcDbLine
 10
678.9373624900921
 20
118.6048159542729
 30
0.0
 11
680.0923624900921
 21
116.9238159542729
 31
0.0
  0
LINE
  5
2DC0
330
1F
100
AcDbEntity
  8
0
  6
Continuous
 62
     7
100
AcDbLine
 10
678.9373624900921
 20
116.5398159542729
 30
0.0
 11
680.0923624900921
 21
114.5408159542729
 31
0.0
  0
LINE
  5
2DC1
330
1F
100
AcDbEntity
  8
0
  6
Continuous
 62
     7
100
AcDbLine
 10
678.9373624900921
 20
117.4248159542729
 30
0.0
 11
680.0923624900921
 21
115.5618159542729
 31
0.0
  0
LINE
  5
2DC6
330
1F
100
AcDbEntity
  8
0
  6
Continuous
 62
     7
100
AcDbLine
 10
743.1003643890225
 20
92.61240932054814
 30
0.0
 11
741.8283643890227
 21
94.81440932054814
 31
0.0
  0
CIRCLE
  5
2DCA
330
1F
100
AcDbEntity
  8
0
  6
Continuous
 62
     7
100
AcDbCircle
 10
746.8643643890226
 20
78.09240932054814
 30
0.0
 40
8.5
  0
ARC
  5
2DCC
330
1F
100
AcDbEntity
  8
0
  6
Continuous
 62
     7
100
AcDbCircle
 10
746.8643643890226
 20
78.09240932054814
 30
0.0
 40
15.0
100
AcDbArc
 50
212.7429999999995
 51
147.2609999999981
  0
ARC
  5
2DCD
330
1F
100
AcDbEntity
  8
0
  6
Continuous
 62
     7
100
AcDbCircle
 10
736.1723643890226
 20
83.54040932054813
 30
0.0
 40
2.0
100
AcDbArc
 50
201.5910000000005
 51
104.4099999999976
  0
LINE
  5
2DCE
330
1F
100
AcDbEntity
  8
0
  6
Continuous
 62
     7
100
AcDbLine
 10
732.8853643890226
 20
72.65240932054815
 30
0.0
 11
734.3123643890224
 21
73.37940932054812
 31
0.0
  0
ARC
  5
2DCF
330
1F
100
AcDbEntity
  8
0
  6
Continuous
 62
     7
100
AcDbCircle
 10
736.1723643890226
 20
72.64440932054815
 30
0.0
 40
2.0
100
AcDbArc
 50
255.6389999999982
 51
158.4579999999994
  0
ARC
  5
2DD0
330
1F
100
AcDbEntity
  8
0
  6
Continuous
 62
     7
100
AcDbCircle
 10
746.8643643890226
 20
78.09240932054814
 30
0.0
 40
15.0
100
AcDbArc
 50
158.7400000000002
 51
201.2649999999995
  0
LINE
  5
2DD1
330
1F
100
AcDbEntity
  8
0
  6
Continuous
 62
     7
100
AcDbLine
 10
734.2473643890222
 20
69.97940932054814
 30
0.0
 11
735.6763643890225
 21
70.70740932054815
 31
0.0
  0
LINE
  5
2DD2
330
1F
100
AcDbEntity
  8
0
  6
Continuous
 62
     7
100
AcDbLine
 10
734.8993643890223
 20
65.36940932054813
 30
0.0
 11
736.1713643890224
 21
67.57240932054815
 31
0.0
  0
CIRCLE
  5
2DD3
330
1F
100
AcDbEntity
  8
0
  6
Continuous
 62
     3
100
AcDbCircle
 10
740.6143643890226
 20
67.26740932054815
 30
0.0
 40
1.5
  0
CIRCLE
  5
2DD4
330
1F
100
AcDbEntity
  8
0
  6
Continuous
 62
     7
100
AcDbCircle
 10
740.6143643890226
 20
67.26740932054815
 30
0.0
 40
1.2295
  0
CIRCLE
  5
2DD5
330
1F
100
AcDbEntity
  8
0
  6
Continuous
 62
     7
100
AcDbCircle
 10
734.3643643890226
 20
78.09240932054814
 30
0.0
 40
1.7
  0
LINE
  5
2DD6
330
1F
100
AcDbEntity
  8
0
  6
Continuous
 62
     7
100
AcDbLine
 10
732.8853643890226
 20
83.53140932054818
 30
0.0
 11
734.3123643890224
 21
82.80440932054814
 31
0.0
  0
POINT
  5
2DD7
330
1F
100
AcDbEntity
  8
0
100
AcDbPoint
 10
737.9543643890225
 20
82.63240932054818
 30
0.0
  0
POINT
  5
2DD8
330
1F
100
AcDbEntity
  8
0
100
AcDbPoint
 10
737.9553643890225
 20
73.55140932054815
 30
0.0
  0
LINE
  5
2DD9
330
1F
100
AcDbEntity
  8
0
  6
Continuous
 62
     7
100
AcDbLine
 10
734.2473643890222
 20
86.20440932054817
 30
0.0
 11
735.6753643890225
 21
85.47740932054813
 31
0.0
  0
LINE
  5
2DDA
330
1F
100
AcDbEntity
  8
0
  6
Continuous
 62
     7
100
AcDbLine
 10
736.1713643890224
 20
88.61240932054814
 30
0.0
 11
734.9003643890223
 21
90.81440932054814
 31
0.0
  0
LINE
  5
2DDB
330
1F
100
AcDbEntity
  8
0
  6
Continuous
 62
     7
100
AcDbLine
 10
734.9003643890223
 20
90.81440932054814
 30
0.0
 11
741.8283643890227
 21
94.81440932054814
 31
0.0
  0
CIRCLE
  5
2DDC
330
1F
100
AcDbEntity
  8
0
  6
Continuous
 62
     3
100
AcDbCircle
 10
740.6143643890226
 20
88.91740932054814
 30
0.0
 40
1.5
  0
CIRCLE
  5
2DDD
330
1F
100
AcDbEntity
  8
0
  6
Continuous
 62
     7
100
AcDbCircle
 10
740.6143643890226
 20
88.91740932054814
 30
0.0
 40
1.2295
  0
CIRCLE
  5
2DDF
330
1F
100
AcDbEntity
  8
0
  6
Continuous
 62
     3
100
AcDbCircle
 10
759.3643643890226
 20
78.09240932054814
 30
0.0
 40
1.5
  0
CIRCLE
  5
2DE0
330
1F
100
AcDbEntity
  8
0
  6
Continuous
 62
     7
100
AcDbCircle
 10
759.3643643890226
 20
78.09240932054814
 30
0.0
 40
1.2295
  0
LINE
  5
2DE1
330
1F
100
AcDbEntity
  8
0
  6
Continuous
 62
     7
100
AcDbLine
 10
746.1583643890223
 20
65.07240932054815
 30
0.0
 11
746.2893643890224
 21
66.06340932054814
 31
0.0
  0
LINE
  5
2DE2
330
1F
100
AcDbEntity
  8
0
  6
Continuous
 62
     7
100
AcDbLine
 10
744.1753643890225
 20
65.33340932054811
 30
0.0
 11
744.3063643890226
 21
66.3244093205481
 31
0.0
  0
ARC
  5
2DE3
330
1F
100
AcDbEntity
  8
0
  6
Continuous
 62
     7
100
AcDbCircle
 10
745.2973643890226
 20
66.19440932054811
 30
0.0
 40
1.0
100
AcDbArc
 50
352.500000000001
 51
172.5000000000009
  0
ARC
  5
2DE4
330
1F
100
AcDbEntity
  8
0
  6
Continuous
 62
     7
100
AcDbCircle
 10
745.1663643890225
 20
65.20340932054813
 30
0.0
 40
1.0
100
AcDbArc
 50
172.5000000000009
 51
352.500000000001
  0
CIRCLE
  5
2DE5
330
1F
100
AcDbEntity
  8
0
  6
Continuous
 62
     7
100
AcDbCircle
 10
753.1143643890226
 20
67.26740932054815
 30
0.0
 40
1.7
  0
LINE
  5
2DE9
330
1F
100
AcDbEntity
  8
0
  6
Continuous
 62
     7
100
AcDbLine
 10
761.3213643890225
 20
82.09240932054814
 30
0.0
 11
763.8643643890226
 21
82.09240932054814
 31
0.0
  0
LINE
  5
2DEA
330
1F
100
AcDbEntity
  8
0
  6
Continuous
 62
     7
100
AcDbLine
 10
761.3213643890225
 20
74.09240932054814
 30
0.0
 11
763.8643643890226
 21
74.09240932054814
 31
0.0
  0
LINE
  5
2DEB
330
1F
100
AcDbEntity
  8
0
  6
Continuous
 62
     7
100
AcDbLine
 10
763.8643643890226
 20
82.09240932054814
 30
0.0
 11
763.8643643890226
 21
74.09240932054814
 31
0.0
  0
CIRCLE
  5
2DEC
330
1F
100
AcDbEntity
  8
0
  6
Continuous
 62
     7
100
AcDbCircle
 10
748.4953643890223
 20
90.48540932054812
 30
0.0
 40
1.0
  0
CIRCLE
  5
2DED
330
1F
100
AcDbEntity
  8
0
  6
Continuous
 62
     7
100
AcDbCircle
 10
753.1143643890226
 20
88.91740932054814
 30
0.0
 40
1.7
  0
LINE
  5
2E04
102
{ACAD_REACTORS
330
3671
330
36BD
330
36E3
330
39C7
102
}
330
1F
100
AcDbEntity
  8
0
  6
Continuous
 62
     7
100
AcDbLine
 10
685.9373624900921
 20
144.5408159542729
 30
0.0
 11
710.9373624900921
 21
144.5408159542729
 31
0.0
  0
LINE
  5
2E06
330
1F
100
AcDbEntity
  8
AM_7
100
AcDbLine
 10
707.731362490092
 20
141.0318159542728
 30
0.0
 11
700.018362490092
 21
141.0318159542728
 31
0.0
  0
ARC
  5
2E07
330
1F
100
AcDbEntity
  8
0
  6
Continuous
 62
     7
100
AcDbCircle
 10
702.214362490092
 20
140.9538159542729
 30
0.0
 40
1.282379999999998
100
AcDbArc
 50
121.0240000000008
 51
217.1019999999992
  0
ARC
  5
2E08
330
1F
100
AcDbEntity
  8
0
  6
Continuous
 62
     7
100
AcDbCircle
 10
703.9283624900921
 20
142.8608159542728
 30
0.0
 40
3.830859999999998
100
AcDbArc
 50
224.3970000000018
 51
317.0320000000006
  0
LINE
  5
2E0A
330
1F
100
AcDbEntity
  8
0
  6
Continuous
 62
     7
100
AcDbLine
 10
675.9373624900921
 20
142.5408159542729
 30
0.0
 11
675.9373624900921
 21
146.5408159542729
 31
0.0
  0
LINE
  5
2E0B
330
1F
100
AcDbEntity
  8
0
  6
Continuous
 62
     7
100
AcDbLine
 10
680.0923624900921
 20
139.6768159542728
 30
0.0
 11
680.0923624900921
 21
144.3308159542728
 31
0.0
  0
LINE
  5
2E0C
330
1F
100
AcDbEntity
  8
0
  6
Continuous
 62
     7
100
AcDbLine
 10
678.9373624900921
 20
142.2988159542729
 30
0.0
 11
680.0913624900921
 21
144.3308159542728
 31
0.0
  0
LINE
  5
2E0D
330
1F
100
AcDbEntity
  8
0
  6
Continuous
 62
     7
100
AcDbLine
 10
681.9373624900921
 20
125.7768159542729
 30
0.0
 11
685.9373624900921
 21
125.7768159542729
 31
0.0
  0
LINE
  5
2E0E
330
1F
100
AcDbEntity
  8
0
  6
Continuous
 62
     7
100
AcDbLine
 10
681.9373624900921
 20
124.5048159542729
 30
0.0
 11
685.9373624900921
 21
124.5048159542729
 31
0.0
  0
LINE
  5
2E0F
330
1F
100
AcDbEntity
  8
0
  6
Continuous
 62
     7
100
AcDbLine
 10
680.0923624900921
 20
139.6768159542728
 30
0.0
 11
685.9373624900921
 21
139.6768159542728
 31
0.0
  0
LINE
  5
2E10
330
1F
100
AcDbEntity
  8
0
  6
Continuous
 62
     7
100
AcDbLine
 10
680.0923624900921
 20
134.0478159542729
 30
0.0
 11
685.9373624900921
 21
134.0478159542729
 31
0.0
  0
LINE
  5
2E11
102
{ACAD_REACTORS
330
39C7
102
}
330
1F
100
AcDbEntity
  8
0
  6
Continuous
 62
     7
100
AcDbLine
 10
678.9373624900921
 20
125.0078159542729
 30
0.0
 11
678.9373624900921
 21
142.2988159542729
 31
0.0
  0
LINE
  5
2E12
330
1F
100
AcDbEntity
  8
0
  6
Continuous
 62
     7
100
AcDbLine
 10
680.0923624900921
 20
124.3108159542728
 30
0.0
 11
680.0923624900921
 21
134.0478159542729
 31
0.0
  0
LINE
  5
2E13
330
1F
100
AcDbEntity
  8
0
  6
Continuous
 62
     7
100
AcDbLine
 10
675.9373624900921
 20
123.2058159542729
 30
0.0
 11
681.9373624900921
 21
123.2058159542729
 31
0.0
  0
LINE
  5
2E14
330
1F
100
AcDbEntity
  8
0
  6
Continuous
 62
     7
100
AcDbLine
 10
675.9373624900921
 20
125.2058159542729
 30
0.0
 11
677.4373624900921
 21
125.2058159542729
 31
0.0
  0
LINE
  5
2E15
330
1F
100
AcDbEntity
  8
0
  6
Continuous
 62
     7
100
AcDbLine
 10
675.9373624900921
 20
126.2058159542729
 30
0.0
 11
677.4373624900921
 21
126.2058159542729
 31
0.0
  0
LINE
  5
2E16
330
1F
100
AcDbEntity
  8
0
  6
Continuous
 62
     7
100
AcDbLine
 10
675.9373624900921
 20
128.2058159542728
 30
0.0
 11
678.9373624900921
 21
128.2058159542728
 31
0.0
  0
LINE
  5
2E17
330
1F
100
AcDbEntity
  8
0
  6
Continuous
 62
     7
100
AcDbLine
 10
681.9373624900921
 20
123.2058159542729
 30
0.0
 11
681.9373624900921
 21
125.7768159542729
 31
0.0
  0
LINE
  5
2E18
330
1F
100
AcDbEntity
  8
0
  6
Continuous
 62
     7
100
AcDbLine
 10
677.4373624900921
 20
125.2058159542729
 30
0.0
 11
677.4373624900921
 21
126.2058159542729
 31
0.0
  0
LINE
  5
2E19
330
1F
100
AcDbEntity
  8
0
  6
Continuous
 62
     7
100
AcDbLine
 10
680.0923624900921
 20
124.3108159542728
 30
0.0
 11
681.9373624900921
 21
124.3108159542728
 31
0.0
  0
LINE
  5
2E1A
330
1F
100
AcDbEntity
  8
0
  6
Continuous
 62
     7
100
AcDbLine
 10
678.9373624900921
 20
125.0078159542729
 30
0.0
 11
680.0923624900921
 21
124.3108159542728
 31
0.0
  0
LINE
  5
2E1B
330
1F
100
AcDbEntity
  8
0
  6
Continuous
 62
     7
100
AcDbLine
 10
675.9373624900921
 20
136.5408159542729
 30
0.0
 11
678.9373624900921
 21
136.5408159542729
 31
0.0
  0
LINE
  5
2E1C
330
1F
100
AcDbEntity
  8
0
  6
Continuous
 62
     7
100
AcDbLine
 10
675.9373624900921
 20
140.5408159542728
 30
0.0
 11
677.9373624900921
 21
140.5408159542728
 31
0.0
  0
LINE
  5
2E1D
330
1F
100
AcDbEntity
  8
0
  6
Continuous
 62
     7
100
AcDbLine
 10
675.9373624900921
 20
142.5408159542729
 30
0.0
 11
677.9373624900921
 21
142.5408159542729
 31
0.0
  0
LINE
  5
2E1E
330
1F
100
AcDbEntity
  8
0
  6
Continuous
 62
     7
100
AcDbLine
 10
675.9373624900921
 20
136.5408159542729
 30
0.0
 11
675.9373624900921
 21
140.5408159542728
 31
0.0
  0
LINE
  5
2E1F
102
{ACAD_REACTORS
330
39EF
102
}
330
1F
100
AcDbEntity
  8
0
  6
Continuous
 62
     7
100
AcDbLine
 10
677.9373624900921
 20
140.5408159542728
 30
0.0
 11
677.9373624900921
 21
142.5408159542729
 31
0.0
  0
LINE
  5
2E20
330
1F
100
AcDbEntity
  8
0
  6
Continuous
 62
     7
100
AcDbLine
 10
680.0913624900921
 20
139.6768159542728
 30
0.0
 11
678.9363624900918
 21
138.3258159542728
 31
0.0
  0
LINE
  5
2E21
330
1F
100
AcDbEntity
  8
0
  6
Continuous
 62
     7
100
AcDbLine
 10
680.0913624900921
 20
134.0478159542729
 30
0.0
 11
678.9373624900921
 21
133.4468159542728
 31
0.0
  0
CIRCLE
  5
2E23
330
1F
100
AcDbEntity
  8
0
  6
Continuous
 62
     7
100
AcDbCircle
 10
692.9373624900921
 20
132.0858159542729
 30
0.0
 40
1.7
  0
ARC
  5
2E24
330
1F
100
AcDbEntity
  8
0
  6
Continuous
 62
     7
100
AcDbCircle
 10
692.9373624900921
 20
132.0458159542729
 30
0.0
 40
3.001659999999998
100
AcDbArc
 50
1.90646999999894
 51
178.0940000000015
  0
ARC
  5
2E26
330
1F
100
AcDbEntity
  8
0
  6
Continuous
 62
     7
100
AcDbCircle
 10
692.9373624900921
 20
132.1458159542729
 30
0.0
 40
3.0
100
AcDbArc
 50
180.0
 51
0.0
  0
LINE
  5
2E27
330
1F
100
AcDbEntity
  8
0
  6
Continuous
 62
     7
100
AcDbLine
 10
685.9373624900921
 20
134.0478159542729
 30
0.0
 11
685.9373624900921
 21
139.6768159542728
 31
0.0
  0
LINE
  5
2E28
102
{ACAD_REACTORS
330
36BD
330
39EF
102
}
330
1F
100
AcDbEntity
  8
0
  6
Continuous
 62
     7
100
AcDbLine
 10
675.9373624900921
 20
146.5408159542729
 30
0.0
 11
685.9373624900921
 21
146.5408159542729
 31
0.0
  0
LINE
  5
2E29
330
1F
100
AcDbEntity
  8
0
  6
Continuous
 62
     7
100
AcDbLine
 10
681.9373624900921
 20
143.9978159542729
 30
0.0
 11
685.9373624900921
 21
143.9978159542729
 31
0.0
  0
LINE
  5
2E2B
330
1F
100
AcDbEntity
  8
0
  6
Continuous
 62
     7
100
AcDbLine
 10
681.9373624900921
 20
143.9978159542729
 30
0.0
 11
681.9373624900921
 21
146.5408159542729
 31
0.0
  0
LINE
  5
2E2C
330
1F
100
AcDbEntity
  8
0
  6
Continuous
 62
     7
100
AcDbLine
 10
680.0923624900921
 20
144.3308159542728
 30
0.0
 11
681.9373624900921
 21
144.3308159542728
 31
0.0
  0
LINE
  5
2E2D
330
1F
100
AcDbEntity
  8
0
  6
Continuous
 62
     7
100
AcDbLine
 10
685.9373624900921
 20
143.9978159542729
 30
0.0
 11
685.9373624900921
 21
146.5408159542729
 31
0.0
  0
POINT
  5
2E2F
330
1F
100
AcDbEntity
  8
0
100
AcDbPoint
 10
710.9373624900921
 20
129.5408159542729
 30
0.0
  0
LINE
  5
2E30
102
{ACAD_REACTORS
330
3671
330
3697
102
}
330
1F
100
AcDbEntity
  8
AM_7
100
AcDbLine
 10
703.9373624900921
 20
143.5958159542729
 30
0.0
 11
703.9373624900921
 21
137.1678159542728
 31
0.0
  0
ARC
  5
2E31
330
1F
100
AcDbEntity
  8
0
  6
Continuous
 62
     7
100
AcDbCircle
 10
705.6603624900922
 20
140.9538159542729
 30
0.0
 40
1.282379999999998
100
AcDbArc
 50
326.679000000001
 51
55.68009999999703
  0
ARC
  5
2E32
330
1F
100
AcDbEntity
  8
0
  6
Continuous
 62
     7
100
AcDbCircle
 10
703.9373624900921
 20
139.3278159542729
 30
0.0
 40
2.50872
100
AcDbArc
 50
57.65460000000002
 51
122.3450000000025
  0
ARC
  5
2E33
330
1F
100
AcDbEntity
  8
0
  6
Continuous
 62
     7
100
AcDbCircle
 10
703.0413624900918
 20
140.7328159542729
 30
0.0
 40
0.8422679999999999
100
AcDbArc
 50
121.979999999998
 51
225.7249999999977
  0
ARC
  5
2E34
330
1F
100
AcDbEntity
  8
0
  6
Continuous
 62
     7
100
AcDbCircle
 10
704.8333624900919
 20
140.7328159542729
 30
0.0
 40
0.8422679999999999
100
AcDbArc
 50
314.2750000000023
 51
58.02000000000194
  0
ARC
  5
2E35
330
1F
100
AcDbEntity
  8
0
  6
Continuous
 62
     7
100
AcDbCircle
 10
703.9353624900918
 20
138.0908159542728
 30
0.0
 40
4.62263
100
AcDbArc
 50
58.03139999999928
 51
121.0240000000008
  0
ARC
  5
2E36
330
1F
100
AcDbEntity
  8
0
  6
Continuous
 62
     7
100
AcDbCircle
 10
703.9373624900921
 20
142.0028159542729
 30
0.0
 40
2.38989
100
AcDbArc
 50
231.6109999999984
 51
308.3890000000017
  0
LINE
  5
30BF
330
1F
100
AcDbEntity
  8
AM_7
100
AcDbLine
 10
746.8643643890226
 20
78.09240932054814
 30
0.0
 11
764.8643643890226
 21
78.09240932054814
 31
0.0
1001
GENIUS_GENOREF_13
1005
30C3
  0
LINE
  5
30C0
330
1F
100
AcDbEntity
  8
AM_7
100
AcDbLine
 10
746.8643643890226
 20
78.09240932054814
 30
0.0
 11
746.8643643890226
 21
96.09240932054817
 31
0.0
1001
GENIUS_GENOREF_13
1005
30C3
  0
LINE
  5
30C1
330
1F
100
AcDbEntity
  8
AM_7
100
AcDbLine
 10
746.8643643890226
 20
78.09240932054814
 30
0.0
 11
728.8643643890226
 21
78.09240932054814
 31
0.0
1001
GENIUS_GENOREF_13
1005
30C3
  0
LINE
  5
30C2
330
1F
100
AcDbEntity
  8
AM_7
100
AcDbLine
 10
746.8643643890226
 20
78.09240932054814
 30
0.0
 11
746.8643643890226
 21
60.09240932054814
 31
0.0
1001
GENIUS_GENOREF_13
1005
30C3
  0
POINT
  5
30C3
330
1F
100
AcDbEntity
  8
0
 60
     1
100
AcDbPoint
 10
0.0
 20
0.0
 30
0.0
1001
GENIUS_GENOLIS_13
1002
{
1000
ENT
1005
30C2
1005
30C1
1005
30C0
1005
30BF
1002
}
1001
GENIUS_GENODEF_13
1002
{
1000
HIER
1070
    10
1002
}
1002
{
1000
MANEDIT
1070
     0
1002
}
1002
{
1000
NOSEL
1070
     0
1002
}
1002
{
1000
BEHIND
1070
     0
1002
}
1002
{
1000
OTHER
1070
     0
1002
}
1002
{
1000
REACTOR
1002
}
1001
GENIUS_GENOENT_13
1002
{
1000
MYREF
1005
30C3
1002
}
1002
{
1000
GRP
1005
0
1002
}
1001
GENIUS_GENOBJ-N-CRS_13
1002
{
1000
OWNER
1000
GEN
1002
}
  0
LINE
  5
3181
330
1F
100
AcDbEntity
  8
AM_7
100
AcDbLine
 10
746.8643643890226
 20
78.09240932054814
 30
0.0
 11
755.8643643890226
 21
93.68086658866804
 31
0.0
  0
LINE
  5
3182
330
1F
100
AcDbEntity
  8
AM_7
100
AcDbLine
 10
746.8643643890226
 20
78.09240932054814
 30
0.0
 11
737.8643643890226
 21
62.50395205242824
 31
0.0
  0
LINE
  5
3183
330
1F
100
AcDbEntity
  8
AM_7
100
AcDbLine
 10
746.8643643890226
 20
78.09240932054814
 30
0.0
 11
749.2138358489836
 21
95.93841682527665
 31
0.0
  0
LINE
  5
3184
330
1F
100
AcDbEntity
  8
AM_7
100
AcDbLine
 10
746.8643643890226
 20
78.09240932054814
 30
0.0
 11
744.5148929290617
 21
60.24640181581952
 31
0.0
  0
LINE
  5
31B0
330
1F
100
AcDbEntity
  8
AM_7
100
AcDbLine
 10
746.8643643890226
 20
78.09240932054814
 30
0.0
 11
737.8643643890226
 21
93.68086658866804
 31
0.0
  0
LINE
  5
31B1
330
1F
100
AcDbEntity
  8
AM_7
100
AcDbLine
 10
746.8643643890226
 20
78.09240932054814
 30
0.0
 11
755.8643643890226
 21
62.50395205242824
 31
0.0
  0
LINE
  5
31C0
330
1F
100
AcDbEntity
  8
AM_7
100
AcDbLine
 10
643.9188184242044
 20
78.09240932054814
 30
0.0
 11
661.7868324130073
 21
78.09240932054814
 31
0.0
1001
GENIUS_GENOREF_13
1005
31C4
  0
LINE
  5
31C1
330
1F
100
AcDbEntity
  8
AM_7
100
AcDbLine
 10
643.9188184242044
 20
78.09240932054814
 30
0.0
 11
643.9188184242044
 21
95.96042330935114
 31
0.0
1001
GENIUS_GENOREF_13
1005
31C4
  0
LINE
  5
31C2
330
1F
100
AcDbEntity
  8
AM_7
100
AcDbLine
 10
643.9188184242044
 20
78.09240932054814
 30
0.0
 11
626.0508044354013
 21
78.09240932054814
 31
0.0
1001
GENIUS_GENOREF_13
1005
31C4
  0
LINE
  5
31C3
102
{ACAD_REACTORS
330
37DF
102
}
330
1F
100
AcDbEntity
  8
AM_7
100
AcDbLine
 10
643.9188184242044
 20
78.09240932054814
 30
0.0
 11
643.9188184242044
 21
60.22439533174513
 31
0.0
1001
GENIUS_GENOREF_13
1005
31C4
  0
POINT
  5
31C4
330
1F
100
AcDbEntity
  8
0
 60
     1
100
AcDbPoint
 10
0.0
 20
0.0
 30
0.0
1001
GENIUS_GENODEF_13
1002
{
1000
HIER
1070
    10
1002
}
1002
{
1000
MANEDIT
1070
     0
1002
}
1002
{
1000
NOSEL
1070
     0
1002
}
1002
{
1000
BEHIND
1070
     0
1002
}
1002
{
1000
OTHER
1070
     0
1002
}
1002
{
1000
REACTOR
1002
}
1001
GENIUS_GENOBJ-N-CRS_13
1002
{
1000
OWNER
1000
GEN
1002
}
1001
GENIUS_GENOLIS_13
1002
{
1000
ENT
1005
31C3
1005
31C2
1005
31C1
1005
31C0
1002
}
1001
GENIUS_GENOENT_13
1002
{
1000
MYREF
1005
31C4
1002
}
1002
{
1000
GRP
1005
0
1002
}
  0
LINE
  5
3216
330
1F
100
AcDbEntity
  8
AM_7
100
AcDbLine
 10
643.9188184242044
 20
78.09240932054814
 30
0.0
 11
652.852825418606
 21
93.56656335002723
 31
0.0
1001
GENIUS_GENOREF_13
1005
3219
  0
LINE
  5
3218
330
1F
100
AcDbEntity
  8
AM_7
100
AcDbLine
 10
643.9188184242044
 20
78.09240932054814
 30
0.0
 11
634.984811429803
 21
62.61825529106904
 31
0.0
1001
GENIUS_GENOREF_13
1005
3219
  0
POINT
  5
3219
330
1F
100
AcDbEntity
  8
0
 60
     1
100
AcDbPoint
 10
0.0
 20
0.0
 30
0.0
1001
GENIUS_GENOBJ-N-CRS_13
1002
{
1000
OWNER
1000
GEN
1002
}
1001
GENIUS_GENOLIS_13
1002
{
1000
ENT
1005
3218
1005
3217
1005
3216
1005
3215
1002
}
1001
GENIUS_GENOENT_13
1002
{
1000
MYREF
1005
3219
1002
}
1002
{
1000
GRP
1005
0
1002
}
1001
GENIUS_GENODEF_13
1002
{
1000
HIER
1070
    10
1002
}
1002
{
1000
MANEDIT
1070
     1
1002
}
1002
{
1000
NOSEL
1070
     0
1002
}
1002
{
1000
BEHIND
1070
     0
1002
}
1002
{
1000
OTHER
1070
     0
1002
}
1002
{
1000
REACTOR
1002
}
  0
LINE
  5
321A
330
1F
100
AcDbEntity
  8
AM_7
100
AcDbLine
 10
643.9188184242044
 20
78.09240932054814
 30
0.0
 11
652.8528254186059
 21
62.61825529106904
 31
0.0
  0
LINE
  5
321B
330
1F
100
AcDbEntity
  8
AM_7
100
AcDbLine
 10
643.9188184242044
 20
78.09240932054814
 30
0.0
 11
634.9848114298029
 21
93.56656335002723
 31
0.0
  0
LINE
  5
3228
330
1F
100
AcDbEntity
  8
AM_7
100
AcDbLine
 10
711.9373624900921
 20
129.5408159542729
 30
0.0
 11
673.8106563529477
 21
129.5408159542729
 31
0.0
1001
GENIUS_GENODEF_13
1002
{
1000
HIER
1070
     0
1002
}
1002
{
1000
MANEDIT
1070
     0
1002
}
1002
{
1000
NOSEL
1070
     0
1002
}
1002
{
1000
BEHIND
1070
     0
1002
}
1002
{
1000
OTHER
1070
     0
1002
}
1002
{
1000
REACTOR
1002
}
1001
GENIUS_GENOBJ-N-CEN_13
1002
{
1000
OWNER
1000
GEN
1002
}
1001
GENIUS_GENCEN_19
1002
{
1040
1.0
1002
}
  0
LINE
  5
3236
330
1F
100
AcDbEntity
  8
AM_7
100
AcDbLine
 10
692.9373624900921
 20
132.0858159542729
 30
0.0
 11
696.937958099012
 21
132.0858159542729
 31
0.0
1001
GENIUS_GENOREF_13
1005
323A
  0
LINE
  5
3237
102
{ACAD_REACTORS
330
3697
102
}
330
1F
100
AcDbEntity
  8
AM_7
100
AcDbLine
 10
692.9373624900921
 20
132.0858159542729
 30
0.0
 11
692.9373624900921
 21
136.0864115631928
 31
0.0
1001
GENIUS_GENOREF_13
1005
323A
  0
LINE
  5
3238
330
1F
100
AcDbEntity
  8
AM_7
100
AcDbLine
 10
692.9373624900921
 20
132.0858159542729
 30
0.0
 11
688.9367668811721
 21
132.0858159542729
 31
0.0
1001
GENIUS_GENOREF_13
1005
323A
  0
LINE
  5
3239
330
1F
100
AcDbEntity
  8
AM_7
100
AcDbLine
 10
692.9373624900921
 20
132.0858159542729
 30
0.0
 11
692.9373624900921
 21
128.0852203453531
 31
0.0
1001
GENIUS_GENOREF_13
1005
323A
  0
POINT
  5
323A
330
1F
100
AcDbEntity
  8
0
 60
     1
100
AcDbPoint
 10
0.0
 20
0.0
 30
0.0
1001
GENIUS_GENOLIS_13
1002
{
1000
ENT
1005
3239
1005
3238
1005
3237
1005
3236
1002
}
1001
GENIUS_GENOENT_13
1002
{
1000
MYREF
1005
323A
1002
}
1002
{
1000
GRP
1005
0
1002
}
1001
GENIUS_GENOBJ-N-CRS_13
1002
{
1000
OWNER
1000
GEN
1002
}
1001
GENIUS_GENODEF_13
1002
{
1000
HIER
1070
    10
1002
}
1002
{
1000
MANEDIT
1070
     0
1002
}
1002
{
1000
NOSEL
1070
     0
1002
}
1002
{
1000
BEHIND
1070
     0
1002
}
1002
{
1000
OTHER
1070
     0
1002
}
1002
{
1000
REACTOR
1002
}
  0
DIMENSION
  5
3663
102
{ACAD_XDICTIONARY
360
3670
102
}
102
{ACAD_REACTORS
330
3671
102
}
330
1F
100
AcDbEntity
  8
AM_5
100
AcDbDimension
  2
*D3
 10
710.9373624900921
 20
154.1412146551996
 30
0.0
 11
707.4373624900921
 21
155.9412146551996
 31
0.0
 70
    32
 71
     5
 42
7.0
  3
AM_ISO$0
100
AcDbAlignedDimension
 13
703.9373624900921
 23
143.5958159542729
 33
0.0
 14
710.9373624900921
 24
144.5408159542729
 34
0.0
100
AcDbRotatedDimension
1001
ACAD
1000
DSTYLE
1002
{
1070
    40
1040
1.0
1070
   144
1040
1.0
1002
}
  0
DIMENSION
  5
3689
102
{ACAD_XDICTIONARY
360
3696
102
}
102
{ACAD_REACTORS
330
3697
102
}
330
1F
100
AcDbEntity
  8
AM_5
100
AcDbDimension
  2
*D4
 10
703.9373624900921
 20
154.1412146551996
 30
0.0
 11
698.4373624900921
 21
155.9412146551996
 31
0.0
 70
    32
 71
     5
 42
11.0
  3
AM_ISO$0
100
AcDbAlignedDimension
 13
692.9373624900921
 23
136.0864115631928
 33
0.0
 14
703.9373624900921
 24
143.5958159542729
 34
0.0
100
AcDbRotatedDimension
1001
ACAD
1000
DSTYLE
1002
{
1070
    40
1040
1.0
1070
   144
1040
1.0
1002
}
  0
DIMENSION
  5
36AF
102
{ACAD_XDICTIONARY
360
36BC
102
}
102
{ACAD_REACTORS
330
36BD
102
}
330
1F
100
AcDbEntity
  8
AM_5
100
AcDbDimension
  2
*D5
 10
710.9373624900921
 20
162.1412146551995
 30
0.0
 11
693.4373624900921
 21
163.9412146551996
 31
0.0
 70
    32
 71
     5
 42
35.0
  3
AM_ISO$0
100
AcDbAlignedDimension
 13
675.9373624900921
 23
146.5408159542729
 33
0.0
 14
710.9373624900921
 24
144.5408159542729
 34
0.0
100
AcDbRotatedDimension
1001
ACAD
1000
DSTYLE
1002
{
1070
    40
1040
1.0
1070
   144
1040
1.0
1002
}
  0
DIMENSION
  5
36D5
102
{ACAD_XDICTIONARY
360
36E2
102
}
102
{ACAD_REACTORS
330
36E3
102
}
330
1F
100
AcDbEntity
  8
AM_5
100
AcDbDimension
  2
*D6
 10
719.138448450941
 20
114.5408159542729
 30
0.0
 11
717.3384484509409
 21
129.540815954273
 31
0.0
 70
    32
  1
%%c<>
 71
     5
 42
30.00000000000002
  3
AM_ISO$0
100
AcDbAlignedDimension
 13
710.9373624900921
 23
144.5408159542729
 33
0.0
 14
710.9373624900921
 24
114.5408159542729
 34
0.0
 50
90.0
100
AcDbRotatedDimension
1001
ACAD
1000
DSTYLE
1002
{
1070
    40
1040
1.0
1070
   144
1040
1.0
1002
}
  0
DIMENSION
  5
36FB
102
{ACAD_XDICTIONARY
360
3708
102
}
102
{ACAD_REACTORS
330
3709
102
}
330
1F
100
AcDbEntity
  8
AM_5
100
AcDbDimension
  2
*D7
 10
710.9373624900921
 20
55.33831998076653
 30
0.0
 11
698.4373624900921
 21
57.13851683116023
 31
0.0
 70
    32
 71
     5
 42
25.0
  3
AM_ISO$0
100
AcDbAlignedDimension
 13
685.9373624900921
 23
61.36940932054812
 33
0.0
 14
710.9373624900921
 24
63.09240932054814
 34
0.0
100
AcDbRotatedDimension
1001
ACAD
1000
DSTYLE
1002
{
1070
    40
1040
1.0
1070
   144
1040
1.0
1002
}
  0
DIMENSION
  5
3721
102
{ACAD_XDICTIONARY
360
3730
102
}
102
{ACAD_REACTORS
330
3731
102
}
330
1F
100
AcDbEntity
  8
AM_5
100
AcDbDimension
  2
*D8
 10
685.9373624900921
 20
55.33831998076653
 30
0.0
 11
683.9373624900921
 21
57.13831998076653
 31
0.0
 70
    32
 71
     5
 42
4.0
  3
AM_ISO$0
100
AcDbAlignedDimension
 13
681.9373624900921
 23
61.36940932054812
 33
0.0
 14
685.9373624900921
 24
61.36940932054812
 34
0.0
100
AcDbRotatedDimension
1001
ACAD
1000
DSTYLE
1002
{
1070
    40
1040
1.0
1070
   144
1040
1.0
1002
}
  0
LINE
  5
374E
330
1F
100
AcDbEntity
  8
AM_7
  6
AM_ISO08W050x2
100
AcDbLine
 10
634.9848114298029
 20
78.09240932054814
 30
0.0
 11
635.9848114298029
 21
78.09240932054814
 31
0.0
1001
GENIUS_GENOREF_13
1005
3752
  0
LINE
  5
3750
330
1F
100
AcDbEntity
  8
AM_7
  6
AM_ISO08W050x2
100
AcDbLine
 10
634.9848114298029
 20
78.09240932054814
 30
0.0
 11
633.9848114298027
 21
78.09240932054814
 31
0.0
1001
GENIUS_GENOREF_13
1005
3752
  0
POINT
  5
3752
330
1F
100
AcDbEntity
  8
0
 60
     1
100
AcDbPoint
 10
0.0
 20
0.0
 30
0.0
1001
GENIUS_GENOBJ-N-CRS_13
1002
{
1000
OWNER
1000
GEN
1002
}
1001
GENIUS_GENOENT_13
1002
{
1000
MYREF
1005
3752
1002
}
1002
{
1000
GRP
1005
0
1002
}
1001
GENIUS_GENOLIS_13
1002
{
1000
ENT
1005
3751
1005
3750
1005
374F
1005
374E
1002
}
1001
GENIUS_GENODEF_13
1002
{
1000
HIER
1070
    10
1002
}
1002
{
1000
MANEDIT
1070
     1
1002
}
1002
{
1000
NOSEL
1070
     0
1002
}
1002
{
1000
BEHIND
1070
     0
1002
}
1002
{
1000
OTHER
1070
     0
1002
}
1002
{
1000
REACTOR
1002
}
  0
LINE
  5
3760
330
1F
100
AcDbEntity
  8
AM_7
  6
AM_ISO08W050x2
100
AcDbLine
 10
634.9848114298029
 20
78.09240932054814
 30
0.0
 11
637.4862624202743
 21
78.09240932054814
 31
0.0
1001
GENIUS_GENOREF_13
1005
3764
  0
LINE
  5
3762
330
1F
100
AcDbEntity
  8
AM_7
  6
AM_ISO08W050x2
100
AcDbLine
 10
634.9848114298029
 20
78.09240932054814
 30
0.0
 11
632.4833604393312
 21
78.09240932054814
 31
0.0
1001
GENIUS_GENOREF_13
1005
3764
  0
POINT
  5
3764
330
1F
100
AcDbEntity
  8
0
 60
     1
100
AcDbPoint
 10
0.0
 20
0.0
 30
0.0
1001
GENIUS_GENOLIS_13
1002
{
1000
ENT
1005
3763
1005
3762
1005
3761
1005
3760
1002
}
1001
GENIUS_GENOENT_13
1002
{
1000
MYREF
1005
3764
1002
}
1002
{
1000
GRP
1005
0
1002
}
1001
GENIUS_GENOBJ-N-CRS_13
1002
{
1000
OWNER
1000
GEN
1002
}
1001
GENIUS_GENODEF_13
1002
{
1000
HIER
1070
    10
1002
}
1002
{
1000
MANEDIT
1070
     1
1002
}
1002
{
1000
NOSEL
1070
     0
1002
}
1002
{
1000
BEHIND
1070
     0
1002
}
1002
{
1000
OTHER
1070
     0
1002
}
1002
{
1000
REACTOR
1002
}
  0
LINE
  5
3772
330
1F
100
AcDbEntity
  8
AM_7
  6
AM_ISO08W050x2
100
AcDbLine
 10
628.9188184242042
 20
78.09240932054814
 30
0.0
 11
631.4188184242042
 21
78.09240932054814
 31
0.0
1001
GENIUS_GENOREF_13
1005
3776
  0
LINE
  5
3773
330
1F
100
AcDbEntity
  8
AM_7
  6
AM_ISO08W050x2
100
AcDbLine
 10
628.9188184242042
 20
78.09240932054814
 30
0.0
 11
628.9188184242042
 21
80.59240932054814
 31
0.0
1001
GENIUS_GENOREF_13
1005
3776
  0
LINE
  5
3774
330
1F
100
AcDbEntity
  8
AM_7
  6
AM_ISO08W050x2
100
AcDbLine
 10
628.9188184242042
 20
78.09240932054814
 30
0.0
 11
626.4188184242042
 21
78.09240932054814
 31
0.0
1001
GENIUS_GENOREF_13
1005
3776
  0
LINE
  5
3775
102
{ACAD_REACTORS
330
3807
330
3918
102
}
330
1F
100
AcDbEntity
  8
AM_7
  6
AM_ISO08W050x2
100
AcDbLine
 10
628.9188184242042
 20
78.09240932054814
 30
0.0
 11
628.9188184242042
 21
75.59240932054814
 31
0.0
1001
GENIUS_GENOREF_13
1005
3776
  0
POINT
  5
3776
330
1F
100
AcDbEntity
  8
0
 60
     1
100
AcDbPoint
 10
0.0
 20
0.0
 30
0.0
1001
GENIUS_GENOLIS_13
1002
{
1000
ENT
1005
3775
1005
3774
1005
3773
1005
3772
1002
}
1001
GENIUS_GENODEF_13
1002
{
1000
HIER
1070
    10
1002
}
1002
{
1000
MANEDIT
1070
     0
1002
}
1002
{
1000
NOSEL
1070
     0
1002
}
1002
{
1000
BEHIND
1070
     0
1002
}
1002
{
1000
OTHER
1070
     0
1002
}
1002
{
1000
REACTOR
1002
}
1001
GENIUS_GENOBJ-N-CRS_13
1002
{
1000
OWNER
1000
GEN
1002
}
1001
GENIUS_GENOENT_13
1002
{
1000
MYREF
1005
3776
1002
}
1002
{
1000
GRP
1005
0
1002
}
  0
LINE
  5
3779
330
1F
100
AcDbEntity
  8
AM_7
  6
AM_ISO08W050x2
100
AcDbLine
 10
651.4188184242047
 20
65.10202826378145
 30
0.0
 11
649.2537549147434
 21
63.85202826378145
 31
0.0
  0
LINE
  5
377A
330
1F
100
AcDbEntity
  8
AM_7
  6
AM_ISO08W050x2
100
AcDbLine
 10
651.4188184242047
 20
65.10202826378145
 30
0.0
 11
653.5838819336658
 21
66.35202826378145
 31
0.0
  0
LINE
  5
377D
330
1F
100
AcDbEntity
  8
AM_7
  6
AM_ISO08W050x2
100
AcDbLine
 10
651.4188184242044
 20
91.08279037731506
 30
0.0
 11
653.5838819336658
 21
89.83279037731506
 31
0.0
  0
LINE
  5
377E
330
1F
100
AcDbEntity
  8
AM_7
  6
AM_ISO08W050x2
100
AcDbLine
 10
651.4188184242044
 20
91.08279037731506
 30
0.0
 11
649.2537549147433
 21
92.33279037731506
 31
0.0
  0
LINE
  5
378C
330
1F
100
AcDbEntity
  8
AM_7
  6
AM_ISO08W050x2
100
AcDbLine
 10
656.4188184242044
 20
78.09240932054814
 30
0.0
 11
659.1188184242042
 21
78.09240932054814
 31
0.0
1001
GENIUS_GENOREF_13
1005
3790
  0
LINE
  5
378D
330
1F
100
AcDbEntity
  8
AM_7
  6
AM_ISO08W050x2
100
AcDbLine
 10
656.4188184242044
 20
78.09240932054814
 30
0.0
 11
656.4188184242044
 21
80.79240932054814
 31
0.0
1001
GENIUS_GENOREF_13
1005
3790
  0
LINE
  5
378E
330
1F
100
AcDbEntity
  8
AM_7
  6
AM_ISO08W050x2
100
AcDbLine
 10
656.4188184242044
 20
78.09240932054814
 30
0.0
 11
653.7188184242045
 21
78.09240932054814
 31
0.0
1001
GENIUS_GENOREF_13
1005
3790
  0
LINE
  5
378F
330
1F
100
AcDbEntity
  8
AM_7
  6
AM_ISO08W050x2
100
AcDbLine
 10
656.4188184242044
 20
78.09240932054814
 30
0.0
 11
656.4188184242044
 21
75.39240932054815
 31
0.0
1001
GENIUS_GENOREF_13
1005
3790
  0
POINT
  5
3790
330
1F
100
AcDbEntity
  8
0
 60
     1
100
AcDbPoint
 10
0.0
 20
0.0
 30
0.0
1001
GENIUS_GENOLIS_13
1002
{
1000
ENT
1005
378F
1005
378E
1005
378D
1005
378C
1002
}
1001
GENIUS_GENOBJ-N-CRS_13
1002
{
1000
OWNER
1000
GEN
1002
}
1001
GENIUS_GENODEF_13
1002
{
1000
HIER
1070
    10
1002
}
1002
{
1000
MANEDIT
1070
     0
1002
}
1002
{
1000
NOSEL
1070
     0
1002
}
1002
{
1000
BEHIND
1070
     0
1002
}
1002
{
1000
OTHER
1070
     0
1002
}
1002
{
1000
REACTOR
1002
}
1001
GENIUS_GENOENT_13
1002
{
1000
MYREF
1005
3790
1002
}
1002
{
1000
GRP
1005
0
1002
}
  0
LINE
  5
3791
330
1F
100
AcDbEntity
  8
AM_7
  6
AM_ISO08W050x2
100
AcDbLine
 10
637.6688184242047
 20
88.91772686785362
 30
0.0
 11
635.3305498339865
 21
87.56772686785366
 31
0.0
  0
LINE
  5
3792
330
1F
100
AcDbEntity
  8
AM_7
  6
AM_ISO08W050x2
100
AcDbLine
 10
637.6688184242047
 20
88.91772686785362
 30
0.0
 11
640.0070870144226
 21
90.26772686785363
 31
0.0
  0
LINE
  5
3793
330
1F
100
AcDbEntity
  8
AM_7
  6
AM_ISO08W050x2
100
AcDbLine
 10
637.6688184242047
 20
67.26709177324289
 30
0.0
 11
640.0070870144225
 21
65.91709177324286
 31
0.0
  0
LINE
  5
3794
330
1F
100
AcDbEntity
  8
AM_7
  6
AM_ISO08W050x2
100
AcDbLine
 10
637.6688184242047
 20
67.26709177324289
 30
0.0
 11
635.3305498339865
 21
68.61709177324279
 31
0.0
  0
LINE
  5
37A2
330
1F
100
AcDbEntity
  8
AM_7
  6
AM_ISO08W050x2
100
AcDbLine
 10
734.3643643890226
 20
78.09240932054814
 30
0.0
 11
737.0643643890225
 21
78.09240932054814
 31
0.0
1001
GENIUS_GENOREF_13
1005
37A6
  0
LINE
  5
37A3
330
1F
100
AcDbEntity
  8
AM_7
  6
AM_ISO08W050x2
100
AcDbLine
 10
734.3643643890226
 20
78.09240932054814
 30
0.0
 11
734.3643643890226
 21
80.79240932054814
 31
0.0
1001
GENIUS_GENOREF_13
1005
37A6
  0
LINE
  5
37A4
330
1F
100
AcDbEntity
  8
AM_7
  6
AM_ISO08W050x2
100
AcDbLine
 10
734.3643643890226
 20
78.09240932054814
 30
0.0
 11
731.6643643890227
 21
78.09240932054814
 31
0.0
1001
GENIUS_GENOREF_13
1005
37A6
  0
LINE
  5
37A5
330
1F
100
AcDbEntity
  8
AM_7
  6
AM_ISO08W050x2
100
AcDbLine
 10
734.3643643890226
 20
78.09240932054814
 30
0.0
 11
734.3643643890226
 21
75.39240932054815
 31
0.0
1001
GENIUS_GENOREF_13
1005
37A6
  0
POINT
  5
37A6
330
1F
100
AcDbEntity
  8
0
 60
     1
100
AcDbPoint
 10
0.0
 20
0.0
 30
0.0
1001
GENIUS_GENODEF_13
1002
{
1000
HIER
1070
    10
1002
}
1002
{
1000
MANEDIT
1070
     0
1002
}
1002
{
1000
NOSEL
1070
     0
1002
}
1002
{
1000
BEHIND
1070
     0
1002
}
1002
{
1000
OTHER
1070
     0
1002
}
1002
{
1000
REACTOR
1002
}
1001
GENIUS_GENOBJ-N-CRS_13
1002
{
1000
OWNER
1000
GEN
1002
}
1001
GENIUS_GENOLIS_13
1002
{
1000
ENT
1005
37A5
1005
37A4
1005
37A3
1005
37A2
1002
}
1001
GENIUS_GENOENT_13
1002
{
1000
MYREF
1005
37A6
1002
}
1002
{
1000
GRP
1005
0
1002
}
  0
LINE
  5
37B4
330
1F
100
AcDbEntity
  8
AM_7
  6
AM_ISO08W050x2
100
AcDbLine
 10
759.3643643890226
 20
78.09240932054814
 30
0.0
 11
761.5938643890226
 21
78.09240932054814
 31
0.0
1001
GENIUS_GENOREF_13
1005
37B8
  0
LINE
  5
37B5
330
1F
100
AcDbEntity
  8
AM_7
  6
AM_ISO08W050x2
100
AcDbLine
 10
759.3643643890226
 20
78.09240932054814
 30
0.0
 11
759.3643643890226
 21
80.3219093205481
 31
0.0
1001
GENIUS_GENOREF_13
1005
37B8
  0
LINE
  5
37B6
330
1F
100
AcDbEntity
  8
AM_7
  6
AM_ISO08W050x2
100
AcDbLine
 10
759.3643643890226
 20
78.09240932054814
 30
0.0
 11
757.1348643890225
 21
78.09240932054814
 31
0.0
1001
GENIUS_GENOREF_13
1005
37B8
  0
LINE
  5
37B7
330
1F
100
AcDbEntity
  8
AM_7
  6
AM_ISO08W050x2
100
AcDbLine
 10
759.3643643890226
 20
78.09240932054814
 30
0.0
 11
759.3643643890226
 21
75.86290932054817
 31
0.0
1001
GENIUS_GENOREF_13
1005
37B8
  0
POINT
  5
37B8
330
1F
100
AcDbEntity
  8
0
 60
     1
100
AcDbPoint
 10
0.0
 20
0.0
 30
0.0
1001
GENIUS_GENOENT_13
1002
{
1000
MYREF
1005
37B8
1002
}
1002
{
1000
GRP
1005
0
1002
}
1001
GENIUS_GENOBJ-N-CRS_13
1002
{
1000
OWNER
1000
GEN
1002
}
1001
GENIUS_GENOLIS_13
1002
{
1000
ENT
1005
37B7
1005
37B6
1005
37B5
1005
37B4
1002
}
1001
GENIUS_GENODEF_13
1002
{
1000
HIER
1070
    10
1002
}
1002
{
1000
MANEDIT
1070
     0
1002
}
1002
{
1000
NOSEL
1070
     0
1002
}
1002
{
1000
BEHIND
1070
     0
1002
}
1002
{
1000
OTHER
1070
     0
1002
}
1002
{
1000
REACTOR
1002
}
  0
LINE
  5
37B9
330
1F
100
AcDbEntity
  8
AM_7
  6
AM_ISO08W050x2
100
AcDbLine
 10
753.1143643890226
 20
67.26709177324278
 30
0.0
 11
750.7760957988048
 21
65.91709177324282
 31
0.0
  0
LINE
  5
37BA
330
1F
100
AcDbEntity
  8
AM_7
  6
AM_ISO08W050x2
100
AcDbLine
 10
753.1143643890226
 20
67.26709177324278
 30
0.0
 11
755.4526329792405
 21
68.61709177324279
 31
0.0
  0
LINE
  5
37BB
330
1F
100
AcDbEntity
  8
AM_7
  6
AM_ISO08W050x2
100
AcDbLine
 10
740.6143643890226
 20
88.91772686785373
 30
0.0
 11
738.6835607512852
 21
87.80297686785377
 31
0.0
  0
LINE
  5
37BC
330
1F
100
AcDbEntity
  8
AM_7
  6
AM_ISO08W050x2
100
AcDbLine
 10
740.6143643890226
 20
88.91772686785373
 30
0.0
 11
742.5451680267599
 21
90.03247686785368
 31
0.0
  0
LINE
  5
37BD
330
1F
100
AcDbEntity
  8
AM_7
  6
AM_ISO08W050x2
100
AcDbLine
 10
753.1143643890223
 20
88.91772686785385
 30
0.0
 11
755.4526329792405
 21
87.5677268678538
 31
0.0
  0
LINE
  5
37BE
330
1F
100
AcDbEntity
  8
AM_7
  6
AM_ISO08W050x2
100
AcDbLine
 10
753.1143643890223
 20
88.91772686785385
 30
0.0
 11
750.7760957988046
 21
90.26772686785378
 31
0.0
  0
LINE
  5
37BF
330
1F
100
AcDbEntity
  8
AM_7
  6
AM_ISO08W050x2
100
AcDbLine
 10
740.6143643890223
 20
67.26709177324289
 30
0.0
 11
742.5451680267599
 21
66.15234177324281
 31
0.0
  0
LINE
  5
37C0
330
1F
100
AcDbEntity
  8
AM_7
  6
AM_ISO08W050x2
100
AcDbLine
 10
740.6143643890223
 20
67.26709177324289
 30
0.0
 11
738.6835607512852
 21
68.38184177324285
 31
0.0
  0
DIMENSION
  5
37D1
102
{ACAD_XDICTIONARY
360
37DE
102
}
102
{ACAD_REACTORS
330
37DF
102
}
330
1F
100
AcDbEntity
  8
AM_5
100
AcDbDimension
  2
*D9
 10
643.9188184242044
 20
49.44374792494
 30
0.0
 11
635.4188184242042
 21
51.24374792493999
 31
0.0
 70
    32
 71
     5
 42
17.00000000000011
  3
AM_ISO$0
100
AcDbAlignedDimension
 13
626.9188184242042
 23
74.09240932054814
 33
0.0
 14
643.9188184242044
 24
60.22439533174513
 34
0.0
100
AcDbRotatedDimension
1001
ACAD
1000
DSTYLE
1002
{
1070
    40
1040
1.0
1070
   144
1040
1.0
1002
}
  0
DIMENSION
  5
37F7
102
{ACAD_XDICTIONARY
360
3806
102
}
102
{ACAD_REACTORS
330
3807
102
}
330
1F
100
AcDbEntity
  8
AM_5
100
AcDbDimension
  2
*D10
 10
628.9188184242042
 20
53.44374792494001
 30
0.0
 11
622.6333656682986
 21
53.44374792494001
 31
0.0
 70
   160
 71
     5
 42
2.0
  3
AM_ISO$0
100
AcDbAlignedDimension
 13
626.9188184242042
 23
74.09240932054814
 33
0.0
 14
628.9188184242042
 24
75.59240932054814
 34
0.0
100
AcDbRotatedDimension
1001
ACAD
1000
DSTYLE
1002
{
1070
    40
1040
1.0
1070
   144
1040
1.0
1002
}
  0
LINE
  5
3899
330
1F
100
AcDbEntity
  8
AM_7
  6
AM_ISO08W050x2
100
AcDbLine
 10
634.9848114298029
 20
78.09240932054814
 30
0.0
 11
637.4862624202743
 21
78.09240932054814
 31
0.0
1001
GENIUS_GENOREF_13
1005
389D
  0
LINE
  5
389B
330
1F
100
AcDbEntity
  8
AM_7
  6
AM_ISO08W050x2
100
AcDbLine
 10
634.9848114298029
 20
78.09240932054814
 30
0.0
 11
632.4833604393312
 21
78.09240932054814
 31
0.0
1001
GENIUS_GENOREF_13
1005
389D
  0
POINT
  5
389D
330
1F
100
AcDbEntity
  8
0
 60
     1
100
AcDbPoint
 10
0.0
 20
0.0
 30
0.0
1001
GENIUS_GENOLIS_13
1002
{
1000
ENT
1005
389C
1005
389B
1005
389A
1005
3899
1002
}
1001
GENIUS_GENOENT_13
1002
{
1000
MYREF
1005
389D
1002
}
1002
{
1000
GRP
1005
0
1002
}
1001
GENIUS_GENOBJ-N-CRS_13
1002
{
1000
OWNER
1000
GEN
1002
}
1001
GENIUS_GENODEF_13
1002
{
1000
HIER
1070
    10
1002
}
1002
{
1000
MANEDIT
1070
     1
1002
}
1002
{
1000
NOSEL
1070
     0
1002
}
1002
{
1000
BEHIND
1070
     0
1002
}
1002
{
1000
OTHER
1070
     0
1002
}
1002
{
1000
REACTOR
1002
}
  0
LINE
  5
38D1
102
{ACAD_REACTORS
330
3918
102
}
330
1F
100
AcDbEntity
  8
AM_7
  6
AM_ISO08W050x2
100
AcDbLine
 10
634.9188184242044
 20
80.3219093205481
 30
0.0
 11
634.9188184242044
 21
75.86290932054817
 31
0.0
1001
GENIUS_GENOBJ-N-CEN_13
1002
{
1000
OWNER
1000
GEN
1002
}
1001
GENIUS_GENODEF_13
1002
{
1000
HIER
1070
     0
1002
}
1002
{
1000
MANEDIT
1070
     0
1002
}
1002
{
1000
NOSEL
1070
     0
1002
}
1002
{
1000
BEHIND
1070
     0
1002
}
1002
{
1000
OTHER
1070
     0
1002
}
1002
{
1000
REACTOR
1002
}
1001
GENIUS_GENCEN_19
1002
{
1040
1.0
1002
}
  0
LINE
  5
38F9
330
1F
100
AcDbEntity
  8
AM_7
  6
AM_ISO08W050x2
100
AcDbLine
 10
646.4880147864672
 20
69.18343068648818
 30
0.0
 11
650.3496220619418
 21
71.41293068648815
 31
0.0
1001
GENIUS_GENOBJ-N-CEN_13
1002
{
1000
OWNER
1000
GEN
1002
}
1001
GENIUS_GENODEF_13
1002
{
1000
HIER
1070
     0
1002
}
1002
{
1000
MANEDIT
1070
     0
1002
}
1002
{
1000
NOSEL
1070
     0
1002
}
1002
{
1000
BEHIND
1070
     0
1002
}
1002
{
1000
OTHER
1070
     0
1002
}
1002
{
1000
REACTOR
1002
}
1001
GENIUS_GENCEN_19
1002
{
1040
1.0
1002
}
  0
LINE
  5
38FA
330
1F
100
AcDbEntity
  8
AM_7
  6
AM_ISO08W050x2
100
AcDbLine
 10
650.3496220619418
 20
84.77188795460836
 30
0.0
 11
646.4880147864671
 21
87.00138795460828
 31
0.0
1001
GENIUS_GENOBJ-N-CEN_13
1002
{
1000
OWNER
1000
GEN
1002
}
1001
GENIUS_GENODEF_13
1002
{
1000
HIER
1070
     0
1002
}
1002
{
1000
MANEDIT
1070
     0
1002
}
1002
{
1000
NOSEL
1070
     0
1002
}
1002
{
1000
BEHIND
1070
     0
1002
}
1002
{
1000
OTHER
1070
     0
1002
}
1002
{
1000
REACTOR
1002
}
1001
GENIUS_GENCEN_19
1002
{
1040
1.0
1002
}
  0
DIMENSION
  5
390A
102
{ACAD_XDICTIONARY
360
3917
102
}
102
{ACAD_REACTORS
330
3918
102
}
330
1F
100
AcDbEntity
  8
AM_5
100
AcDbDimension
  2
*D11
 10
634.9188184242044
 20
53.44374792494001
 30
0.0
 11
631.9188184242042
 21
55.24374792494
 31
0.0
 70
    32
 71
     5
 42
6.000000000000111
  3
AM_ISO$0
100
AcDbAlignedDimension
 13
628.9188184242042
 23
75.59240932054814
 33
0.0
 14
634.9188184242044
 24
75.86290932054817
 34
0.0
100
AcDbRotatedDimension
1001
ACAD
1000
DSTYLE
1002
{
1070
    40
1040
1.0
1070
   144
1040
1.0
1002
}
  0
DIMENSION
  5
394A
102
{ACAD_XDICTIONARY
360
3957
102
}
102
{ACAD_REACTORS
330
3958
102
}
330
1F
100
AcDbEntity
  8
AM_5
100
AcDbDimension
  2
*D12
 10
618.9188184242042
 20
80.59240932054814
 30
0.0
 11
617.1188184242042
 21
85.26400279955
 31
0.0
 70
    32
  1
<>{}{\C2; H9}
 71
     5
 42
5.0
  3
AM_ISO$0
100
AcDbAlignedDimension
 13
626.9188184242042
 23
75.59240932054814
 33
0.0
 14
626.9188184242042
 24
80.59240932054814
 34
0.0
 50
90.0
100
AcDbRotatedDimension
1001
ACAD
1000
DSTYLE
1002
{
1070
   286
1070
     0
1070
   284
1070
     8
1070
    48
1040
0.1
1070
    47
1040
0.1
1070
   272
1070
     3
1070
   274
1070
     3
1002
}
1001
GENIUS_GENDTOL_13
1000
FitTxt
1000
H9
1000
{$3 $T}
1040
5.0
  0
DIMENSION
  5
3970
102
{ACAD_XDICTIONARY
360
397D
102
}
102
{ACAD_REACTORS
330
397E
102
}
330
1F
100
AcDbEntity
  8
AM_5
100
AcDbDimension
  2
*D13
 10
614.9188184242042
 20
82.09240932054814
 30
0.0
 11
613.1188184242042
 21
78.09240932054824
 31
0.0
 70
    32
 71
     5
 42
8.0
  3
AM_ISO$0
100
AcDbAlignedDimension
 13
626.9188184242042
 23
74.09240932054814
 33
0.0
 14
626.9188184242042
 24
82.09240932054814
 34
0.0
 50
90.0
100
AcDbRotatedDimension
1001
ACAD
1000
DSTYLE
1002
{
1070
    40
1040
1.0
1070
   144
1040
1.0
1002
}
  0
DIMENSION
  5
39B9
102
{ACAD_XDICTIONARY
360
39C6
102
}
102
{ACAD_REACTORS
330
39C7
102
}
330
1F
100
AcDbEntity
  8
AM_5
100
AcDbDimension
  2
*D14
 10
710.9373624900921
 20
158.1412146551995
 30
0.0
 11
694.9373624900921
 21
159.9414115055933
 31
0.0
 70
    32
 71
     5
 42
32.0
  3
AM_ISO$0
100
AcDbAlignedDimension
 13
678.9373624900921
 23
142.2988159542729
 33
0.0
 14
710.9373624900921
 24
144.5408159542729
 34
0.0
100
AcDbRotatedDimension
1001
ACAD
1000
DSTYLE
1002
{
1070
    40
1040
1.0
1070
   144
1040
1.0
1002
}
  0
DIMENSION
  5
39DF
102
{ACAD_XDICTIONARY
360
39EE
102
}
102
{ACAD_REACTORS
330
39EF
102
}
330
1F
100
AcDbEntity
  8
AM_5
100
AcDbDimension
  2
*D15
 10
677.9373624900921
 20
154.1412146551996
 30
0.0
 11
676.9373624900921
 21
154.1412146551996
 31
0.0
 70
   160
 71
     5
 42
2.0
  3
AM_ISO$0
100
AcDbAlignedDimension
 13
675.9373624900921
 23
146.5408159542729
 33
0.0
 14
677.9373624900921
 24
142.5408159542729
 34
0.0
100
AcDbRotatedDimension
1001
ACAD
1000
DSTYLE
1002
{
1070
    40
1040
1.0
1070
   144
1040
1.0
1002
}
  0
TEXT
  5
3A08
330
1F
100
AcDbEntity
  8
AM_5
100
AcDbText
 10
719.5861722552542
 20
153.1590311789551
 30
0.0
 40
1.75
  1
M5x0.8
100
AcDbText
  0
INSERT
  5
3A09
330
1F
100
AcDbEntity
  8
AM_5
100
AcDbBlockReference
  2
*S2016
 10
0.0
 20
0.0
 30
0.0
  0
TEXT
  5
3A0A
330
1F
100
AcDbEntity
  8
AM_5
100
AcDbText
 10
719.5861722552542
 20
150.0765511319801
 30
0.0
 40
1.75
  1
Finger opening port
100
AcDbText
  0
INSERT
  5
3A0B
330
1F
100
AcDbEntity
  8
AM_5
100
AcDbBlockReference
  2
*S2117
 10
0.0
 20
0.0
 30
0.0
  0
TEXT
  5
3A0C
330
1F
100
AcDbEntity
  8
AM_5
100
AcDbText
 10
729.8572560872091
 20
116.5688321341361
 30
0.0
 40
1.75
  1
Finger closing port
100
AcDbText
  0
TEXT
  5
3A0D
330
1F
100
AcDbEntity
  8
AM_5
100
AcDbText
 10
729.7344350227347
 20
120.0784375925805
 30
0.0
 40
1.75
  1
M5x0.8
100
AcDbText
  0
ENDSEC
  0
SECTION
  2
OBJECTS
  0
DICTIONARY
  5
C
330
0
100
AcDbDictionary
281
     1
  3
ACAD_COLOR
350
8FD
  3
ACAD_GROUP
350
D
  3
ACAD_LAYOUT
350
1A
  3
ACAD_MATERIAL
350
8FC
  3
ACAD_MLINESTYLE
350
17
  3
ACAD_PLOTSETTINGS
350
19
  3
ACAD_PLOTSTYLENAME
350
E
  3
ACAD_TABLESTYLE
350
8FE
  3
ACDBHEADERROUNDTRIPXREC
350
3D48
  3
AcDbVariableDictionary
350
82
  3
AcmDictionary
350
45
  3
AMG
350
2B
  3
AMGSNAPSETTINGS
350
2026
  3
DWGPROPS
350
3D47
  0
DICTIONARY
  5
E05
330
2
100
AcDbDictionary
280
     1
281
     1
  3
ACAD_LAYERFILTERS
360
E57
  3
ACAD_LAYERSTATES
360
E80
  3
ACLYDICTIONARY
360
E56
  3
AMLAYER_GROUPCOLORS
360
1991
  0
DICTIONARY
  5
7D
330
1F
100
AcDbDictionary
280
     1
281
     1
  3
ACAD_SORTENTS
360
19C4
  0
DICTIONARY
  5
3670
330
3663
100
AcDbDictionary
280
     1
281
     1
  3
ACAD_DIMASSOC
360
3671
  0
DICTIONARY
  5
3696
330
3689
100
AcDbDictionary
280
     1
281
     1
  3
ACAD_DIMASSOC
360
3697
  0
DICTIONARY
  5
36BC
330
36AF
100
AcDbDictionary
280
     1
281
     1
  3
ACAD_DIMASSOC
360
36BD
  0
DICTIONARY
  5
36E2
330
36D5
100
AcDbDictionary
280
     1
281
     1
  3
ACAD_DIMASSOC
360
36E3
  0
DICTIONARY
  5
3708
330
36FB
100
AcDbDictionary
280
     1
281
     1
  3
ACAD_DIMASSOC
360
3709
  0
DICTIONARY
  5
3730
330
3721
100
AcDbDictionary
280
     1
281
     1
  3
ACAD_DIMASSOC
360
3731
  0
DICTIONARY
  5
37DE
330
37D1
100
AcDbDictionary
280
     1
281
     1
  3
ACAD_DIMASSOC
360
37DF
  0
DICTIONARY
  5
3806
330
37F7
100
AcDbDictionary
280
     1
281
     1
  3
ACAD_DIMASSOC
360
3807
  0
DICTIONARY
  5
3917
330
390A
100
AcDbDictionary
280
     1
281
     1
  3
ACAD_DIMASSOC
360
3918
  0
DICTIONARY
  5
3957
330
394A
100
AcDbDictionary
280
     1
281
     1
  3
ACAD_DIMASSOC
360
3958
  0
DICTIONARY
  5
397D
330
3970
100
AcDbDictionary
280
     1
281
     1
  3
ACAD_DIMASSOC
360
397E
  0
DICTIONARY
  5
39C6
330
39B9
100
AcDbDictionary
280
     1
281
     1
  3
ACAD_DIMASSOC
360
39C7
  0
DICTIONARY
  5
39EE
330
39DF
100
AcDbDictionary
280
     1
281
     1
  3
ACAD_DIMASSOC
360
39EF
  0
DICTIONARY
  5
8FD
102
{ACAD_REACTORS
330
C
102
}
330
C
100
AcDbDictionary
281
     1
  0
DICTIONARY
  5
D
102
{ACAD_REACTORS
330
C
102
}
330
C
100
AcDbDictionary
281
     1
  0
DICTIONARY
  5
1A
102
{ACAD_REACTORS
330
C
102
}
330
C
100
AcDbDictionary
281
     1
  3
Layout1
350
1E
  3
Layout2
350
26
  3
Model
350
22
  0
DICTIONARY
  5
8FC
102
{ACAD_REACTORS
330
C
102
}
330
C
100
AcDbDictionary
281
     1
  0
DICTIONARY
  5
17
102
{ACAD_REACTORS
330
C
102
}
330
C
100
AcDbDictionary
281
     1
  3
Standard
350
18
  0
DICTIONARY
  5
19
102
{ACAD_REACTORS
330
C
102
}
330
C
100
AcDbDictionary
281
     1
  0
ACDBDICTIONARYWDFLT
  5
E
102
{ACAD_REACTORS
330
C
102
}
330
C
100
AcDbDictionary
281
     1
  3
Normal
350
F
100
AcDbDictionaryWithDefault
340
F
  0
DICTIONARY
  5
8FE
102
{ACAD_REACTORS
330
C
102
}
330
C
100
AcDbDictionary
281
     1
  3
Standard
350
8FF
  0
DICTIONARY
  5
3D48
102
{ACAD_REACTORS
330
C
102
}
330
C
100
AcDbDictionary
281
     1
  0
DICTIONARY
  5
82
102
{ACAD_REACTORS
330
C
102
}
330
C
100
AcDbDictionary
281
     1
  3
CTABLESTYLE
350
972
  3
DIMASSOC
350
85
  3
HIDETEXT
350
84
  3
INDEXCTL
350
83
  3
PROJECTNAME
350
973
  0
DICTIONARY
  5
45
102
{ACAD_REACTORS
330
C
102
}
330
C
100
AcDbDictionary
281
     1
  3
AcmStdDictionary
350
4A
  3
AMDTSECTSYM_ARROWCOLOR
350
90B
  0
DICTIONARY
  5
2B
102
{ACAD_REACTORS
330
C
102
}
330
C
100
AcDbDictionary
281
     1
  0
DICTIONARY
  5
2026
102
{ACAD_REACTORS
330
C
102
}
330
C
100
AcDbDictionary
281
     1
  0
XRECORD
  5
3D47
102
{ACAD_REACTORS
330
C
102
}
330
C
100
AcDbXrecord
280
     1
  1
DWGPROPS COOKIE
  2

  3

  4

  6

  7

  8

  9

300
AmdtFileType=84
301
=
302
=
303
=
304
=
305
=
306
=
307
=
308
=
309
=
 40
0.4720033217592593
 41
2453021.369367211
 42
2454728.625441076
  1

 90
        1
  0
DICTIONARY
  5
E57
102
{ACAD_REACTORS
330
E05
102
}
330
E05
100
AcDbDictionary
281
     1
  0
DICTIONARY
  5
E80
102
{ACAD_REACTORS
330
E05
102
}
330
E05
100
AcDbDictionary
281
     1
  0
DICTIONARY
  5
E56
102
{ACAD_REACTORS
330
E05
102
}
330
E05
100
AcDbDictionary
281
     1
1001
ACAD
1000
<All
  0
DICTIONARY
  5
1991
102
{ACAD_REACTORS
330
E05
102
}
330
E05
100
AcDbDictionary
280
     1
281
     1
  0
SORTENTSTABLE
  5
19C4
102
{ACAD_REACTORS
330
7D
102
}
330
7D
100
AcDbSortentsTable
330
1F
331
AE3
  5
AE3
  0
DIMASSOC
  5
3671
102
{ACAD_REACTORS
330
3670
102
}
330
3670
100
AcDbDimAssoc
330
3663
 90
        3
 70
     0
 71
     0
  1
AcDbOsnapPointRef
 72
    13
331
2E30
 73
     0
 91
        0
 40
0.0
 10
0.0
 20
0.0
 30
2.000000000000000E+50
 75
     0
  1
AcDbOsnapPointRef
 72
     1
331
2E04
 73
     0
 91
        0
 40
0.0
 10
0.0
 20
0.0
 30
2.000000000000000E+50
 75
     0
  0
DIMASSOC
  5
3697
102
{ACAD_REACTORS
330
3696
102
}
330
3696
100
AcDbDimAssoc
330
3689
 90
        3
 70
     0
 71
     0
  1
AcDbOsnapPointRef
 72
     1
331
3237
 73
     0
 91
        0
 40
0.0
 10
0.0
 20
0.0
 30
2.000000000000000E+50
 75
     0
  1
AcDbOsnapPointRef
 72
    13
331
2E30
 73
     0
 91
        0
 40
0.0
 10
0.0
 20
0.0
 30
2.000000000000000E+50
 75
     0
  0
DIMASSOC
  5
36BD
102
{ACAD_REACTORS
330
36BC
102
}
330
36BC
100
AcDbDimAssoc
330
36AF
 90
        3
 70
     0
 71
     0
  1
AcDbOsnapPointRef
 72
    13
331
2E28
 73
     0
 91
        0
 40
0.0
 10
0.0
 20
0.0
 30
2.000000000000000E+50
 75
     0
  1
AcDbOsnapPointRef
 72
     1
331
2E04
 73
     0
 91
        0
 40
0.0
 10
0.0
 20
0.0
 30
2.000000000000000E+50
 75
     0
  0
DIMASSOC
  5
36E3
102
{ACAD_REACTORS
330
36E2
102
}
330
36E2
100
AcDbDimAssoc
330
36D5
 90
        3
 70
     0
 71
     0
  1
AcDbOsnapPointRef
 72
     1
331
2E04
 73
     0
 91
        0
 40
0.0
 10
0.0
 20
0.0
 30
2.000000000000000E+50
 75
     0
  1
AcDbOsnapPointRef
 72
     1
331
2DB6
 73
     0
 91
        0
 40
0.0
 10
0.0
 20
0.0
 30
2.000000000000000E+50
 75
     0
  0
DIMASSOC
  5
3709
102
{ACAD_REACTORS
330
3708
102
}
330
3708
100
AcDbDimAssoc
330
36FB
 90
        3
 70
     0
 71
     0
  1
AcDbOsnapPointRef
 72
    13
331
2D7E
 73
     0
 91
        0
 40
0.0
 10
0.0
 20
0.0
 30
2.000000000000000E+50
 75
     0
  1
AcDbOsnapPointRef
 72
    13
331
2DB4
 73
     0
 91
        0
 40
0.0
 10
0.0
 20
0.0
 30
2.000000000000000E+50
 75
     0
  0
DIMASSOC
  5
3731
102
{ACAD_REACTORS
330
3730
102
}
330
3730
100
AcDbDimAssoc
330
3721
 90
        3
 70
     0
 71
     0
  1
AcDbOsnapPointRef
 72
     1
331
2D7E
 73
     0
 91
        0
 40
0.0
 10
0.0
 20
0.0
 30
2.000000000000000E+50
 75
     0
  1
AcDbOsnapPointRef
 72
    13
331
2D7E
 73
     0
 91
        0
 40
0.0
 10
0.0
 20
0.0
 30
2.000000000000000E+50
 75
     0
  0
DIMASSOC
  5
37DF
102
{ACAD_REACTORS
330
37DE
102
}
330
37DE
100
AcDbDimAssoc
330
37D1
 90
        3
 70
     0
 71
     0
  1
AcDbOsnapPointRef
 72
    13
331
2D29
 73
     0
 91
        0
 40
0.0
 10
0.0
 20
0.0
 30
2.000000000000000E+50
 75
     0
  1
AcDbOsnapPointRef
 72
     1
331
31C3
 73
     0
 91
        0
 40
0.0
 10
0.0
 20
0.0
 30
2.000000000000000E+50
 75
     0
  0
DIMASSOC
  5
3807
102
{ACAD_REACTORS
330
3806
102
}
330
3806
100
AcDbDimAssoc
330
37F7
 90
        3
 70
     0
 71
     0
  1
AcDbOsnapPointRef
 72
    13
331
2D29
 73
     0
 91
        0
 40
0.0
 10
0.0
 20
0.0
 30
2.000000000000000E+50
 75
     0
  1
AcDbOsnapPointRef
 72
     1
331
3775
 73
     0
 91
        0
 40
0.0
 10
0.0
 20
0.0
 30
2.000000000000000E+50
 75
     0
  0
DIMASSOC
  5
3918
102
{ACAD_REACTORS
330
3917
102
}
330
3917
100
AcDbDimAssoc
330
390A
 90
        3
 70
     0
 71
     0
  1
AcDbOsnapPointRef
 72
     1
331
3775
 73
     0
 91
        0
 40
0.0
 10
0.0
 20
0.0
 30
2.000000000000000E+50
 75
     0
  1
AcDbOsnapPointRef
 72
     1
331
38D1
 73
     0
 91
        0
 40
0.0
 10
0.0
 20
0.0
 30
2.000000000000000E+50
 75
     0
  0
DIMASSOC
  5
3958
102
{ACAD_REACTORS
330
3957
102
}
330
3957
100
AcDbDimAssoc
330
394A
 90
        3
 70
     0
 71
     0
  1
AcDbOsnapPointRef
 72
    13
331
2D24
 73
     0
 91
        0
 40
0.0
 10
0.0
 20
0.0
 30
2.000000000000000E+50
 75
     0
  1
AcDbOsnapPointRef
 72
     1
331
2D23
 73
     0
 91
        0
 40
0.0
 10
0.0
 20
0.0
 30
2.000000000000000E+50
 75
     0
  0
DIMASSOC
  5
397E
102
{ACAD_REACTORS
330
397D
102
}
330
397D
100
AcDbDimAssoc
330
3970
 90
        3
 70
     0
 71
     0
  1
AcDbOsnapPointRef
 72
    13
331
2D29
 73
     0
 91
        0
 40
0.0
 10
0.0
 20
0.0
 30
2.000000000000000E+50
 75
     0
  1
AcDbOsnapPointRef
 72
    13
331
2D28
 73
     0
 91
        0
 40
0.0
 10
0.0
 20
0.0
 30
2.000000000000000E+50
 75
     0
  0
DIMASSOC
  5
39C7
102
{ACAD_REACTORS
330
39C6
102
}
330
39C6
100
AcDbDimAssoc
330
39B9
 90
        3
 70
     0
 71
     0
  1
AcDbOsnapPointRef
 72
     1
331
2E11
 73
     0
 91
        0
 40
0.0
 10
0.0
 20
0.0
 30
2.000000000000000E+50
 75
     0
  1
AcDbOsnapPointRef
 72
     1
331
2E04
 73
     0
 91
        0
 40
0.0
 10
0.0
 20
0.0
 30
2.000000000000000E+50
 75
     0
  0
DIMASSOC
  5
39EF
102
{ACAD_REACTORS
330
39EE
102
}
330
39EE
100
AcDbDimAssoc
330
39DF
 90
        3
 70
     0
 71
     0
  1
AcDbOsnapPointRef
 72
    13
331
2E28
 73
     0
 91
        0
 40
0.0
 10
0.0
 20
0.0
 30
2.000000000000000E+50
 75
     0
  1
AcDbOsnapPointRef
 72
     1
331
2E1F
 73
     0
 91
        0
 40
0.0
 10
0.0
 20
0.0
 30
2.000000000000000E+50
 75
     0
  0
LAYOUT
  5
1E
102
{ACAD_XDICTIONARY
360
3D49
102
}
102
{ACAD_REACTORS
330
1A
102
}
330
1A
100
AcDbPlotSettings
  1

  2
自動 RD 上的 Epson Stylus Photo 750 單色
  4

  6

 40
0.0
 41
0.0
 42
0.0
 43
0.0
 44
0.0
 45
0.0
 46
0.0
 47
0.0
 48
0.0
 49
0.0
140
0.0
141
0.0
142
1.0
143
1.0
 70
   688
 72
     0
 73
     0
 74
     5
  7
彩色出圖.ctb
 75
    16
147
1.0
148
0.0
149
0.0
100
AcDbLayout
  1
Layout1
 70
     1
 71
     1
 10
0.0
 20
0.0
 11
420.0
 21
297.0
 12
0.0
 22
0.0
 32
0.0
 14
1.000000000000000E+20
 24
1.000000000000000E+20
 34
1.000000000000000E+20
 15
-1.000000000000000E+20
 25
-1.000000000000000E+20
 35
-1.000000000000000E+20
146
0.0
 13
0.0
 23
0.0
 33
0.0
 16
1.0
 26
0.0
 36
0.0
 17
0.0
 27
1.0
 37
0.0
 76
     0
330
1B
  0
LAYOUT
  5
26
102
{ACAD_XDICTIONARY
360
3D4D
102
}
102
{ACAD_REACTORS
330
1A
102
}
330
1A
100
AcDbPlotSettings
  1

  2
自動 RD 上的 Epson Stylus Photo 750 單色
  4

  6

 40
0.0
 41
0.0
 42
0.0
 43
0.0
 44
0.0
 45
0.0
 46
0.0
 47
0.0
 48
0.0
 49
0.0
140
0.0
141
0.0
142
1.0
143
1.0
 70
   688
 72
     0
 73
     0
 74
     5
  7
彩色出圖.ctb
 75
    16
147
1.0
148
0.0
149
0.0
100
AcDbLayout
  1
Layout2
 70
     1
 71
     2
 10
0.0
 20
0.0
 11
12.0
 21
9.0
 12
0.0
 22
0.0
 32
0.0
 14
0.0
 24
0.0
 34
0.0
 15
0.0
 25
0.0
 35
0.0
146
0.0
 13
0.0
 23
0.0
 33
0.0
 16
1.0
 26
0.0
 36
0.0
 17
0.0
 27
1.0
 37
0.0
 76
     0
330
23
  0
LAYOUT
  5
22
102
{ACAD_XDICTIONARY
360
3D4B
102
}
102
{ACAD_REACTORS
330
1A
102
}
330
1A
100
AcDbPlotSettings
  1

  2
自動 RD 上的 Epson Stylus Photo 750 單色
  4
A4
  6

 40
3.757083177566528
 41
14.7637300491333
 42
3.757080078125
 43
3.757080078125
 44
209.9733276367186
 45
296.9683227539062
 46
7.54
 47
0.0
 48
0.0
 49
0.0
140
0.0
141
0.0
142
1.0
143
1.817317462545654
 70
 11956
 72
     1
 73
     0
 74
     1
  7
彩色出圖.ctb
 75
     0
147
0.5502615919395967
148
-125.5654918467224
149
222.8859553785132
100
AcDbLayout
  1
Model
 70
     1
 71
     0
 10
0.0
 20
0.0
 11
12.0
 21
9.0
 12
0.0
 22
0.0
 32
0.0
 14
0.0
 24
0.0
 34
0.0
 15
0.0
 25
0.0
 35
0.0
146
0.0
 13
0.0
 23
0.0
 33
0.0
 16
1.0
 26
0.0
 36
0.0
 17
0.0
 27
1.0
 37
0.0
 76
     0
330
1F
  0
MLINESTYLE
  5
18
102
{ACAD_REACTORS
330
17
102
}
330
17
100
AcDbMlineStyle
  2
STANDARD
 70
     0
  3

 62
   256
 51
90.0
 52
90.0
 71
     2
 49
0.5
 62
   256
  6
BYLAYER
 49
-0.5
 62
   256
  6
BYLAYER
  0
ACDBPLACEHOLDER
  5
F
102
{ACAD_REACTORS
330
E
102
}
330
E
  0
TABLESTYLE
  5
8FF
102
{ACAD_REACTORS
330
8FE
102
}
330
8FE
100
AcDbTableStyle
  3
Standard
 70
     0
 71
     0
 40
1.5
 41
1.5
280
     0
281
     0
  7
STANDARD
140
4.5
170
     2
 62
     0
 63
     7
283
     0
274
    -2
284
     1
 64
     0
275
    -2
285
     1
 65
     0
276
    -2
286
     1
 66
     0
277
    -2
287
     1
 67
     0
278
    -2
288
     1
 68
     0
279
    -2
289
     1
 69
     0
  7
STANDARD
140
6.0
170
     5
 62
     0
 63
     7
283
     0
274
    -2
284
     1
 64
     0
275
    -2
285
     1
 65
     0
276
    -2
286
     1
 66
     0
277
    -2
287
     1
 67
     0
278
    -2
288
     1
 68
     0
279
    -2
289
     1
 69
     0
  7
STANDARD
140
4.5
170
     5
 62
     0
 63
     7
283
     0
274
    -2
284
     1
 64
     0
275
    -2
285
     1
 65
     0
276
    -2
286
     1
 66
     0
277
    -2
287
     1
 67
     0
278
    -2
288
     1
 68
     0
279
    -2
289
     1
 69
     0
  0
DICTIONARYVAR
  5
972
102
{ACAD_REACTORS
330
82
102
}
330
82
100
DictionaryVariables
280
     0
  1
STANDARD
  0
DICTIONARYVAR
  5
85
102
{ACAD_REACTORS
330
82
102
}
330
82
100
DictionaryVariables
280
     0
  1
2
  0
DICTIONARYVAR
  5
84
102
{ACAD_REACTORS
330
82
102
}
330
82
100
DictionaryVariables
280
     0
  1
1
  0
DICTIONARYVAR
  5
83
102
{ACAD_REACTORS
330
82
102
}
330
82
100
DictionaryVariables
280
     0
  1
0
  0
DICTIONARYVAR
  5
973
102
{ACAD_REACTORS
330
82
102
}
330
82
100
DictionaryVariables
280
     0
  1

  0
DICTIONARY
  5
4A
102
{ACAD_REACTORS
330
45
102
}
330
45
100
AcDbDictionary
281
     1
  0
XRECORD
  5
90B
102
{ACAD_REACTORS
330
45
102
}
330
45
100
AcDbXrecord
280
     1
 90
-1023410169
  0
DICTIONARY
  5
3D49
330
1E
100
AcDbDictionary
280
     1
281
     1
  3
ACAD_XREC_ROUNDTRIP
360
3D4A
  0
DICTIONARY
  5
3D4D
330
26
100
AcDbDictionary
280
     1
281
     1
  3
ACAD_XREC_ROUNDTRIP
360
3D4E
  0
DICTIONARY
  5
3D4B
330
22
100
AcDbDictionary
280
     1
281
     1
  3
ACAD_XREC_ROUNDTRIP
360
3D4C
  0
XRECORD
  5
3D4A
102
{ACAD_REACTORS
330
3D49
102
}
330
3D49
100
AcDbXrecord
280
     1
102
SHADEPLOT
 70
     0
102
SHADEPLOTRESLEVEL
 70
     2
102
SHADEPLOTCUSTOMDPI
 70
   300
  0
XRECORD
  5
3D4E
102
{ACAD_REACTORS
330
3D4D
102
}
330
3D4D
100
AcDbXrecord
280
     1
102
SHADEPLOT
 70
     0
102
SHADEPLOTRESLEVEL
 70
     2
102
SHADEPLOTCUSTOMDPI
 70
   300
  0
XRECORD
  5
3D4C
102
{ACAD_REACTORS
330
3D4B
102
}
330
3D4B
100
AcDbXrecord
280
     1
102
SHADEPLOT
 70
     0
102
SHADEPLOTRESLEVEL
 70
     2
102
SHADEPLOTCUSTOMDPI
 70
   300
  0
ENDSEC
  0
EOF
