  0
SECTION
  2
HEADER
  9
$ACADVER
  1
AC1015
  9
$ACADMAINTVER
 70
    20
  9
$DWGCODEPAGE
  3
ANSI_950
  9
$INSBASE
 10
0.0
 20
0.0
 30
0.0
  9
$EXTMIN
 10
865.8220116901343
 20
-53.02481749861692
 30
-0.0091170842936208
  9
$EXTMAX
 10
1311.359752196749
 20
271.0010259067348
 30
212.3202356805201
  9
$LIMMIN
 10
0.0
 20
0.0
  9
$LIMMAX
 10
420.0
 20
297.0
  9
$ORTHOMODE
 70
     0
  9
$REGENMODE
 70
     1
  9
$FILLMODE
 70
     1
  9
$QTEXTMODE
 70
     0
  9
$MIRRTEXT
 70
     1
  9
$LTSCALE
 40
1.0
  9
$ATTMODE
 70
     1
  9
$TEXTSIZE
 40
3.0
  9
$TRACEWID
 40
1.0
  9
$TEXTSTYLE
  7
CHINESET
  9
$CLAYER
  8
0
  9
$CELTYPE
  6
ByLayer
  9
$CECOLOR
 62
   256
  9
$CELTSCALE
 40
1.0
  9
$DISPSILH
 70
     0
  9
$DIMSCALE
 40
1.0
  9
$DIMASZ
 40
2.5
  9
$DIMEXO
 40
1.0
  9
$DIMDLI
 40
6.0
  9
$DIMRND
 40
0.0
  9
$DIMDLE
 40
0.0
  9
$DIMEXE
 40
1.5
  9
$DIMTP
 40
0.1
  9
$DIMTM
 40
0.1
  9
$DIMTXT
 40
3.0
  9
$DIMCEN
 40
3.0
  9
$DIMTSZ
 40
0.0
  9
$DIMTOL
 70
     0
  9
$DIMLIM
 70
     0
  9
$DIMTIH
 70
     0
  9
$DIMTOH
 70
     0
  9
$DIMSE1
 70
     0
  9
$DIMSE2
 70
     0
  9
$DIMTAD
 70
     1
  9
$DIMZIN
 70
     8
  9
$DIMBLK
  1

  9
$DIMASO
 70
     1
  9
$DIMSHO
 70
     1
  9
$DIMPOST
  1

  9
$DIMAPOST
  1
"
  9
$DIMALT
 70
     0
  9
$DIMALTD
 70
     2
  9
$DIMALTF
 40
0.0393701
  9
$DIMLFAC
 40
1.0
  9
$DIMTOFL
 70
     1
  9
$DIMTVP
 40
0.0
  9
$DIMTIX
 70
     0
  9
$DIMSOXD
 70
     0
  9
$DIMSAH
 70
     0
  9
$DIMBLK1
  1

  9
$DIMBLK2
  1

  9
$DIMSTYLE
  2
AM_ISO
  9
$DIMCLRD
 70
   256
  9
$DIMCLRE
 70
   256
  9
$DIMCLRT
 70
   256
  9
$DIMTFAC
 40
0.71
  9
$DIMGAP
 40
0.8
  9
$DIMJUST
 70
     0
  9
$DIMSD1
 70
     0
  9
$DIMSD2
 70
     0
  9
$DIMTOLJ
 70
     0
  9
$DIMTZIN
 70
     8
  9
$DIMALTZ
 70
     0
  9
$DIMALTTZ
 70
     0
  9
$DIMUPT
 70
     0
  9
$DIMDEC
 70
     2
  9
$DIMTDEC
 70
     8
  9
$DIMALTU
 70
     2
  9
$DIMALTTD
 70
     2
  9
$DIMTXSTY
  7
STANDARD
  9
$DIMAUNIT
 70
     0
  9
$DIMADEC
 70
     2
  9
$DIMALTRND
 40
0.0
  9
$DIMAZIN
 70
     2
  9
$DIMDSEP
 70
    46
  9
$DIMATFIT
 70
     3
  9
$DIMFRAC
 70
     0
  9
$DIMLDRBLK
  1

  9
$DIMLUNIT
 70
     2
  9
$DIMLWD
 70
    -1
  9
$DIMLWE
 70
    -1
  9
$DIMTMOVE
 70
     0
  9
$LUNITS
 70
     2
  9
$LUPREC
 70
     2
  9
$SKETCHINC
 40
1.0
  9
$FILLETRAD
 40
2.5
  9
$AUNITS
 70
     0
  9
$AUPREC
 70
     0
  9
$MENU
  1
.
  9
$ELEVATION
 40
0.0
  9
$PELEVATION
 40
0.0
  9
$THICKNESS
 40
0.0
  9
$LIMCHECK
 70
     0
  9
$CHAMFERA
 40
2.5
  9
$CHAMFERB
 40
2.5
  9
$CHAMFERC
 40
20.0
  9
$CHAMFERD
 40
0.0
  9
$SKPOLY
 70
     0
  9
$TDCREATE
 40
2453021.369367211
  9
$TDUCREATE
 40
2453021.036033877
  9
$TDUPDATE
 40
2453805.582390949
  9
$TDUUPDATE
 40
2453805.249057616
  9
$TDINDWG
 40
0.4130113426
  9
$TDUSRTIMER
 40
0.4130109954
  9
$USRTIMER
 70
     1
  9
$ANGBASE
 50
0.0
  9
$ANGDIR
 70
     0
  9
$PDMODE
 70
     0
  9
$PDSIZE
 40
0.0
  9
$PLINEWID
 40
0.0
  9
$SPLFRAME
 70
     0
  9
$SPLINETYPE
 70
     6
  9
$SPLINESEGS
 70
     8
  9
$HANDSEED
  5
34F8
  9
$SURFTAB1
 70
     6
  9
$SURFTAB2
 70
     6
  9
$SURFTYPE
 70
     6
  9
$SURFU
 70
     6
  9
$SURFV
 70
     6
  9
$UCSBASE
  2

  9
$UCSNAME
  2

  9
$UCSORG
 10
0.0
 20
0.0
 30
0.0
  9
$UCSXDIR
 10
1.0
 20
0.0
 30
0.0
  9
$UCSYDIR
 10
0.0
 20
1.0
 30
0.0
  9
$UCSORTHOREF
  2

  9
$UCSORTHOVIEW
 70
     0
  9
$UCSORGTOP
 10
0.0
 20
0.0
 30
0.0
  9
$UCSORGBOTTOM
 10
0.0
 20
0.0
 30
0.0
  9
$UCSORGLEFT
 10
0.0
 20
0.0
 30
0.0
  9
$UCSORGRIGHT
 10
0.0
 20
0.0
 30
0.0
  9
$UCSORGFRONT
 10
0.0
 20
0.0
 30
0.0
  9
$UCSORGBACK
 10
0.0
 20
0.0
 30
0.0
  9
$PUCSBASE
  2

  9
$PUCSNAME
  2

  9
$PUCSORG
 10
0.0
 20
0.0
 30
0.0
  9
$PUCSXDIR
 10
1.0
 20
0.0
 30
0.0
  9
$PUCSYDIR
 10
0.0
 20
1.0
 30
0.0
  9
$PUCSORTHOREF
  2

  9
$PUCSORTHOVIEW
 70
     0
  9
$PUCSORGTOP
 10
0.0
 20
0.0
 30
0.0
  9
$PUCSORGBOTTOM
 10
0.0
 20
0.0
 30
0.0
  9
$PUCSORGLEFT
 10
0.0
 20
0.0
 30
0.0
  9
$PUCSORGRIGHT
 10
0.0
 20
0.0
 30
0.0
  9
$PUCSORGFRONT
 10
0.0
 20
0.0
 30
0.0
  9
$PUCSORGBACK
 10
0.0
 20
0.0
 30
0.0
  9
$USERI1
 70
     0
  9
$USERI2
 70
     0
  9
$USERI3
 70
     0
  9
$USERI4
 70
     0
  9
$USERI5
 70
     0
  9
$USERR1
 40
0.0
  9
$USERR2
 40
0.0
  9
$USERR3
 40
0.0
  9
$USERR4
 40
0.0
  9
$USERR5
 40
0.0
  9
$WORLDVIEW
 70
     1
  9
$SHADEDGE
 70
     3
  9
$SHADEDIF
 70
    70
  9
$TILEMODE
 70
     1
  9
$MAXACTVP
 70
    64
  9
$PINSBASE
 10
0.0
 20
0.0
 30
0.0
  9
$PLIMCHECK
 70
     0
  9
$PEXTMIN
 10
1.000000000000000E+20
 20
1.000000000000000E+20
 30
1.000000000000000E+20
  9
$PEXTMAX
 10
-1.000000000000000E+20
 20
-1.000000000000000E+20
 30
-1.000000000000000E+20
  9
$PLIMMIN
 10
0.0
 20
0.0
  9
$PLIMMAX
 10
420.0
 20
297.0
  9
$UNITMODE
 70
     0
  9
$VISRETAIN
 70
     1
  9
$PLINEGEN
 70
     0
  9
$PSLTSCALE
 70
     1
  9
$TREEDEPTH
 70
  3020
  9
$CMLSTYLE
  2
Standard
  9
$CMLJUST
 70
     0
  9
$CMLSCALE
 40
20.0
  9
$PROXYGRAPHICS
 70
     1
  9
$MEASUREMENT
 70
     1
  9
$CELWEIGHT
370
    -1
  9
$ENDCAPS
280
     0
  9
$JOINSTYLE
280
     0
  9
$LWDISPLAY
290
     0
  9
$INSUNITS
 70
     4
  9
$HYPERLINKBASE
  1

  9
$STYLESHEET
  1
彩色出圖.ctb
  9
$XEDIT
290
     1
  9
$CEPSNTYPE
380
     0
  9
$PSTYLEMODE
290
     1
  9
$FINGERPRINTGUID
  2
{6C02722A-18D3-491A-897A-B8025DE410A9}
  9
$VERSIONGUID
  2
{0C954B77-C61C-4427-B4DF-3D1DF5CF5101}
  9
$EXTNAMES
290
     1
  9
$PSVPSCALE
 40
0.0
  9
$OLESTARTUP
290
     0
  0
ENDSEC
  0
SECTION
  2
CLASSES
  0
CLASS
  1
ACDBDICTIONARYWDFLT
  2
AcDbDictionaryWithDefault
  3
ObjectDBX Classes
 90
        0
280
     0
281
     0
  0
CLASS
  1
ACDBPLACEHOLDER
  2
AcDbPlaceHolder
  3
ObjectDBX Classes
 90
        0
280
     0
281
     0
  0
CLASS
  1
LAYOUT
  2
AcDbLayout
  3
ObjectDBX Classes
 90
        0
280
     0
281
     0
  0
CLASS
  1
AMGSETTINGSOBJ
  2
AmgSettingsObj
  3
"AcadM|Product Description: AutoCAD Mechanical 2000|Company: Autodesk"
 90
        0
280
     0
281
     0
  0
CLASS
  1
ACME_DOCUMENT
  2
AcMeDbDoc
  3
AcMeServices
 90
        0
280
     0
281
     0
  0
CLASS
  1
ACMESCOPE
  2
AcMeScope
  3
AcMeServices
 90
        0
280
     0
281
     0
  0
CLASS
  1
ACMECOMMANDHISTORY
  2
AcMeCommandHistory
  3
AcMeServices
 90
        0
280
     0
281
     0
  0
CLASS
  1
ACIMSYSVARMAN
  2
AcImSysVarManager
  3
AcMeServices
 90
        0
280
     0
281
     0
  0
CLASS
  1
ACIMREALSYSVAR
  2
AcImRealSysVar
  3
AcMeServices
 90
        0
280
     0
281
     0
  0
CLASS
  1
ACIMINTSYSVAR
  2
AcImIntSysVar
  3
AcMeServices
 90
        0
280
     0
281
     0
  0
CLASS
  1
ACMEDRAWINGMAN
  2
AcMeDrawingMan
  3
AcMeServices
 90
        0
280
     0
281
     0
  0
CLASS
  1
ACMEVIEW
  2
AcMeView
  3
AcMeServices
 90
        0
280
     0
281
     0
  0
CLASS
  1
ACDBENTITYCACHE
  2
AcMeEntityCache
  3
AcMeServices
 90
        0
280
     0
281
     0
  0
CLASS
  1
GSMANAGER
  2
AcMeGSManager
  3
AcMeServices
 90
        0
280
     0
281
     0
  0
CLASS
  1
AMDTINTERNALREACTOR
  2
AmdtInternalReactor
  3
AcMeServices
 90
        0
280
     0
281
     0
  0
CLASS
  1
ACMESTATEMGR
  2
AcMeStateMgr
  3
AcMeServices
 90
        0
280
     0
281
     0
  0
CLASS
  1
ACGREFMASTER
  2
AcGrefMaster
  3
AcAttribServices
 90
        0
280
     0
281
     0
  0
CLASS
  1
ACME_DATABASE
  2
AcMeDbDatabase
  3
AcMeServices
 90
        0
280
     0
281
     0
  0
CLASS
  1
ACRFINSADJUSTERMGR
  2
AcRfInsAdjusterMgr
  3
AcMeServices
 90
        0
280
     0
281
     0
  0
CLASS
  1
ACGREFACADMASTER
  2
AcGrefacadMaster
  3
AcGrefServices
 90
        0
280
     0
281
     0
  0
CLASS
  1
AMIMASTER
  2
AmiMaster
  3
AmiServices
 90
        0
280
     0
281
     0
  0
CLASS
  1
ACMDATADICTIONARY
  2
AcmDataDictionary
  3
"AcmSymBB|Product Description: AutoCAD Mechanical 2004 DX|Company: Autodesk"
 90
        0
280
     0
281
     0
  0
CLASS
  1
ACMDATAENTRYBLOCK
  2
AcmDataEntryBlock
  3
"AcmSymBB|Product Description: AutoCAD Mechanical 2004 DX|Company: Autodesk"
 90
    32768
280
     0
281
     0
  0
CLASS
  1
ACIMSTRSYSVAR
  2
AcImStrSysVar
  3
AcMeServices
 90
        0
280
     0
281
     0
  0
CLASS
  1
ACMSTANDARDISO
  2
AcmStandardISO
  3
"Amdt_StdImp|Product Description: AutoCAD Mechanical 2004 DX|Company: Autodesk"
 90
        0
280
     0
281
     0
  0
CLASS
  1
AMGOBJPROPCFG
  2
AmgObjPropCfg
  3
"AmgLay|Product Description: AutoCAD Mechanical 2000|Company: Autodesk"
 90
        1
280
     0
281
     0
  0
CLASS
  1
AMDTEDGESTANDARDISO
  2
AmdtEdgeStdISO
  3
"Amdt_StdImp|Product Description: AutoCAD Mechanical 2004 DX|Company: Autodesk"
 90
    32768
280
     0
281
     0
  0
CLASS
  1
ACMSURFSTANDARDISO
  2
AcmSurfTextStdISO
  3
"Amdt_StdImp|Product Description: AutoCAD Mechanical 2004 DX|Company: Autodesk"
 90
        0
280
     0
281
     0
  0
CLASS
  1
ACMFCFSTANDARDISO
  2
AcmFCFStdISO
  3
"Amdt_StdImp|Product Description: AutoCAD Mechanical 2004 DX|Company: Autodesk"
 90
        0
280
     0
281
     0
  0
CLASS
  1
ACMWELDSTANDARDISO
  2
AcmWeldingStdISO
  3
"Amdt_StdImp|Product Description: AutoCAD Mechanical 2004 DX|Company: Autodesk"
 90
        0
280
     0
281
     0
  0
CLASS
  1
ACMIDSTANDARDISO
  2
AcmIdStdISO
  3
"Amdt_StdImp|Product Description: AutoCAD Mechanical 2004 DX|Company: Autodesk"
 90
        0
280
     0
281
     0
  0
CLASS
  1
ACMDATUMSTANDARDISO
  2
AcmDatumStdISO
  3
"Amdt_StdImp|Product Description: AutoCAD Mechanical 2004 DX|Company: Autodesk"
 90
        0
280
     0
281
     0
  0
CLASS
  1
ACMBOMSTANDARDISO
  2
AcmBOMStdISO
  3
"Amdt_StdImp|Product Description: AutoCAD Mechanical 2004 DX|Company: Autodesk"
 90
        0
280
     0
281
     0
  0
CLASS
  1
ACMDETAILSTANDARDISO
  2
AmdtDetailSymStdISO
  3
"Amdt_StdImp|Product Description: AutoCAD Mechanical 2004 DX|Company: Autodesk"
 90
        0
280
     0
281
     0
  0
CLASS
  1
ACMSECTIONSTANDARDISO
  2
AmdtSectionSymStdISO
  3
"Amdt_StdImp|Product Description: AutoCAD Mechanical 2004 DX|Company: Autodesk"
 90
        0
280
     0
281
     0
  0
CLASS
  1
ACMCENTERLINESTANDARDISO
  2
AmdtCenterLineStdISO
  3
"Amdt_StdImp|Product Description: AutoCAD Mechanical 2004 DX|Company: Autodesk"
 90
        0
280
     0
281
     0
  0
CLASS
  1
ACMNOTESTANDARDISO
  2
AmdtNoteStdISO
  3
"Amdt_StdImp|Product Description: AutoCAD Mechanical 2004 DX|Company: Autodesk"
 90
        0
280
     0
281
     0
  0
CLASS
  1
ACAMGLAYSTD
  2
AcAmgLayStd
  3
"AcAmgLayStd|Product Description: AutoCAD Mechanical 2000|Company: Autodesk"
 90
        0
280
     0
281
     0
  0
CLASS
  1
ACAMGDIMSTD
  2
AcAmgDimStd
  3
"AcAmgDimStd|Product Description: AutoCAD Mechanical 2000|Company: Autodesk"
 90
        0
280
     0
281
     0
  0
CLASS
  1
ACAMGHOLECHARTSTDISO
  2
AcAmgHoleChartStdISO
  3
ACMSYMBB_MODULE_NAME
 90
        0
280
     0
281
     0
  0
CLASS
  1
ACAMGTITLESTD
  2
AcAmgTitleStd
  3
"TITLEAPP"
 90
        0
280
     0
281
     0
  0
CLASS
  1
LAYER_INDEX
  2
AcDbLayerIndex
  3
ObjectDBX Classes
 90
    32768
280
     0
281
     0
  0
CLASS
  1
IDBUFFER
  2
AcDbIdBuffer
  3
ObjectDBX Classes
 90
    32768
280
     0
281
     0
  0
CLASS
  1
DICTIONARYVAR
  2
AcDbDictionaryVar
  3
ObjectDBX Classes
 90
        0
280
     0
281
     0
  0
CLASS
  1
ACAMGFILTERDAT
  2
AcAmgFilterDat
  3
"AcadM|Product Description: AutoCAD Mechanical 2000|Company: Autodesk"
 90
        0
280
     0
281
     0
  0
CLASS
  1
AMDTFORMULAUPDATEDISPATCHER
  2
AmdtFormulaUpdateDispatcher
  3
AcMeServices
 90
    32768
280
     0
281
     0
  0
CLASS
  1
DIMASSOC
  2
AcDbDimAssoc
  3
"AcDbDimAssoc|Product Desc:     AcDim ARX App For Dimension|Company:          Autodesk, Inc.|WEB Address:      www.autodesk.com"
 90
    32768
280
     0
281
     0
  0
CLASS
  1
AMDTNOTE
  2
AmdtNote
  3
"AcmSymBB|Product Description: AutoCAD Mechanical 2004 DX|Company: Autodesk"
 90
    33791
280
     0
281
     1
  0
CLASS
  1
TABLESTYLE
  2
AcDbTableStyle
  3
ObjectDBX Classes
 90
     2047
280
     0
281
     0
  0
CLASS
  1
AM_DRAWING_MGR
  2
AcDmDwgMgr
  3
AcMechDwgViewMgmt
 90
        0
280
     0
281
     0
  0
CLASS
  1
AM_DWG_DOCUMENT
  2
AcDmDwgDocument
  3
AcMechDwgViewMgmt
 90
        0
280
     0
281
     0
  0
CLASS
  1
AM_DWG_SHEET
  2
AcDmSheet
  3
AcMechDwgViewMgmt
 90
        0
280
     0
281
     0
  0
CLASS
  1
AM_VIEWDIMPARMAP
  2
AcDmViewDimParMap
  3
AcMechDwgViewMgmt
 90
        0
280
     0
281
     0
  0
CLASS
  1
AM_DWGMGR_NAME
  2
AcDmDwgMgrName
  3
AcMechDwgViewMgmt
 90
        0
280
     0
281
     0
  0
CLASS
  1
AMDTMENUSTATEMGR
  2
AmdtMenuStateMgr
  3
McadcomServices
 90
        0
280
     0
281
     0
  0
CLASS
  1
AMDTMCOMMENUSTATE
  2
AmdtMcomMenuState
  3
McadcomServices
 90
        0
280
     0
281
     0
  0
CLASS
  1
MAPIAMMOUDLE
  2
MApiAmModule
  3
MApiAmServices
 90
        0
280
     0
281
     0
  0
CLASS
  1
AMDTADMENUSTATE
  2
AmdtAdMenuState
  3
DesignerServices
 90
        0
280
     0
281
     0
  0
CLASS
  1
ADAPPL
  2
AcAdAppl
  3
DesignerServices
 90
        0
280
     0
281
     0
  0
CLASS
  1
DEPMGR
  2
AcAdDepMgr
  3
DesignerServices
 90
        0
280
     0
281
     0
  0
CLASS
  1
PARAMMGR
  2
AcAdParamMgr
  3
DesignerServices
 90
        0
280
     0
281
     0
  0
CLASS
  1
PARAMSCOPE
  2
AcAdParamScope
  3
DesignerServices
 90
        0
280
     0
281
     0
  0
CLASS
  1
NAMEDAPPL
  2
AcAdNamedAppl
  3
DesignerServices
 90
        0
280
     0
281
     0
  0
CLASS
  1
AMDTDMMENUSTATE
  2
AmdtDmMenuState
  3
AcMechDwgViewMgmt
 90
        0
280
     0
281
     0
  0
CLASS
  1
AMDTAMMENUSTATE
  2
AmdtAmMenuState
  3
DesignerAssemblies
 90
        0
280
     0
281
     0
  0
CLASS
  1
ACAMPROJECT
  2
AcAmProject
  3
DesignerAssemblies
 90
        0
280
     0
281
     0
  0
CLASS
  1
ACAMGRCOMPDEF
  2
AcAmGrCompDef
  3
DesignerAssemblies
 90
        0
280
     0
281
     0
  0
CLASS
  1
ACCMCONTEXT
  2
AcCmContext
  3
DesignerAssemblies
 90
        0
280
     0
281
     0
  0
CLASS
  1
ACAMCOMPDEF
  2
AcAmCompDef
  3
DesignerAssemblies
 90
        0
280
     0
281
     0
  0
CLASS
  1
ACAMCOMPDEFMGR
  2
AcAmCompDefMgr
  3
DesignerAssemblies
 90
        0
280
     0
281
     0
  0
CLASS
  1
AMCONTEXTMGR
  2
AcAmContextMgr
  3
DesignerAssemblies
 90
        0
280
     0
281
     0
  0
CLASS
  1
ACAMCONTEXTMODELER
  2
AcAmContextModeler
  3
DesignerAssemblies
 90
        0
280
     0
281
     0
  0
CLASS
  1
ACMTHREADLINESTANDARDISO
  2
AmdtThreadLineStdISO
  3
"Amdt_StdImp|Product Description: AutoCAD Mechanical 2004 DX|Company: Autodesk"
 90
        0
280
     0
281
     0
  0
CLASS
  1
CATALOGSTATE
  2
AcAmCatalogState
  3
DesignerAssemblies
 90
        0
280
     0
281
     0
  0
CLASS
  1
ACAMGRCOMPDEFSET
  2
AcAmGrCompDefSet
  3
DesignerAssemblies
 90
        0
280
     0
281
     0
  0
CLASS
  1
AMDTBROWSERDBTAB
  2
AmdtBrowserDbTab
  3
McadcomServices
 90
        0
280
     0
281
     0
  0
CLASS
  1
CBROWSERAPPOBJECT
  2
CBrowserAppObject
  3
McadcomServices
 90
        0
280
     0
281
     0
  0
CLASS
  1
DM_PLACEHOLDER
  2
AcDmSelsetPlaceholder
  3
AcMechDwgViewMgmt
 90
        0
280
     0
281
     0
  0
CLASS
  1
VAACXREFPANELOBJECT
  2
VaAcXREFPanelObject
  3
VAAC_ADDIN
 90
    32768
280
     0
281
     0
  0
CLASS
  1
VAACIMAGEINVENTORY
  2
VaAcImageInventory
  3
VAAC_ADDIN
 90
    32768
280
     0
281
     0
  0
CLASS
  1
AMDTEDGESTANDARDISO13715
  2
AmdtEdgeStdISO13715
  3
"Amdt_StdImp|Product Description: AutoCAD Mechanical 2004 DX|Company: Autodesk"
 90
        0
280
     0
281
     0
  0
CLASS
  1
AMDTNOTETEMPLATEDB
  2
AmdtNoteTemplateDB
  3
AMDT_STDIMP_MODULE_NAME
 90
        0
280
     0
281
     0
  0
CLASS
  1
ACRFATTGENMGR
  2
AcRfAttGeneralMgr
  3
AcAttribServices
 90
        0
280
     0
281
     0
  0
CLASS
  1
STDPART2D
  2
AmgStdPart
  3
"AmgStdPart|Product Description: AutoCAD Mechanical 2000|Company: Autodesk"
 90
    33791
280
     0
281
     1
  0
CLASS
  1
ACAMSTDPCOMPDEF
  2
AcAmStdpCompDef
  3
DesignerAssemblies
 90
    32768
280
     0
281
     0
  0
CLASS
  1
ACRFOBJATTMGR
  2
AcRfObjAttGroupMgr
  3
AcAttribServices
 90
    32768
280
     0
281
     0
  0
CLASS
  1
ACRFMCADAPIATTHOLDER
  2
AcRfMCADAPIAttHolder
  3
AcAttribServices
 90
    32768
280
     0
281
     0
  0
CLASS
  1
AMDTSYSATTR
  2
AmdtSystemAttribute
  3
AcAttribServices
 90
    32768
280
     0
281
     0
  0
CLASS
  1
ACAMCOMP
  2
AcAmComp
  3
DesignerAssemblies
 90
    32768
280
     0
281
     0
  0
CLASS
  1
AC_AM_STDP_VIEW_DEF
  2
AcAmStdpViewDef
  3
DesignerAssemblies
 90
    32768
280
     0
281
     0
  0
CLASS
  1
AC_AM_MVD_DEP_MGR
  2
AcAmMVDdepMgr
  3
DesignerAssemblies
 90
        0
280
     0
281
     0
  0
CLASS
  1
AC_AM_MASTER_VIEW_DEF
  2
AcAmMasterViewDef
  3
DesignerAssemblies
 90
        0
280
     0
281
     0
  0
CLASS
  1
AC_AM_DIRTY_NODES
  2
AcAmDirtyNodes
  3
DesignerAssemblies
 90
        0
280
     0
281
     0
  0
CLASS
  1
AC_AM_MAPPER_CACHE
  2
AcAmMapperCache
  3
DesignerAssemblies
 90
        0
280
     0
281
     0
  0
CLASS
  1
ACAMMVDBACKUPOBJECT
  2
AcAmMVDBackupObject
  3
DesignerAssemblies
 90
        0
280
     0
281
     0
  0
CLASS
  1
AC_AM_COMP_VIEW_INST
  2
AcAmCompView
  3
DesignerAssemblies
 90
    32768
280
     0
281
     0
  0
CLASS
  1
AC_AM_2D_XREF_MGR
  2
AcAmXrefMgr2d
  3
DesignerAssemblies
 90
        0
280
     0
281
     0
  0
CLASS
  1
SORTENTSTABLE
  2
AcDbSortentsTable
  3
ObjectDBX Classes
 90
        0
280
     0
281
     0
  0
ENDSEC
  0
SECTION
  2
TABLES
  0
TABLE
  2
VPORT
  5
8
330
0
100
AcDbSymbolTable
 70
     3
  0
VPORT
  5
34EF
330
8
100
AcDbSymbolTableRecord
100
AcDbViewportTableRecord
  2
*Active
 70
     0
 10
0.0
 20
0.0
 11
1.0
 21
1.0
 12
1088.583607890409
 22
108.9993845872091
 13
0.0
 23
0.0
 14
2.5
 24
2.5
 15
10.0
 25
10.0
 16
0.0
 26
0.0
 36
1.0
 17
0.0
 27
0.0
 37
0.0
 40
327.8897498580738
 41
1.817669172932331
 42
50.0
 43
0.0
 44
0.0
 50
0.0
 51
0.0
 71
     0
 72
   100
 73
     1
 74
     3
 75
     0
 76
     0
 77
     0
 78
     0
281
     0
 65
     1
110
0.0
120
0.0
130
0.0
111
1.0
121
0.0
131
0.0
112
0.0
122
1.0
132
0.0
 79
     0
146
0.0
  0
ENDTAB
  0
TABLE
  2
LTYPE
  5
5
330
0
100
AcDbSymbolTable
 70
    14
  0
LTYPE
  5
14
330
5
100
AcDbSymbolTableRecord
100
AcDbLinetypeTableRecord
  2
ByBlock
 70
     0
  3

 72
    65
 73
     0
 40
0.0
  0
LTYPE
  5
15
330
5
100
AcDbSymbolTableRecord
100
AcDbLinetypeTableRecord
  2
ByLayer
 70
     0
  3

 72
    65
 73
     0
 40
0.0
  0
LTYPE
  5
16
330
5
100
AcDbSymbolTableRecord
100
AcDbLinetypeTableRecord
  2
Continuous
 70
     0
  3
Solid line
 72
    65
 73
     0
 40
0.0
  0
LTYPE
  5
4D
330
5
100
AcDbSymbolTableRecord
100
AcDbLinetypeTableRecord
  2
AM_ISO02W050
 70
     0
  3
__ __ __ __ __ __ __ __ __ __ __ __ __ __ __
 72
    65
 73
     2
 40
7.5
 49
6.0
 74
     0
 49
-1.5
 74
     0
  0
LTYPE
  5
4E
330
5
100
AcDbSymbolTableRecord
100
AcDbLinetypeTableRecord
  2
AM_ISO08W050
 70
     0
  3
____ . ____ . ____ . ____ . ____ . ____ . ____
 72
    65
 73
     4
 40
18.0
 49
12.0
 74
     0
 49
-1.5
 74
     0
 49
3.0
 74
     0
 49
-1.5
 74
     0
  0
LTYPE
  5
4F
330
5
100
AcDbSymbolTableRecord
100
AcDbLinetypeTableRecord
  2
AM_ISO09W050
 70
     0
  3
_____ . . _____ . . _____ . . ____ .. ____
 72
    65
 73
     6
 40
22.5
 49
12.0
 74
     0
 49
-1.5
 74
     0
 49
3.0
 74
     0
 49
-1.5
 74
     0
 49
3.0
 74
     0
 49
-1.5
 74
     0
  0
LTYPE
  5
50
330
5
100
AcDbSymbolTableRecord
100
AcDbLinetypeTableRecord
  2
Amconstr
 70
     0
  3
_______________________
 72
    65
 73
     2
 40
9999.0
 49
9999.0
 74
     0
 49
0.0
 74
     0
  0
LTYPE
  5
51
330
5
100
AcDbSymbolTableRecord
100
AcDbLinetypeTableRecord
  2
AM_ISO08W050x2
 70
     0
  3
__ . __ . __ . __ . __ . __
 72
    65
 73
     4
 40
9.0
 49
6.0
 74
     0
 49
-0.75
 74
     0
 49
1.5
 74
     0
 49
-0.75
 74
     0
  0
LTYPE
  5
52
330
5
100
AcDbSymbolTableRecord
100
AcDbLinetypeTableRecord
  2
AM_ISO02W050x2
 70
     0
  3
 _ _ _ _ _ _ _ _ _ _ _ _
 72
    65
 73
     2
 40
3.75
 49
3.0
 74
     0
 49
-0.75
 74
     0
  0
LTYPE
  5
55
330
5
100
AcDbSymbolTableRecord
100
AcDbLinetypeTableRecord
  2
Amzigzag
 70
     0
  3
/\/-/\/-/\/-/\/-/\/-/\/
 72
    65
 73
     2
 40
11.0001
 49
0.0001
 74
     4
 75
   135
340
54
 46
0.04
 50
0.0
 44
0.0
 45
0.0
 49
-11.0
 74
     0
  0
LTYPE
  5
63
330
5
100
AcDbSymbolTableRecord
100
AcDbLinetypeTableRecord
  2
ACISOWELD
 70
     0
  3
_ _ _ _ _
 72
    65
 73
     2
 40
2.0
 49
2.0
 74
     0
 49
-1.0
 74
     0
  0
LTYPE
  5
64
330
5
100
AcDbSymbolTableRecord
100
AcDbLinetypeTableRecord
  2
ACISOTGB
 70
     0
  3
__ . . __ . .
 72
    65
 73
     6
 40
9.0
 49
4.0
 74
     0
 49
-1.0
 74
     0
 49
1.0
 74
     0
 49
-1.0
 74
     0
 49
1.0
 74
     0
 49
-1.0
 74
     0
  0
LTYPE
  5
65
330
5
100
AcDbSymbolTableRecord
100
AcDbLinetypeTableRecord
  2
ACISOTGL
 70
     0
  3
_ _ _ _ _
 72
    65
 73
     2
 40
3.0
 49
2.0
 74
     0
 49
-1.0
 74
     0
  0
LTYPE
  5
68
330
5
100
AcDbSymbolTableRecord
100
AcDbLinetypeTableRecord
  2
CENTER
 70
     0
  3
__ . __
 72
    65
 73
     4
 40
7.0
 49
4.0
 74
     0
 49
-1.0
 74
     0
 49
1.0
 74
     0
 49
-1.0
 74
     0
  0
LTYPE
  5
932
330
5
100
AcDbSymbolTableRecord
100
AcDbLinetypeTableRecord
  2
HIDDEN
 70
     0
  3
Hidden __ __ __ __ __ __ __ __ __ __ __ __ __ _
 72
    65
 73
     2
 40
9.524999999999998
 49
6.349999999999999
 74
     0
 49
-3.174999999999999
 74
     0
  0
LTYPE
  5
933
330
5
100
AcDbSymbolTableRecord
100
AcDbLinetypeTableRecord
  2
PHANTOM2
 70
     0
  3
Phantom (.5x) ___ _ _ ___ _ _ ___ _ _ ___ _ _
 72
    65
 73
     6
 40
31.75
 49
15.875
 74
     0
 49
-3.174999999999999
 74
     0
 49
3.174999999999999
 74
     0
 49
-3.174999999999999
 74
     0
 49
3.174999999999999
 74
     0
 49
-3.174999999999999
 74
     0
  0
ENDTAB
  0
TABLE
  2
LAYER
  5
2
102
{ACAD_XDICTIONARY
360
E05
102
}
330
0
100
AcDbSymbolTable
 70
     6
  0
LAYER
  5
10
330
2
100
AcDbSymbolTableRecord
100
AcDbLayerTableRecord
  2
0
 70
     0
 62
     7
  6
Continuous
370
    -3
390
F
  0
LAYER
  5
2D7
330
2
100
AcDbSymbolTableRecord
100
AcDbLayerTableRecord
  2
M_1
 70
     0
 62
     7
  6
Continuous
370
    -3
390
F
  0
LAYER
  5
42A
330
2
100
AcDbSymbolTableRecord
100
AcDbLayerTableRecord
  2
AM_5
 70
     0
 62
     5
  6
Continuous
370
    50
390
F
  0
LAYER
  5
43E
330
2
100
AcDbSymbolTableRecord
100
AcDbLayerTableRecord
  2
Defpoints
 70
     0
 62
     7
  6
Continuous
290
     0
370
    -3
390
F
  0
LAYER
  5
E7E
330
2
100
AcDbSymbolTableRecord
100
AcDbLayerTableRecord
  2
AM_7
 70
     0
 62
     1
  6
CENTER
370
    25
390
F
  0
LAYER
  5
2787
330
2
100
AcDbSymbolTableRecord
100
AcDbLayerTableRecord
  2
LOGO
 70
     0
 62
     7
  6
Continuous
370
    -3
390
F
  0
ENDTAB
  0
TABLE
  2
STYLE
  5
3
330
0
100
AcDbSymbolTable
 70
     8
  0
STYLE
  5
11
330
3
100
AcDbSymbolTableRecord
100
AcDbTextStyleTableRecord
  2
STANDARD
 70
     0
 40
0.0
 41
1.0
 50
0.0
 71
     0
 42
3.5
  3
ISOCP.SHX
  4
CHINESET.SHX
  0
STYLE
  5
54
330
3
100
AcDbSymbolTableRecord
100
AcDbTextStyleTableRecord
  2

 70
     1
 40
0.0
 41
1.0
 50
0.0
 71
     0
 42
2.5
  3
ltypeshp.shx
  4

  0
STYLE
  5
56
330
3
100
AcDbSymbolTableRecord
100
AcDbTextStyleTableRecord
  2
ACISOTS
 70
     0
 40
1.0
 41
1.0
 50
0.0
 71
     0
 42
2.5
  3
isocp.shx
  4
chineset.shx
  0
STYLE
  5
62
330
3
100
AcDbSymbolTableRecord
100
AcDbTextStyleTableRecord
  2
ACISOGDT
 70
     0
 40
0.0
 41
1.0
 50
0.0
 71
     0
 42
3.5
  3
amgdt.shx
  4

  0
STYLE
  5
9E
330
3
100
AcDbSymbolTableRecord
100
AcDbTextStyleTableRecord
  2
DAYUS
 70
     0
 40
0.0
 41
1.0
 50
0.0
 71
     0
 42
2.5
  3
simplex
  4
dayus
  0
STYLE
  5
10CF
330
3
100
AcDbSymbolTableRecord
100
AcDbTextStyleTableRecord
  2
CHINESET
 70
     0
 40
0.0
 41
0.75
 50
0.0
 71
     0
 42
3.0
  3
simplex.shx
  4
CHINESET.SHX
  0
STYLE
  5
2BA6
330
3
100
AcDbSymbolTableRecord
100
AcDbTextStyleTableRecord
  2
China
 70
     0
 40
0.0
 41
1.0
 50
0.0
 71
     0
 42
2.5
  3
romans.shx
  4
chineset.shx
  0
ENDTAB
  0
TABLE
  2
VIEW
  5
6
330
0
100
AcDbSymbolTable
 70
     0
  0
ENDTAB
  0
TABLE
  2
UCS
  5
7
330
0
100
AcDbSymbolTable
 70
     0
  0
ENDTAB
  0
TABLE
  2
APPID
  5
9
330
0
100
AcDbSymbolTable
 70
    31
  0
APPID
  5
12
330
9
100
AcDbSymbolTableRecord
100
AcDbRegAppTableRecord
  2
ACAD
 70
     0
  0
APPID
  5
30
330
9
100
AcDbSymbolTableRecord
100
AcDbRegAppTableRecord
  2
MCAD_NO_VIS
 70
     0
  0
APPID
  5
31
330
9
100
AcDbSymbolTableRecord
100
AcDbRegAppTableRecord
  2
ACAD_TEMP_GRAPHIC
 70
     0
  0
APPID
  5
42
330
9
100
AcDbSymbolTableRecord
100
AcDbRegAppTableRecord
  2
ACATTRIBSERVICES
 70
     0
  0
APPID
  5
20A
330
9
100
AcDbSymbolTableRecord
100
AcDbRegAppTableRecord
  2
GENIUS_GENODEF_13
 70
     0
  0
APPID
  5
20B
330
9
100
AcDbSymbolTableRecord
100
AcDbRegAppTableRecord
  2
GENIUS_GENOBJ-N-HTC_13
 70
     0
  0
APPID
  5
20C
330
9
100
AcDbSymbolTableRecord
100
AcDbRegAppTableRecord
  2
GENIUS_GENHATCH_13
 70
     0
  0
APPID
  5
935
330
9
100
AcDbSymbolTableRecord
100
AcDbRegAppTableRecord
  2
AD_DRAW
 70
     0
  0
APPID
  5
953
330
9
100
AcDbSymbolTableRecord
100
AcDbRegAppTableRecord
  2
DESIGNERASSEMBLIES
 70
     0
  0
APPID
  5
958
330
9
100
AcDbSymbolTableRecord
100
AcDbRegAppTableRecord
  2
ACADM_DIM_EDIT
 70
     0
  0
APPID
  5
959
330
9
100
AcDbSymbolTableRecord
100
AcDbRegAppTableRecord
  2
AMDT_DM_ADJ
 70
     0
  0
APPID
  5
E24
330
9
100
AcDbSymbolTableRecord
100
AcDbRegAppTableRecord
  2
ACAD_DSTYLE_DIMTEXT_FILL
 70
     0
  0
APPID
  5
10D0
330
9
100
AcDbSymbolTableRecord
100
AcDbRegAppTableRecord
  2
ACAD_PSEXT
 70
     0
  0
APPID
  5
16F7
330
9
100
AcDbSymbolTableRecord
100
AcDbRegAppTableRecord
  2
ACAD_DIMASSOC_DIMLFAC
 70
     0
  0
APPID
  5
16F8
330
9
100
AcDbSymbolTableRecord
100
AcDbRegAppTableRecord
  2
ACAD_DIMASSOC_CALC_DIMLFAC
 70
     0
  0
APPID
  5
16F9
330
9
100
AcDbSymbolTableRecord
100
AcDbRegAppTableRecord
  2
ACAD_DIMASSOC_OVERRIDDEN_DIMLFAC
 70
     0
  0
APPID
  5
1997
330
9
100
AcDbSymbolTableRecord
100
AcDbRegAppTableRecord
  2
GEVID1139552286
 70
     0
  0
APPID
  5
1998
330
9
100
AcDbSymbolTableRecord
100
AcDbRegAppTableRecord
  2
GEVDC
 70
     0
  0
APPID
  5
1999
330
9
100
AcDbSymbolTableRecord
100
AcDbRegAppTableRecord
  2
GEVRADREF
 70
     0
  0
APPID
  5
19A2
330
9
100
AcDbSymbolTableRecord
100
AcDbRegAppTableRecord
  2
AMG_2DHIDE
 70
     0
  0
APPID
  5
19A3
330
9
100
AcDbSymbolTableRecord
100
AcDbRegAppTableRecord
  2
AMG_2DSTRUCT_BTR
 70
     0
  0
APPID
  5
19B4
330
9
100
AcDbSymbolTableRecord
100
AcDbRegAppTableRecord
  2
ACADM_2DVIEW_IGN_NOTIFY
 70
     0
  0
APPID
  5
19DC
330
9
100
AcDbSymbolTableRecord
100
AcDbRegAppTableRecord
  2
GENIUS_GENOENT_13
 70
     0
  0
APPID
  5
19DD
330
9
100
AcDbSymbolTableRecord
100
AcDbRegAppTableRecord
  2
GENIUS_GENOBJ-N-CRS_13
 70
     0
  0
APPID
  5
19DE
330
9
100
AcDbSymbolTableRecord
100
AcDbRegAppTableRecord
  2
GENIUS_GENOLIS_13
 70
     0
  0
APPID
  5
19DF
330
9
100
AcDbSymbolTableRecord
100
AcDbRegAppTableRecord
  2
GENIUS_GENOREF_13
 70
     0
  0
APPID
  5
1B28
330
9
100
AcDbSymbolTableRecord
100
AcDbRegAppTableRecord
  2
GENIUS_GENOBJ-N-CEN_13
 70
     0
  0
APPID
  5
1B29
330
9
100
AcDbSymbolTableRecord
100
AcDbRegAppTableRecord
  2
GENIUS_GENCEN_19
 70
     0
  0
APPID
  5
2753
330
9
100
AcDbSymbolTableRecord
100
AcDbRegAppTableRecord
  2
GENIUS_GENDTOL_13
 70
     0
  0
APPID
  5
2788
330
9
100
AcDbSymbolTableRecord
100
AcDbRegAppTableRecord
  2
GENIUS_GENREC_14
 70
     0
  0
APPID
  5
2789
330
9
100
AcDbSymbolTableRecord
100
AcDbRegAppTableRecord
  2
GENIUS_GENOBJ-N-REC_13
 70
     0
  0
ENDTAB
  0
TABLE
  2
DIMSTYLE
  5
A
330
0
100
AcDbSymbolTable
 70
    11
100
AcDbDimStyleTable
 71
     2
340
6B
340
75
  0
DIMSTYLE
105
6B
330
A
100
AcDbSymbolTableRecord
100
AcDbDimStyleTableRecord
  2
AM_ISO
 70
     0
  4
"
 41
2.5
 42
1.0
 43
6.0
 44
1.5
 47
0.1
 48
0.1
 73
     0
 74
     0
 77
     1
 78
     8
 79
     2
140
3.0
141
3.0
143
0.0393701
146
0.71
147
0.8
172
     1
176
   256
177
   256
178
   256
271
     2
272
     2
283
     0
284
     8
340
11
371
    -1
372
    -1
  0
DIMSTYLE
105
6C
330
A
100
AcDbSymbolTableRecord
100
AcDbDimStyleTableRecord
  2
AM_ISO$3
 70
     0
  4
"
 41
2.5
 42
1.0
 43
6.0
 44
1.5
 47
0.1
 48
0.1
 73
     0
 77
     1
 78
     8
 79
     2
140
3.0
141
3.0
143
0.0393701
146
0.71
147
0.8
176
   256
177
   256
178
   256
271
     2
272
     2
283
     0
284
     8
288
     1
289
     0
340
11
371
    -1
372
    -1
  0
DIMSTYLE
105
6D
330
A
100
AcDbSymbolTableRecord
100
AcDbDimStyleTableRecord
  2
AM_ISO$4
 70
     0
  4
"
 41
2.5
 42
1.0
 43
6.0
 44
1.5
 47
0.1
 48
0.1
 73
     0
 77
     1
 78
     8
 79
     2
140
3.0
141
3.0
143
0.0393701
146
0.71
147
0.8
176
   256
177
   256
178
   256
271
     2
272
     2
283
     0
284
     8
288
     1
289
     0
340
11
371
    -1
372
    -1
  0
DIMSTYLE
105
6E
330
A
100
AcDbSymbolTableRecord
100
AcDbDimStyleTableRecord
  2
AM_ISO$6
 70
     0
  4
"
 41
2.5
 42
1.0
 43
6.0
 44
1.5
 47
0.1
 48
0.1
 73
     0
 74
     0
 78
     8
 79
     2
140
3.0
141
3.0
143
0.0393701
146
0.71
147
0.8
172
     1
176
   256
177
   256
178
   256
271
     2
272
     2
283
     0
284
     8
340
11
371
    -1
372
    -1
  0
DIMSTYLE
105
6F
330
A
100
AcDbSymbolTableRecord
100
AcDbDimStyleTableRecord
  2
AM_ISO$7
 70
     0
  4
"
 41
2.5
 42
1.0
 43
6.0
 44
1.5
 47
0.1
 48
0.1
 73
     0
 74
     0
 77
     1
 78
     8
 79
     2
140
5.0
141
3.0
143
0.0393701
146
0.71
147
0.8
172
     1
176
   256
177
   256
178
   256
271
     2
272
     2
283
     0
284
     8
340
11
371
    -1
372
    -1
  0
DIMSTYLE
105
70
330
A
100
AcDbSymbolTableRecord
100
AcDbDimStyleTableRecord
  2
AM_ISO$SF
 70
     0
  4
"
 41
2.5
 42
1.0
 43
10.0
 44
1.0
 47
0.1
 48
0.1
 73
     0
 74
     0
 75
     1
 76
     1
 77
     1
 78
     8
 79
     2
140
3.5
141
0.0
143
0.0393701
146
0.71
147
1.5
172
     1
176
   256
177
   256
178
     2
271
     2
272
     3
274
     4
283
     0
284
     8
340
11
371
    -1
372
    -1
  0
DIMSTYLE
105
75
330
A
100
AcDbSymbolTableRecord
100
AcDbDimStyleTableRecord
  2
AM_ISO$SH
 70
     0
  4
"
 41
2.5
 42
1.0
 43
10.0
 44
1.0
 47
0.1
 48
0.1
 73
     0
 74
     0
 75
     1
 76
     1
 77
     1
 78
     8
 79
     2
140
3.5
141
0.0
143
0.0393701
144
2.0
146
0.71
147
1.5
172
     1
173
     1
176
   256
177
   256
178
     2
271
     2
272
     3
274
     4
283
     0
284
     8
340
11
343
71
371
    -1
372
    -1
  0
DIMSTYLE
105
E7F
102
{ACAD_REACTORS
330
2E1E
330
2E50
330
2E1F
330
2E41
330
2E23
330
2E20
330
2E42
330
2E29
330
2E25
330
2E24
330
2D37
330
2D38
330
2D3B
330
2D49
330
2D41
330
2D43
330
2D48
330
2D46
330
2D47
330
2D64
330
2D63
330
2DD0
102
}
330
A
100
AcDbSymbolTableRecord
100
AcDbDimStyleTableRecord
  2
AM_ISO$0
 70
     0
  4
"
 41
2.5
 42
1.0
 43
6.0
 44
1.5
 47
0.1
 48
0.1
 73
     0
 74
     0
 77
     1
 78
     8
 79
     2
140
3.0
141
3.0
143
0.0393701
146
0.71
147
0.8
172
     1
176
   256
177
   256
178
   256
271
     2
272
     2
283
     0
284
     8
340
11
371
    -1
372
    -1
  0
DIMSTYLE
105
1597
330
A
100
AcDbSymbolTableRecord
100
AcDbDimStyleTableRecord
  2
AM_ISO$2
 70
     0
  4
"
 41
2.5
 42
1.0
 43
6.0
 44
1.5
 47
0.1
 48
0.1
 73
     0
 74
     0
 77
     1
 78
     8
 79
     2
140
3.0
141
3.0
143
0.0393701
146
0.71
147
0.8
172
     1
176
   256
177
   256
178
   256
271
     2
272
     2
283
     0
284
     8
340
11
371
    -1
372
    -1
  0
DIMSTYLE
105
2BA7
330
A
100
AcDbSymbolTableRecord
100
AcDbDimStyleTableRecord
  2
ISO-25
 70
     0
 41
2.0
 42
1.0
 44
1.0
 73
     0
 74
     0
 77
     1
 78
     8
140
2.5
141
0.0
143
0.03937007874016
147
1.0
171
     3
172
     1
174
     1
176
   256
177
   256
178
   256
271
     2
272
     2
274
     3
283
     0
284
     8
340
2BA6
371
    -1
372
    -1
  0
ENDTAB
  0
TABLE
  2
BLOCK_RECORD
  5
1
330
0
100
AcDbSymbolTable
 70
    28
  0
BLOCK_RECORD
  5
1F
102
{ACAD_XDICTIONARY
360
7D
102
}
330
1
100
AcDbSymbolTableRecord
100
AcDbBlockTableRecord
  2
*Model_Space
340
22
  0
BLOCK_RECORD
  5
1B
330
1
100
AcDbSymbolTableRecord
100
AcDbBlockTableRecord
  2
*Paper_Space
340
1E
  0
BLOCK_RECORD
  5
23
330
1
100
AcDbSymbolTableRecord
100
AcDbBlockTableRecord
  2
*Paper_Space0
340
26
  0
BLOCK_RECORD
  5
71
330
1
100
AcDbSymbolTableRecord
100
AcDbBlockTableRecord
  2
GENAXEH
340
0
  0
BLOCK_RECORD
  5
19B9
330
1
100
AcDbSymbolTableRecord
100
AcDbBlockTableRecord
  2
*U4
340
0
  0
BLOCK_RECORD
  5
2EB3
330
1
100
AcDbSymbolTableRecord
100
AcDbBlockTableRecord
  2
*D5
340
0
  0
BLOCK_RECORD
  5
2EBF
330
1
100
AcDbSymbolTableRecord
100
AcDbBlockTableRecord
  2
*D6
340
0
  0
BLOCK_RECORD
  5
2ECB
330
1
100
AcDbSymbolTableRecord
100
AcDbBlockTableRecord
  2
*D7
340
0
  0
BLOCK_RECORD
  5
2ED9
330
1
100
AcDbSymbolTableRecord
100
AcDbBlockTableRecord
  2
*D8
340
0
  0
BLOCK_RECORD
  5
2EE5
330
1
100
AcDbSymbolTableRecord
100
AcDbBlockTableRecord
  2
*D9
340
0
  0
BLOCK_RECORD
  5
2EF2
330
1
100
AcDbSymbolTableRecord
100
AcDbBlockTableRecord
  2
*D10
340
0
  0
BLOCK_RECORD
  5
2EFE
330
1
100
AcDbSymbolTableRecord
100
AcDbBlockTableRecord
  2
*D11
340
0
  0
BLOCK_RECORD
  5
2F0A
330
1
100
AcDbSymbolTableRecord
100
AcDbBlockTableRecord
  2
*D12
340
0
  0
BLOCK_RECORD
  5
2F17
330
1
100
AcDbSymbolTableRecord
100
AcDbBlockTableRecord
  2
*D13
340
0
  0
BLOCK_RECORD
  5
2F24
330
1
100
AcDbSymbolTableRecord
100
AcDbBlockTableRecord
  2
*D14
340
0
  0
BLOCK_RECORD
  5
2F30
330
1
100
AcDbSymbolTableRecord
100
AcDbBlockTableRecord
  2
*D15
340
0
  0
BLOCK_RECORD
  5
2F3C
330
1
100
AcDbSymbolTableRecord
100
AcDbBlockTableRecord
  2
*D16
340
0
  0
BLOCK_RECORD
  5
2F48
330
1
100
AcDbSymbolTableRecord
100
AcDbBlockTableRecord
  2
*D17
340
0
  0
BLOCK_RECORD
  5
2F54
330
1
100
AcDbSymbolTableRecord
100
AcDbBlockTableRecord
  2
*D18
340
0
  0
BLOCK_RECORD
  5
2F5F
330
1
100
AcDbSymbolTableRecord
100
AcDbBlockTableRecord
  2
*D19
340
0
  0
BLOCK_RECORD
  5
2F6B
330
1
100
AcDbSymbolTableRecord
100
AcDbBlockTableRecord
  2
*D20
340
0
  0
BLOCK_RECORD
  5
2F78
330
1
100
AcDbSymbolTableRecord
100
AcDbBlockTableRecord
  2
*D21
340
0
  0
BLOCK_RECORD
  5
2F83
330
1
100
AcDbSymbolTableRecord
100
AcDbBlockTableRecord
  2
*D22
340
0
  0
BLOCK_RECORD
  5
2F8F
330
1
100
AcDbSymbolTableRecord
100
AcDbBlockTableRecord
  2
*D23
340
0
  0
BLOCK_RECORD
  5
2F9B
330
1
100
AcDbSymbolTableRecord
100
AcDbBlockTableRecord
  2
*D24
340
0
  0
BLOCK_RECORD
  5
2FA9
330
1
100
AcDbSymbolTableRecord
100
AcDbBlockTableRecord
  2
*D25
340
0
  0
BLOCK_RECORD
  5
2FB6
330
1
100
AcDbSymbolTableRecord
100
AcDbBlockTableRecord
  2
*D26
340
0
  0
ENDTAB
  0
ENDSEC
  0
SECTION
  2
BLOCKS
  0
BLOCK
  5
20
330
1F
100
AcDbEntity
  8
0
100
AcDbBlockBegin
  2
*Model_Space
 70
     0
 10
0.0
 20
0.0
 30
0.0
  3
*Model_Space
  1

  0
ENDBLK
  5
21
330
1F
100
AcDbEntity
  8
0
100
AcDbBlockEnd
  0
BLOCK
  5
1C
330
1B
100
AcDbEntity
 67
     1
  8
0
100
AcDbBlockBegin
  2
*Paper_Space
 70
     0
 10
0.0
 20
0.0
 30
0.0
  3
*Paper_Space
  1

  0
ENDBLK
  5
1D
330
1B
100
AcDbEntity
 67
     1
  8
0
100
AcDbBlockEnd
  0
BLOCK
  5
24
330
23
100
AcDbEntity
  8
0
100
AcDbBlockBegin
  2
*Paper_Space0
 70
     0
 10
0.0
 20
0.0
 30
0.0
  3
*Paper_Space0
  1

  0
ENDBLK
  5
25
330
23
100
AcDbEntity
  8
0
100
AcDbBlockEnd
  0
BLOCK
  5
73
330
71
100
AcDbEntity
  8
0
100
AcDbBlockBegin
  2
GENAXEH
 70
     0
 10
0.0
 20
0.0
 30
0.0
  3
GENAXEH
  1

  0
LINE
  5
72
330
71
100
AcDbEntity
  8
0
100
AcDbLine
 10
-1.0
 20
0.0
 30
0.0
 11
1.0
 21
0.0
 31
0.0
  0
ENDBLK
  5
74
330
71
100
AcDbEntity
  8
0
100
AcDbBlockEnd
  0
BLOCK
  5
19BA
330
19B9
100
AcDbEntity
  8
0
100
AcDbBlockBegin
  2
*U4
 70
     1
 10
0.0
 20
0.0
 30
0.0
  3
*U4
  1

  0
ENDBLK
  5
19BB
330
19B9
100
AcDbEntity
  8
0
100
AcDbBlockEnd
  0
BLOCK
  5
2EBD
330
2EB3
100
AcDbEntity
  8
0
100
AcDbBlockBegin
  2
*D5
 70
     1
 10
0.0
 20
0.0
 30
0.0
  3
*D5
  1

  0
LINE
  5
337A
330
2EB3
100
AcDbEntity
  8
AM_5
100
AcDbLine
 10
1172.513949425948
 20
87.30599297099615
 30
0.0
 11
1135.940701076623
 21
92.12071020768377
 31
0.0
  0
LINE
  5
337B
330
2EB3
100
AcDbEntity
  8
AM_5
100
AcDbLine
 10
1169.642551410631
 20
65.49446229090745
 30
0.0
 11
1133.069303061306
 21
70.30917952759506
 31
0.0
  0
LINE
  5
337C
330
2EB3
100
AcDbEntity
  8
AM_5
100
AcDbLine
 10
1137.101570300982
 20
89.44631632421462
 30
0.0
 11
1134.882770970551
 21
72.59201420013221
 31
0.0
  0
SOLID
  5
337D
330
2EB3
100
AcDbEntity
  8
AM_5
100
AcDbTrace
 10
1136.688467921315
 20
89.50069954795521
 30
0.0
 11
1137.514672680649
 21
89.39193310047405
 31
0.0
 12
1137.427869643425
 22
91.92493060221776
 32
0.0
 13
1137.427869643425
 23
91.92493060221776
 33
0.0
  0
SOLID
  5
337E
330
2EB3
100
AcDbEntity
  8
AM_5
100
AcDbTrace
 10
1134.469668590884
 20
72.6463974238728
 30
0.0
 11
1135.295873350218
 21
72.53763097639165
 31
0.0
 12
1134.556471628108
 22
70.11339992212905
 32
0.0
 13
1134.556471628108
 23
70.11339992212905
 33
0.0
  0
MTEXT
  5
337F
330
2EB3
100
AcDbEntity
  8
AM_5
100
AcDbMText
 10
1133.711845500004
 20
81.31936065722142
 30
0.0
 40
3.0
 41
0.0
 71
     5
 72
     1
  1
22
  7
CHINESET
 11
0.1305197369773379
 21
0.991445711201257
 31
0.0
 73
     1
 44
1.0
1001
ACAD
1000
MTEXTBEGIN
1070
    73
1070
     1
1070
    44
1040
1.0
1070
    74
1070
     0
1000
MTEXTEND
  0
POINT
  5
3380
330
2EB3
100
AcDbEntity
  8
Defpoints
 62
     0
100
AcDbPoint
 10
1173.505395137149
 20
87.17547323401882
 30
0.0
  0
POINT
  5
3381
330
2EB3
100
AcDbEntity
  8
Defpoints
 62
     0
100
AcDbPoint
 10
1170.633997121832
 20
65.36394255393012
 30
0.0
  0
POINT
  5
3382
330
2EB3
100
AcDbEntity
  8
Defpoints
 62
     0
100
AcDbPoint
 10
1134.556471628108
 20
70.11339992212905
 30
0.0
  0
ENDBLK
  5
2EBE
330
2EB3
100
AcDbEntity
  8
0
100
AcDbBlockEnd
  0
BLOCK
  5
2EC9
330
2EBF
100
AcDbEntity
  8
0
100
AcDbBlockBegin
  2
*D6
 70
     1
 10
0.0
 20
0.0
 30
0.0
  3
*D6
  1

  0
LINE
  5
3383
330
2EBF
100
AcDbEntity
  8
AM_5
100
AcDbLine
 10
1169.642368953687
 20
65.49307632309456
 30
0.0
 11
1133.069120604363
 21
70.307793559782
 31
0.0
  0
LINE
  5
3384
330
2EBF
100
AcDbEntity
  8
AM_5
100
AcDbLine
 10
1167.097425454649
 20
46.16133864261522
 30
0.0
 11
1130.524177105325
 21
50.97605587930266
 31
0.0
  0
LINE
  5
3385
330
2EBF
100
AcDbEntity
  8
AM_5
100
AcDbLine
 10
1134.229989828722
 20
67.63339967631285
 30
0.0
 11
1132.33764501457
 21
53.25889055183981
 31
0.0
  0
SOLID
  5
3386
330
2EBF
100
AcDbEntity
  8
AM_5
100
AcDbTrace
 10
1133.816887449055
 20
67.68778290005343
 30
0.0
 11
1134.643092208389
 21
67.57901645257229
 31
0.0
 12
1134.556289171165
 22
70.11201395431598
 32
0.0
 13
1134.556289171165
 23
70.11201395431598
 33
0.0
  0
SOLID
  5
3387
330
2EBF
100
AcDbEntity
  8
AM_5
100
AcDbTrace
 10
1131.924542634903
 20
53.31327377558039
 30
0.0
 11
1132.750747394237
 21
53.20450732809925
 31
0.0
 12
1132.011345672127
 22
50.78027627383665
 32
0.0
 13
1132.011345672127
 23
50.78027627383665
 33
0.0
  0
MTEXT
  5
3388
330
2EBF
100
AcDbEntity
  8
AM_5
100
AcDbMText
 10
1131.003492285883
 20
60.7463405091244
 30
0.0
 40
3.0
 41
0.0
 71
     5
 72
     1
  1
19.5
  7
CHINESET
 11
0.1305197369773352
 21
0.9914457112012573
 31
0.0
 73
     1
 44
1.0
1001
ACAD
1000
MTEXTBEGIN
1070
    73
1070
     1
1070
    44
1040
1.0
1070
    74
1070
     0
1000
MTEXTEND
  0
POINT
  5
3389
330
2EBF
100
AcDbEntity
  8
Defpoints
 62
     0
100
AcDbPoint
 10
1170.633814664888
 20
65.36255658611722
 30
0.0
  0
POINT
  5
338A
330
2EBF
100
AcDbEntity
  8
Defpoints
 62
     0
100
AcDbPoint
 10
1168.08887116585
 20
46.03081890563788
 30
0.0
  0
POINT
  5
338B
330
2EBF
100
AcDbEntity
  8
Defpoints
 62
     0
100
AcDbPoint
 10
1132.011345672127
 20
50.78027627383665
 30
0.0
  0
ENDBLK
  5
2ECA
330
2EBF
100
AcDbEntity
  8
0
100
AcDbBlockEnd
  0
BLOCK
  5
2ED7
330
2ECB
100
AcDbEntity
  8
0
100
AcDbBlockBegin
  2
*D7
 70
     1
 10
0.0
 20
0.0
 30
0.0
  3
*D7
  1

  0
LINE
  5
338C
330
2ECB
100
AcDbEntity
  8
AM_5
100
AcDbLine
 10
1167.097425454649
 20
46.16133864261527
 30
0.0
 11
1130.524177105326
 21
50.97605587930329
 31
0.0
  0
LINE
  5
338D
330
2ECB
100
AcDbEntity
  8
AM_5
100
AcDbLine
 10
1166.444813403818
 20
41.20400855707098
 30
0.0
 11
1129.871565054495
 21
46.01872579375899
 31
0.0
  0
LINE
  5
338E
330
2ECB
100
AcDbEntity
  8
AM_5
100
AcDbLine
 10
1132.337645014571
 20
53.25889055184041
 30
0.0
 11
1132.663944357015
 21
55.73750482984355
 31
0.0
  0
LINE
  5
338F
330
2ECB
100
AcDbEntity
  8
AM_5
100
AcDbLine
 10
1131.032434278853
 20
43.34433191028984
 30
0.0
 11
1130.706134936409
 21
40.8657176322867
 31
0.0
  0
LINE
  5
3390
330
2ECB
100
AcDbEntity
  8
AM_5
100
AcDbLine
 10
1132.011345672128
 20
50.78027627383727
 30
0.0
 11
1131.358733621296
 21
45.82294618829297
 31
0.0
  0
SOLID
  5
3391
330
2ECB
100
AcDbEntity
  8
AM_5
100
AcDbTrace
 10
1131.924542634904
 20
53.31327377558096
 30
0.0
 11
1132.750747394239
 21
53.20450732809982
 31
0.0
 12
1132.011345672128
 22
50.78027627383727
 32
0.0
 13
1132.011345672128
 23
50.78027627383727
 33
0.0
  0
SOLID
  5
3392
330
2ECB
100
AcDbEntity
  8
AM_5
100
AcDbTrace
 10
1130.619331899186
 20
43.39871513403039
 30
0.0
 11
1131.44553665852
 21
43.28994868654925
 31
0.0
 12
1131.358733621296
 22
45.82294618829297
 32
0.0
 13
1131.358733621296
 23
45.82294618829297
 33
0.0
  0
MTEXT
  5
3393
330
2ECB
100
AcDbEntity
  8
AM_5
100
AcDbMText
 10
1129.40471451095
 20
48.60180662611316
 30
0.0
 40
3.0
 41
0.0
 71
     5
 72
     1
  1
5
  7
CHINESET
 11
0.1305197369773546
 21
0.9914457112012549
 31
0.0
 73
     1
 44
1.0
1001
ACAD
1000
MTEXTBEGIN
1070
    73
1070
     1
1070
    44
1040
1.0
1070
    74
1070
     0
1000
MTEXTEND
  0
POINT
  5
3394
330
2ECB
100
AcDbEntity
  8
Defpoints
 62
     0
100
AcDbPoint
 10
1168.08887116585
 20
46.03081890563792
 30
0.0
  0
POINT
  5
3395
330
2ECB
100
AcDbEntity
  8
Defpoints
 62
     0
100
AcDbPoint
 10
1167.436259115019
 20
41.07348882009361
 30
0.0
  0
POINT
  5
3396
330
2ECB
100
AcDbEntity
  8
Defpoints
 62
     0
100
AcDbPoint
 10
1131.358733621296
 20
45.82294618829297
 30
0.0
  0
ENDBLK
  5
2ED8
330
2ECB
100
AcDbEntity
  8
0
100
AcDbBlockEnd
  0
BLOCK
  5
2EE3
330
2ED9
100
AcDbEntity
  8
0
100
AcDbBlockBegin
  2
*D8
 70
     1
 10
0.0
 20
0.0
 30
0.0
  3
*D8
  1

  0
LINE
  5
3325
330
2ED9
100
AcDbEntity
  8
AM_5
100
AcDbLine
 10
1067.9202194373
 20
33.13970199683371
 30
0.0
 11
1067.9202194373
 21
21.81349759056474
 31
0.0
  0
LINE
  5
3326
330
2ED9
100
AcDbEntity
  8
AM_5
100
AcDbLine
 10
1098.4202194373
 20
38.36370199683364
 30
0.0
 11
1098.4202194373
 21
21.81349759056474
 31
0.0
  0
LINE
  5
3327
330
2ED9
100
AcDbEntity
  8
AM_5
100
AcDbLine
 10
1070.420219437299
 20
23.31349759056474
 30
0.0
 11
1095.920219437299
 21
23.31349759056474
 31
0.0
  0
SOLID
  5
3328
330
2ED9
100
AcDbEntity
  8
AM_5
100
AcDbTrace
 10
1070.420219437299
 20
23.7301642572314
 30
0.0
 11
1070.420219437299
 21
22.89683092389807
 31
0.0
 12
1067.9202194373
 22
23.31349759056474
 32
0.0
 13
1067.9202194373
 23
23.31349759056474
 33
0.0
  0
SOLID
  5
3329
330
2ED9
100
AcDbEntity
  8
AM_5
100
AcDbTrace
 10
1095.920219437299
 20
23.7301642572314
 30
0.0
 11
1095.920219437299
 21
22.89683092389807
 31
0.0
 12
1098.4202194373
 22
23.31349759056474
 32
0.0
 13
1098.4202194373
 23
23.31349759056474
 33
0.0
  0
MTEXT
  5
332A
330
2ED9
100
AcDbEntity
  8
AM_5
100
AcDbMText
 10
1083.1702194373
 20
25.61349759056474
 30
0.0
 40
3.0
 41
0.0
 71
     5
 72
     1
  1
30.5
  7
CHINESET
 73
     1
 44
1.0
1001
ACAD
1000
MTEXTBEGIN
1070
    73
1070
     1
1070
    44
1040
1.0
1070
    74
1070
     0
1000
MTEXTEND
  0
POINT
  5
332B
330
2ED9
100
AcDbEntity
  8
Defpoints
 62
     0
100
AcDbPoint
 10
1067.9202194373
 20
34.13970199683371
 30
0.0
  0
POINT
  5
332C
330
2ED9
100
AcDbEntity
  8
Defpoints
 62
     0
100
AcDbPoint
 10
1098.4202194373
 20
39.36370199683364
 30
0.0
  0
POINT
  5
332D
330
2ED9
100
AcDbEntity
  8
Defpoints
 62
     0
100
AcDbPoint
 10
1098.4202194373
 20
23.31349759056474
 30
0.0
  0
ENDBLK
  5
2EE4
330
2ED9
100
AcDbEntity
  8
0
100
AcDbBlockEnd
  0
BLOCK
  5
2EF0
330
2EE5
100
AcDbEntity
  8
0
100
AcDbBlockBegin
  2
*D9
 70
     1
 10
0.0
 20
0.0
 30
0.0
  3
*D9
  1

  0
LINE
  5
332F
330
2EE5
100
AcDbEntity
  8
AM_5
100
AcDbLine
 10
1001.396720650166
 20
34.78110811904389
 30
0.0
 11
1007.375621560615
 21
24.42479761344447
 31
0.0
  0
LINE
  5
3330
330
2EE5
100
AcDbEntity
  8
AM_5
100
AcDbLine
 10
1008.324863781632
 20
38.78086085473621
 30
0.0
 11
1014.303764692082
 21
28.42455034913678
 31
0.0
  0
LINE
  5
3331
330
2EE5
100
AcDbEntity
  8
AM_5
100
AcDbLine
 10
1008.790743726831
 20
26.97380315574589
 30
0.0
 11
1011.388702311831
 21
28.47365553471525
 31
0.0
  0
LINE
  5
3332
330
2EE5
100
AcDbEntity
  8
AM_5
100
AcDbLine
 10
1013.553794585065
 20
29.72360571307672
 30
0.0
 11
1021.93785666408
 21
34.56388897518883
 31
0.0
  0
SOLID
  5
3333
330
2EE5
100
AcDbEntity
  8
AM_5
100
AcDbTrace
 10
1008.582418697104
 20
27.33465186795144
 30
0.0
 11
1008.999068756558
 21
26.61295444354033
 31
0.0
 12
1006.625651453598
 22
25.72385297738441
 32
0.0
 13
1006.625651453598
 23
25.72385297738441
 33
0.0
  0
SOLID
  5
3334
330
2EE5
100
AcDbEntity
  8
AM_5
100
AcDbTrace
 10
1011.180377282105
 20
28.8345042469208
 30
0.0
 11
1011.597027341559
 21
28.1128068225097
 31
0.0
 12
1013.553794585065
 22
29.72360571307672
 32
0.0
 13
1013.553794585065
 23
29.72360571307672
 33
0.0
  0
MTEXT
  5
3335
330
2EE5
100
AcDbEntity
  8
AM_5
100
AcDbMText
 10
1017.682541582379
 20
34.76298818217066
 30
0.0
 40
3.0
 41
0.0
 71
     5
 72
     1
  1
8h9
  7
CHINESET
 11
0.8660369092932853
 21
0.4999800713445825
 31
0.0
 73
     1
 44
1.0
1001
ACAD
1000
MTEXTBEGIN
1070
    73
1070
     1
1070
    44
1040
1.0
1070
    74
1070
     0
1000
MTEXTEND
  0
POINT
  5
3336
330
2EE5
100
AcDbEntity
  8
Defpoints
 62
     0
100
AcDbPoint
 10
1000.896740578821
 20
35.64714502833715
 30
0.0
  0
POINT
  5
3337
330
2EE5
100
AcDbEntity
  8
Defpoints
 62
     0
100
AcDbPoint
 10
1007.824883710288
 20
39.64689776402946
 30
0.0
  0
POINT
  5
3338
330
2EE5
100
AcDbEntity
  8
Defpoints
 62
     0
100
AcDbPoint
 10
1013.553794585065
 20
29.72360571307672
 30
0.0
  0
ENDBLK
  5
2EF1
330
2EE5
100
AcDbEntity
  8
0
100
AcDbBlockEnd
  0
BLOCK
  5
2EFC
330
2EF2
100
AcDbEntity
  8
0
100
AcDbBlockBegin
  2
*D10
 70
     1
 10
0.0
 20
0.0
 30
0.0
  3
*D10
  1

  0
LINE
  5
3344
330
2EF2
100
AcDbEntity
  8
AM_5
100
AcDbLine
 10
960.8644910421098
 20
61.67370199683358
 30
0.0
 11
960.8644910421098
 21
32.11941682542619
 31
0.0
  0
LINE
  5
3345
330
2EF2
100
AcDbEntity
  8
AM_5
100
AcDbLine
 10
971.8644910421097
 20
61.67770199683372
 30
0.0
 11
971.8644910421097
 21
32.11941682542619
 31
0.0
  0
LINE
  5
3346
330
2EF2
100
AcDbEntity
  8
AM_5
100
AcDbLine
 10
963.3644910421097
 20
33.61941682542619
 30
0.0
 11
969.3644910421097
 21
33.61941682542619
 31
0.0
  0
SOLID
  5
3347
330
2EF2
100
AcDbEntity
  8
AM_5
100
AcDbTrace
 10
963.3644910421097
 20
34.03608349209285
 30
0.0
 11
963.3644910421097
 21
33.20275015875952
 31
0.0
 12
960.8644910421098
 22
33.61941682542619
 32
0.0
 13
960.8644910421098
 23
33.61941682542619
 33
0.0
  0
SOLID
  5
3348
330
2EF2
100
AcDbEntity
  8
AM_5
100
AcDbTrace
 10
969.3644910421097
 20
34.03608349209285
 30
0.0
 11
969.3644910421097
 21
33.20275015875952
 31
0.0
 12
971.8644910421097
 22
33.61941682542619
 32
0.0
 13
971.8644910421097
 23
33.61941682542619
 33
0.0
  0
MTEXT
  5
3349
330
2EF2
100
AcDbEntity
  8
AM_5
100
AcDbMText
 10
966.3644910421098
 20
35.91941682542618
 30
0.0
 40
3.0
 41
0.0
 71
     5
 72
     1
  1
11
  7
CHINESET
 73
     1
 44
1.0
1001
ACAD
1000
MTEXTBEGIN
1070
    73
1070
     1
1070
    44
1040
1.0
1070
    74
1070
     0
1000
MTEXTEND
  0
POINT
  5
334A
330
2EF2
100
AcDbEntity
  8
Defpoints
 62
     0
100
AcDbPoint
 10
960.8644910421098
 20
62.67370199683359
 30
0.0
  0
POINT
  5
334B
330
2EF2
100
AcDbEntity
  8
Defpoints
 62
     0
100
AcDbPoint
 10
971.8644910421097
 20
62.67770199683372
 30
0.0
  0
POINT
  5
334C
330
2EF2
100
AcDbEntity
  8
Defpoints
 62
     0
100
AcDbPoint
 10
971.8644910421097
 20
33.61941682542619
 30
0.0
  0
ENDBLK
  5
2EFD
330
2EF2
100
AcDbEntity
  8
0
100
AcDbBlockEnd
  0
BLOCK
  5
2F08
330
2EFE
100
AcDbEntity
  8
0
100
AcDbBlockBegin
  2
*D11
 70
     1
 10
0.0
 20
0.0
 30
0.0
  3
*D11
  1

  0
LINE
  5
334D
330
2EFE
100
AcDbEntity
  8
AM_5
100
AcDbLine
 10
988.3609606245201
 20
64.36170199683346
 30
0.0
 11
988.3609606245201
 21
16.48802550680483
 31
0.0
  0
LINE
  5
334E
330
2EFE
100
AcDbEntity
  8
AM_5
100
AcDbLine
 10
956.3594910421096
 20
57.36170199683346
 30
0.0
 11
956.3594910421096
 21
16.48802550680483
 31
0.0
  0
LINE
  5
334F
330
2EFE
100
AcDbEntity
  8
AM_5
100
AcDbLine
 10
985.8609606245201
 20
17.98802550680483
 30
0.0
 11
958.8594910421097
 21
17.98802550680483
 31
0.0
  0
SOLID
  5
3350
330
2EFE
100
AcDbEntity
  8
AM_5
100
AcDbTrace
 10
985.8609606245201
 20
18.4046921734715
 30
0.0
 11
985.8609606245201
 21
17.57135884013816
 31
0.0
 12
988.3609606245201
 22
17.98802550680483
 32
0.0
 13
988.3609606245201
 23
17.98802550680483
 33
0.0
  0
SOLID
  5
3351
330
2EFE
100
AcDbEntity
  8
AM_5
100
AcDbTrace
 10
958.8594910421097
 20
18.4046921734715
 30
0.0
 11
958.8594910421097
 21
17.57135884013816
 31
0.0
 12
956.3594910421096
 22
17.98802550680483
 32
0.0
 13
956.3594910421096
 23
17.98802550680483
 33
0.0
  0
MTEXT
  5
3352
330
2EFE
100
AcDbEntity
  8
AM_5
100
AcDbMText
 10
972.3602258333148
 20
20.28802550680483
 30
0.0
 40
3.0
 41
0.0
 71
     5
 72
     1
  1
32
  7
CHINESET
 73
     1
 44
1.0
1001
ACAD
1000
MTEXTBEGIN
1070
    73
1070
     1
1070
    44
1040
1.0
1070
    74
1070
     0
1000
MTEXTEND
  0
POINT
  5
3353
330
2EFE
100
AcDbEntity
  8
Defpoints
 62
     0
100
AcDbPoint
 10
988.3609606245201
 20
65.36170199683346
 30
0.0
  0
POINT
  5
3354
330
2EFE
100
AcDbEntity
  8
Defpoints
 62
     0
100
AcDbPoint
 10
956.3594910421096
 20
58.36170199683346
 30
0.0
  0
POINT
  5
3355
330
2EFE
100
AcDbEntity
  8
Defpoints
 62
     0
100
AcDbPoint
 10
956.3594910421096
 20
17.98802550680483
 30
0.0
  0
ENDBLK
  5
2F09
330
2EFE
100
AcDbEntity
  8
0
100
AcDbBlockEnd
  0
BLOCK
  5
2F15
330
2F0A
100
AcDbEntity
  8
0
100
AcDbBlockBegin
  2
*D12
 70
     1
 10
0.0
 20
0.0
 30
0.0
  3
*D12
  1

  0
LINE
  5
3339
330
2F0A
100
AcDbEntity
  8
AM_5
100
AcDbLine
 10
971.8644910421097
 20
34.61941682542619
 30
0.0
 11
971.8644910421097
 21
35.11941682542619
 31
0.0
  0
LINE
  5
333A
330
2F0A
100
AcDbEntity
  8
AM_5
100
AcDbLine
 10
976.3664910421097
 20
60.36170199683346
 30
0.0
 11
976.3664910421097
 21
32.11941682542619
 31
0.0
  0
LINE
  5
333B
330
2F0A
100
AcDbEntity
  8
AM_5
100
AcDbLine
 10
969.3644910421097
 20
33.61941682542619
 30
0.0
 11
966.8644910421097
 21
33.61941682542619
 31
0.0
  0
LINE
  5
333C
330
2F0A
100
AcDbEntity
  8
AM_5
100
AcDbLine
 10
978.8664910421097
 20
33.61941682542619
 30
0.0
 11
987.6807767563954
 21
33.61941682542619
 31
0.0
  0
LINE
  5
333D
330
2F0A
100
AcDbEntity
  8
AM_5
100
AcDbLine
 10
971.8644910421097
 20
33.61941682542619
 30
0.0
 11
976.3664910421097
 21
33.61941682542619
 31
0.0
  0
SOLID
  5
333E
330
2F0A
100
AcDbEntity
  8
AM_5
100
AcDbTrace
 10
969.3644910421097
 20
34.03608349209285
 30
0.0
 11
969.3644910421097
 21
33.20275015875952
 31
0.0
 12
971.8644910421097
 22
33.61941682542619
 32
0.0
 13
971.8644910421097
 23
33.61941682542619
 33
0.0
  0
SOLID
  5
333F
330
2F0A
100
AcDbEntity
  8
AM_5
100
AcDbTrace
 10
978.8664910421097
 20
34.03608349209285
 30
0.0
 11
978.8664910421097
 21
33.20275015875952
 31
0.0
 12
976.3664910421097
 22
33.61941682542619
 32
0.0
 13
976.3664910421097
 23
33.61941682542619
 33
0.0
  0
MTEXT
  5
3340
330
2F0A
100
AcDbEntity
  8
AM_5
100
AcDbMText
 10
984.5236338992526
 20
35.91941682542618
 30
0.0
 40
3.0
 41
0.0
 71
     5
 72
     1
  1
4.5
  7
CHINESET
 73
     1
 44
1.0
1001
ACAD
1000
MTEXTBEGIN
1070
    73
1070
     1
1070
    44
1040
1.0
1070
    74
1070
     0
1000
MTEXTEND
  0
POINT
  5
3341
330
2F0A
100
AcDbEntity
  8
Defpoints
 62
     0
100
AcDbPoint
 10
971.8644910421097
 20
33.61941682542619
 30
0.0
  0
POINT
  5
3342
330
2F0A
100
AcDbEntity
  8
Defpoints
 62
     0
100
AcDbPoint
 10
976.3664910421097
 20
61.36170199683346
 30
0.0
  0
POINT
  5
3343
330
2F0A
100
AcDbEntity
  8
Defpoints
 62
     0
100
AcDbPoint
 10
976.3664910421097
 20
33.61941682542619
 30
0.0
  0
ENDBLK
  5
2F16
330
2F0A
100
AcDbEntity
  8
0
100
AcDbBlockEnd
  0
BLOCK
  5
2F22
330
2F17
100
AcDbEntity
  8
0
100
AcDbBlockBegin
  2
*D13
 70
     1
 10
0.0
 20
0.0
 30
0.0
  3
*D13
  1

  0
LINE
  5
331A
330
2F17
100
AcDbEntity
  8
AM_5
100
AcDbLine
 10
1067.9202194373
 20
24.31349759056474
 30
0.0
 11
1067.9202194373
 21
24.81349759056474
 31
0.0
  0
LINE
  5
331B
330
2F17
100
AcDbEntity
  8
AM_5
100
AcDbLine
 10
1061.9202194373
 20
33.13970199683371
 30
0.0
 11
1061.9202194373
 21
21.81349759056474
 31
0.0
  0
LINE
  5
331C
330
2F17
100
AcDbEntity
  8
AM_5
100
AcDbLine
 10
1070.420219437299
 20
23.31349759056474
 30
0.0
 11
1072.920219437299
 21
23.31349759056474
 31
0.0
  0
LINE
  5
331D
330
2F17
100
AcDbEntity
  8
AM_5
100
AcDbLine
 10
1059.420219437299
 20
23.31349759056474
 30
0.0
 11
1056.920219437299
 21
23.31349759056474
 31
0.0
  0
LINE
  5
331E
330
2F17
100
AcDbEntity
  8
AM_5
100
AcDbLine
 10
1067.9202194373
 20
23.31349759056474
 30
0.0
 11
1061.9202194373
 21
23.31349759056474
 31
0.0
  0
SOLID
  5
331F
330
2F17
100
AcDbEntity
  8
AM_5
100
AcDbTrace
 10
1070.420219437299
 20
23.7301642572314
 30
0.0
 11
1070.420219437299
 21
22.89683092389807
 31
0.0
 12
1067.9202194373
 22
23.31349759056474
 32
0.0
 13
1067.9202194373
 23
23.31349759056474
 33
0.0
  0
SOLID
  5
3320
330
2F17
100
AcDbEntity
  8
AM_5
100
AcDbTrace
 10
1059.420219437299
 20
23.7301642572314
 30
0.0
 11
1059.420219437299
 21
22.89683092389807
 31
0.0
 12
1061.9202194373
 22
23.31349759056474
 32
0.0
 13
1061.9202194373
 23
23.31349759056474
 33
0.0
  0
MTEXT
  5
3321
330
2F17
100
AcDbEntity
  8
AM_5
100
AcDbMText
 10
1064.920219437299
 20
25.61349759056474
 30
0.0
 40
3.0
 41
0.0
 71
     5
 72
     1
  1
6
  7
CHINESET
 73
     1
 44
1.0
1001
ACAD
1000
MTEXTBEGIN
1070
    73
1070
     1
1070
    44
1040
1.0
1070
    74
1070
     0
1000
MTEXTEND
  0
POINT
  5
3322
330
2F17
100
AcDbEntity
  8
Defpoints
 62
     0
100
AcDbPoint
 10
1067.9202194373
 20
23.31349759056474
 30
0.0
  0
POINT
  5
3323
330
2F17
100
AcDbEntity
  8
Defpoints
 62
     0
100
AcDbPoint
 10
1061.9202194373
 20
34.13970199683371
 30
0.0
  0
POINT
  5
3324
330
2F17
100
AcDbEntity
  8
Defpoints
 62
     0
100
AcDbPoint
 10
1061.9202194373
 20
23.31349759056474
 30
0.0
  0
ENDBLK
  5
2F23
330
2F17
100
AcDbEntity
  8
0
100
AcDbBlockEnd
  0
BLOCK
  5
2F2E
330
2F24
100
AcDbEntity
  8
0
100
AcDbBlockBegin
  2
*D14
 70
     1
 10
0.0
 20
0.0
 30
0.0
  3
*D14
  1

  0
LINE
  5
335F
330
2F24
100
AcDbEntity
  8
AM_5
100
AcDbLine
 10
955.3514910421098
 20
69.36170199683346
 30
0.0
 11
948.2255155555444
 21
69.36170199683346
 31
0.0
  0
LINE
  5
3360
330
2F24
100
AcDbEntity
  8
AM_5
100
AcDbLine
 10
955.3664910421097
 20
61.36170199683346
 30
0.0
 11
948.2255155555444
 21
61.36170199683346
 31
0.0
  0
LINE
  5
3361
330
2F24
100
AcDbEntity
  8
AM_5
100
AcDbLine
 10
949.7255155555443
 20
66.86170199683346
 30
0.0
 11
949.7255155555443
 21
63.86170199683346
 31
0.0
  0
SOLID
  5
3362
330
2F24
100
AcDbEntity
  8
AM_5
100
AcDbTrace
 10
949.3088488888776
 20
66.86170199683346
 30
0.0
 11
950.1421822222109
 21
66.86170199683346
 31
0.0
 12
949.7255155555443
 22
69.36170199683346
 32
0.0
 13
949.7255155555443
 23
69.36170199683346
 33
0.0
  0
SOLID
  5
3363
330
2F24
100
AcDbEntity
  8
AM_5
100
AcDbTrace
 10
949.3088488888776
 20
63.86170199683346
 30
0.0
 11
950.1421822222109
 21
63.86170199683346
 31
0.0
 12
949.7255155555443
 22
61.36170199683346
 32
0.0
 13
949.7255155555443
 23
61.36170199683346
 33
0.0
  0
MTEXT
  5
3364
330
2F24
100
AcDbEntity
  8
AM_5
100
AcDbMText
 10
947.4255155555443
 20
65.36170199683361
 30
0.0
 40
3.0
 41
0.0
 71
     5
 72
     1
  1
8
  7
CHINESET
 11
0.0000000000000001
 21
1.0
 31
0.0
 73
     1
 44
1.0
1001
ACAD
1000
MTEXTBEGIN
1070
    73
1070
     1
1070
    44
1040
1.0
1070
    74
1070
     0
1000
MTEXTEND
  0
POINT
  5
3365
330
2F24
100
AcDbEntity
  8
Defpoints
 62
     0
100
AcDbPoint
 10
956.3514910421098
 20
69.36170199683346
 30
0.0
  0
POINT
  5
3366
330
2F24
100
AcDbEntity
  8
Defpoints
 62
     0
100
AcDbPoint
 10
956.3664910421097
 20
61.36170199683346
 30
0.0
  0
POINT
  5
3367
330
2F24
100
AcDbEntity
  8
Defpoints
 62
     0
100
AcDbPoint
 10
949.7255155555443
 20
61.36170199683346
 30
0.0
  0
ENDBLK
  5
2F2F
330
2F24
100
AcDbEntity
  8
0
100
AcDbBlockEnd
  0
BLOCK
  5
2F3A
330
2F30
100
AcDbEntity
  8
0
100
AcDbBlockBegin
  2
*D15
 70
     1
 10
0.0
 20
0.0
 30
0.0
  3
*D15
  1

  0
LINE
  5
3356
330
2F30
100
AcDbEntity
  8
AM_5
100
AcDbLine
 10
955.3594910421097
 20
72.36170199683346
 30
0.0
 11
942.1330796804085
 21
72.36170199683346
 31
0.0
  0
LINE
  5
3357
330
2F30
100
AcDbEntity
  8
AM_5
100
AcDbLine
 10
955.3594910421097
 20
58.36170199683346
 30
0.0
 11
942.1330796804085
 21
58.36170199683347
 31
0.0
  0
LINE
  5
3358
330
2F30
100
AcDbEntity
  8
AM_5
100
AcDbLine
 10
943.6330796804085
 20
69.86170199683346
 30
0.0
 11
943.6330796804085
 21
60.86170199683347
 31
0.0
  0
SOLID
  5
3359
330
2F30
100
AcDbEntity
  8
AM_5
100
AcDbTrace
 10
943.2164130137419
 20
69.86170199683346
 30
0.0
 11
944.0497463470752
 21
69.86170199683346
 31
0.0
 12
943.6330796804085
 22
72.36170199683346
 32
0.0
 13
943.6330796804085
 23
72.36170199683346
 33
0.0
  0
SOLID
  5
335A
330
2F30
100
AcDbEntity
  8
AM_5
100
AcDbTrace
 10
943.2164130137419
 20
60.86170199683347
 30
0.0
 11
944.0497463470752
 21
60.86170199683346
 31
0.0
 12
943.6330796804085
 22
58.36170199683347
 32
0.0
 13
943.6330796804085
 23
58.36170199683347
 33
0.0
  0
MTEXT
  5
335B
330
2F30
100
AcDbEntity
  8
AM_5
100
AcDbMText
 10
941.3330796804086
 20
65.36170199683361
 30
0.0
 40
3.0
 41
0.0
 71
     5
 72
     1
  1
14
  7
CHINESET
 11
0.0000000000000001
 21
1.0
 31
0.0
 73
     1
 44
1.0
1001
ACAD
1000
MTEXTBEGIN
1070
    73
1070
     1
1070
    44
1040
1.0
1070
    74
1070
     0
1000
MTEXTEND
  0
POINT
  5
335C
330
2F30
100
AcDbEntity
  8
Defpoints
 62
     0
100
AcDbPoint
 10
956.3594910421096
 20
72.36170199683346
 30
0.0
  0
POINT
  5
335D
330
2F30
100
AcDbEntity
  8
Defpoints
 62
     0
100
AcDbPoint
 10
956.3594910421096
 20
58.36170199683346
 30
0.0
  0
POINT
  5
335E
330
2F30
100
AcDbEntity
  8
Defpoints
 62
     0
100
AcDbPoint
 10
943.6330796804085
 20
58.36170199683347
 30
0.0
  0
ENDBLK
  5
2F3B
330
2F30
100
AcDbEntity
  8
0
100
AcDbBlockEnd
  0
BLOCK
  5
2F46
330
2F3C
100
AcDbEntity
  8
0
100
AcDbBlockBegin
  2
*D16
 70
     1
 10
0.0
 20
0.0
 30
0.0
  3
*D16
  1

  0
LINE
  5
3371
330
2F3C
100
AcDbEntity
  8
AM_5
100
AcDbLine
 10
1099.420219437299
 20
211.3637019968336
 30
0.0
 11
1110.775233032792
 21
211.3637019968336
 31
0.0
  0
LINE
  5
3372
330
2F3C
100
AcDbEntity
  8
AM_5
100
AcDbLine
 10
1099.420219437299
 20
159.3637019968336
 30
0.0
 11
1110.775233032792
 21
159.3637019968336
 31
0.0
  0
LINE
  5
3373
330
2F3C
100
AcDbEntity
  8
AM_5
100
AcDbLine
 10
1109.275233032792
 20
208.8637019968337
 30
0.0
 11
1109.275233032792
 21
161.8637019968336
 31
0.0
  0
SOLID
  5
3374
330
2F3C
100
AcDbEntity
  8
AM_5
100
AcDbTrace
 10
1108.858566366126
 20
208.8637019968337
 30
0.0
 11
1109.691899699459
 21
208.8637019968337
 31
0.0
 12
1109.275233032792
 22
211.3637019968336
 32
0.0
 13
1109.275233032792
 23
211.3637019968336
 33
0.0
  0
SOLID
  5
3375
330
2F3C
100
AcDbEntity
  8
AM_5
100
AcDbTrace
 10
1108.858566366126
 20
161.8637019968336
 30
0.0
 11
1109.691899699459
 21
161.8637019968336
 31
0.0
 12
1109.275233032792
 22
159.3637019968336
 32
0.0
 13
1109.275233032792
 23
159.3637019968336
 33
0.0
  0
MTEXT
  5
3376
330
2F3C
100
AcDbEntity
  8
AM_5
100
AcDbMText
 10
1106.975233032792
 20
183.3631294425397
 30
0.0
 40
3.0
 41
0.0
 71
     5
 72
     1
  1
%%C52
  7
CHINESET
 11
0.0000000000000001
 21
1.0
 31
0.0
 73
     1
 44
1.0
1001
ACAD
1000
MTEXTBEGIN
1070
    73
1070
     1
1070
    44
1040
1.0
1070
    74
1070
     0
1000
MTEXTEND
  0
POINT
  5
3377
330
2F3C
100
AcDbEntity
  8
Defpoints
 62
     0
100
AcDbPoint
 10
1098.4202194373
 20
211.3637019968336
 30
0.0
  0
POINT
  5
3378
330
2F3C
100
AcDbEntity
  8
Defpoints
 62
     0
100
AcDbPoint
 10
1098.4202194373
 20
159.3637019968336
 30
0.0
  0
POINT
  5
3379
330
2F3C
100
AcDbEntity
  8
Defpoints
 62
     0
100
AcDbPoint
 10
1109.275233032792
 20
159.3637019968336
 30
0.0
  0
ENDBLK
  5
2F47
330
2F3C
100
AcDbEntity
  8
0
100
AcDbBlockEnd
  0
BLOCK
  5
2F52
330
2F48
100
AcDbEntity
  8
0
100
AcDbBlockBegin
  2
*D17
 70
     1
 10
0.0
 20
0.0
 30
0.0
  3
*D17
  1

  0
LINE
  5
3291
330
2F48
100
AcDbEntity
  8
AM_5
100
AcDbLine
 10
1098.4202194373
 20
230.3042613880195
 30
0.0
 11
1098.4202194373
 21
238.2971566118569
 31
0.0
  0
LINE
  5
3292
330
2F48
100
AcDbEntity
  8
AM_5
100
AcDbLine
 10
1054.4202194373
 20
230.3042613880195
 30
0.0
 11
1054.4202194373
 21
238.2971566118569
 31
0.0
  0
LINE
  5
3293
330
2F48
100
AcDbEntity
  8
AM_5
100
AcDbLine
 10
1095.920219437299
 20
236.7971566118569
 30
0.0
 11
1056.920219437299
 21
236.7971566118569
 31
0.0
  0
SOLID
  5
3294
330
2F48
100
AcDbEntity
  8
AM_5
100
AcDbTrace
 10
1095.920219437299
 20
237.2138232785236
 30
0.0
 11
1095.920219437299
 21
236.3804899451903
 31
0.0
 12
1098.4202194373
 22
236.7971566118569
 32
0.0
 13
1098.4202194373
 23
236.7971566118569
 33
0.0
  0
SOLID
  5
3295
330
2F48
100
AcDbEntity
  8
AM_5
100
AcDbTrace
 10
1056.920219437299
 20
237.2138232785236
 30
0.0
 11
1056.920219437299
 21
236.3804899451903
 31
0.0
 12
1054.4202194373
 22
236.7971566118569
 32
0.0
 13
1054.4202194373
 23
236.7971566118569
 33
0.0
  0
MTEXT
  5
3296
330
2F48
100
AcDbEntity
  8
AM_5
100
AcDbMText
 10
1076.4202194373
 20
239.0971566118569
 30
0.0
 40
3.0
 41
0.0
 71
     5
 72
     1
  1
44
  7
CHINESET
 73
     1
 44
1.0
1001
ACAD
1000
MTEXTBEGIN
1070
    73
1070
     1
1070
    44
1040
1.0
1070
    74
1070
     0
1000
MTEXTEND
  0
POINT
  5
3297
330
2F48
100
AcDbEntity
  8
Defpoints
 62
     0
100
AcDbPoint
 10
1098.4202194373
 20
229.3042613880195
 30
0.0
  0
POINT
  5
3298
330
2F48
100
AcDbEntity
  8
Defpoints
 62
     0
100
AcDbPoint
 10
1054.4202194373
 20
229.3042613880195
 30
0.0
  0
POINT
  5
3299
330
2F48
100
AcDbEntity
  8
Defpoints
 62
     0
100
AcDbPoint
 10
1054.4202194373
 20
236.7971566118569
 30
0.0
  0
ENDBLK
  5
2F53
330
2F48
100
AcDbEntity
  8
0
100
AcDbBlockEnd
  0
BLOCK
  5
2F5D
330
2F54
100
AcDbEntity
  8
0
100
AcDbBlockBegin
  2
*D18
 70
     1
 10
0.0
 20
0.0
 30
0.0
  3
*D18
  1

  0
LINE
  5
32A3
330
2F54
100
AcDbEntity
  8
AM_5
100
AcDbLine
 10
1090.4202194373
 20
221.4639235361448
 30
0.0
 11
1090.4202194373
 21
221.9639235361448
 31
0.0
  0
LINE
  5
32A4
330
2F54
100
AcDbEntity
  8
AM_5
100
AcDbLine
 10
1074.4202194373
 20
196.8747019968336
 30
0.0
 11
1074.4202194373
 21
221.9639235361448
 31
0.0
  0
LINE
  5
32A5
330
2F54
100
AcDbEntity
  8
AM_5
100
AcDbLine
 10
1087.920219437299
 20
220.4639235361448
 30
0.0
 11
1076.920219437299
 21
220.4639235361448
 31
0.0
  0
SOLID
  5
32A6
330
2F54
100
AcDbEntity
  8
AM_5
100
AcDbTrace
 10
1087.920219437299
 20
220.8805902028115
 30
0.0
 11
1087.920219437299
 21
220.0472568694781
 31
0.0
 12
1090.4202194373
 22
220.4639235361448
 32
0.0
 13
1090.4202194373
 23
220.4639235361448
 33
0.0
  0
SOLID
  5
32A7
330
2F54
100
AcDbEntity
  8
AM_5
100
AcDbTrace
 10
1076.920219437299
 20
220.8805902028115
 30
0.0
 11
1076.920219437299
 21
220.0472568694781
 31
0.0
 12
1074.4202194373
 22
220.4639235361448
 32
0.0
 13
1074.4202194373
 23
220.4639235361448
 33
0.0
  0
MTEXT
  5
32A8
330
2F54
100
AcDbEntity
  8
AM_5
100
AcDbMText
 10
1082.4202194373
 20
222.7639235361448
 30
0.0
 40
3.0
 41
0.0
 71
     5
 72
     1
  1
16
  7
CHINESET
 73
     1
 44
1.0
1001
ACAD
1000
MTEXTBEGIN
1070
    73
1070
     1
1070
    44
1040
1.0
1070
    74
1070
     0
1000
MTEXTEND
  0
POINT
  5
32A9
330
2F54
100
AcDbEntity
  8
Defpoints
 62
     0
100
AcDbPoint
 10
1090.4202194373
 20
220.4639235361448
 30
0.0
  0
POINT
  5
32AA
330
2F54
100
AcDbEntity
  8
Defpoints
 62
     0
100
AcDbPoint
 10
1074.4202194373
 20
195.8747019968336
 30
0.0
  0
POINT
  5
32AB
330
2F54
100
AcDbEntity
  8
Defpoints
 62
     0
100
AcDbPoint
 10
1074.4202194373
 20
220.4639235361448
 30
0.0
  0
ENDBLK
  5
2F5E
330
2F54
100
AcDbEntity
  8
0
100
AcDbBlockEnd
  0
BLOCK
  5
2F69
330
2F5F
100
AcDbEntity
  8
0
100
AcDbBlockBegin
  2
*D19
 70
     1
 10
0.0
 20
0.0
 30
0.0
  3
*D19
  1

  0
LINE
  5
32C2
330
2F5F
100
AcDbEntity
  8
AM_5
100
AcDbLine
 10
1057.420219437299
 20
209.3637019968336
 30
0.0
 11
1057.420219437299
 21
230.8042613880195
 31
0.0
  0
LINE
  5
32C3
330
2F5F
100
AcDbEntity
  8
AM_5
100
AcDbLine
 10
1098.4202194373
 20
221.4639235361448
 30
0.0
 11
1098.4202194373
 21
230.8042613880195
 31
0.0
  0
LINE
  5
32C4
330
2F5F
100
AcDbEntity
  8
AM_5
100
AcDbLine
 10
1059.9202194373
 20
229.3042613880195
 30
0.0
 11
1095.920219437299
 21
229.3042613880195
 31
0.0
  0
SOLID
  5
32C5
330
2F5F
100
AcDbEntity
  8
AM_5
100
AcDbTrace
 10
1059.9202194373
 20
229.7209280546861
 30
0.0
 11
1059.9202194373
 21
228.8875947213528
 31
0.0
 12
1057.420219437299
 22
229.3042613880195
 32
0.0
 13
1057.420219437299
 23
229.3042613880195
 33
0.0
  0
SOLID
  5
32C6
330
2F5F
100
AcDbEntity
  8
AM_5
100
AcDbTrace
 10
1095.920219437299
 20
229.7209280546861
 30
0.0
 11
1095.920219437299
 21
228.8875947213528
 31
0.0
 12
1098.4202194373
 22
229.3042613880195
 32
0.0
 13
1098.4202194373
 23
229.3042613880195
 33
0.0
  0
MTEXT
  5
32C7
330
2F5F
100
AcDbEntity
  8
AM_5
100
AcDbMText
 10
1077.9202194373
 20
231.6042613880195
 30
0.0
 40
3.0
 41
0.0
 71
     5
 72
     1
  1
41
  7
CHINESET
 73
     1
 44
1.0
1001
ACAD
1000
MTEXTBEGIN
1070
    73
1070
     1
1070
    44
1040
1.0
1070
    74
1070
     0
1000
MTEXTEND
  0
POINT
  5
32C8
330
2F5F
100
AcDbEntity
  8
Defpoints
 62
     0
100
AcDbPoint
 10
1057.420219437299
 20
208.3637019968336
 30
0.0
  0
POINT
  5
32C9
330
2F5F
100
AcDbEntity
  8
Defpoints
 62
     0
100
AcDbPoint
 10
1098.4202194373
 20
220.4639235361448
 30
0.0
  0
POINT
  5
32CA
330
2F5F
100
AcDbEntity
  8
Defpoints
 62
     0
100
AcDbPoint
 10
1098.4202194373
 20
229.3042613880195
 30
0.0
  0
ENDBLK
  5
2F6A
330
2F5F
100
AcDbEntity
  8
0
100
AcDbBlockEnd
  0
BLOCK
  5
2F76
330
2F6B
100
AcDbEntity
  8
0
100
AcDbBlockBegin
  2
*D20
 70
     1
 10
0.0
 20
0.0
 30
0.0
  3
*D20
  1

  0
LINE
  5
32B7
330
2F6B
100
AcDbEntity
  8
AM_5
100
AcDbLine
 10
1057.420219437299
 20
230.3042613880195
 30
0.0
 11
1057.420219437299
 21
230.8042613880195
 31
0.0
  0
LINE
  5
32B8
330
2F6B
100
AcDbEntity
  8
AM_5
100
AcDbLine
 10
1054.4202194373
 20
223.0555857264982
 30
0.0
 11
1054.4202194373
 21
230.8042613880195
 31
0.0
  0
LINE
  5
32B9
330
2F6B
100
AcDbEntity
  8
AM_5
100
AcDbLine
 10
1059.9202194373
 20
229.3042613880195
 30
0.0
 11
1062.420219437299
 21
229.3042613880195
 31
0.0
  0
LINE
  5
32BA
330
2F6B
100
AcDbEntity
  8
AM_5
100
AcDbLine
 10
1051.9202194373
 20
229.3042613880195
 30
0.0
 11
1046.3202194373
 21
229.3042613880195
 31
0.0
  0
LINE
  5
32BB
330
2F6B
100
AcDbEntity
  8
AM_5
100
AcDbLine
 10
1057.420219437299
 20
229.3042613880195
 30
0.0
 11
1054.4202194373
 21
229.3042613880195
 31
0.0
  0
SOLID
  5
32BC
330
2F6B
100
AcDbEntity
  8
AM_5
100
AcDbTrace
 10
1059.9202194373
 20
229.7209280546861
 30
0.0
 11
1059.9202194373
 21
228.8875947213528
 31
0.0
 12
1057.420219437299
 22
229.3042613880195
 32
0.0
 13
1057.420219437299
 23
229.3042613880195
 33
0.0
  0
SOLID
  5
32BD
330
2F6B
100
AcDbEntity
  8
AM_5
100
AcDbTrace
 10
1051.9202194373
 20
229.7209280546861
 30
0.0
 11
1051.9202194373
 21
228.8875947213528
 31
0.0
 12
1054.4202194373
 22
229.3042613880195
 32
0.0
 13
1054.4202194373
 23
229.3042613880195
 33
0.0
  0
MTEXT
  5
32BE
330
2F6B
100
AcDbEntity
  8
AM_5
100
AcDbMText
 10
1047.870219437299
 20
231.6042613880195
 30
0.0
 40
3.0
 41
0.0
 71
     5
 72
     1
  1
3
  7
CHINESET
 73
     1
 44
1.0
1001
ACAD
1000
MTEXTBEGIN
1070
    73
1070
     1
1070
    44
1040
1.0
1070
    74
1070
     0
1000
MTEXTEND
  0
POINT
  5
32BF
330
2F6B
100
AcDbEntity
  8
Defpoints
 62
     0
100
AcDbPoint
 10
1057.420219437299
 20
229.3042613880195
 30
0.0
  0
POINT
  5
32C0
330
2F6B
100
AcDbEntity
  8
Defpoints
 62
     0
100
AcDbPoint
 10
1054.4202194373
 20
222.0555857264983
 30
0.0
  0
POINT
  5
32C1
330
2F6B
100
AcDbEntity
  8
Defpoints
 62
     0
100
AcDbPoint
 10
1054.4202194373
 20
229.3042613880195
 30
0.0
  0
ENDBLK
  5
2F77
330
2F6B
100
AcDbEntity
  8
0
100
AcDbBlockEnd
  0
BLOCK
  5
2F81
330
2F78
100
AcDbEntity
  8
0
100
AcDbBlockBegin
  2
*D21
 70
     1
 10
0.0
 20
0.0
 30
0.0
  3
*D21
  1

  0
LINE
  5
32F3
330
2F78
100
AcDbEntity
  8
AM_5
100
AcDbLine
 10
1036.177539267587
 20
197.3567019968335
 30
0.0
 11
1035.677539267586
 21
197.3567019968335
 31
0.0
  0
LINE
  5
32F4
330
2F78
100
AcDbEntity
  8
AM_5
100
AcDbLine
 10
1053.114219437299
 20
185.3637019968336
 30
0.0
 11
1035.677539267586
 21
185.3637019968336
 31
0.0
  0
LINE
  5
32F5
330
2F78
100
AcDbEntity
  8
AM_5
100
AcDbLine
 10
1037.177539267587
 20
194.8567019968336
 30
0.0
 11
1037.177539267587
 21
187.8637019968336
 31
0.0
  0
SOLID
  5
32F6
330
2F78
100
AcDbEntity
  8
AM_5
100
AcDbTrace
 10
1036.76087260092
 20
194.8567019968336
 30
0.0
 11
1037.594205934253
 21
194.8567019968336
 31
0.0
 12
1037.177539267587
 22
197.3567019968335
 32
0.0
 13
1037.177539267587
 23
197.3567019968335
 33
0.0
  0
SOLID
  5
32F7
330
2F78
100
AcDbEntity
  8
AM_5
100
AcDbTrace
 10
1036.76087260092
 20
187.8637019968336
 30
0.0
 11
1037.594205934253
 21
187.8637019968336
 31
0.0
 12
1037.177539267587
 22
185.3637019968336
 32
0.0
 13
1037.177539267587
 23
185.3637019968336
 33
0.0
  0
MTEXT
  5
32F8
330
2F78
100
AcDbEntity
  8
AM_5
100
AcDbMText
 10
1034.877539267587
 20
191.3602019968338
 30
0.0
 40
3.0
 41
0.0
 71
     5
 72
     1
  1
12
  7
CHINESET
 11
0.0000000000000001
 21
1.0
 31
0.0
 73
     1
 44
1.0
1001
ACAD
1000
MTEXTBEGIN
1070
    73
1070
     1
1070
    44
1040
1.0
1070
    74
1070
     0
1000
MTEXTEND
  0
POINT
  5
32F9
330
2F78
100
AcDbEntity
  8
Defpoints
 62
     0
100
AcDbPoint
 10
1037.177539267587
 20
197.3567019968335
 30
0.0
  0
POINT
  5
32FA
330
2F78
100
AcDbEntity
  8
Defpoints
 62
     0
100
AcDbPoint
 10
1054.114219437299
 20
185.3637019968336
 30
0.0
  0
POINT
  5
32FB
330
2F78
100
AcDbEntity
  8
Defpoints
 62
     0
100
AcDbPoint
 10
1037.177539267587
 20
185.3637019968336
 30
0.0
  0
ENDBLK
  5
2F82
330
2F78
100
AcDbEntity
  8
0
100
AcDbBlockEnd
  0
BLOCK
  5
2F8D
330
2F83
100
AcDbEntity
  8
0
100
AcDbBlockBegin
  2
*D22
 70
     1
 10
0.0
 20
0.0
 30
0.0
  3
*D22
  1

  0
LINE
  5
32EA
330
2F83
100
AcDbEntity
  8
AM_5
100
AcDbLine
 10
1053.420219437299
 20
217.3507019968335
 30
0.0
 11
1035.677539267586
 21
217.3507019968335
 31
0.0
  0
LINE
  5
32EB
330
2F83
100
AcDbEntity
  8
AM_5
100
AcDbLine
 10
1047.114548129923
 20
197.3567019968335
 30
0.0
 11
1035.677539267586
 21
197.3567019968335
 31
0.0
  0
LINE
  5
32EC
330
2F83
100
AcDbEntity
  8
AM_5
100
AcDbLine
 10
1037.177539267587
 20
214.8507019968335
 30
0.0
 11
1037.177539267587
 21
199.8567019968336
 31
0.0
  0
SOLID
  5
32ED
330
2F83
100
AcDbEntity
  8
AM_5
100
AcDbTrace
 10
1036.76087260092
 20
214.8507019968335
 30
0.0
 11
1037.594205934253
 21
214.8507019968335
 31
0.0
 12
1037.177539267587
 22
217.3507019968335
 32
0.0
 13
1037.177539267587
 23
217.3507019968335
 33
0.0
  0
SOLID
  5
32EE
330
2F83
100
AcDbEntity
  8
AM_5
100
AcDbTrace
 10
1036.76087260092
 20
199.8567019968336
 30
0.0
 11
1037.594205934253
 21
199.8567019968336
 31
0.0
 12
1037.177539267587
 22
197.3567019968335
 32
0.0
 13
1037.177539267587
 23
197.3567019968335
 33
0.0
  0
MTEXT
  5
32EF
330
2F83
100
AcDbEntity
  8
AM_5
100
AcDbMText
 10
1034.877539267587
 20
207.205673851043
 30
0.0
 40
3.0
 41
0.0
 71
     5
 72
     1
  1
21
  7
CHINESET
 11
0.0000000000000001
 21
1.0
 31
0.0
 73
     1
 44
1.0
1001
ACAD
1000
MTEXTBEGIN
1070
    73
1070
     1
1070
    44
1040
1.0
1070
    74
1070
     0
1000
MTEXTEND
  0
POINT
  5
32F0
330
2F83
100
AcDbEntity
  8
Defpoints
 62
     0
100
AcDbPoint
 10
1054.4202194373
 20
217.3507019968335
 30
0.0
  0
POINT
  5
32F1
330
2F83
100
AcDbEntity
  8
Defpoints
 62
     0
100
AcDbPoint
 10
1048.114548129923
 20
197.3567019968335
 30
0.0
  0
POINT
  5
32F2
330
2F83
100
AcDbEntity
  8
Defpoints
 62
     0
100
AcDbPoint
 10
1037.177539267587
 20
197.3567019968335
 30
0.0
  0
ENDBLK
  5
2F8E
330
2F83
100
AcDbEntity
  8
0
100
AcDbBlockEnd
  0
BLOCK
  5
2F99
330
2F8F
100
AcDbEntity
  8
0
100
AcDbBlockBegin
  2
*D23
 70
     1
 10
0.0
 20
0.0
 30
0.0
  3
*D23
  1

  0
LINE
  5
32E1
330
2F8F
100
AcDbEntity
  8
AM_5
100
AcDbLine
 10
1053.420219437299
 20
206.3567019968336
 30
0.0
 11
1044.157848323375
 21
206.3567019968336
 31
0.0
  0
LINE
  5
32E2
330
2F8F
100
AcDbEntity
  8
AM_5
100
AcDbLine
 10
1053.420219437299
 20
197.3567019968335
 30
0.0
 11
1044.157848323375
 21
197.3567019968335
 31
0.0
  0
LINE
  5
32E3
330
2F8F
100
AcDbEntity
  8
AM_5
100
AcDbLine
 10
1045.657848323375
 20
203.8567019968336
 30
0.0
 11
1045.657848323375
 21
199.8567019968336
 31
0.0
  0
SOLID
  5
32E4
330
2F8F
100
AcDbEntity
  8
AM_5
100
AcDbTrace
 10
1045.241181656708
 20
203.8567019968336
 30
0.0
 11
1046.074514990041
 21
203.8567019968336
 31
0.0
 12
1045.657848323375
 22
206.3567019968336
 32
0.0
 13
1045.657848323375
 23
206.3567019968336
 33
0.0
  0
SOLID
  5
32E5
330
2F8F
100
AcDbEntity
  8
AM_5
100
AcDbTrace
 10
1045.241181656708
 20
199.8567019968336
 30
0.0
 11
1046.074514990041
 21
199.8567019968336
 31
0.0
 12
1045.657848323375
 22
197.3567019968335
 32
0.0
 13
1045.657848323375
 23
197.3567019968335
 33
0.0
  0
MTEXT
  5
32E6
330
2F8F
100
AcDbEntity
  8
AM_5
100
AcDbMText
 10
1043.357848323375
 20
201.8567019968338
 30
0.0
 40
3.0
 41
0.0
 71
     5
 72
     1
  1
9
  7
CHINESET
 11
0.0000000000000001
 21
1.0
 31
0.0
 73
     1
 44
1.0
1001
ACAD
1000
MTEXTBEGIN
1070
    73
1070
     1
1070
    44
1040
1.0
1070
    74
1070
     0
1000
MTEXTEND
  0
POINT
  5
32E7
330
2F8F
100
AcDbEntity
  8
Defpoints
 62
     0
100
AcDbPoint
 10
1054.4202194373
 20
206.3567019968336
 30
0.0
  0
POINT
  5
32E8
330
2F8F
100
AcDbEntity
  8
Defpoints
 62
     0
100
AcDbPoint
 10
1054.4202194373
 20
197.3567019968335
 30
0.0
  0
POINT
  5
32E9
330
2F8F
100
AcDbEntity
  8
Defpoints
 62
     0
100
AcDbPoint
 10
1045.657848323375
 20
197.3567019968335
 30
0.0
  0
ENDBLK
  5
2F9A
330
2F8F
100
AcDbEntity
  8
0
100
AcDbBlockEnd
  0
BLOCK
  5
2FA7
330
2F9B
100
AcDbEntity
  8
0
100
AcDbBlockBegin
  2
*D24
 70
     1
 10
0.0
 20
0.0
 30
0.0
  3
*D24
  1

  0
LINE
  5
32AC
330
2F9B
100
AcDbEntity
  8
AM_5
100
AcDbLine
 10
1056.4202194373
 20
209.3567019968336
 30
0.0
 11
1056.4202194373
 21
224.2343363116285
 31
0.0
  0
LINE
  5
32AD
330
2F9B
100
AcDbEntity
  8
AM_5
100
AcDbLine
 10
1054.4202194373
 20
218.3507019968335
 30
0.0
 11
1054.4202194373
 21
224.2343363116285
 31
0.0
  0
LINE
  5
32AE
330
2F9B
100
AcDbEntity
  8
AM_5
100
AcDbLine
 10
1058.920219437299
 20
222.7343363116285
 30
0.0
 11
1061.420219437299
 21
222.7343363116285
 31
0.0
  0
LINE
  5
32AF
330
2F9B
100
AcDbEntity
  8
AM_5
100
AcDbLine
 10
1051.9202194373
 20
222.7343363116285
 30
0.0
 11
1046.3202194373
 21
222.7343363116285
 31
0.0
  0
LINE
  5
32B0
330
2F9B
100
AcDbEntity
  8
AM_5
100
AcDbLine
 10
1056.4202194373
 20
222.7343363116285
 30
0.0
 11
1054.4202194373
 21
222.7343363116285
 31
0.0
  0
SOLID
  5
32B1
330
2F9B
100
AcDbEntity
  8
AM_5
100
AcDbTrace
 10
1058.920219437299
 20
223.1510029782952
 30
0.0
 11
1058.920219437299
 21
222.3176696449618
 31
0.0
 12
1056.4202194373
 22
222.7343363116285
 32
0.0
 13
1056.4202194373
 23
222.7343363116285
 33
0.0
  0
SOLID
  5
32B2
330
2F9B
100
AcDbEntity
  8
AM_5
100
AcDbTrace
 10
1051.9202194373
 20
223.1510029782952
 30
0.0
 11
1051.9202194373
 21
222.3176696449618
 31
0.0
 12
1054.4202194373
 22
222.7343363116285
 32
0.0
 13
1054.4202194373
 23
222.7343363116285
 33
0.0
  0
MTEXT
  5
32B3
330
2F9B
100
AcDbEntity
  8
AM_5
100
AcDbMText
 10
1047.870219437299
 20
225.0343363116285
 30
0.0
 40
3.0
 41
0.0
 71
     5
 72
     1
  1
2
  7
CHINESET
 73
     1
 44
1.0
1001
ACAD
1000
MTEXTBEGIN
1070
    73
1070
     1
1070
    44
1040
1.0
1070
    74
1070
     0
1000
MTEXTEND
  0
POINT
  5
32B4
330
2F9B
100
AcDbEntity
  8
Defpoints
 62
     0
100
AcDbPoint
 10
1056.4202194373
 20
208.3567019968336
 30
0.0
  0
POINT
  5
32B5
330
2F9B
100
AcDbEntity
  8
Defpoints
 62
     0
100
AcDbPoint
 10
1054.4202194373
 20
217.3507019968335
 30
0.0
  0
POINT
  5
32B6
330
2F9B
100
AcDbEntity
  8
Defpoints
 62
     0
100
AcDbPoint
 10
1054.4202194373
 20
222.7343363116285
 30
0.0
  0
ENDBLK
  5
2FA8
330
2F9B
100
AcDbEntity
  8
0
100
AcDbBlockEnd
  0
BLOCK
  5
2FB4
330
2FA9
100
AcDbEntity
  8
0
100
AcDbBlockBegin
  2
*D25
 70
     1
 10
0.0
 20
0.0
 30
0.0
  3
*D25
  1

  0
LINE
  5
32D6
330
2FA9
100
AcDbEntity
  8
AM_5
100
AcDbLine
 10
1044.657848323375
 20
206.6187060682507
 30
0.0
 11
1044.157848323375
 21
206.6187060682507
 31
0.0
  0
LINE
  5
32D7
330
2FA9
100
AcDbEntity
  8
AM_5
100
AcDbLine
 10
1053.420219437299
 20
208.3567019968336
 30
0.0
 11
1044.157848323375
 21
208.3567019968336
 31
0.0
  0
LINE
  5
32D8
330
2FA9
100
AcDbEntity
  8
AM_5
100
AcDbLine
 10
1045.657848323375
 20
204.1187060682507
 30
0.0
 11
1045.657848323375
 21
201.6187060682507
 31
0.0
  0
LINE
  5
32D9
330
2FA9
100
AcDbEntity
  8
AM_5
100
AcDbLine
 10
1045.657848323375
 20
210.8567019968336
 30
0.0
 11
1045.657848323375
 21
224.9704725261408
 31
0.0
  0
LINE
  5
32DA
330
2FA9
100
AcDbEntity
  8
AM_5
100
AcDbLine
 10
1045.657848323375
 20
206.6187060682507
 30
0.0
 11
1045.657848323375
 21
208.3567019968336
 31
0.0
  0
SOLID
  5
32DB
330
2FA9
100
AcDbEntity
  8
AM_5
100
AcDbTrace
 10
1045.241181656708
 20
204.1187060682507
 30
0.0
 11
1046.074514990041
 21
204.1187060682507
 31
0.0
 12
1045.657848323375
 22
206.6187060682507
 32
0.0
 13
1045.657848323375
 23
206.6187060682507
 33
0.0
  0
SOLID
  5
32DC
330
2FA9
100
AcDbEntity
  8
AM_5
100
AcDbTrace
 10
1045.241181656708
 20
210.8567019968336
 30
0.0
 11
1046.074514990041
 21
210.8567019968336
 31
0.0
 12
1045.657848323375
 22
208.3567019968336
 32
0.0
 13
1045.657848323375
 23
208.3567019968336
 33
0.0
  0
MTEXT
  5
32DD
330
2FA9
100
AcDbEntity
  8
AM_5
100
AcDbMText
 10
1043.357848323375
 20
221.2240439547124
 30
0.0
 40
3.0
 41
0.0
 71
     5
 72
     1
  1
2H9
  7
CHINESET
 11
0.0000000000000001
 21
1.0
 31
0.0
 73
     1
 44
1.0
1001
ACAD
1000
MTEXTBEGIN
1070
    73
1070
     1
1070
    44
1040
1.0
1070
    74
1070
     0
1000
MTEXTEND
  0
POINT
  5
32DE
330
2FA9
100
AcDbEntity
  8
Defpoints
 62
     0
100
AcDbPoint
 10
1045.657848323375
 20
206.6187060682507
 30
0.0
  0
POINT
  5
32DF
330
2FA9
100
AcDbEntity
  8
Defpoints
 62
     0
100
AcDbPoint
 10
1054.4202194373
 20
208.3567019968336
 30
0.0
  0
POINT
  5
32E0
330
2FA9
100
AcDbEntity
  8
Defpoints
 62
     0
100
AcDbPoint
 10
1045.657848323375
 20
208.3567019968336
 30
0.0
  0
ENDBLK
  5
2FB5
330
2FA9
100
AcDbEntity
  8
0
100
AcDbBlockEnd
  0
BLOCK
  5
2FC0
330
2FB6
100
AcDbEntity
  8
0
100
AcDbBlockBegin
  2
*D26
 70
     1
 10
0.0
 20
0.0
 30
0.0
  3
*D26
  1

  0
LINE
  5
329A
330
2FB6
100
AcDbEntity
  8
AM_5
100
AcDbLine
 10
1090.4202194373
 20
210.2507019968336
 30
0.0
 11
1090.4202194373
 21
221.9639235361448
 31
0.0
  0
LINE
  5
329B
330
2FB6
100
AcDbEntity
  8
AM_5
100
AcDbLine
 10
1098.4202194373
 20
212.3637019968336
 30
0.0
 11
1098.4202194373
 21
221.9639235361448
 31
0.0
  0
LINE
  5
329C
330
2FB6
100
AcDbEntity
  8
AM_5
100
AcDbLine
 10
1092.920219437299
 20
220.4639235361448
 30
0.0
 11
1095.920219437299
 21
220.4639235361448
 31
0.0
  0
SOLID
  5
329D
330
2FB6
100
AcDbEntity
  8
AM_5
100
AcDbTrace
 10
1092.920219437299
 20
220.8805902028115
 30
0.0
 11
1092.920219437299
 21
220.0472568694781
 31
0.0
 12
1090.4202194373
 22
220.4639235361448
 32
0.0
 13
1090.4202194373
 23
220.4639235361448
 33
0.0
  0
SOLID
  5
329E
330
2FB6
100
AcDbEntity
  8
AM_5
100
AcDbTrace
 10
1095.920219437299
 20
220.8805902028115
 30
0.0
 11
1095.920219437299
 21
220.0472568694781
 31
0.0
 12
1098.4202194373
 22
220.4639235361448
 32
0.0
 13
1098.4202194373
 23
220.4639235361448
 33
0.0
  0
MTEXT
  5
329F
330
2FB6
100
AcDbEntity
  8
AM_5
100
AcDbMText
 10
1094.420219437299
 20
222.7639235361448
 30
0.0
 40
3.0
 41
0.0
 71
     5
 72
     1
  1
8
  7
CHINESET
 73
     1
 44
1.0
1001
ACAD
1000
MTEXTBEGIN
1070
    73
1070
     1
1070
    44
1040
1.0
1070
    74
1070
     0
1000
MTEXTEND
  0
POINT
  5
32A0
330
2FB6
100
AcDbEntity
  8
Defpoints
 62
     0
100
AcDbPoint
 10
1090.4202194373
 20
209.2507019968336
 30
0.0
  0
POINT
  5
32A1
330
2FB6
100
AcDbEntity
  8
Defpoints
 62
     0
100
AcDbPoint
 10
1098.4202194373
 20
211.3637019968336
 30
0.0
  0
POINT
  5
32A2
330
2FB6
100
AcDbEntity
  8
Defpoints
 62
     0
100
AcDbPoint
 10
1098.4202194373
 20
220.4639235361448
 30
0.0
  0
ENDBLK
  5
2FC1
330
2FB6
100
AcDbEntity
  8
0
100
AcDbBlockEnd
  0
ENDSEC
  0
SECTION
  2
ENTITIES
  0
TEXT
  5
AE3
330
1F
100
AcDbEntity
  8
M_1
 62
     4
100
AcDbText
 10
298.4979942115772
 20
71.23545134413652
 30
0.0
 40
5.0
  1

 41
0.75
  7
DAYUS
 11
298.4979942115772
 21
71.23545134413652
 31
0.0
100
AcDbText
 73
     1
  0
LINE
  5
2824
330
1F
100
AcDbEntity
  8
LOGO
 62
     1
100
AcDbLine
 10
1311.322403966028
 20
-20.61016423586398
 30
0.0
 11
865.8224039660284
 21
-20.61016423586398
 31
0.0
  0
LWPOLYLINE
  5
2838
330
1F
100
AcDbEntity
  8
0
 62
     4
100
AcDbPolyline
 90
        4
 70
     1
 43
0.0
 10
865.8224039660284
 20
-20.61016423586398
 10
1311.322403966028
 20
-20.61016423586398
 10
1311.322403966028
 20
270.9945271668502
 10
865.8224039660284
 20
270.9945271668502
1001
GENIUS_GENREC_14
1002
{
1000
PYDIR
1011
865.8224039660284
1021
270.9945271668502
1031
0.0
1002
}
1002
{
1000
PXDIR
1011
1311.322403966028
1021
-20.61016423586398
1031
0.0
1002
}
1002
{
1000
PORI
1011
865.8224039660284
1021
-20.61016423586398
1031
0.0
1002
}
1002
{
1000
PINS
1011
865.8224039660284
1021
-20.61016423586398
1031
0.0
1002
}
1002
{
1000
PINS2
1011
1311.322403966028
1021
270.9945271668502
1031
0.0
1002
}
1002
{
1000
C
1070
     1
1002
}
1001
GENIUS_GENODEF_13
1002
{
1000
HIER
1070
     0
1002
}
1002
{
1000
MANEDIT
1070
     0
1002
}
1002
{
1000
NOSEL
1070
     0
1002
}
1002
{
1000
BEHIND
1070
     0
1002
}
1002
{
1000
OTHER
1070
     0
1002
}
1002
{
1000
REACTOR
1002
}
1001
GENIUS_GENOBJ-N-REC_13
1002
{
1000
OWNER
1000
GEN
1002
}
  0
LWPOLYLINE
  5
2872
330
1F
100
AcDbEntity
  8
LOGO
 62
     4
100
AcDbPolyline
 90
        4
 70
     1
 43
0.0
 10
865.8224039660284
 20
-20.61016423586398
 10
1311.322403966028
 20
-20.61016423586398
 10
1311.322403966028
 20
-53.00547283314961
 10
865.8224039660284
 20
-53.00547283314961
1001
GENIUS_GENREC_14
1002
{
1000
PYDIR
1011
865.8224039660284
1021
-53.00547283314961
1031
0.0
1002
}
1002
{
1000
PXDIR
1011
1311.322403966028
1021
-20.61016423586398
1031
0.0
1002
}
1002
{
1000
PORI
1011
865.8224039660284
1021
-20.61016423586398
1031
0.0
1002
}
1002
{
1000
PINS
1011
865.8224039660284
1021
-20.61016423586398
1031
0.0
1002
}
1002
{
1000
PINS2
1011
1311.322403966028
1021
-53.00547283314961
1031
0.0
1002
}
1002
{
1000
C
1070
     1
1002
}
1001
GENIUS_GENOBJ-N-REC_13
1002
{
1000
OWNER
1000
GEN
1002
}
1001
GENIUS_GENODEF_13
1002
{
1000
HIER
1070
     0
1002
}
1002
{
1000
MANEDIT
1070
     0
1002
}
1002
{
1000
NOSEL
1070
     0
1002
}
1002
{
1000
BEHIND
1070
     0
1002
}
1002
{
1000
OTHER
1070
     0
1002
}
1002
{
1000
REACTOR
1002
}
  0
LINE
  5
2873
330
1F
100
AcDbEntity
  8
LOGO
 62
     4
100
AcDbLine
 10
1003.247264477027
 20
-38.4275839643704
 30
0.0
 11
1003.247264477027
 21
-50.30586378337557
 31
0.0
  0
LINE
  5
2874
330
1F
100
AcDbEntity
  8
LOGO
 62
     4
100
AcDbLine
 10
981.6503920788369
 20
-38.4275839643704
 30
0.0
 11
981.6503920788369
 21
-50.30586378337557
 31
0.0
  0
LINE
  5
2875
330
1F
100
AcDbEntity
  8
LOGO
 62
     4
100
AcDbLine
 10
1003.247264477027
 20
-50.30586378337557
 30
0.0
 11
981.6503920788369
 21
-50.30586378337557
 31
0.0
  0
LINE
  5
2876
330
1F
100
AcDbEntity
  8
LOGO
 62
     4
100
AcDbLine
 10
1013.302425978153
 20
-23.84969509559267
 30
0.0
 11
981.6503920788369
 21
-23.84969509559267
 31
0.0
  0
LINE
  5
2877
330
1F
100
AcDbEntity
  8
LOGO
 62
     4
100
AcDbLine
 10
1013.302425978153
 20
-33.56828767477805
 30
0.0
 11
981.6503920788369
 21
-33.56828767477805
 31
0.0
  0
LINE
  5
2878
330
1F
100
AcDbEntity
  8
LOGO
 62
     4
100
AcDbLine
 10
981.6503920788369
 20
-23.84969509559267
 30
0.0
 11
981.6503920788369
 21
-33.56828767477805
 31
0.0
  0
LINE
  5
2879
330
1F
100
AcDbEntity
  8
LOGO
 62
     4
100
AcDbLine
 10
1013.302425978153
 20
-23.84969509559267
 30
0.0
 11
1013.302425978153
 21
-33.56828767477805
 31
0.0
  0
LINE
  5
287A
330
1F
100
AcDbEntity
  8
LOGO
 62
     4
100
AcDbLine
 10
993.5756425706747
 20
-33.56828767477805
 30
0.0
 11
993.5756425706747
 21
-38.4275839643704
 31
0.0
  0
TEXT
  5
287B
330
1F
100
AcDbEntity
  8
LOGO
  6
Continuous
100
AcDbText
 10
983.3772337733503
 20
-31.53954568245399
 30
0.0
 40
5.669999999999999
  1
MCHG2
  7
CHINESET
100
AcDbText
  0
LINE
  5
287C
330
1F
100
AcDbEntity
  8
LOGO
 62
     4
100
AcDbLine
 10
1003.247264477027
 20
-38.4275839643704
 30
0.0
 11
981.6503920788369
 21
-38.4275839643704
 31
0.0
  0
TEXT
  5
287D
330
1F
100
AcDbEntity
  8
LOGO
  6
Continuous
100
AcDbText
 10
988.5807600567584
 20
-48.62926977540047
 30
212.3135157312807
 40
2.429999999999999
  1
Model
 41
0.8
  7
CHINESET
100
AcDbText
  0
TEXT
  5
287E
330
1F
100
AcDbEntity
  8
LOGO
100
AcDbText
 10
987.9339730511999
 20
-44.12457347777819
 30
212.3135157312807
 40
4.05
  1
型號
  7
CHINESET
100
AcDbText
  0
LINE
  5
288A
330
1F
100
AcDbEntity
  8
LOGO
  6
Continuous
100
AcDbLine
 10
1014.679439620723
 20
-28.74341617600135
 30
0.0
 11
1018.970815488005
 21
-28.74341617600135
 31
0.0
  0
LINE
  5
288B
330
1F
100
AcDbEntity
  8
LOGO
 62
     4
100
AcDbLine
 10
1027.670469409248
 20
-38.4275839643704
 30
0.0
 11
1027.670469409248
 21
-50.30586378337557
 31
0.0
  0
LINE
  5
288C
330
1F
100
AcDbEntity
  8
LOGO
 62
     4
100
AcDbLine
 10
1006.073597011059
 20
-38.4275839643704
 30
0.0
 11
1006.073597011059
 21
-50.30586378337557
 31
0.0
  0
LINE
  5
288D
330
1F
100
AcDbEntity
  8
LOGO
 62
     4
100
AcDbLine
 10
1027.670469409248
 20
-50.30586378337557
 30
0.0
 11
1006.073597011059
 21
-50.30586378337557
 31
0.0
  0
LINE
  5
288E
330
1F
100
AcDbEntity
  8
LOGO
 62
     4
100
AcDbLine
 10
1036.931129587124
 20
-23.84969509559267
 30
0.0
 11
1020.32451836221
 21
-23.84969509559267
 31
0.0
  0
LINE
  5
288F
330
1F
100
AcDbEntity
  8
LOGO
 62
     4
100
AcDbLine
 10
1036.931129587124
 20
-33.56828767477805
 30
0.0
 11
1020.32451836221
 21
-33.56828767477805
 31
0.0
  0
LINE
  5
2890
330
1F
100
AcDbEntity
  8
LOGO
 62
     4
100
AcDbLine
 10
1020.32451836221
 20
-23.84969509559267
 30
0.0
 11
1020.32451836221
 21
-33.56828767477805
 31
0.0
  0
LINE
  5
2891
330
1F
100
AcDbEntity
  8
LOGO
 62
     4
100
AcDbLine
 10
1036.931129587124
 20
-23.84969509559267
 30
0.0
 11
1036.931129587124
 21
-33.56828767477805
 31
0.0
  0
LINE
  5
2892
330
1F
100
AcDbEntity
  8
LOGO
 62
     4
100
AcDbLine
 10
1027.791492931728
 20
-33.56828767477805
 30
0.0
 11
1027.791492931728
 21
-35.9979358195742
 31
0.0
  0
TEXT
  5
2893
330
1F
100
AcDbEntity
  8
LOGO
  6
Continuous
100
AcDbText
 10
1024.471689059068
 20
-31.53954568245399
 30
0.0
 40
5.669999999999999
  1
32
  7
CHINESET
100
AcDbText
  0
LINE
  5
2894
330
1F
100
AcDbEntity
  8
LOGO
 62
     4
100
AcDbLine
 10
1027.670469409248
 20
-38.4275839643704
 30
0.0
 11
1006.073597011059
 21
-38.4275839643704
 31
0.0
  0
LINE
  5
2895
330
1F
100
AcDbEntity
  8
LOGO
  6
Continuous
100
AcDbLine
 10
1055.535391855481
 20
-28.74341617600135
 30
0.0
 11
1059.826767722764
 21
-28.74341617600135
 31
0.0
  0
LINE
  5
2896
330
1F
100
AcDbEntity
  8
LOGO
 62
     4
100
AcDbLine
 10
1078.091303056591
 20
-38.4275839643704
 30
0.0
 11
1078.091303056591
 21
-50.30586378337557
 31
0.0
  0
LINE
  5
2897
330
1F
100
AcDbEntity
  8
LOGO
 62
     4
100
AcDbLine
 10
1053.22949825378
 20
-38.4275839643704
 30
0.0
 11
1053.22949825378
 21
-50.30586378337557
 31
0.0
  0
LINE
  5
2898
330
1F
100
AcDbEntity
  8
LOGO
 62
     4
100
AcDbLine
 10
1078.091303056591
 20
-50.30586378337557
 30
0.0
 11
1053.22949825378
 21
-50.30586378337557
 31
0.0
  0
LINE
  5
2899
330
1F
100
AcDbEntity
  8
LOGO
 62
     4
100
AcDbLine
 10
1071.520783217831
 20
-23.84969509559267
 30
0.0
 11
1061.180470596969
 21
-23.84969509559267
 31
0.0
  0
LINE
  5
289A
330
1F
100
AcDbEntity
  8
LOGO
 62
     4
100
AcDbLine
 10
1071.520783217831
 20
-33.56828767477805
 30
0.0
 11
1061.180470596969
 21
-33.56828767477805
 31
0.0
  0
LINE
  5
289B
330
1F
100
AcDbEntity
  8
LOGO
 62
     4
100
AcDbLine
 10
1061.180470596969
 20
-23.84969509559267
 30
0.0
 11
1061.180470596969
 21
-33.56828767477805
 31
0.0
  0
LINE
  5
289C
330
1F
100
AcDbEntity
  8
LOGO
 62
     4
100
AcDbLine
 10
1071.520783217831
 20
-23.84969509559267
 30
0.0
 11
1071.520783217831
 21
-33.56828767477805
 31
0.0
  0
LINE
  5
289D
330
1F
100
AcDbEntity
  8
LOGO
 62
     4
100
AcDbLine
 10
1066.3506269074
 20
-33.56828767477805
 30
0.0
 11
1066.3506269074
 21
-38.4275839643704
 31
0.0
  0
LINE
  5
289F
330
1F
100
AcDbEntity
  8
LOGO
 62
     4
100
AcDbLine
 10
1078.091303056591
 20
-38.4275839643704
 30
0.0
 11
1053.22949825378
 21
-38.4275839643704
 31
0.0
  0
TEXT
  5
28A2
330
1F
100
AcDbEntity
  8
LOGO
  6
Continuous
100
AcDbText
 10
1010.59725909083
 20
-48.62926977540047
 30
212.3135157312807
 40
2.429999999999999
  1
Tube I.D.
 41
0.8
  7
CHINESET
100
AcDbText
  0
TEXT
  5
28A3
330
1F
100
AcDbEntity
  8
LOGO
100
AcDbText
 10
1011.57706127161
 20
-44.12457347777819
 30
212.3135157312807
 40
4.05
  1
內徑
  7
CHINESET
100
AcDbText
  0
TEXT
  5
28A4
330
1F
100
AcDbEntity
  8
LOGO
  6
Continuous
100
AcDbText
 10
1055.487912237529
 20
-48.62926977540047
 30
212.3135157312807
 40
2.429999999999999
  1
Sensor switch
 41
0.8
  7
CHINESET
100
AcDbText
  0
TEXT
  5
28A5
330
1F
100
AcDbEntity
  8
LOGO
100
AcDbText
 10
1055.31942402561
 20
-44.12457347777819
 30
212.3135157312807
 40
4.05
  1
感應器型式
  7
CHINESET
100
AcDbText
  0
LINE
  5
28A6
330
1F
100
AcDbEntity
  8
LOGO
 62
     4
100
AcDbLine
 10
1053.667471313514
 20
-23.84969509559267
 30
0.0
 11
1038.302885524892
 21
-23.84969509559267
 31
0.0
  0
LINE
  5
28A7
330
1F
100
AcDbEntity
  8
LOGO
 62
     4
100
AcDbLine
 10
1053.667471313514
 20
-33.56828767477805
 30
0.0
 11
1038.302885524892
 21
-33.56828767477805
 31
0.0
  0
LINE
  5
28A8
330
1F
100
AcDbEntity
  8
LOGO
 62
     4
100
AcDbLine
 10
1038.302885524892
 20
-23.84969509559267
 30
0.0
 11
1038.302885524892
 21
-33.56828767477805
 31
0.0
  0
LINE
  5
28A9
330
1F
100
AcDbEntity
  8
LOGO
 62
     4
100
AcDbLine
 10
1053.667471313514
 20
-23.84969509559267
 30
0.0
 11
1053.667471313514
 21
-33.56828767477805
 31
0.0
  0
TEXT
  5
28AA
330
1F
100
AcDbEntity
  8
LOGO
  6
Continuous
100
AcDbText
 10
1040.561511695243
 20
-31.53954568245399
 30
0.0
 40
5.669999999999999
  1
(M)
  7
CHINESET
100
AcDbText
  0
LINE
  5
28AB
330
1F
100
AcDbEntity
  8
LOGO
 62
     4
100
AcDbLine
 10
1049.679519919161
 20
-38.4275839643704
 30
0.0
 11
1049.679519919161
 21
-50.30586378337557
 31
0.0
  0
LINE
  5
28AC
330
1F
100
AcDbEntity
  8
LOGO
 62
     4
100
AcDbLine
 10
1032.085424353319
 20
-38.4275839643704
 30
0.0
 11
1032.085424353319
 21
-50.30586378337557
 31
0.0
  0
LINE
  5
28AD
330
1F
100
AcDbEntity
  8
LOGO
 62
     4
100
AcDbLine
 10
1049.679519919161
 20
-50.30586378337557
 30
0.0
 11
1032.085424353319
 21
-50.30586378337557
 31
0.0
  0
LINE
  5
28AE
330
1F
100
AcDbEntity
  8
LOGO
 62
     4
100
AcDbLine
 10
1049.679519919161
 20
-38.4275839643704
 30
0.0
 11
1032.085424353319
 21
-38.4275839643704
 31
0.0
  0
TEXT
  5
28AF
330
1F
100
AcDbEntity
  8
LOGO
  6
Continuous
100
AcDbText
 10
1035.909927931386
 20
-48.62926977540047
 30
212.3135157312807
 40
2.429999999999999
  1
Magnet
 41
0.8
  7
CHINESET
100
AcDbText
  0
TEXT
  5
28B0
330
1F
100
AcDbEntity
  8
LOGO
100
AcDbText
 10
1034.614046170275
 20
-44.12457347777819
 30
212.3135157312807
 40
4.05
  1
附磁石
  7
CHINESET
100
AcDbText
  0
LINE
  5
28B1
330
1F
100
AcDbEntity
  8
LOGO
 62
     4
100
AcDbLine
 10
1045.985178419203
 20
-33.56828767477805
 30
0.0
 11
1045.985178419203
 21
-35.9979358195742
 31
0.0
  0
LINE
  5
28B9
330
1F
100
AcDbEntity
  8
LOGO
 62
     4
100
AcDbLine
 10
1027.791492931728
 20
-35.9979358195742
 30
0.0
 11
1016.872033210153
 21
-35.9979358195742
 31
0.0
  0
LINE
  5
28BA
330
1F
100
AcDbEntity
  8
LOGO
 62
     4
100
AcDbLine
 10
1016.872033210153
 20
-38.4275839643704
 30
0.0
 11
1016.872033210153
 21
-35.9979358195742
 31
0.0
  0
LINE
  5
28BB
330
1F
100
AcDbEntity
  8
LOGO
 62
     4
100
AcDbLine
 10
1045.985178419203
 20
-35.9979358195742
 30
0.0
 11
1040.882472136241
 21
-35.9979358195742
 31
0.0
  0
LINE
  5
28BC
330
1F
100
AcDbEntity
  8
LOGO
 62
     4
100
AcDbLine
 10
1040.88247213624
 20
-38.4275839643704
 30
0.0
 11
1040.882472136241
 21
-35.9979358195742
 31
0.0
  0
TEXT
  5
299D
330
1F
100
AcDbEntity
  8
LOGO
 62
     7
100
AcDbText
 10
938.9688657419343
 20
-34.80199767905424
 30
0.0
 40
4.319374479638009
  1
Order example:
 41
0.8
  7
CHINESET
100
AcDbText
  0
TEXT
  5
299E
330
1F
100
AcDbEntity
  8
LOGO
 62
     7
100
AcDbText
 10
939.7437972433552
 20
-28.72121274962166
 30
0.0
 40
6.479061719457012
  1
訂購代號:
  7
CHINESET
100
AcDbText
  0
LINE
  5
29A0
330
1F
100
AcDbEntity
  8
LOGO
 62
     4
100
AcDbLine
 10
937.0920828800556
 20
-53.00547283314926
 30
0.0
 11
937.0920828800556
 21
-20.61016423586392
 31
0.0
  0
TEXT
  5
29A1
330
1F
100
AcDbEntity
  8
LOGO
  6
Continuous
100
AcDbText
 10
877.4589444339028
 20
-46.64146334799579
 30
0.0
 40
4.85929628959276
  1
金器工業股份有限公司
  7
CHINESET
100
AcDbText
  0
TEXT
  5
29A2
330
1F
100
AcDbEntity
  8
LOGO
  6
Continuous
100
AcDbText
 10
868.5333785142823
 20
-51.50171167867779
 30
0.0
 40
3.239530859728506
  1
MINDMAN INDUSTRIAL CO., LTD.
 41
0.85
  7
CHINESET
100
AcDbText
  0
LINE
  5
29A3
330
1F
100
AcDbEntity
  8
LOGO
100
AcDbLine
 10
937.0920828800556
 20
-27.08922595532101
 30
0.0
 11
889.5789636040372
 21
-27.08922595532101
 31
0.0
  0
LINE
  5
29A4
330
1F
100
AcDbEntity
  8
LOGO
100
AcDbLine
 10
937.0920828800556
 20
-33.56828767477805
 30
0.0
 11
889.5789636040372
 21
-33.56828767477805
 31
0.0
  0
LINE
  5
29A5
330
1F
100
AcDbEntity
  8
LOGO
 62
     4
100
AcDbLine
 10
937.0920828800556
 20
-40.04734939423468
 30
0.0
 11
865.8224039660284
 21
-40.04734939423468
 31
0.0
  0
LINE
  5
29A6
330
1F
100
AcDbEntity
  8
LOGO
 62
     4
100
AcDbLine
 10
889.5789636040372
 20
-40.04734939423468
 30
0.0
 11
889.5789636040372
 21
-20.61016423586392
 31
0.0
  0
TEXT
  5
29A7
330
1F
100
AcDbEntity
  8
LOGO
100
AcDbText
 10
922.0519380441247
 20
-38.42758396437099
 30
0.0
 40
3.239530859728506
  1
mm
  7
CHINESET
 72
     1
 11
926.0627857752172
 21
-36.80781853450674
 31
0.0
100
AcDbText
 73
     2
  0
TEXT
  5
29A8
330
1F
100
AcDbEntity
  8
LOGO
100
AcDbText
 10
920.3550409271242
 20
-25.46946052545692
 30
0.0
 40
3.239530859728506
  1
1 : 1
  7
CHINESET
 72
     1
 11
926.0627857752172
 21
-23.84969509559267
 31
0.0
100
AcDbText
 73
     2
  0
LINE
  5
29A9
330
1F
100
AcDbEntity
  8
LOGO
 62
     4
100
AcDbLine
 10
915.4952104818653
 20
-40.04734939423468
 30
0.0
 11
915.4952104818653
 21
-20.61016423586392
 31
0.0
  0
CIRCLE
  5
29AA
330
1F
100
AcDbEntity
  8
LOGO
  6
Continuous
100
AcDbCircle
 10
921.4936070627672
 20
-30.32182743483412
 30
0.0
 40
1.880947867119423
  0
CIRCLE
  5
29AB
330
1F
100
AcDbEntity
  8
LOGO
  6
Continuous
100
AcDbCircle
 10
921.4936070627672
 20
-30.32182743483412
 30
0.0
 40
1.102068939238267
  0
LINE
  5
29AC
330
1F
100
AcDbEntity
  8
LOGO
100
AcDbLine
 10
933.3137017157065
 20
-32.20277530195392
 30
0.0
 11
933.3137017157065
 21
-28.44087956771438
 31
0.0
  0
LINE
  5
29AD
330
1F
100
AcDbEntity
  8
LOGO
100
AcDbLine
 10
927.4170381238468
 20
-31.42389637407223
 30
0.0
 11
927.4170381238468
 21
-29.21975849559578
 31
0.0
  0
LINE
  5
29AE
330
1F
100
AcDbEntity
  8
LOGO
  6
Continuous
100
AcDbLine
 10
927.4170381238468
 20
-29.21975849559578
 30
0.0
 11
933.3137017157065
 21
-28.44087956771438
 31
0.0
  0
LINE
  5
29AF
330
1F
100
AcDbEntity
  8
LOGO
  6
Continuous
100
AcDbLine
 10
927.4170381238468
 20
-31.42389637407223
 30
0.0
 11
933.3137017157065
 21
-32.20277530195392
 31
0.0
  0
TEXT
  5
29B0
330
1F
100
AcDbEntity
  8
LOGO
100
AcDbText
 10
892.2501303441794
 20
-25.46786626814406
 30
212.3135157312807
 40
3.239530859728506
  1
比例 Scale:
 41
0.9
  7
CHINESET
 72
     4
 11
902.5370870429513
 21
-23.84969509559267
 31
212.3135157312807
100
AcDbText
  0
TEXT
  5
29B1
330
1F
100
AcDbEntity
  8
LOGO
100
AcDbText
 10
892.0635680759184
 20
-31.90295305672142
 30
212.3135157312807
 40
3.239530859728506
  1
投影  View:
 41
0.9
  7
CHINESET
 72
     4
 11
902.5370870429513
 21
-30.3287568150497
 31
212.3135157312807
100
AcDbText
  0
TEXT
  5
29B2
330
1F
100
AcDbEntity
  8
LOGO
100
AcDbText
 10
892.3802900662222
 20
-38.42758396437099
 30
212.3135157312807
 40
3.239530859728506
  1
單位  Unit:
 41
0.9
  7
CHINESET
 72
     4
 11
902.5370870429513
 21
-36.80781853450674
 31
212.3135157312807
100
AcDbText
  0
SOLID
  5
29B4
330
1F
100
AcDbEntity
  8
LOGO
 62
     5
100
AcDbTrace
 10
869.1834692235122
 20
-34.66209045084383
 30
0.0
 11
870.5841573619691
 21
-34.66209045084418
 31
0.0
 12
876.4284078707026
 22
-21.37970293099408
 32
0.0
 13
877.8290960091601
 23
-21.37970293099483
 33
0.0
  0
SOLID
  5
29B5
330
1F
100
AcDbEntity
  8
LOGO
 62
     5
100
AcDbTrace
 10
871.163752453746
 20
-34.66209045084383
 30
0.0
 11
872.5644405922027
 21
-34.66209045084383
 31
0.0
 12
877.8290960091601
 22
-22.44229393258263
 32
0.0
 13
876.4284078707026
 23
-27.57815044025785
 33
0.0
  0
SOLID
  5
29B6
330
1F
100
AcDbEntity
  8
LOGO
 62
     2
100
AcDbTrace
 10
870.5841573619691
 20
-34.66209045084418
 30
0.0
 11
871.163752453746
 21
-34.66209045084383
 31
0.0
 12
877.8290960091601
 22
-21.37970293099483
 32
0.0
 13
878.4086911009362
 23
-21.37970293099483
 33
0.0
  0
SOLID
  5
29B7
330
1F
100
AcDbEntity
  8
LOGO
 62
     5
100
AcDbTrace
 10
866.9378226467593
 20
-39.49204954897061
 30
0.0
 11
867.4208185565724
 21
-39.49204954897061
 31
0.0
 12
868.7809726320022
 22
-37.07706999990734
 32
0.0
 13
869.2639685418141
 23
-37.07706999990734
 33
0.0
  0
SOLID
  5
29B8
330
1F
100
AcDbEntity
  8
LOGO
 62
     5
100
AcDbTrace
 10
868.7809726320022
 20
-37.07706999990734
 30
0.0
 11
869.2639685418141
 21
-37.07706999990734
 31
0.0
 12
868.7809726320022
 22
-39.49204954897061
 32
0.0
 13
869.2639685418141
 23
-39.49204954897061
 33
0.0
  0
SOLID
  5
29B9
330
1F
100
AcDbEntity
  8
LOGO
 62
     5
100
AcDbTrace
 10
868.7809726320022
 20
-39.49204954897061
 30
0.0
 11
869.2639685418141
 21
-39.49204954897061
 31
0.0
 12
870.624122617246
 22
-37.07706999990734
 32
0.0
 13
871.1071185270583
 23
-37.07706999990734
 33
0.0
  0
SOLID
  5
29BA
330
1F
100
AcDbEntity
  8
LOGO
 62
     5
100
AcDbTrace
 10
870.624122617246
 20
-37.07706999990734
 30
0.0
 11
871.1071185270583
 21
-37.07706999990734
 31
0.0
 12
870.624122617246
 22
-39.49204954897061
 32
0.0
 13
871.1071185270583
 23
-39.49204954897061
 33
0.0
  0
POLYLINE
  5
29BB
330
1F
100
AcDbEntity
  8
LOGO
 62
     5
100
AcDb2dPolyline
 66
     1
 10
0.0
 20
0.0
 30
0.0
 40
0.483769941719457
 41
0.483769941719457
  0
VERTEX
  5
29BC
330
29BB
100
AcDbEntity
  8
LOGO
 62
     5
100
AcDbVertex
100
AcDb2dVertex
 10
886.8139809795373
 20
-38.04306181953274
 30
0.0
 42
1.0
  0
VERTEX
  5
29BD
330
29BB
100
AcDbEntity
  8
LOGO
 62
     5
100
AcDbVertex
100
AcDb2dVertex
 10
885.3626711543785
 20
-38.04306181953274
 30
0.0
 42
1.0
  0
SEQEND
  5
29BE
330
29BB
100
AcDbEntity
  8
LOGO
 62
     5
  0
POLYLINE
  5
29BF
330
1F
100
AcDbEntity
  8
LOGO
 62
     5
100
AcDb2dPolyline
 66
     1
 10
0.0
 20
0.0
 30
0.0
 70
     1
  0
VERTEX
  5
29C0
330
29BF
100
AcDbEntity
  8
LOGO
 62
     5
100
AcDbVertex
100
AcDb2dVertex
 10
882.6268875796932
 20
-38.28455977443935
 30
0.0
 42
1.000000057330635
  0
VERTEX
  5
29C1
330
29BF
100
AcDbEntity
  8
LOGO
 62
     5
100
AcDbVertex
100
AcDb2dVertex
 10
884.0758753091314
 20
-38.28455977443935
 30
0.0
 42
1.000000057330635
  0
SEQEND
  5
29C2
330
29BF
100
AcDbEntity
  8
LOGO
 62
     5
  0
CIRCLE
  5
29C3
330
1F
100
AcDbEntity
  8
LOGO
 62
     5
100
AcDbCircle
 10
883.3513814444135
 20
-38.28455977443935
 30
0.0
 40
0.7244938647190589
  0
POLYLINE
  5
29C4
330
1F
100
AcDbEntity
  8
LOGO
 62
     5
100
AcDb2dPolyline
 66
     1
 10
0.0
 20
0.0
 30
0.0
 70
     1
 40
0.483769941719457
 41
0.483769941719457
  0
VERTEX
  5
29C5
330
29C4
100
AcDbEntity
  8
LOGO
 62
     5
100
AcDbVertex
100
AcDb2dVertex
 10
882.3838415609738
 20
-38.28455977443935
 30
0.0
 42
1.0
  0
VERTEX
  5
29C6
330
29C4
100
AcDbEntity
  8
LOGO
 62
     5
100
AcDbVertex
100
AcDb2dVertex
 10
884.3189213278515
 20
-38.28455977443935
 30
0.0
 42
1.0
  0
SEQEND
  5
29C7
330
29C4
100
AcDbEntity
  8
LOGO
 62
     5
  0
LINE
  5
29C8
330
1F
100
AcDbEntity
  8
LOGO
100
AcDbLine
 10
887.0543178865826
 20
-39.49204954897061
 30
0.0
 11
887.0543178865826
 21
-38.04306181953274
 31
0.0
  0
SOLID
  5
29C9
330
1F
100
AcDbEntity
  8
LOGO
 62
     5
100
AcDbTrace
 10
884.0758270095426
 20
-37.07706999990734
 30
0.0
 11
884.5588229193543
 21
-37.07706999990734
 31
0.0
 12
884.0758270095426
 22
-39.49204954897061
 32
0.0
 13
884.5588229193543
 23
-39.49204954897061
 33
0.0
  0
SOLID
  5
29CA
330
1F
100
AcDbEntity
  8
LOGO
 62
     5
100
AcDbTrace
 10
885.1223342473318
 20
-39.49204954897061
 30
0.0
 11
885.6053301571451
 21
-39.49204954897061
 31
0.0
 12
885.1223342473318
 22
-37.07706999990734
 32
0.0
 13
885.6053301571451
 23
-37.07706999990734
 33
0.0
  0
SOLID
  5
29CB
330
1F
100
AcDbEntity
  8
LOGO
 62
     5
100
AcDbTrace
 10
886.5713219767707
 20
-38.04306181953274
 30
0.0
 11
887.0543178865826
 21
-38.04306181953274
 31
0.0
 12
886.5713219767707
 22
-39.49204954897061
 32
0.0
 13
887.0543178865826
 23
-39.49204954897061
 33
0.0
  0
SOLID
  5
29CC
330
1F
100
AcDbEntity
  8
LOGO
 62
     5
100
AcDbTrace
 10
885.0740346563505
 20
-22.44229393258263
 30
0.0
 11
883.6733465178943
 21
-27.57815044025785
 31
0.0
 12
885.0740346563505
 22
-34.66209045084418
 32
0.0
 13
883.6733465178943
 23
-34.66209045084418
 33
0.0
  0
SOLID
  5
29CD
330
1F
100
AcDbEntity
  8
LOGO
 62
     5
100
AcDbTrace
 10
885.6536297481264
 20
-34.66209045084418
 30
0.0
 11
887.0543178865826
 21
-34.66209045084418
 31
0.0
 12
885.6536297481264
 22
-21.37970293099483
 32
0.0
 13
887.0543178865826
 23
-21.37970293099408
 33
0.0
  0
SOLID
  5
29CE
330
1F
100
AcDbEntity
  8
LOGO
 62
     2
100
AcDbTrace
 10
885.0740346563505
 20
-21.37970293099408
 30
0.0
 11
885.6536297481264
 21
-21.37970293099483
 31
0.0
 12
885.0740346563505
 22
-34.66209045084418
 32
0.0
 13
885.6536297481264
 23
-34.66209045084418
 33
0.0
  0
POLYLINE
  5
29CF
330
1F
100
AcDbEntity
  8
LOGO
 62
     5
100
AcDb2dPolyline
 66
     1
 10
0.0
 20
0.0
 30
0.0
 40
0.483769941719457
 41
0.483769941719457
  0
VERTEX
  5
29D0
330
29CF
100
AcDbEntity
  8
LOGO
 62
     5
100
AcDbVertex
100
AcDb2dVertex
 10
879.891007405828
 20
-38.04306181953274
 30
0.0
 42
1.0
  0
VERTEX
  5
29D1
330
29CF
100
AcDbEntity
  8
LOGO
 62
     5
100
AcDbVertex
100
AcDb2dVertex
 10
878.4396975806691
 20
-38.04306181953274
 30
0.0
 42
1.0
  0
SEQEND
  5
29D2
330
29CF
100
AcDbEntity
  8
LOGO
 62
     5
  0
POLYLINE
  5
29D3
330
1F
100
AcDbEntity
  8
LOGO
 62
     5
100
AcDb2dPolyline
 66
     1
 10
0.0
 20
0.0
 30
0.0
 40
0.483769941719457
 41
0.483769941719457
  0
VERTEX
  5
29D4
330
29D3
100
AcDbEntity
  8
LOGO
 62
     5
100
AcDbVertex
100
AcDb2dVertex
 10
881.3399951352646
 20
-38.04306181953274
 30
0.0
 42
1.0
  0
VERTEX
  5
29D5
330
29D3
100
AcDbEntity
  8
LOGO
 62
     5
100
AcDbVertex
100
AcDb2dVertex
 10
879.8886853101066
 20
-38.04306181953274
 30
0.0
 42
1.0
  0
SEQEND
  5
29D6
330
29D3
100
AcDbEntity
  8
LOGO
 62
     5
  0
POLYLINE
  5
29D7
330
1F
100
AcDbEntity
  8
LOGO
 62
     5
100
AcDb2dPolyline
 66
     1
 10
0.0
 20
0.0
 30
0.0
 40
0.483769941719457
 41
0.483769941719457
  0
VERTEX
  5
29D8
330
29D7
100
AcDbEntity
  8
LOGO
 62
     5
100
AcDbVertex
100
AcDb2dVertex
 10
874.4170215615554
 20
-38.04306181953274
 30
0.0
 42
1.0
  0
VERTEX
  5
29D9
330
29D7
100
AcDbEntity
  8
LOGO
 62
     5
100
AcDbVertex
100
AcDb2dVertex
 10
872.9657117363974
 20
-38.04306181953274
 30
0.0
 42
1.0
  0
SEQEND
  5
29DA
330
29D7
100
AcDbEntity
  8
LOGO
 62
     5
  0
SOLID
  5
29DB
330
1F
100
AcDbEntity
  8
LOGO
 62
     5
100
AcDbTrace
 10
872.7253748293513
 20
-37.07706999990734
 30
0.0
 11
873.2083707391632
 21
-37.07706999990734
 31
0.0
 12
872.7253748293513
 22
-39.49204954897061
 32
0.0
 13
873.2083707391632
 23
-39.49204954897061
 33
0.0
  0
SOLID
  5
29DC
330
1F
100
AcDbEntity
  8
LOGO
 62
     5
100
AcDbTrace
 10
874.1743625587897
 20
-38.04306181953274
 30
0.0
 11
874.6573584686029
 21
-38.04306181953274
 31
0.0
 12
874.1743625587897
 22
-39.49204954897061
 32
0.0
 13
874.6573584686029
 23
-39.49204954897061
 33
0.0
  0
POLYLINE
  5
29DD
330
1F
100
AcDbEntity
  8
LOGO
 62
     5
100
AcDb2dPolyline
 66
     1
 10
0.0
 20
0.0
 30
0.0
 70
     1
 40
0.483769941719457
 41
0.483769941719457
  0
VERTEX
  5
29DE
330
29DD
100
AcDbEntity
  8
LOGO
 62
     5
100
AcDbVertex
100
AcDb2dVertex
 10
875.4608679872637
 20
-38.28455977443935
 30
0.0
 42
1.0
  0
VERTEX
  5
29DF
330
29DD
100
AcDbEntity
  8
LOGO
 62
     5
100
AcDbVertex
100
AcDb2dVertex
 10
877.3959477541422
 20
-38.28455977443935
 30
0.0
 42
1.0
  0
SEQEND
  5
29E0
330
29DD
100
AcDbEntity
  8
LOGO
 62
     5
  0
SOLID
  5
29E1
330
1F
100
AcDbEntity
  8
LOGO
 62
     5
100
AcDbTrace
 10
877.1528534358317
 20
-36.35257613518786
 30
0.0
 11
877.6358493456443
 21
-36.35257613518786
 31
0.0
 12
877.1528534358317
 22
-39.49204954897061
 32
0.0
 13
877.6358493456443
 23
-39.49204954897061
 33
0.0
  0
SOLID
  5
29E2
330
1F
100
AcDbEntity
  8
LOGO
 62
     5
100
AcDbTrace
 10
878.1993606736239
 20
-37.07706999990734
 30
0.0
 11
878.6823565834358
 21
-37.07706999990734
 31
0.0
 12
878.1993606736239
 22
-39.49204954897061
 32
0.0
 13
878.6823565834358
 23
-39.49204954897061
 33
0.0
  0
SOLID
  5
29E3
330
1F
100
AcDbEntity
  8
LOGO
 62
     5
100
AcDbTrace
 10
879.6483484030607
 20
-38.04306181953274
 30
0.0
 11
880.1313443128739
 21
-38.04306181953274
 31
0.0
 12
879.6483484030607
 22
-39.49204954897061
 32
0.0
 13
880.1313443128739
 23
-39.49204954897061
 33
0.0
  0
SOLID
  5
29E4
330
1F
100
AcDbEntity
  8
LOGO
 62
     5
100
AcDbTrace
 10
881.097336132499
 20
-38.04306181953274
 30
0.0
 11
881.5803320423114
 21
-38.04306181953274
 31
0.0
 12
881.097336132499
 22
-39.4920495489713
 32
0.0
 13
881.5803320423114
 23
-39.4920495489713
 33
0.0
  0
SOLID
  5
29E5
330
1F
100
AcDbEntity
  8
LOGO
 62
     5
100
AcDbTrace
 10
871.6788675915598
 20
-36.73897286303833
 30
0.0
 11
872.161863501374
 21
-36.73897286303833
 31
0.0
 12
871.6788675915598
 22
-36.35257613518786
 32
0.0
 13
872.161863501374
 23
-36.35257613518786
 33
0.0
  0
SOLID
  5
29E6
330
1F
100
AcDbEntity
  8
LOGO
 62
     5
100
AcDbTrace
 10
871.6788675915598
 20
-37.07706999990734
 30
0.0
 11
872.161863501374
 21
-37.07706999990734
 31
0.0
 12
871.6788675915598
 22
-39.4920495489713
 32
0.0
 13
872.161863501374
 23
-39.49204954897061
 33
0.0
  0
SOLID
  5
29E7
330
1F
100
AcDbEntity
  8
LOGO
 62
     5
100
AcDbTrace
 10
876.4284078707026
 20
-34.66209045084383
 30
0.0
 11
877.8290960091601
 21
-34.66209045084383
 31
0.0
 12
876.4284078707026
 22
-27.57815044025785
 32
0.0
 13
877.8290960091601
 23
-22.44229393258263
 33
0.0
  0
SOLID
  5
29E8
330
1F
100
AcDbEntity
  8
LOGO
 62
     5
100
AcDbTrace
 10
878.4086911009362
 20
-21.37970293099483
 30
0.0
 11
879.8093792393922
 21
-21.37970293099408
 31
0.0
 12
878.4086911009362
 22
-33.59949944925603
 32
0.0
 13
879.8093792393922
 23
-28.46364294158082
 33
0.0
  0
SOLID
  5
29E9
330
1F
100
AcDbEntity
  8
LOGO
 62
     2
100
AcDbTrace
 10
877.8290960091601
 20
-21.37970293099483
 30
0.0
 11
878.4086911009362
 21
-21.37970293099483
 31
0.0
 12
877.8290960091601
 22
-34.66209045084383
 32
0.0
 13
878.4086911009362
 23
-34.66209045084383
 33
0.0
  0
SOLID
  5
29EA
330
1F
100
AcDbEntity
  8
LOGO
 62
     5
100
AcDbTrace
 10
878.4086911009362
 20
-33.59949944925603
 30
0.0
 11
879.8093792393922
 21
-28.46364294158082
 31
0.0
 12
885.0740346563505
 22
-21.37970293099408
 32
0.0
 13
883.6733465178943
 23
-21.37970293099408
 33
0.0
  0
SOLID
  5
29EB
330
1F
100
AcDbEntity
  8
LOGO
 62
     5
100
AcDbTrace
 10
878.4086911009362
 20
-34.66209045084383
 30
0.0
 11
879.8093792393922
 21
-34.66209045084383
 31
0.0
 12
885.0740346563505
 22
-22.44229393258263
 32
0.0
 13
883.6733465178943
 23
-27.57815044025785
 33
0.0
  0
SOLID
  5
29EC
330
1F
100
AcDbEntity
  8
LOGO
 62
     2
100
AcDbTrace
 10
877.8290960091601
 20
-34.66209045084383
 30
0.0
 11
878.4086911009362
 21
-34.66209045084383
 31
0.0
 12
885.0740346563505
 22
-21.37970293099408
 32
0.0
 13
885.6536297481264
 23
-21.37970293099483
 33
0.0
  0
TEXT
  5
2A2D
330
1F
100
AcDbEntity
  8
LOGO
100
AcDbText
 10
938.5930705378605
 20
-51.28205520199663
 30
0.0
 40
3.24
  1
10603100
 41
0.7
  7
CHINESET
 72
     1
 11
946.4770705378604
 21
-51.28205520199663
 31
0.0
100
AcDbText
  0
LINE
  5
2A2E
330
1F
100
AcDbEntity
  8
LOGO
 62
     4
100
AcDbLine
 10
956.532082880054
 20
-46.52641111369144
 30
0.0
 11
956.5320828800556
 21
-53.00547283314881
 31
0.0
  0
LINE
  5
2A2F
330
1F
100
AcDbEntity
  8
LOGO
 62
     4
100
AcDbLine
 10
956.532082880054
 20
-46.52641111369144
 30
0.0
 11
937.0920828800556
 21
-46.52641111369144
 31
0.0
  0
LINE
  5
2A30
330
1F
100
AcDbEntity
  8
LOGO
  6
AM_ISO08W050x2
 48
0.3
100
AcDbLine
 10
918.9006922629667
 20
-30.32182743483412
 30
0.0
 11
924.0865218625678
 21
-30.32182743483412
 31
0.0
1001
GENIUS_GENOREF_13
1005
2A35
  0
LINE
  5
2A31
330
1F
100
AcDbEntity
  8
LOGO
  6
AM_ISO08W050x2
 48
0.3
100
AcDbLine
 10
921.4936070627672
 20
-32.91474223463479
 30
0.0
 11
921.4936070627672
 21
-27.72891263503357
 31
0.0
1001
GENIUS_GENOREF_13
1005
2A34
  0
LINE
  5
2A32
330
1F
100
AcDbEntity
  8
LOGO
  6
AM_ISO08W050x2
 48
0.3
100
AcDbLine
 10
926.9454689334956
 20
-30.32182743483412
 30
0.0
 11
933.9074766509225
 21
-30.32182743483412
 31
0.0
1001
GENIUS_GENOREF_13
1005
2A33
  0
POINT
  5
2A33
330
1F
100
AcDbEntity
  8
0
 60
     1
100
AcDbPoint
 10
-1846.718893173345
 20
-1185.064967107847
 30
0.0
1001
GENIUS_GENOBJ-N-CRS_13
1002
{
1000
OWNER
1000
GEN
1002
}
1001
GENIUS_GENOLIS_13
1002
{
1000
ENT
1005
0
1005
0
1005
0
1005
2A32
1002
}
1001
GENIUS_GENOENT_13
1002
{
1000
MYREF
1005
2A33
1002
}
1002
{
1000
GRP
1005
0
1002
}
1001
GENIUS_GENODEF_13
1002
{
1000
HIER
1070
    10
1002
}
1002
{
1000
MANEDIT
1070
     1
1002
}
1002
{
1000
NOSEL
1070
     0
1002
}
1002
{
1000
BEHIND
1070
     0
1002
}
1002
{
1000
OTHER
1070
     0
1002
}
1002
{
1000
REACTOR
1002
}
  0
POINT
  5
2A34
330
1F
100
AcDbEntity
  8
0
 60
     1
100
AcDbPoint
 10
-1858.0434783962
 20
-1176.18938062921
 30
0.0
1001
GENIUS_GENOBJ-N-CRS_13
1002
{
1000
OWNER
1000
GEN
1002
}
1001
GENIUS_GENOLIS_13
1002
{
1000
ENT
1005
0
1005
0
1005
0
1005
2A31
1002
}
1001
GENIUS_GENOENT_13
1002
{
1000
MYREF
1005
2A34
1002
}
1002
{
1000
GRP
1005
0
1002
}
1001
GENIUS_GENODEF_13
1002
{
1000
HIER
1070
    10
1002
}
1002
{
1000
MANEDIT
1070
     1
1002
}
1002
{
1000
NOSEL
1070
     0
1002
}
1002
{
1000
BEHIND
1070
     0
1002
}
1002
{
1000
OTHER
1070
     0
1002
}
1002
{
1000
REACTOR
1002
}
  0
POINT
  5
2A35
330
1F
100
AcDbEntity
  8
0
 60
     1
100
AcDbPoint
 10
-1851.684804698363
 20
-1185.064967107847
 30
0.0
1001
GENIUS_GENOBJ-N-CRS_13
1002
{
1000
OWNER
1000
GEN
1002
}
1001
GENIUS_GENOLIS_13
1002
{
1000
ENT
1005
0
1005
0
1005
0
1005
2A30
1002
}
1001
GENIUS_GENOENT_13
1002
{
1000
MYREF
1005
2A35
1002
}
1002
{
1000
GRP
1005
0
1002
}
1001
GENIUS_GENODEF_13
1002
{
1000
HIER
1070
    10
1002
}
1002
{
1000
MANEDIT
1070
     1
1002
}
1002
{
1000
NOSEL
1070
     0
1002
}
1002
{
1000
BEHIND
1070
     0
1002
}
1002
{
1000
OTHER
1070
     0
1002
}
1002
{
1000
REACTOR
1002
}
  0
LINE
  5
2D30
330
1F
100
AcDbEntity
  8
0
  6
Continuous
 62
     7
100
AcDbLine
 10
1152.095699558455
 20
83.59370199683366
 30
0.0
 11
1148.624699558455
 21
89.60670199683358
 31
0.0
  0
LINE
  5
2D31
330
1F
100
AcDbEntity
  8
0
  6
Continuous
 62
     7
100
AcDbLine
 10
1160.748699558455
 20
96.60670199683359
 30
0.0
 11
1148.624699558455
 21
89.60670199683358
 31
0.0
  0
CIRCLE
  5
2D32
330
1F
100
AcDbEntity
  8
0
  6
Continuous
 62
     7
100
AcDbCircle
 10
1148.633699558455
 20
65.36370199683364
 30
0.0
 40
2.25
  0
LINE
  5
2D33
330
1F
100
AcDbEntity
  8
0
  6
Continuous
 62
     7
100
AcDbLine
 10
1150.746699558455
 20
69.19670199683349
 30
0.0
 11
1147.311699558455
 21
70.44670199683349
 31
0.0
  0
LINE
  5
2D34
330
1F
100
AcDbEntity
  8
0
  6
Continuous
 62
     7
100
AcDbLine
 10
1152.935699558455
 20
75.21070199683362
 30
0.0
 11
1149.500699558455
 21
76.46070199683362
 31
0.0
  0
LINE
  5
2D35
330
1F
100
AcDbEntity
  8
0
  6
Continuous
 62
     7
100
AcDbLine
 10
1147.312699558455
 20
60.28070199683355
 30
0.0
 11
1150.745699558455
 21
61.52970199683358
 31
0.0
  0
LINE
  5
2D36
330
1F
100
AcDbEntity
  8
0
  6
Continuous
 62
     7
100
AcDbLine
 10
1149.501699558455
 20
54.26670199683366
 30
0.0
 11
1152.934699558455
 21
55.51570199683346
 31
0.0
  0
DIMENSION
  5
2D37
330
1F
100
AcDbEntity
  8
AM_5
100
AcDbDimension
  2
*D5
 10
1134.556471628108
 20
70.11339992212905
 30
0.0
 11
1133.711845500004
 21
81.31936065722142
 31
0.0
 70
    33
 71
     5
 42
21.99972266122506
  3
AM_ISO$0
100
AcDbAlignedDimension
 13
1173.505395137149
 23
87.17547323401886
 33
0.0
 14
1170.633997121832
 24
65.36394255393014
 34
0.0
1001
ACAD
1000
DSTYLE
1002
{
1070
   340
1005
10CF
1002
}
  0
DIMENSION
  5
2D38
330
1F
100
AcDbEntity
  8
AM_5
100
AcDbDimension
  2
*D6
 10
1132.011345672127
 20
50.78027627383665
 30
0.0
 11
1131.003492285883
 21
60.7463405091244
 31
0.0
 70
    33
 71
     5
 42
19.49853376949562
  3
AM_ISO$0
100
AcDbAlignedDimension
 13
1170.633814664888
 23
65.36255658611725
 33
0.0
 14
1168.08887116585
 24
46.03081890563788
 34
0.0
1001
ACAD
1000
DSTYLE
1002
{
1070
   340
1005
10CF
1002
}
  0
LINE
  5
2D39
330
1F
100
AcDbEntity
  8
0
  6
Continuous
 62
     7
100
AcDbLine
 10
1148.519699558455
 20
41.18170199683362
 30
0.0
 11
1160.643699558455
 21
34.18170199683363
 31
0.0
  0
ARC
  5
2D3A
330
1F
100
AcDbEntity
  8
0
  6
Continuous
 62
     7
100
AcDbCircle
 10
1170.633699558456
 20
65.36370199683364
 30
0.0
 40
26.0
100
AcDbArc
 50
205.5189999999922
 51
274.4840000000002
  0
DIMENSION
  5
2D3B
330
1F
100
AcDbEntity
  8
AM_5
100
AcDbDimension
  2
*D7
 10
1131.358733621296
 20
45.82294618829297
 30
0.0
 11
1129.40471451095
 21
48.60180662611316
 31
0.0
 70
    33
 71
     5
 42
5.000102405544623
  3
AM_ISO$0
100
AcDbAlignedDimension
 13
1168.08887116585
 23
46.03081890563788
 33
0.0
 14
1167.436259115019
 24
41.07348882009358
 34
0.0
1001
ACAD
1000
DSTYLE
1002
{
1070
   340
1005
10CF
1002
}
  0
LINE
  5
2D3C
330
1F
100
AcDbEntity
  8
0
  6
Continuous
 62
     7
100
AcDbLine
 10
1152.007699558455
 20
47.22370199683354
 30
0.0
 11
1148.519699558455
 21
41.18170199683362
 31
0.0
  0
ARC
  5
2D3D
330
1F
100
AcDbEntity
  8
0
  6
Continuous
 62
     7
100
AcDbCircle
 10
1170.633699558456
 20
65.36370199683364
 30
0.0
 40
26.0
100
AcDbArc
 50
325.5189999999966
 51
154.4829999999944
  0
CIRCLE
  5
2D3E
330
1F
100
AcDbEntity
  8
0
  6
CENTER
 62
     2
100
AcDbCircle
 10
1170.633699558456
 20
65.36370199683364
 30
0.0
 40
22.0
  0
LINE
  5
2D40
330
1F
100
AcDbEntity
  8
0
  6
Continuous
 62
     7
100
AcDbLine
 10
1061.9202194373
 20
35.65770199683374
 30
0.0
 11
1061.9202194373
 21
34.13970199683371
 31
0.0
  0
DIMENSION
  5
2D41
330
1F
100
AcDbEntity
  8
AM_5
100
AcDbDimension
  2
*D8
 10
1098.4202194373
 20
23.31349759056474
 30
0.0
 11
1083.1702194373
 21
25.61349759056474
 31
0.0
 70
    32
 71
     5
 42
30.5
  3
AM_ISO$0
100
AcDbAlignedDimension
 13
1067.9202194373
 23
34.13970199683371
 33
0.0
 14
1098.4202194373
 24
39.36370199683364
 34
0.0
100
AcDbRotatedDimension
1001
ACAD
1000
DSTYLE
1002
{
1070
   340
1005
10CF
1002
}
  0
LINE
  5
2D42
330
1F
100
AcDbEntity
  8
0
  6
Continuous
 62
     7
100
AcDbLine
 10
1067.9202194373
 20
47.17870199683346
 30
0.0
 11
1067.9202194373
 21
34.13970199683371
 31
0.0
  0
DIMENSION
  5
2D43
330
1F
100
AcDbEntity
  8
AM_5
100
AcDbDimension
  2
*D9
 10
1013.553794585065
 20
29.72360571307672
 30
0.0
 11
1018.832495746472
 21
32.77110329079614
 31
0.0
 70
   161
  1
8h9
 71
     5
 42
7.999824322869244
  3
AM_ISO$0
100
AcDbAlignedDimension
 13
1000.896740578821
 23
35.64714502833721
 33
0.0
 14
1007.824883710288
 24
39.64689776402946
 34
0.0
1001
ACAD
1000
DSTYLE
1002
{
1070
   340
1005
10CF
1002
}
  0
LINE
  5
2D44
330
1F
100
AcDbEntity
  8
0
  6
Continuous
 62
     7
100
AcDbLine
 10
998.2904910421096
 20
34.15970199683369
 30
0.0
 11
994.8174910421098
 21
40.17670199683351
 31
0.0
  0
LINE
  5
2D45
330
1F
100
AcDbEntity
  8
0
  6
Continuous
 62
     7
100
AcDbLine
 10
998.2994910421096
 20
34.14770199683352
 30
0.0
 11
1010.42449104211
 21
41.14770199683351
 31
0.0
  0
DIMENSION
  5
2D46
330
1F
100
AcDbEntity
  8
AM_5
100
AcDbDimension
  2
*D10
 10
971.8644910421097
 20
33.61941682542619
 30
0.0
 11
966.3644910421098
 21
35.91941682542618
 31
0.0
 70
    32
 71
     5
 42
11.0
  3
AM_ISO$0
100
AcDbAlignedDimension
 13
960.8644910421098
 23
62.67370199683359
 33
0.0
 14
971.8644910421097
 24
62.67770199683372
 34
0.0
100
AcDbRotatedDimension
1001
ACAD
1000
DSTYLE
1002
{
1070
   340
1005
10CF
1002
}
  0
DIMENSION
  5
2D47
330
1F
100
AcDbEntity
  8
AM_5
100
AcDbDimension
  2
*D11
 10
956.3594910421096
 20
17.98802550680483
 30
0.0
 11
972.3602258333148
 21
20.28802550680483
 31
0.0
 70
    32
 71
     5
 42
32.00146958241044
  3
AM_ISO$0
100
AcDbAlignedDimension
 13
988.3609606245201
 23
65.36170199683346
 33
0.0
 14
956.3594910421096
 24
58.36170199683346
 34
0.0
100
AcDbRotatedDimension
1001
ACAD
1000
DSTYLE
1002
{
1070
   340
1005
10CF
1002
}
  0
DIMENSION
  5
2D48
330
1F
100
AcDbEntity
  8
AM_5
100
AcDbDimension
  2
*D12
 10
976.3664910421097
 20
33.61941682542619
 30
0.0
 11
984.5236338992526
 21
33.61941682542619
 31
0.0
 70
   160
 71
     5
 42
4.501999999999952
  3
AM_ISO$0
100
AcDbAlignedDimension
 13
971.8644910421097
 23
33.61941682542619
 33
0.0
 14
976.3664910421097
 24
61.36170199683346
 34
0.0
100
AcDbRotatedDimension
1001
ACAD
1000
DSTYLE
1002
{
1070
   340
1005
10CF
1002
}
  0
DIMENSION
  5
2D49
330
1F
100
AcDbEntity
  8
AM_5
100
AcDbDimension
  2
*D13
 10
1061.9202194373
 20
23.31349759056474
 30
0.0
 11
1064.920219437299
 21
25.61349759056474
 31
0.0
 70
    32
 71
     5
 42
6.0
  3
AM_ISO$0
100
AcDbAlignedDimension
 13
1067.9202194373
 23
23.31349759056474
 33
0.0
 14
1061.9202194373
 24
34.13970199683371
 34
0.0
100
AcDbRotatedDimension
1001
ACAD
1000
DSTYLE
1002
{
1070
   340
1005
10CF
1002
}
  0
LINE
  5
2D4A
330
1F
100
AcDbEntity
  8
0
  6
Continuous
 62
     7
100
AcDbLine
 10
1067.9202194373
 20
34.13970199683371
 30
0.0
 11
1061.9202194373
 21
34.13970199683371
 31
0.0
  0
TEXT
  5
2D4B
330
1F
100
AcDbEntity
  8
AM_5
100
AcDbText
 10
905.2817910421097
 20
126.1647019968336
 30
0.0
 40
3.2
  1
4.5BORE8xDEPTH9
  7
China
100
AcDbText
  0
LINE
  5
2D4C
330
1F
100
AcDbEntity
  8
AM_5
100
AcDbLine
 10
895.9691910421097
 20
115.1467019968337
 30
0.0
 11
959.6174910421096
 21
115.1467019968337
 31
0.0
  0
LINE
  5
2D4D
330
1F
100
AcDbEntity
  8
AM_5
100
AcDbLine
 10
895.9691910421097
 20
125.1467019968337
 30
0.0
 11
953.8444910421098
 21
125.1467019968337
 31
0.0
  0
TEXT
  5
2D4E
330
1F
100
AcDbEntity
  8
AM_5
100
AcDbText
 10
896.1624910421097
 20
116.0687019968335
 30
0.0
 40
3.2
  1
P.C.D.44
  7
China
100
AcDbText
  0
CIRCLE
  5
2D4F
330
1F
100
AcDbEntity
  8
AM_5
100
AcDbCircle
 10
903.6817910421097
 20
127.7647019968337
 30
0.0
 40
0.9
  0
LINE
  5
2D50
330
1F
100
AcDbEntity
  8
AM_5
100
AcDbLine
 10
903.1001910421096
 20
126.1677019968335
 30
0.0
 11
904.2630910421097
 21
129.3627019968336
 31
0.0
  0
TEXT
  5
2D51
330
1F
100
AcDbEntity
  8
AM_5
100
AcDbText
 10
895.6817910421097
 20
126.1647019968336
 30
0.0
 40
3.2
  1
3-
  7
China
100
AcDbText
  0
LINE
  5
2D52
330
1F
100
AcDbEntity
  8
AM_5
100
AcDbLine
 10
953.8434910421099
 20
125.1467019968337
 30
0.0
 11
976.2354910421098
 21
86.36270199683366
 31
0.0
  0
LINE
  5
2D53
330
1F
100
AcDbEntity
  8
AM_5
100
AcDbLine
 10
1022.877491042109
 20
125.1467019968337
 30
0.0
 11
1003.109491042109
 21
90.90870199683349
 31
0.0
  0
ARC
  5
2D54
330
1F
100
AcDbEntity
  8
0
  6
Continuous
 62
     7
100
AcDbCircle
 10
988.3604910421098
 20
65.36170199683346
 30
0.0
 40
23.0
100
AcDbArc
 50
70.01669999999347
 51
109.988000000006
  0
LINE
  5
2D55
330
1F
100
AcDbEntity
  8
0
  6
Continuous
 62
     7
100
AcDbLine
 10
981.7344910421097
 20
46.21970199683363
 30
0.0
 11
988.0374910421098
 21
45.10770199683356
 31
0.0
  0
LINE
  5
2D56
330
1F
100
AcDbEntity
  8
AM_7
  6
AM_ISO08W050x2
100
AcDbLine
 10
973.9424910421098
 20
40.38770199683376
 30
0.0
 11
1005.47849104211
 21
95.01070199683358
 31
0.0
  0
LINE
  5
2D57
330
1F
100
AcDbEntity
  8
AM_7
  6
AM_ISO08W050x2
100
AcDbLine
 10
1004.97849104211
 20
36.57670199683361
 30
0.0
 11
974.6614910421097
 21
89.08770199683358
 31
0.0
  0
ARC
  5
2D58
330
1F
100
AcDbEntity
  8
0
  6
Continuous
 62
     7
100
AcDbCircle
 10
988.3604910421098
 20
65.36170199683346
 30
0.0
 40
26.0
100
AcDbArc
 50
68.85090000000267
 51
171.151000000004
  0
ARC
  5
2D59
330
1F
100
AcDbEntity
  8
0
  6
Continuous
 62
     7
100
AcDbCircle
 10
988.3604910421098
 20
65.36170199683346
 30
0.0
 40
13.5
100
AcDbArc
 50
197.2369999999983
 51
282.7579999999943
  0
ARC
  5
2D5A
330
1F
100
AcDbEntity
  8
0
  6
Continuous
 62
     7
100
AcDbCircle
 10
988.3604910421098
 20
65.36170199683346
 30
0.0
 40
13.5
100
AcDbArc
 50
77.23739999999657
 51
162.7669999999967
  0
LINE
  5
2D5B
330
1F
100
AcDbEntity
  8
AM_7
  6
AM_ISO08W050x2
100
AcDbLine
 10
955.4044910421097
 20
65.36170199683346
 30
0.0
 11
1016.09049104211
 21
65.36170199683346
 31
0.0
  0
LINE
  5
2D5C
330
1F
100
AcDbEntity
  8
0
  6
Continuous
 62
     7
100
AcDbLine
 10
981.3514910421098
 20
69.36170199683346
 30
0.0
 11
981.3664910421097
 21
61.36170199683346
 31
0.0
  0
LINE
  5
2D5D
330
1F
100
AcDbEntity
  8
AM_7
  6
AM_ISO08W050x2
100
AcDbLine
 10
971.8544910421098
 20
67.94970199683366
 30
0.0
 11
971.8644910421097
 21
62.67770199683372
 31
0.0
  0
LINE
  5
2D5E
330
1F
100
AcDbEntity
  8
AM_7
  6
AM_ISO08W050x2
100
AcDbLine
 10
960.8544910421098
 20
68.10170199683369
 30
0.0
 11
960.8644910421098
 21
62.67370199683359
 31
0.0
  0
LINE
  5
2D5F
330
1F
100
AcDbEntity
  8
0
  6
Continuous
 62
     7
100
AcDbLine
 10
956.3594910421096
 20
72.36170199683346
 30
0.0
 11
956.3594910421096
 21
58.36170199683346
 31
0.0
  0
LINE
  5
2D60
330
1F
100
AcDbEntity
  8
0
  6
Continuous
 62
     7
100
AcDbLine
 10
976.3514910421099
 20
69.36170199683346
 30
0.0
 11
976.3664910421097
 21
61.36170199683346
 31
0.0
  0
LINE
  5
2D61
330
1F
100
AcDbEntity
  8
0
  6
Continuous
 62
     7
100
AcDbLine
 10
967.3514910421099
 20
69.36170199683346
 30
0.0
 11
967.3664910421097
 21
61.36170199683346
 31
0.0
  0
LINE
  5
2D62
330
1F
100
AcDbEntity
  8
0
  6
Continuous
 62
     7
100
AcDbLine
 10
965.3514910421097
 20
69.36170199683346
 30
0.0
 11
965.3664910421097
 21
61.36170199683346
 31
0.0
  0
DIMENSION
  5
2D63
330
1F
100
AcDbEntity
  8
AM_5
100
AcDbDimension
  2
*D14
 10
949.7255155555443
 20
61.36170199683346
 30
0.0
 11
947.4255155555443
 21
65.36170199683361
 31
0.0
 70
    32
 71
     5
 42
8.0
  3
AM_ISO$0
100
AcDbAlignedDimension
 13
956.3514910421098
 23
69.36170199683346
 33
0.0
 14
956.3664910421097
 24
61.36170199683346
 34
0.0
 50
90.0
100
AcDbRotatedDimension
1001
ACAD
1000
DSTYLE
1002
{
1070
   340
1005
10CF
1002
}
  0
DIMENSION
  5
2D64
330
1F
100
AcDbEntity
  8
AM_5
100
AcDbDimension
  2
*D15
 10
943.6330796804085
 20
58.36170199683347
 30
0.0
 11
941.3330796804086
 21
65.36170199683361
 31
0.0
 70
    32
 71
     5
 42
14.0
  3
AM_ISO$0
100
AcDbAlignedDimension
 13
956.3594910421096
 23
72.36170199683346
 33
0.0
 14
956.3594910421096
 24
58.36170199683346
 34
0.0
 50
90.0
100
AcDbRotatedDimension
1001
ACAD
1000
DSTYLE
1002
{
1070
   340
1005
10CF
1002
}
  0
CIRCLE
  5
2D65
330
1F
100
AcDbEntity
  8
0
  6
Continuous
 62
     2
100
AcDbCircle
 10
960.8604910421098
 20
65.36170199683346
 30
0.0
 40
2.0
  0
CIRCLE
  5
2D66
330
1F
100
AcDbEntity
  8
0
  6
Continuous
 62
     7
100
AcDbCircle
 10
960.8604910421098
 20
65.36170199683346
 30
0.0
 40
1.620999999999999
  0
LINE
  5
2D67
330
1F
100
AcDbEntity
  8
0
  6
Continuous
 62
     7
100
AcDbLine
 10
956.3594910421096
 20
58.36170199683346
 30
0.0
 11
963.3204910421097
 21
58.36170199683346
 31
0.0
  0
LINE
  5
2D68
330
1F
100
AcDbEntity
  8
0
  6
Continuous
 62
     7
100
AcDbLine
 10
956.3664910421097
 20
61.36170199683346
 30
0.0
 11
981.3664910421097
 21
61.36170199683346
 31
0.0
  0
LINE
  5
2D69
330
1F
100
AcDbEntity
  8
0
  6
Continuous
 62
     7
100
AcDbLine
 10
975.0964910421098
 20
50.05470199683367
 30
0.0
 11
970.9824910421097
 21
54.95770199683346
 31
0.0
  0
LINE
  5
2D6A
330
1F
100
AcDbEntity
  8
0
  6
Continuous
 62
     7
100
AcDbLine
 10
968.2084910421098
 20
51.71570199683372
 30
0.0
 11
966.9284910421097
 21
50.64270199683363
 31
0.0
  0
ARC
  5
2D6B
330
1F
100
AcDbEntity
  8
0
  6
Continuous
 62
     7
100
AcDbCircle
 10
988.3604910421098
 20
65.36170199683346
 30
0.0
 40
26.0
100
AcDbArc
 50
188.8509999999984
 51
214.4810000000035
  0
LINE
  5
2D6C
330
1F
100
AcDbEntity
  8
0
  6
Continuous
 62
     7
100
AcDbLine
 10
972.1814910421098
 20
47.60870199683376
 30
0.0
 11
975.0964910421098
 21
50.05470199683367
 31
0.0
  0
LINE
  5
2D6D
330
1F
100
AcDbEntity
  8
0
  6
Continuous
 62
     7
100
AcDbLine
 10
973.8964910421097
 20
48.30870199683357
 30
0.0
 11
972.0564910421098
 21
45.12270199683365
 31
0.0
  0
ARC
  5
2D6E
330
1F
100
AcDbEntity
  8
0
  6
Continuous
 62
     7
100
AcDbCircle
 10
988.3604910421098
 20
65.36170199683346
 30
0.0
 40
26.0
100
AcDbArc
 50
225.5170000000012
 51
254.4799999999993
  0
ARC
  5
2D6F
330
1F
100
AcDbEntity
  8
0
  6
Continuous
 62
     7
100
AcDbCircle
 10
977.3604910421099
 20
46.30870199683357
 30
0.0
 40
4.0
100
AcDbArc
 50
330.0000000000015
 51
150.0000000000014
  0
LINE
  5
2D70
330
1F
100
AcDbEntity
  8
0
  6
Continuous
 62
     7
100
AcDbLine
 10
971.4214910421098
 20
47.88570199683357
 30
0.0
 11
970.1424910421097
 21
46.81170199683373
 31
0.0
  0
ARC
  5
2D71
330
1F
100
AcDbEntity
  8
0
  6
Continuous
 62
     7
100
AcDbCircle
 10
988.3604910421098
 20
65.36170199683346
 30
0.0
 40
23.0
100
AcDbArc
 50
227.9969999999992
 51
229.9849999999977
  0
LINE
  5
2D72
330
1F
100
AcDbEntity
  8
0
  6
Continuous
 62
     7
100
AcDbLine
 10
971.4214910421098
 20
47.88570199683357
 30
0.0
 11
972.1814910421098
 21
47.60870199683376
 31
0.0
  0
LINE
  5
2D73
330
1F
100
AcDbEntity
  8
0
  6
Continuous
 62
     7
100
AcDbLine
 10
981.6934910421096
 20
41.95370199683355
 30
0.0
 11
981.4034910421097
 21
40.30970199683355
 31
0.0
  0
ARC
  5
2D74
330
1F
100
AcDbEntity
  8
0
  6
Continuous
 62
     7
100
AcDbCircle
 10
988.3604910421098
 20
65.36170199683346
 30
0.0
 40
23.0
100
AcDbArc
 50
250.0150000000059
 51
251.998999999998
  0
LINE
  5
2D75
330
1F
100
AcDbEntity
  8
0
  6
Continuous
 62
     7
100
AcDbLine
 10
981.6934910421096
 20
41.95570199683351
 30
0.0
 11
981.0744910421098
 21
42.47470199683374
 31
0.0
  0
LINE
  5
2D76
330
1F
100
AcDbEntity
  8
0
  6
Continuous
 62
     7
100
AcDbLine
 10
980.8244910421098
 20
44.30870199683357
 30
0.0
 11
978.9794910421097
 21
41.11270199683366
 31
0.0
  0
LINE
  5
2D77
330
1F
100
AcDbEntity
  8
0
  6
Continuous
 62
     7
100
AcDbLine
 10
981.7354910421098
 20
46.21970199683363
 30
0.0
 11
981.0744910421098
 21
42.47470199683374
 31
0.0
  0
ARC
  5
2D78
330
1F
100
AcDbEntity
  8
AM_7
  6
AM_ISO08W050x2
100
AcDbCircle
 10
988.3604910421098
 20
65.36170199683346
 30
0.0
 40
22.0
100
AcDbArc
 50
231.0330000000049
 51
249.1709999999959
  0
CIRCLE
  5
2D79
330
1F
100
AcDbEntity
  8
0
  6
Continuous
 62
     7
100
AcDbCircle
 10
977.3604910421099
 20
46.30870199683357
 30
0.0
 40
2.25
  0
CIRCLE
  5
2D7A
330
1F
100
AcDbEntity
  8
0
  6
Continuous
 62
     2
100
AcDbCircle
 10
971.8594910421096
 20
65.36170199683346
 30
0.0
 40
2.0
  0
CIRCLE
  5
2D7B
330
1F
100
AcDbEntity
  8
0
  6
Continuous
 62
     7
100
AcDbCircle
 10
971.8594910421096
 20
65.36170199683346
 30
0.0
 40
1.620999999999999
  0
LINE
  5
2D7C
330
1F
100
AcDbEntity
  8
0
  6
Continuous
 62
     7
100
AcDbLine
 10
968.2084910421098
 20
51.71570199683372
 30
0.0
 11
968.0674910421098
 21
52.51170199683355
 31
0.0
  0
ARC
  5
2D7D
330
1F
100
AcDbEntity
  8
0
  6
Continuous
 62
     7
100
AcDbCircle
 10
988.3604910421098
 20
65.36170199683346
 30
0.0
 40
23.0
100
AcDbArc
 50
190.0170000000048
 51
212.0020000000014
  0
LINE
  5
2D7E
330
1F
100
AcDbEntity
  8
0
  6
Continuous
 62
     7
100
AcDbLine
 10
968.0674910421098
 20
52.51170199683355
 30
0.0
 11
970.9824910421097
 21
54.95770199683346
 31
0.0
  0
LINE
  5
2D7F
330
1F
100
AcDbEntity
  8
0
  6
Continuous
 62
     7
100
AcDbLine
 10
956.3594910421096
 20
72.36170199683346
 30
0.0
 11
963.3194910421096
 21
72.36170199683346
 31
0.0
  0
LINE
  5
2D80
330
1F
100
AcDbEntity
  8
0
  6
Continuous
 62
     7
100
AcDbLine
 10
956.3514910421098
 20
69.36170199683346
 30
0.0
 11
981.3514910421098
 21
69.36170199683346
 31
0.0
  0
LINE
  5
2D81
330
1F
100
AcDbEntity
  8
0
  6
Continuous
 62
     7
100
AcDbLine
 10
973.8954910421098
 20
82.41370199683359
 30
0.0
 11
972.0504910421096
 21
85.60970199683351
 31
0.0
  0
ARC
  5
2D82
330
1F
100
AcDbEntity
  8
0
  6
Continuous
 62
     7
100
AcDbCircle
 10
977.3594910421095
 20
84.4137019968336
 30
0.0
 40
4.0
100
AcDbArc
 50
209.9999999999984
 51
29.99999999999844
  0
ARC
  5
2D83
330
1F
100
AcDbEntity
  8
AM_7
  6
AM_ISO08W050x2
100
AcDbCircle
 10
988.3604910421098
 20
65.36170199683346
 30
0.0
 40
22.0
100
AcDbArc
 50
111.0330000000027
 51
129.1710000000005
  0
CIRCLE
  5
2D84
330
1F
100
AcDbEntity
  8
0
  6
Continuous
 62
     7
100
AcDbCircle
 10
977.3604910421099
 20
84.41470199683356
 30
0.0
 40
2.25
  0
ARC
  5
2D85
330
1F
100
AcDbEntity
  8
0
  6
Continuous
 62
     7
100
AcDbCircle
 10
988.3604910421098
 20
65.36170199683346
 30
0.0
 40
23.0
100
AcDbArc
 50
130.0190000000055
 51
169.9860000000055
  0
LINE
  5
2D86
330
1F
100
AcDbEntity
  8
0
  6
Continuous
 62
     7
100
AcDbLine
 10
980.8234910421099
 20
86.41370199683359
 30
0.0
 11
978.9784910421097
 21
89.6097019968335
 31
0.0
  0
ARC
  5
2D87
330
1F
100
AcDbEntity
  8
AM_7
  6
AM_ISO08W050x2
100
AcDbCircle
 10
988.3604910421098
 20
65.36170199683346
 30
0.0
 40
22.0
100
AcDbArc
 50
351.0329999999982
 51
9.170620000002999
  0
CIRCLE
  5
2D88
330
1F
100
AcDbEntity
  8
0
  6
Continuous
 62
     7
100
AcDbCircle
 10
1010.36049104211
 20
65.36170199683346
 30
0.0
 40
2.25
  0
ARC
  5
2D89
330
1F
100
AcDbEntity
  8
0
  6
Continuous
 62
     7
100
AcDbCircle
 10
988.3604910421098
 20
65.36170199683346
 30
0.0
 40
26.0
100
AcDbArc
 50
345.5170000000039
 51
14.48139999999605
  0
ARC
  5
2D8A
330
1F
100
AcDbEntity
  8
0
  6
Continuous
 62
     7
100
AcDbCircle
 10
1010.36049104211
 20
65.36170199683346
 30
0.0
 40
4.0
100
AcDbArc
 50
90.0
 51
270.0
  0
ARC
  5
2D8B
330
1F
100
AcDbEntity
  8
0
  6
Continuous
 62
     7
100
AcDbCircle
 10
988.3604910421098
 20
65.36170199683346
 30
0.0
 40
13.5
100
AcDbArc
 50
317.2289999999996
 51
42.76689999999836
  0
ARC
  5
2D8C
330
1F
100
AcDbEntity
  8
0
  6
Continuous
 62
     7
100
AcDbCircle
 10
988.3604910421098
 20
65.36170199683346
 30
0.0
 40
23.0
100
AcDbArc
 50
310.0120000000027
 51
332.0019999999998
  0
LINE
  5
2D8D
330
1F
100
AcDbEntity
  8
0
  6
Continuous
 62
     7
100
AcDbLine
 10
1006.06149104211
 20
55.51370199683351
 30
0.0
 11
1009.63449104211
 21
54.21370199683377
 31
0.0
  0
LINE
  5
2D8E
330
1F
100
AcDbEntity
  8
0
  6
Continuous
 62
     7
100
AcDbLine
 10
1008.24949104211
 20
61.52770199683363
 30
0.0
 11
1011.82349104211
 21
60.22770199683344
 31
0.0
  0
ARC
  5
2D8F
330
1F
100
AcDbEntity
  8
0
  6
Continuous
 62
     7
100
AcDbCircle
 10
988.3604910421098
 20
65.36170199683346
 30
0.0
 40
26.0
100
AcDbArc
 50
308.8470000000019
 51
334.4810000000078
  0
LINE
  5
2D90
330
1F
100
AcDbEntity
  8
0
  6
Continuous
 62
     7
100
AcDbLine
 10
1010.41549104211
 20
41.15970199683369
 30
0.0
 11
1006.94149104211
 21
47.17570199683376
 31
0.0
  0
CIRCLE
  5
2D91
330
1F
100
AcDbEntity
  8
0
  6
Continuous
 62
     7
100
AcDbCircle
 10
996.6104910421098
 20
51.07170199683349
 30
0.0
 40
1.620999999999999
  0
CIRCLE
  5
2D92
330
1F
100
AcDbEntity
  8
0
  6
Continuous
 62
     2
100
AcDbCircle
 10
996.6104910421098
 20
51.07170199683349
 30
0.0
 40
2.0
  0
LINE
  5
2D93
330
1F
100
AcDbEntity
  8
AM_7
  6
AM_ISO08W050x2
100
AcDbLine
 10
994.1824910421097
 20
49.67070199683366
 30
0.0
 11
998.9704910421098
 21
52.43470199683355
 31
0.0
  0
LINE
  5
2D94
330
1F
100
AcDbEntity
  8
0
  6
Continuous
 62
     7
100
AcDbLine
 10
1000.88949104211
 20
35.65970199683369
 30
0.0
 11
988.3994910421098
 21
57.2927019968335
 31
0.0
  0
LINE
  5
2D95
330
1F
100
AcDbEntity
  8
0
  6
Continuous
 62
     7
100
AcDbLine
 10
1007.81749104211
 20
39.65970199683369
 30
0.0
 11
995.3204910421096
 21
61.30570199683365
 31
0.0
  0
ARC
  5
2D96
330
1F
100
AcDbEntity
  8
0
  6
Continuous
 62
     7
100
AcDbCircle
 10
988.3604910421098
 20
65.36170199683346
 30
0.0
 40
26.0
100
AcDbArc
 50
265.5150000000006
 51
291.1470000000057
  0
LINE
  5
2D97
330
1F
100
AcDbEntity
  8
0
  6
Continuous
 62
     7
100
AcDbLine
 10
996.3954910421097
 20
43.44270199683359
 30
0.0
 11
1003.32349104211
 21
47.44270199683358
 31
0.0
  0
LINE
  5
2D98
330
1F
100
AcDbEntity
  8
0
  6
Continuous
 62
     7
100
AcDbLine
 10
995.3954910421098
 20
45.17470199683356
 30
0.0
 11
1002.32349104211
 21
49.17470199683356
 31
0.0
  0
LINE
  5
2D99
330
1F
100
AcDbEntity
  8
0
  6
Continuous
 62
     7
100
AcDbLine
 10
986.6174910421097
 20
41.08570199683362
 30
0.0
 11
986.3274910421097
 21
39.44170199683362
 31
0.0
  0
LINE
  5
2D9A
330
1F
100
AcDbEntity
  8
0
  6
Continuous
 62
     7
100
AcDbLine
 10
986.6174910421097
 20
41.08670199683359
 30
0.0
 11
987.3774910421097
 21
41.36370199683364
 31
0.0
  0
LINE
  5
2D9B
330
1F
100
AcDbEntity
  8
0
  6
Continuous
 62
     7
100
AcDbLine
 10
988.0374910421098
 20
45.10870199683376
 30
0.0
 11
987.3774910421097
 21
41.36270199683366
 31
0.0
  0
ARC
  5
2D9C
330
1F
100
AcDbEntity
  8
0
  6
Continuous
 62
     7
100
AcDbCircle
 10
988.3604910421098
 20
65.36170199683346
 30
0.0
 40
23.0
100
AcDbArc
 50
267.9939999999972
 51
289.9809999999994
  0
CIRCLE
  5
2D9D
330
1F
100
AcDbEntity
  8
0
  6
Continuous
 62
     7
100
AcDbCircle
 10
1002.11049104211
 20
41.54570199683365
 30
0.0
 40
1.620999999999999
  0
CIRCLE
  5
2D9E
330
1F
100
AcDbEntity
  8
0
  6
Continuous
 62
     2
100
AcDbCircle
 10
1002.11049104211
 20
41.54570199683365
 30
0.0
 40
2.0
  0
LINE
  5
2D9F
330
1F
100
AcDbEntity
  8
AM_7
  6
AM_ISO08W050x2
100
AcDbLine
 10
999.7154910421098
 20
40.16270199683361
 30
0.0
 11
1004.355491042109
 21
42.84270199683368
 31
0.0
  0
LINE
  5
2DA0
330
1F
100
AcDbEntity
  8
0
  6
Continuous
 62
     7
100
AcDbLine
 10
990.8954910421098
 20
52.96870199683366
 30
0.0
 11
997.8234910421099
 21
56.96870199683366
 31
0.0
  0
POINT
  5
2DA1
330
1F
100
AcDbEntity
  8
0
100
AcDbPoint
 10
988.3604910421098
 20
65.36170199683346
 30
0.0
  0
LINE
  5
2DA2
330
1F
100
AcDbEntity
  8
0
  6
Continuous
 62
     7
100
AcDbLine
 10
988.3994910421098
 20
57.29170199683375
 30
0.0
 11
995.3194910421096
 21
61.30470199683367
 31
0.0
  0
LINE
  5
2DA3
330
1F
100
AcDbEntity
  8
0
  6
Continuous
 62
     7
100
AcDbLine
 10
1008.24949104211
 20
61.52770199683363
 30
0.0
 11
1006.060491042109
 21
55.51370199683351
 31
0.0
  0
POINT
  5
2DA4
330
1F
100
AcDbEntity
  8
0
100
AcDbPoint
 10
1007.15549104211
 20
58.52070199683357
 30
0.0
  0
TEXT
  5
2DA5
330
1F
100
AcDbEntity
  8
AM_5
100
AcDbText
 10
1021.762287923476
 20
37.39638246823637
 30
0.0
 40
1.6
  1
0
 50
29.99999999999844
  7
China
100
AcDbText
  0
TEXT
  5
2DA6
330
1F
100
AcDbEntity
  8
AM_5
100
AcDbText
 10
1021.762287923476
 20
34.81038246823636
 30
0.0
 40
1.6
  1
-0.036
 50
29.99999999999844
  7
China
100
AcDbText
  0
LINE
  5
2DA7
330
1F
100
AcDbEntity
  8
0
  6
Continuous
 62
     7
100
AcDbLine
 10
1011.963491042109
 20
59.43170199683362
 30
0.0
 11
1011.82349104211
 21
60.22770199683344
 31
0.0
  0
LINE
  5
2DA8
330
1F
100
AcDbEntity
  8
0
  6
Continuous
 62
     7
100
AcDbLine
 10
1011.963491042109
 20
59.43170199683362
 30
0.0
 11
1013.53449104211
 21
58.85970199683351
 31
0.0
  0
LINE
  5
2DA9
330
1F
100
AcDbEntity
  8
0
  6
Continuous
 62
     7
100
AcDbLine
 10
1010.25349104211
 20
54.73270199683355
 30
0.0
 11
1009.63449104211
 21
54.21370199683377
 31
0.0
  0
ARC
  5
2DAA
330
1F
100
AcDbEntity
  8
0
  6
Continuous
 62
     7
100
AcDbCircle
 10
988.3604910421098
 20
65.36170199683346
 30
0.0
 40
23.0
100
AcDbArc
 50
347.9969999999966
 51
349.9850000000019
  0
LINE
  5
2DAB
330
1F
100
AcDbEntity
  8
0
  6
Continuous
 62
     7
100
AcDbLine
 10
1010.25349104211
 20
54.73270199683355
 30
0.0
 11
1011.82549104211
 21
54.16070199683344
 31
0.0
  0
LINE
  5
2DAC
330
1F
100
AcDbEntity
  8
0
  6
Continuous
 62
     7
100
AcDbLine
 10
1010.36049104211
 20
61.36170199683346
 30
0.0
 11
1014.03849104211
 21
61.36170199683346
 31
0.0
  0
LINE
  5
2DAD
330
1F
100
AcDbEntity
  8
0
  6
Continuous
 62
     7
100
AcDbLine
 10
1010.42949104211
 20
89.58670199683359
 30
0.0
 11
1006.94149104211
 21
83.54570199683365
 31
0.0
  0
LINE
  5
2DAE
330
1F
100
AcDbEntity
  8
0
  6
Continuous
 62
     7
100
AcDbLine
 10
1010.423491042109
 20
89.57670199683361
 30
0.0
 11
998.2994910421096
 21
96.5767019968336
 31
0.0
  0
LINE
  5
2DAF
330
1F
100
AcDbEntity
  8
0
  6
Continuous
 62
     7
100
AcDbLine
 10
1009.63449104211
 20
76.5097019968336
 30
0.0
 11
1006.060491042109
 21
75.20870199683367
 31
0.0
  0
LINE
  5
2DB0
330
1F
100
AcDbEntity
  8
0
  6
Continuous
 62
     7
100
AcDbLine
 10
1011.82349104211
 20
70.49570199683348
 30
0.0
 11
1008.24949104211
 21
69.19470199683354
 31
0.0
  0
ARC
  5
2DB1
330
1F
100
AcDbEntity
  8
0
  6
Continuous
 62
     7
100
AcDbCircle
 10
988.3604910421098
 20
65.36170199683346
 30
0.0
 40
26.0
100
AcDbArc
 50
25.51690000000489
 51
51.15120000000622
  0
ARC
  5
2DB2
330
1F
100
AcDbEntity
  8
0
  6
Continuous
 62
     7
100
AcDbCircle
 10
988.3604910421098
 20
65.36170199683346
 30
0.0
 40
23.0
100
AcDbArc
 50
27.99690000000205
 51
49.98580000000146
  0
LINE
  5
2DB3
330
1F
100
AcDbEntity
  8
0
  6
Continuous
 62
     7
100
AcDbLine
 10
1003.328491042109
 20
83.28770199683361
 30
0.0
 11
996.3924910421097
 21
87.27470199683347
 31
0.0
  0
LINE
  5
2DB4
330
1F
100
AcDbEntity
  8
0
  6
Continuous
 62
     7
100
AcDbLine
 10
1002.328491042109
 20
81.55570199683365
 30
0.0
 11
995.3924910421097
 21
85.54270199683349
 31
0.0
  0
LINE
  5
2DB5
330
1F
100
AcDbEntity
  8
0
  6
Continuous
 62
     7
100
AcDbLine
 10
1000.89149104211
 20
95.06770199683359
 30
0.0
 11
988.3924910421098
 21
73.4177019968335
 31
0.0
  0
LINE
  5
2DB6
330
1F
100
AcDbEntity
  8
0
  6
Continuous
 62
     7
100
AcDbLine
 10
1007.827491042109
 20
91.08070199683352
 30
0.0
 11
995.3284910421096
 21
69.43070199683365
 31
0.0
  0
LINE
  5
2DB7
330
1F
100
AcDbEntity
  8
AM_7
  6
AM_ISO08W050x2
100
AcDbLine
 10
998.8534910421098
 20
78.36170199683346
 30
0.0
 11
994.2834910421096
 21
80.98970199683362
 31
0.0
  0
LINE
  5
2DB8
330
1F
100
AcDbEntity
  8
0
  6
Continuous
 62
     7
100
AcDbLine
 10
997.8284910421097
 20
73.76070199683358
 30
0.0
 11
990.8924910421097
 21
77.74770199683366
 31
0.0
  0
CIRCLE
  5
2DB9
330
1F
100
AcDbEntity
  8
0
  6
Continuous
 62
     7
100
AcDbCircle
 10
996.6104910421098
 20
79.65070199683367
 30
0.0
 40
1.620999999999999
  0
CIRCLE
  5
2DBA
330
1F
100
AcDbEntity
  8
0
  6
Continuous
 62
     2
100
AcDbCircle
 10
996.6104910421098
 20
79.65070199683367
 30
0.0
 40
2.0
  0
LINE
  5
2DBB
330
1F
100
AcDbEntity
  8
0
  6
Continuous
 62
     7
100
AcDbLine
 10
995.3284910421096
 20
69.43070199683365
 30
0.0
 11
988.3924910421098
 21
73.4177019968335
 31
0.0
  0
LINE
  5
2DBC
330
1F
100
AcDbEntity
  8
0
  6
Continuous
 62
     7
100
AcDbLine
 10
1008.24949104211
 20
69.19470199683354
 30
0.0
 11
1006.060491042109
 21
75.20870199683367
 31
0.0
  0
POINT
  5
2DBD
330
1F
100
AcDbEntity
  8
0
100
AcDbPoint
 10
1007.154491042109
 20
72.2017019968336
 30
0.0
  0
LINE
  5
2DBE
330
1F
100
AcDbEntity
  8
0
  6
Continuous
 62
     7
100
AcDbLine
 10
998.2914910421097
 20
96.56270199683348
 30
0.0
 11
994.8174910421098
 21
90.54670199683362
 31
0.0
  0
CIRCLE
  5
2DBF
330
1F
100
AcDbEntity
  8
0
  6
Continuous
 62
     7
100
AcDbCircle
 10
1002.10949104211
 20
89.17670199683351
 30
0.0
 40
1.620999999999999
  0
CIRCLE
  5
2DC0
330
1F
100
AcDbEntity
  8
0
  6
Continuous
 62
     2
100
AcDbCircle
 10
1002.10949104211
 20
89.17670199683351
 30
0.0
 40
2.0
  0
LINE
  5
2DC1
330
1F
100
AcDbEntity
  8
AM_7
  6
AM_ISO08W050x2
100
AcDbLine
 10
1004.48549104211
 20
87.81270199683348
 30
0.0
 11
999.7794910421097
 21
90.51770199683364
 31
0.0
  0
LINE
  5
2DC2
330
1F
100
AcDbEntity
  8
0
  6
Continuous
 62
     7
100
AcDbLine
 10
1011.963491042109
 20
71.29170199683375
 30
0.0
 11
1011.82349104211
 21
70.49570199683348
 31
0.0
  0
LINE
  5
2DC3
330
1F
100
AcDbEntity
  8
0
  6
Continuous
 62
     7
100
AcDbLine
 10
1011.963491042109
 20
71.29170199683375
 30
0.0
 11
1013.53449104211
 21
71.86370199683364
 31
0.0
  0
ARC
  5
2DC4
330
1F
100
AcDbEntity
  8
0
  6
Continuous
 62
     7
100
AcDbCircle
 10
988.3604910421098
 20
65.36170199683346
 30
0.0
 40
23.0
100
AcDbArc
 50
10.01539999999392
 51
12.00180000000071
  0
LINE
  5
2DC5
330
1F
100
AcDbEntity
  8
0
  6
Continuous
 62
     7
100
AcDbLine
 10
1010.254491042109
 20
75.99070199683359
 30
0.0
 11
1009.63449104211
 21
76.5097019968336
 31
0.0
  0
LINE
  5
2DC6
330
1F
100
AcDbEntity
  8
0
  6
Continuous
 62
     7
100
AcDbLine
 10
1010.36049104211
 20
69.36170199683346
 30
0.0
 11
1014.03849104211
 21
69.36170199683346
 31
0.0
  0
LINE
  5
2DC7
330
1F
100
AcDbEntity
  8
0
  6
Continuous
 62
     7
100
AcDbLine
 10
1010.254491042109
 20
75.99070199683359
 30
0.0
 11
1011.824491042109
 21
76.56270199683348
 31
0.0
  0
TEXT
  5
2DC8
330
1F
100
AcDbEntity
  8
AM_5
100
AcDbText
 10
967.3106110700533
 20
126.1797019968337
 30
0.0
 40
3.2
  1
6-M4
  7
China
100
AcDbText
  0
LINE
  5
2DC9
330
1F
100
AcDbEntity
  8
AM_5
100
AcDbLine
 10
967.8536110700532
 20
125.1467019968337
 30
0.0
 11
1022.877491042109
 21
125.1467019968337
 31
0.0
  0
TEXT
  5
2DCA
330
1F
100
AcDbEntity
  8
AM_5
100
AcDbText
 10
983.3106110700533
 20
126.1797019968337
 30
0.0
 40
3.2
  1
0.7DEPTH8
  7
China
100
AcDbText
  0
LINE
  5
2DCB
330
1F
100
AcDbEntity
  8
AM_5
100
AcDbLine
 10
980.8106110700533
 20
128.8517019968337
 30
0.0
 11
982.6106110700534
 21
126.7067019968337
 31
0.0
  0
LINE
  5
2DCC
330
1F
100
AcDbEntity
  8
AM_5
100
AcDbLine
 10
980.8106110700533
 20
126.7067019968337
 30
0.0
 11
982.6106110700534
 21
128.8517019968337
 31
0.0
  0
LINE
  5
2DCD
330
1F
100
AcDbEntity
  8
0
  6
Continuous
 62
     7
100
AcDbLine
 10
1054.4202194373
 20
165.9037019968336
 30
0.0
 11
1054.4202194373
 21
182.8247019968336
 31
0.0
  0
LINE
  5
2DCE
330
1F
100
AcDbEntity
  8
0
  6
Continuous
 62
     7
100
AcDbLine
 10
1067.9202194373
 20
163.3087019968336
 30
0.0
 11
1067.9202194373
 21
178.9057019968335
 31
0.0
  0
LINE
  5
2DCF
330
1F
100
AcDbEntity
  8
0
  6
Continuous
 62
     7
100
AcDbLine
 10
1098.4202194373
 20
159.3637019968336
 30
0.0
 11
1098.4202194373
 21
211.3637019968336
 31
0.0
  0
DIMENSION
  5
2DD0
330
1F
100
AcDbEntity
  8
AM_5
100
AcDbDimension
  2
*D16
 10
1109.275233032792
 20
159.3637019968336
 30
0.0
 11
1109.275233032792
 21
183.3631294425397
 31
0.0
 70
   160
  1
%%C<>
 71
     5
 42
52.0
  3
AM_ISO$0
100
AcDbAlignedDimension
 13
1098.4202194373
 23
211.3637019968336
 33
0.0
 14
1098.4202194373
 24
159.3637019968336
 34
0.0
 50
90.0
100
AcDbRotatedDimension
1001
ACAD
1000
DSTYLE
1002
{
1070
   340
1005
10CF
1002
}
  0
LINE
  5
2DD1
330
1F
100
AcDbEntity
  8
0
  6
Continuous
 62
     7
100
AcDbLine
 10
1098.4202194373
 20
160.1887019968337
 30
0.0
 11
1059.152219437299
 21
160.1887019968337
 31
0.0
  0
LINE
  5
2DD2
330
1F
100
AcDbEntity
  8
0
  6
Continuous
 62
     7
100
AcDbLine
 10
1098.4202194373
 20
161.8997019968334
 30
0.0
 11
1059.152219437299
 21
161.8997019968334
 31
0.0
  0
LINE
  5
2DD3
330
1F
100
AcDbEntity
  8
0
  6
Continuous
 62
     7
100
AcDbLine
 10
1059.152219437299
 20
159.3637019968336
 30
0.0
 11
1098.4202194373
 21
159.3637019968336
 31
0.0
  0
LINE
  5
2DD4
330
1F
100
AcDbEntity
  8
0
  6
Continuous
 62
     7
100
AcDbLine
 10
1098.4202194373
 20
91.36370199683364
 30
0.0
 11
1067.9202194373
 21
91.36370199683364
 31
0.0
  0
LINE
  5
2DD5
330
1F
100
AcDbEntity
  8
0
  6
Continuous
 62
     7
100
AcDbLine
 10
1059.152219437299
 20
58.86270199683366
 30
0.0
 11
1098.4202194373
 21
58.86270199683366
 31
0.0
  0
LINE
  5
2DD6
330
1F
100
AcDbEntity
  8
0
  6
Continuous
 62
     7
100
AcDbLine
 10
1059.152219437299
 20
54.1637019968336
 30
0.0
 11
1098.4202194373
 21
54.1637019968336
 31
0.0
  0
LINE
  5
2DD7
330
1F
100
AcDbEntity
  8
0
  6
Continuous
 62
     7
100
AcDbLine
 10
1059.152219437299
 20
71.86470199683362
 30
0.0
 11
1098.4202194373
 21
71.86470199683362
 31
0.0
  0
LINE
  5
2DD8
330
1F
100
AcDbEntity
  8
0
  6
Continuous
 62
     7
100
AcDbLine
 10
1059.152219437299
 20
76.56270199683348
 30
0.0
 11
1098.4202194373
 21
76.56270199683348
 31
0.0
  0
LINE
  5
2DD9
330
1F
100
AcDbEntity
  8
AM_7
  6
AM_ISO08W050x2
100
AcDbLine
 10
1099.994219437299
 20
65.36370199683364
 30
0.0
 11
1053.215219437299
 21
65.36370199683364
 31
0.0
  0
LINE
  5
2DDA
330
1F
100
AcDbEntity
  8
0
  6
Continuous
 62
     7
100
AcDbLine
 10
1098.4202194373
 20
39.36370199683364
 30
0.0
 11
1067.9202194373
 21
39.36370199683364
 31
0.0
  0
LINE
  5
2DDB
330
1F
100
AcDbEntity
  8
0
  6
Continuous
 62
     7
100
AcDbLine
 10
1054.4202194373
 20
61.36270199683366
 30
0.0
 11
1054.4202194373
 21
69.36270199683367
 31
0.0
  0
LINE
  5
2DDC
330
1F
100
AcDbEntity
  8
0
  6
Continuous
 62
     7
100
AcDbLine
 10
1064.4202194373
 20
61.36370199683364
 30
0.0
 11
1064.4202194373
 21
69.36370199683364
 31
0.0
  0
LINE
  5
2DDD
330
1F
100
AcDbEntity
  8
0
  6
Continuous
 62
     7
100
AcDbLine
 10
1057.420219437299
 20
83.27570199683368
 30
0.0
 11
1057.420219437299
 21
47.4517019968336
 31
0.0
  0
LINE
  5
2DDE
330
1F
100
AcDbEntity
  8
0
  6
Continuous
 62
     7
100
AcDbLine
 10
1059.152219437299
 20
61.36370199683364
 30
0.0
 11
1064.4202194373
 21
61.36370199683364
 31
0.0
  0
LINE
  5
2DDF
330
1F
100
AcDbEntity
  8
0
  6
Continuous
 62
     7
100
AcDbLine
 10
1054.4202194373
 20
39.66270199683362
 30
0.0
 11
1061.9202194373
 21
39.66270199683362
 31
0.0
  0
LINE
  5
2DE0
330
1F
100
AcDbEntity
  8
0
  6
Continuous
 62
     7
100
AcDbLine
 10
1061.9202194373
 20
35.65770199683374
 30
0.0
 11
1054.4202194373
 21
35.65770199683374
 31
0.0
  0
LINE
  5
2DE1
330
1F
100
AcDbEntity
  8
0
  6
Continuous
 62
     7
100
AcDbLine
 10
1059.152219437299
 20
45.11570199683359
 30
0.0
 11
1061.9202194373
 21
45.11570199683359
 31
0.0
  0
LINE
  5
2DE2
330
1F
100
AcDbEntity
  8
0
  6
Continuous
 62
     7
100
AcDbLine
 10
1054.4202194373
 20
56.97870199683364
 30
0.0
 11
1054.4202194373
 21
35.65770199683374
 31
0.0
  0
LINE
  5
2DE3
330
1F
100
AcDbEntity
  8
0
  6
Continuous
 62
     7
100
AcDbLine
 10
1059.152219437299
 20
54.1637019968336
 30
0.0
 11
1059.152219437299
 21
45.11570199683359
 31
0.0
  0
LINE
  5
2DE4
330
1F
100
AcDbEntity
  8
0
  6
Continuous
 62
     7
100
AcDbLine
 10
1054.4202194373
 20
49.17670199683351
 30
0.0
 11
1056.4202194373
 21
49.17670199683351
 31
0.0
  0
LINE
  5
2DE5
330
1F
100
AcDbEntity
  8
0
  6
Continuous
 62
     7
100
AcDbLine
 10
1054.4202194373
 20
47.44470199683354
 30
0.0
 11
1056.4202194373
 21
47.44470199683354
 31
0.0
  0
LINE
  5
2DE6
330
1F
100
AcDbEntity
  8
0
  6
Continuous
 62
     7
100
AcDbLine
 10
1056.4202194373
 20
49.17670199683351
 30
0.0
 11
1056.4202194373
 21
47.44470199683354
 31
0.0
  0
LINE
  5
2DE7
330
1F
100
AcDbEntity
  8
0
  6
Continuous
 62
     7
100
AcDbLine
 10
1057.420219437299
 20
47.4517019968336
 30
0.0
 11
1059.152219437299
 21
45.11570199683359
 31
0.0
  0
LINE
  5
2DE8
330
1F
100
AcDbEntity
  8
0
  6
Continuous
 62
     7
100
AcDbLine
 10
1059.152219437299
 20
58.86270199683366
 30
0.0
 11
1057.420219437299
 21
59.61270199683366
 31
0.0
  0
LINE
  5
2DE9
330
1F
100
AcDbEntity
  8
0
  6
Continuous
 62
     7
100
AcDbLine
 10
1057.420219437299
 20
55.45570199683351
 30
0.0
 11
1059.152219437299
 21
54.1637019968336
 31
0.0
  0
LINE
  5
2DEA
330
1F
100
AcDbEntity
  8
0
  6
Continuous
 62
     7
100
AcDbLine
 10
1057.420219437299
 20
61.82470199683365
 30
0.0
 11
1059.152219437299
 21
61.36370199683364
 31
0.0
  0
LINE
  5
2DEB
330
1F
100
AcDbEntity
  8
0
  6
Continuous
 62
     7
100
AcDbLine
 10
1057.420219437299
 20
56.97870199683364
 30
0.0
 11
1054.4202194373
 21
56.97870199683364
 31
0.0
  0
LINE
  5
2DEC
330
1F
100
AcDbEntity
  8
0
  6
Continuous
 62
     7
100
AcDbLine
 10
1057.420219437299
 20
61.36270199683366
 30
0.0
 11
1054.4202194373
 21
61.36270199683366
 31
0.0
  0
LINE
  5
2DED
330
1F
100
AcDbEntity
  8
0
  6
Continuous
 62
     7
100
AcDbLine
 10
1059.152219437299
 20
61.36370199683364
 30
0.0
 11
1059.152219437299
 21
58.86270199683366
 31
0.0
  0
LINE
  5
2DEE
330
1F
100
AcDbEntity
  8
0
  6
Continuous
 62
     7
100
AcDbLine
 10
1061.9202194373
 20
47.17870199683346
 30
0.0
 11
1067.9202194373
 21
47.17870199683346
 31
0.0
  0
LINE
  5
2DEF
330
1F
100
AcDbEntity
  8
0
  6
Continuous
 62
     7
100
AcDbLine
 10
1061.9202194373
 20
41.16270199683362
 30
0.0
 11
1067.9202194373
 21
41.16270199683362
 31
0.0
  0
LINE
  5
2DF0
330
1F
100
AcDbEntity
  8
0
  6
Continuous
 62
     7
100
AcDbLine
 10
1061.9202194373
 20
47.17870199683346
 30
0.0
 11
1061.9202194373
 21
39.66270199683362
 31
0.0
  0
LINE
  5
2DF1
330
1F
100
AcDbEntity
  8
0
  6
Continuous
 62
     7
100
AcDbLine
 10
1061.9202194373
 20
95.06870199683357
 30
0.0
 11
1054.4202194373
 21
95.06870199683357
 31
0.0
  0
LINE
  5
2DF2
330
1F
100
AcDbEntity
  8
0
  6
Continuous
 62
     7
100
AcDbLine
 10
1059.152219437299
 20
85.61170199683346
 30
0.0
 11
1061.9202194373
 21
85.61170199683346
 31
0.0
  0
LINE
  5
2DF3
330
1F
100
AcDbEntity
  8
0
  6
Continuous
 62
     7
100
AcDbLine
 10
1054.4202194373
 20
91.06470199683366
 30
0.0
 11
1061.9202194373
 21
91.06470199683366
 31
0.0
  0
LINE
  5
2DF4
330
1F
100
AcDbEntity
  8
0
  6
Continuous
 62
     7
100
AcDbLine
 10
1059.152219437299
 20
69.36370199683364
 30
0.0
 11
1064.4202194373
 21
69.36370199683364
 31
0.0
  0
LINE
  5
2DF5
330
1F
100
AcDbEntity
  8
0
  6
Continuous
 62
     7
100
AcDbLine
 10
1057.420219437299
 20
83.27570199683368
 30
0.0
 11
1059.152219437299
 21
85.61170199683346
 31
0.0
  0
LINE
  5
2DF6
330
1F
100
AcDbEntity
  8
0
  6
Continuous
 62
     7
100
AcDbLine
 10
1054.4202194373
 20
73.74870199683363
 30
0.0
 11
1054.4202194373
 21
95.06870199683357
 31
0.0
  0
LINE
  5
2DF7
330
1F
100
AcDbEntity
  8
0
  6
Continuous
 62
     7
100
AcDbLine
 10
1059.152219437299
 20
76.56270199683348
 30
0.0
 11
1059.152219437299
 21
85.61170199683346
 31
0.0
  0
LINE
  5
2DF8
330
1F
100
AcDbEntity
  8
0
  6
Continuous
 62
     7
100
AcDbLine
 10
1054.4202194373
 20
81.54970199683356
 30
0.0
 11
1056.4202194373
 21
81.54970199683356
 31
0.0
  0
LINE
  5
2DF9
330
1F
100
AcDbEntity
  8
0
  6
Continuous
 62
     7
100
AcDbLine
 10
1054.4202194373
 20
83.28170199683354
 30
0.0
 11
1056.4202194373
 21
83.28170199683354
 31
0.0
  0
LINE
  5
2DFA
330
1F
100
AcDbEntity
  8
0
  6
Continuous
 62
     7
100
AcDbLine
 10
1056.4202194373
 20
81.54970199683356
 30
0.0
 11
1056.4202194373
 21
83.28170199683354
 31
0.0
  0
LINE
  5
2DFB
330
1F
100
AcDbEntity
  8
0
  6
Continuous
 62
     7
100
AcDbLine
 10
1059.152219437299
 20
71.86470199683362
 30
0.0
 11
1057.420219437299
 21
71.11370199683364
 31
0.0
  0
LINE
  5
2DFC
330
1F
100
AcDbEntity
  8
0
  6
Continuous
 62
     7
100
AcDbLine
 10
1057.420219437299
 20
68.90270199683363
 30
0.0
 11
1059.153219437299
 21
69.36370199683364
 31
0.0
  0
LINE
  5
2DFD
330
1F
100
AcDbEntity
  8
0
  6
Continuous
 62
     7
100
AcDbLine
 10
1057.420219437299
 20
69.36270199683367
 30
0.0
 11
1054.4202194373
 21
69.36270199683367
 31
0.0
  0
LINE
  5
2DFE
330
1F
100
AcDbEntity
  8
0
  6
Continuous
 62
     7
100
AcDbLine
 10
1057.420219437299
 20
73.74870199683363
 30
0.0
 11
1054.4202194373
 21
73.74870199683363
 31
0.0
  0
LINE
  5
2DFF
330
1F
100
AcDbEntity
  8
0
  6
Continuous
 62
     7
100
AcDbLine
 10
1059.152219437299
 20
69.36370199683364
 30
0.0
 11
1059.152219437299
 21
71.86470199683362
 31
0.0
  0
LINE
  5
2E00
330
1F
100
AcDbEntity
  8
0
  6
Continuous
 62
     7
100
AcDbLine
 10
1057.420219437299
 20
75.27070199683357
 30
0.0
 11
1059.152219437299
 21
76.56270199683348
 31
0.0
  0
LINE
  5
2E01
330
1F
100
AcDbEntity
  8
0
  6
Continuous
 62
     7
100
AcDbLine
 10
1061.9202194373
 20
83.54770199683361
 30
0.0
 11
1061.9202194373
 21
91.06470199683366
 31
0.0
  0
LINE
  5
2E02
330
1F
100
AcDbEntity
  8
0
  6
Continuous
 62
     7
100
AcDbLine
 10
1067.9202194373
 20
83.54770199683361
 30
0.0
 11
1067.9202194373
 21
96.5867019968336
 31
0.0
  0
LINE
  5
2E03
330
1F
100
AcDbEntity
  8
0
  6
Continuous
 62
     7
100
AcDbLine
 10
1061.9202194373
 20
83.54770199683361
 30
0.0
 11
1067.9202194373
 21
83.54770199683361
 31
0.0
  0
LINE
  5
2E04
330
1F
100
AcDbEntity
  8
0
  6
Continuous
 62
     7
100
AcDbLine
 10
1061.9202194373
 20
95.06870199683357
 30
0.0
 11
1061.9202194373
 21
96.5867019968336
 31
0.0
  0
LINE
  5
2E05
330
1F
100
AcDbEntity
  8
0
  6
Continuous
 62
     7
100
AcDbLine
 10
1067.9202194373
 20
96.5867019968336
 30
0.0
 11
1061.9202194373
 21
96.5867019968336
 31
0.0
  0
LINE
  5
2E06
330
1F
100
AcDbEntity
  8
0
  6
Continuous
 62
     7
100
AcDbLine
 10
1061.9202194373
 20
89.56470199683366
 30
0.0
 11
1067.9202194373
 21
89.56470199683366
 31
0.0
  0
LINE
  5
2E07
330
1F
100
AcDbEntity
  8
0
  6
Continuous
 62
     7
100
AcDbLine
 10
1054.4202194373
 20
165.9037019968336
 30
0.0
 11
1061.9202194373
 21
165.9037019968336
 31
0.0
  0
LINE
  5
2E08
330
1F
100
AcDbEntity
  8
0
  6
Continuous
 62
     7
100
AcDbLine
 10
1057.420219437299
 20
164.6067019968335
 30
0.0
 11
1059.152219437299
 21
161.8997019968334
 31
0.0
  0
LINE
  5
2E09
330
1F
100
AcDbEntity
  8
0
  6
Continuous
 62
     7
100
AcDbLine
 10
1057.420219437299
 20
162.3637019968336
 30
0.0
 11
1057.420219437299
 21
165.9037019968336
 31
0.0
  0
LINE
  5
2E0A
330
1F
100
AcDbEntity
  8
0
  6
Continuous
 62
     7
100
AcDbLine
 10
1059.152219437299
 20
161.8997019968334
 30
0.0
 11
1059.152219437299
 21
165.9037019968336
 31
0.0
  0
LINE
  5
2E0B
330
1F
100
AcDbEntity
  8
0
  6
Continuous
 62
     7
100
AcDbLine
 10
1059.152219437299
 20
159.3637019968336
 30
0.0
 11
1059.152219437299
 21
160.1887019968337
 31
0.0
  0
LINE
  5
2E0C
330
1F
100
AcDbEntity
  8
0
  6
Continuous
 62
     7
100
AcDbLine
 10
1057.420219437299
 20
162.3637019968336
 30
0.0
 11
1059.152219437299
 21
159.3637019968336
 31
0.0
  0
LINE
  5
2E0D
330
1F
100
AcDbEntity
  8
0
  6
Continuous
 62
     7
100
AcDbLine
 10
1059.152219437299
 20
160.1887019968337
 30
0.0
 11
1057.420219437299
 21
163.0927019968336
 31
0.0
  0
LINE
  5
2E0E
330
1F
100
AcDbEntity
  8
0
  6
Continuous
 62
     7
100
AcDbLine
 10
1061.9202194373
 20
163.3087019968336
 30
0.0
 11
1061.9202194373
 21
165.9037019968336
 31
0.0
  0
LINE
  5
2E0F
330
1F
100
AcDbEntity
  8
0
  6
Continuous
 62
     7
100
AcDbLine
 10
1061.9202194373
 20
163.3087019968336
 30
0.0
 11
1067.9202194373
 21
163.3087019968336
 31
0.0
  0
LINE
  5
2E10
330
1F
100
AcDbEntity
  8
0
  6
Continuous
 62
     7
100
AcDbLine
 10
1098.4202194373
 20
91.36370199683364
 30
0.0
 11
1098.4202194373
 21
39.36370199683364
 31
0.0
  0
POINT
  5
2E11
330
1F
100
AcDbEntity
  8
0
100
AcDbPoint
 10
1098.4202194373
 20
65.36370199683364
 30
0.0
  0
ARC
  5
2E12
330
1F
100
AcDbEntity
  8
0
  6
Continuous
 62
     7
100
AcDbCircle
 10
1170.633699558456
 20
65.36370199683364
 30
0.0
 40
26.0
100
AcDbArc
 50
165.5179999999988
 51
194.4829999999961
  0
LINE
  5
2E13
330
1F
100
AcDbEntity
  8
0
  6
Continuous
 62
     7
100
AcDbLine
 10
1148.882699558455
 20
54.78570199683344
 30
0.0
 11
1147.170699558455
 21
54.16270199683362
 31
0.0
  0
LINE
  5
2E14
330
1F
100
AcDbEntity
  8
0
  6
Continuous
 62
     7
100
AcDbLine
 10
1149.501699558455
 20
54.26670199683366
 30
0.0
 11
1148.882699558455
 21
54.78570199683344
 31
0.0
  0
LINE
  5
2E15
330
1F
100
AcDbEntity
  8
0
  6
Continuous
 62
     7
100
AcDbLine
 10
1147.312699558455
 20
60.28070199683355
 30
0.0
 11
1147.172699558455
 21
59.48470199683351
 31
0.0
  0
LINE
  5
2E16
330
1F
100
AcDbEntity
  8
0
  6
Continuous
 62
     7
100
AcDbLine
 10
1147.172699558455
 20
59.48470199683351
 30
0.0
 11
1145.460699558455
 21
58.86170199683346
 31
0.0
  0
LINE
  5
2E17
330
1F
100
AcDbEntity
  8
0
  6
Continuous
 62
     7
100
AcDbLine
 10
1147.311699558455
 20
70.44670199683349
 30
0.0
 11
1147.171699558455
 21
71.24270199683377
 31
0.0
  0
LINE
  5
2E18
330
1F
100
AcDbEntity
  8
0
  6
Continuous
 62
     7
100
AcDbLine
 10
1147.171699558455
 20
71.24270199683377
 30
0.0
 11
1145.459699558456
 21
71.86570199683359
 31
0.0
  0
LINE
  5
2E19
330
1F
100
AcDbEntity
  8
0
  6
Continuous
 62
     7
100
AcDbLine
 10
1148.881699558455
 20
75.94170199683361
 30
0.0
 11
1147.169699558455
 21
76.56370199683369
 31
0.0
  0
LINE
  5
2E1A
330
1F
100
AcDbEntity
  8
0
  6
Continuous
 62
     7
100
AcDbLine
 10
1149.500699558455
 20
76.46070199683362
 30
0.0
 11
1148.881699558455
 21
75.94170199683361
 31
0.0
  0
LINE
  5
2E1B
330
1F
100
AcDbEntity
  8
AM_7
  6
AM_ISO08W050x2
100
AcDbLine
 10
1096.293219437299
 20
205.2807019968335
 30
0.0
 11
1084.4582194373
 21
205.2807019968335
 31
0.0
  0
LINE
  5
2E1C
330
1F
100
AcDbEntity
  8
0
  6
Continuous
 62
     7
100
AcDbLine
 10
1059.152219437299
 20
211.3637019968336
 30
0.0
 11
1098.4202194373
 21
211.3637019968336
 31
0.0
  0
LINE
  5
2E1D
330
1F
100
AcDbEntity
  8
AM_7
  6
AM_ISO08W050x2
100
AcDbLine
 10
1054.114219437299
 20
185.3637019968336
 30
0.0
 11
1100.627219437299
 21
185.3637019968336
 31
0.0
  0
DIMENSION
  5
2E1E
330
1F
100
AcDbEntity
  8
AM_5
100
AcDbDimension
  2
*D17
 10
1054.4202194373
 20
236.7971566118569
 30
0.0
 11
1076.4202194373
 21
239.0971566118569
 31
0.0
 70
    32
 71
     5
 42
44.0
  3
AM_ISO$0
100
AcDbAlignedDimension
 13
1098.4202194373
 23
229.3042613880195
 33
0.0
 14
1054.4202194373
 24
229.3042613880195
 34
0.0
100
AcDbRotatedDimension
1001
ACAD
1000
DSTYLE
1002
{
1070
   340
1005
10CF
1002
}
  0
DIMENSION
  5
2E1F
330
1F
100
AcDbEntity
  8
AM_5
100
AcDbDimension
  2
*D18
 10
1074.4202194373
 20
220.4639235361448
 30
0.0
 11
1082.4202194373
 21
222.7639235361448
 31
0.0
 70
    32
 71
     5
 42
16.0
  3
AM_ISO$0
100
AcDbAlignedDimension
 13
1090.4202194373
 23
220.4639235361448
 33
0.0
 14
1074.4202194373
 24
195.8747019968336
 34
0.0
100
AcDbRotatedDimension
1001
ACAD
1000
DSTYLE
1002
{
1070
   340
1005
10CF
1002
}
  0
DIMENSION
  5
2E20
330
1F
100
AcDbEntity
  8
AM_5
100
AcDbDimension
  2
*D19
 10
1098.4202194373
 20
229.3042613880195
 30
0.0
 11
1077.9202194373
 21
231.6042613880195
 31
0.0
 70
    32
 71
     5
 42
41.0
  3
AM_ISO$0
100
AcDbAlignedDimension
 13
1057.420219437299
 23
208.3637019968336
 33
0.0
 14
1098.4202194373
 24
220.4639235361448
 34
0.0
100
AcDbRotatedDimension
1001
ACAD
1000
DSTYLE
1002
{
1070
   340
1005
10CF
1002
}
  0
LEADER
  5
2E21
330
1F
100
AcDbEntity
  8
AM_5
100
AcDbLeader
  3
ISO-25
 76
     3
 10
1078.977625220447
 20
192.0476345164761
 30
0.0
 10
1119.567013756098
 20
204.4179562258775
 30
0.0
 10
1147.352428582247
 20
204.4179562258775
 30
0.0
1001
ACAD
1000
DSTYLE
1002
{
1070
   147
1040
1.0
1070
    77
1070
     0
1002
}
  0
TEXT
  5
2E22
330
1F
100
AcDbEntity
  8
AM_5
100
AcDbText
 10
1043.536000392814
 20
224.7928724239597
 30
0.0
 40
1.6
  1
+0.025
 50
90.0
  7
China
100
AcDbText
  0
DIMENSION
  5
2E23
330
1F
100
AcDbEntity
  8
AM_5
100
AcDbDimension
  2
*D20
 10
1054.4202194373
 20
229.3042613880195
 30
0.0
 11
1047.870219437299
 21
231.6042613880195
 31
0.0
 70
    32
 71
     5
 42
3.0
  3
AM_ISO$0
100
AcDbAlignedDimension
 13
1057.420219437299
 23
229.3042613880195
 33
0.0
 14
1054.4202194373
 24
222.0555857264983
 34
0.0
100
AcDbRotatedDimension
1001
ACAD
1000
DSTYLE
1002
{
1070
   340
1005
10CF
1002
}
  0
DIMENSION
  5
2E24
330
1F
100
AcDbEntity
  8
AM_5
100
AcDbDimension
  2
*D21
 10
1037.177539267587
 20
185.3637019968336
 30
0.0
 11
1034.877539267587
 21
191.3602019968338
 31
0.0
 70
    32
  1
12
 71
     5
 42
11.99299999999994
  3
AM_ISO$0
100
AcDbAlignedDimension
 13
1037.177539267587
 23
197.3567019968335
 33
0.0
 14
1054.114219437299
 24
185.3637019968336
 34
0.0
 50
90.0
100
AcDbRotatedDimension
1001
ACAD
1000
DSTYLE
1002
{
1070
   340
1005
10CF
1002
}
  0
DIMENSION
  5
2E25
330
1F
100
AcDbEntity
  8
AM_5
100
AcDbDimension
  2
*D22
 10
1037.177539267587
 20
197.3567019968335
 30
0.0
 11
1037.177539267587
 21
207.205673851043
 31
0.0
 70
   160
  1
21
 71
     5
 42
19.99399999999991
  3
AM_ISO$0
100
AcDbAlignedDimension
 13
1054.4202194373
 23
217.3507019968335
 33
0.0
 14
1048.114548129923
 24
197.3567019968335
 34
0.0
 50
90.0
100
AcDbRotatedDimension
1001
ACAD
1000
DSTYLE
1002
{
1070
   340
1005
10CF
1002
}
  0
LINE
  5
2E26
330
1F
100
AcDbEntity
  8
0
  6
Continuous
 62
     7
100
AcDbLine
 10
1064.4202194373
 20
194.7457019968334
 30
0.0
 11
1064.4202194373
 21
201.6737019968336
 31
0.0
  0
LINE
  5
2E27
330
1F
100
AcDbEntity
  8
0
  6
Continuous
 62
     7
100
AcDbLine
 10
1054.4202194373
 20
197.3567019968335
 30
0.0
 11
1054.4202194373
 21
206.3567019968336
 31
0.0
  0
LINE
  5
2E28
330
1F
100
AcDbEntity
  8
0
  6
Continuous
 62
     7
100
AcDbLine
 10
1057.420219437299
 20
177.5027019968335
 30
0.0
 11
1057.420219437299
 21
208.3637019968336
 31
0.0
  0
DIMENSION
  5
2E29
330
1F
100
AcDbEntity
  8
AM_5
100
AcDbDimension
  2
*D23
 10
1045.657848323375
 20
197.3567019968335
 30
0.0
 11
1043.357848323375
 21
201.8567019968338
 31
0.0
 70
    32
 71
     5
 42
9.0
  3
AM_ISO$0
100
AcDbAlignedDimension
 13
1054.4202194373
 23
206.3567019968336
 33
0.0
 14
1054.4202194373
 24
197.3567019968335
 34
0.0
 50
90.0
100
AcDbRotatedDimension
1001
ACAD
1000
DSTYLE
1002
{
1070
   340
1005
10CF
1002
}
  0
LINE
  5
2E2A
330
1F
100
AcDbEntity
  8
0
  6
Continuous
 62
     7
100
AcDbLine
 10
1059.152219437299
 20
194.7457019968334
 30
0.0
 11
1064.4202194373
 21
194.7457019968334
 31
0.0
  0
LINE
  5
2E2B
330
1F
100
AcDbEntity
  8
0
  6
Continuous
 62
     7
100
AcDbLine
 10
1054.4202194373
 20
172.8317019968337
 30
0.0
 11
1061.9202194373
 21
172.8317019968337
 31
0.0
  0
LINE
  5
2E2C
330
1F
100
AcDbEntity
  8
0
  6
Continuous
 62
     7
100
AcDbLine
 10
1059.152219437299
 20
175.9827019968335
 30
0.0
 11
1061.9202194373
 21
175.9827019968335
 31
0.0
  0
LINE
  5
2E2D
330
1F
100
AcDbEntity
  8
0
  6
Continuous
 62
     7
100
AcDbLine
 10
1059.152219437299
 20
175.9827019968335
 30
0.0
 11
1059.152219437299
 21
194.7457019968334
 31
0.0
  0
LINE
  5
2E2E
330
1F
100
AcDbEntity
  8
0
  6
Continuous
 62
     7
100
AcDbLine
 10
1056.4202194373
 20
177.3247019968336
 30
0.0
 11
1056.4202194373
 21
178.3247019968336
 31
0.0
  0
LINE
  5
2E2F
330
1F
100
AcDbEntity
  8
0
  6
Continuous
 62
     7
100
AcDbLine
 10
1054.4202194373
 20
178.3247019968336
 30
0.0
 11
1056.4202194373
 21
178.3247019968336
 31
0.0
  0
LINE
  5
2E30
330
1F
100
AcDbEntity
  8
0
  6
Continuous
 62
     7
100
AcDbLine
 10
1054.4202194373
 20
177.3247019968336
 30
0.0
 11
1056.4202194373
 21
177.3247019968336
 31
0.0
  0
LINE
  5
2E31
330
1F
100
AcDbEntity
  8
0
  6
Continuous
 62
     7
100
AcDbLine
 10
1057.420219437299
 20
177.5027019968335
 30
0.0
 11
1059.152219437299
 21
175.9827019968335
 31
0.0
  0
LINE
  5
2E32
330
1F
100
AcDbEntity
  8
0
  6
Continuous
 62
     7
100
AcDbLine
 10
1054.4202194373
 20
197.3567019968335
 30
0.0
 11
1057.420219437299
 21
197.3567019968335
 31
0.0
  0
LINE
  5
2E33
330
1F
100
AcDbEntity
  8
0
  6
Continuous
 62
     7
100
AcDbLine
 10
1054.4202194373
 20
182.8247019968336
 30
0.0
 11
1057.420219437299
 21
182.8247019968336
 31
0.0
  0
LINE
  5
2E34
330
1F
100
AcDbEntity
  8
0
  6
Continuous
 62
     7
100
AcDbLine
 10
1057.420219437299
 20
193.2237019968335
 30
0.0
 11
1059.152219437299
 21
194.7447019968337
 31
0.0
  0
LINE
  5
2E35
330
1F
100
AcDbEntity
  8
0
  6
Continuous
 62
     7
100
AcDbLine
 10
1061.9202194373
 20
178.9057019968335
 30
0.0
 11
1067.9202194373
 21
178.9057019968335
 31
0.0
  0
LINE
  5
2E36
330
1F
100
AcDbEntity
  8
0
  6
Continuous
 62
     7
100
AcDbLine
 10
1061.9202194373
 20
175.4197019968334
 30
0.0
 11
1067.9202194373
 21
175.4197019968334
 31
0.0
  0
LINE
  5
2E37
330
1F
100
AcDbEntity
  8
0
  6
Continuous
 62
     7
100
AcDbLine
 10
1061.9202194373
 20
172.8317019968337
 30
0.0
 11
1061.9202194373
 21
178.9057019968335
 31
0.0
  0
ARC
  5
2E38
330
1F
100
AcDbEntity
  8
0
  6
Continuous
 62
     7
100
AcDbCircle
 10
1074.4202194373
 20
189.9997019968336
 30
0.0
 40
2.50008
100
AcDbArc
 50
179.5429999999954
 51
0.0
  0
ARC
  5
2E39
330
1F
100
AcDbEntity
  8
0
  6
Continuous
 62
     7
100
AcDbCircle
 10
1074.4202194373
 20
189.8627019968336
 30
0.0
 40
2.50495
100
AcDbArc
 50
3.603810000002303
 51
176.3959999999967
  0
ARC
  5
2E3A
330
1F
100
AcDbEntity
  8
0
  6
Continuous
 62
     7
100
AcDbCircle
 10
1074.4202194373
 20
189.8487019968335
 30
0.0
 40
5.002919999999999
100
AcDbArc
 50
1.956420000005121
 51
178.0439999999958
  0
ARC
  5
2E3B
330
1F
100
AcDbEntity
  8
0
  6
Continuous
 62
     7
100
AcDbCircle
 10
1074.4202194373
 20
190.0197019968336
 30
0.0
 40
5.0
100
AcDbArc
 50
180.0
 51
0.0
  0
LINE
  5
2E3C
330
1F
100
AcDbEntity
  8
AM_7
  6
AM_ISO08W050x2
100
AcDbLine
 10
1080.774219437299
 20
190.0197019968336
 30
0.0
 11
1068.253219437299
 21
190.0197019968336
 31
0.0
  0
LINE
  5
2E3D
330
1F
100
AcDbEntity
  8
AM_7
  6
AM_ISO08W050x2
100
AcDbLine
 10
1074.4202194373
 20
184.0037019968337
 30
0.0
 11
1074.4202194373
 21
195.8747019968336
 31
0.0
  0
LINE
  5
2E3E
330
1F
100
AcDbEntity
  8
0
  6
Continuous
 62
     7
100
AcDbLine
 10
1054.4202194373
 20
217.3507019968335
 30
0.0
 11
1067.9202194373
 21
217.3507019968335
 31
0.0
  0
LINE
  5
2E3F
330
1F
100
AcDbEntity
  8
0
  6
Continuous
 62
     7
100
AcDbLine
 10
1059.152219437299
 20
201.6737019968336
 30
0.0
 11
1064.4202194373
 21
201.6737019968336
 31
0.0
  0
LINE
  5
2E40
330
1F
100
AcDbEntity
  8
0
  6
Continuous
 62
     7
100
AcDbLine
 10
1054.4202194373
 20
208.3567019968336
 30
0.0
 11
1054.4202194373
 21
217.3507019968335
 31
0.0
  0
DIMENSION
  5
2E41
330
1F
100
AcDbEntity
  8
AM_5
100
AcDbDimension
  2
*D24
 10
1054.4202194373
 20
222.7343363116285
 30
0.0
 11
1047.870219437299
 21
225.0343363116285
 31
0.0
 70
    32
 71
     5
 42
2.0
  3
AM_ISO$0
100
AcDbAlignedDimension
 13
1056.4202194373
 23
208.3567019968336
 33
0.0
 14
1054.4202194373
 24
217.3507019968335
 34
0.0
100
AcDbRotatedDimension
1001
ACAD
1000
DSTYLE
1002
{
1070
   340
1005
10CF
1002
}
  0
DIMENSION
  5
2E42
330
1F
100
AcDbEntity
  8
AM_5
100
AcDbDimension
  2
*D25
 10
1045.657848323375
 20
208.3567019968336
 30
0.0
 11
1045.657848323375
 21
221.2240439547124
 31
0.0
 70
   160
  1
2H9
 71
     5
 42
1.737995928582904
  3
AM_ISO$0
100
AcDbAlignedDimension
 13
1045.657848323375
 23
206.6187060682507
 33
0.0
 14
1054.4202194373
 24
208.3567019968336
 34
0.0
 50
90.0
100
AcDbRotatedDimension
1001
ACAD
1000
DSTYLE
1002
{
1070
   340
1005
10CF
1002
}
  0
LINE
  5
2E43
330
1F
100
AcDbEntity
  8
0
  6
Continuous
 62
     7
100
AcDbLine
 10
1057.421219437299
 20
200.1527019968336
 30
0.0
 11
1059.153219437299
 21
201.6737019968336
 31
0.0
  0
LINE
  5
2E44
330
1F
100
AcDbEntity
  8
0
  6
Continuous
 62
     7
100
AcDbLine
 10
1056.4202194373
 20
206.3567019968336
 30
0.0
 11
1056.4202194373
 21
208.3567019968336
 31
0.0
  0
LINE
  5
2E45
330
1F
100
AcDbEntity
  8
0
  6
Continuous
 62
     7
100
AcDbLine
 10
1054.4202194373
 20
206.3567019968336
 30
0.0
 11
1056.4202194373
 21
206.3567019968336
 31
0.0
  0
LINE
  5
2E46
330
1F
100
AcDbEntity
  8
0
  6
Continuous
 62
     7
100
AcDbLine
 10
1054.4202194373
 20
208.3567019968336
 30
0.0
 11
1056.4202194373
 21
208.3567019968336
 31
0.0
  0
LINE
  5
2E47
330
1F
100
AcDbEntity
  8
0
  6
Continuous
 62
     7
100
AcDbLine
 10
1059.152219437299
 20
201.6737019968336
 30
0.0
 11
1059.152219437299
 21
211.3637019968336
 31
0.0
  0
LINE
  5
2E48
330
1F
100
AcDbEntity
  8
0
  6
Continuous
 62
     7
100
AcDbLine
 10
1057.420219437299
 20
208.3637019968336
 30
0.0
 11
1059.152219437299
 21
211.3637019968336
 31
0.0
  0
TEXT
  5
2E49
330
1F
100
AcDbEntity
  8
AM_5
100
AcDbText
 10
1045.546625095922
 20
226.7315660834956
 30
0.0
 40
1.6
  1
0
 50
90.0
  7
China
100
AcDbText
  0
LINE
  5
2E4A
330
1F
100
AcDbEntity
  8
0
  6
Continuous
 62
     7
100
AcDbLine
 10
1067.9202194373
 20
211.3637019968336
 30
0.0
 11
1067.9202194373
 21
217.3507019968335
 31
0.0
  0
LINE
  5
2E4B
330
1F
100
AcDbEntity
  8
0
  6
Continuous
 62
     7
100
AcDbLine
 10
1061.9202194373
 20
211.3637019968336
 30
0.0
 11
1061.9202194373
 21
217.3507019968335
 31
0.0
  0
POINT
  5
2E4C
330
1F
100
AcDbEntity
  8
0
100
AcDbPoint
 10
1098.4202194373
 20
185.3637019968336
 30
0.0
  0
TEXT
  5
2E4D
330
1F
100
AcDbEntity
  8
AM_5
100
AcDbText
 10
1107.215222876076
 20
223.6548093792409
 30
0.0
 40
3.2
  1
M5
  7
China
100
AcDbText
  0
TEXT
  5
2E4E
330
1F
100
AcDbEntity
  8
AM_5
100
AcDbText
 10
1120.156017685891
 20
205.5688637157388
 30
0.0
 40
3.2
  1
M5
  7
China
100
AcDbText
  0
LEADER
  5
2E4F
330
1F
100
AcDbEntity
  8
AM_5
100
AcDbLeader
  3
ISO-25
 76
     3
 10
1095.420840008556
 20
205.2807019968335
 30
0.0
 10
1104.719147290894
 20
222.1797545112542
 30
0.0
 10
1129.821752802851
 20
222.1797545112542
 30
0.0
1001
ACAD
1000
DSTYLE
1002
{
1070
   147
1040
1.0
1070
    77
1070
     0
1002
}
  0
DIMENSION
  5
2E50
330
1F
100
AcDbEntity
  8
AM_5
100
AcDbDimension
  2
*D26
 10
1098.4202194373
 20
220.4639235361448
 30
0.0
 11
1094.420219437299
 21
222.7639235361448
 31
0.0
 70
    32
 71
     5
 42
8.0
  3
AM_ISO$0
100
AcDbAlignedDimension
 13
1090.4202194373
 23
209.2507019968336
 33
0.0
 14
1098.4202194373
 24
211.3637019968336
 34
0.0
100
AcDbRotatedDimension
1001
ACAD
1000
DSTYLE
1002
{
1070
   340
1005
10CF
1002
}
  0
LINE
  5
2E51
330
1F
100
AcDbEntity
  8
AM_7
  6
AM_ISO08W050x2
100
AcDbLine
 10
1090.4202194373
 20
200.4257019968338
 30
0.0
 11
1090.4202194373
 21
209.2507019968336
 31
0.0
  0
ARC
  5
2E52
330
1F
100
AcDbEntity
  8
0
  6
Continuous
 62
     7
100
AcDbCircle
 10
1090.4202194373
 20
206.3997019968335
 30
0.0
 40
3.2035
100
AcDbArc
 50
227.9900000000056
 51
312.0099999999944
  0
ARC
  5
2E53
330
1F
100
AcDbEntity
  8
0
  6
Continuous
 62
     7
100
AcDbCircle
 10
1090.424219437299
 20
202.8517019968337
 30
0.0
 40
3.55729
100
AcDbArc
 50
54.10949999999901
 51
125.8909999999942
  0
ARC
  5
2E54
330
1F
100
AcDbEntity
  8
0
  6
Continuous
 62
     7
100
AcDbCircle
 10
1089.062219437299
 20
204.8487019968336
 30
0.0
 40
1.14287
100
AcDbArc
 50
129.4109999999984
 51
226.5489999999959
  0
ARC
  5
2E55
330
1F
100
AcDbEntity
  8
0
  6
Continuous
 62
     7
100
AcDbCircle
 10
1093.148219437299
 20
205.1107019968337
 30
0.0
 40
2.27897
100
AcDbArc
 50
309.7670000000058
 51
57.94889999999861
  0
ARC
  5
2E56
330
1F
100
AcDbEntity
  8
0
  6
Continuous
 62
     7
100
AcDbCircle
 10
1091.772219437299
 20
204.8517019968337
 30
0.0
 40
1.149379999999999
100
AcDbArc
 50
313.5820000000016
 51
50.26279999999907
  0
ARC
  5
2E57
330
1F
100
AcDbEntity
  8
0
  6
Continuous
 62
     7
100
AcDbCircle
 10
1087.682219437299
 20
205.1077019968336
 30
0.0
 40
2.26871
100
AcDbArc
 50
121.471999999998
 51
230.410999999993
  0
ARC
  5
2E58
330
1F
100
AcDbEntity
  8
0
  6
Continuous
 62
     7
100
AcDbCircle
 10
1090.421219437299
 20
207.8077019968336
 30
0.0
 40
6.107739999999999
100
AcDbArc
 50
226.7559999999973
 51
313.2440000000027
  0
ARC
  5
2E59
330
1F
100
AcDbEntity
  8
0
  6
Continuous
 62
     7
100
AcDbCircle
 10
1090.427219437299
 20
200.4267019968335
 30
0.0
 40
7.69425
100
AcDbArc
 50
59.28869999999681
 51
120.711000000004
  0
TEXT
  5
2E5A
330
1F
100
AcDbEntity
  8
AM_5
100
AcDbText
 10
1129.756017685891
 20
205.5688637157388
 30
0.0
 40
3.2
  1
0.8
  7
China
100
AcDbText
  0
LINE
  5
2E5B
330
1F
100
AcDbEntity
  8
AM_5
  6
Continuous
100
AcDbLine
 10
1127.256017685891
 20
206.0958637157388
 30
0.0
 11
1129.056017685891
 21
208.2408637157388
 31
0.0
  0
LINE
  5
2E5C
330
1F
100
AcDbEntity
  8
AM_5
  6
Continuous
100
AcDbLine
 10
1127.256017685891
 20
208.2408637157388
 30
0.0
 11
1129.056017685891
 21
206.0958637157388
 31
0.0
  0
TEXT
  5
2E5D
330
1F
100
AcDbEntity
  8
AM_5
100
AcDbText
 10
1116.815222876076
 20
223.6548093792409
 30
0.0
 40
3.2
  1
0.8
  7
China
100
AcDbText
  0
LINE
  5
2E5E
330
1F
100
AcDbEntity
  8
AM_5
  6
Continuous
100
AcDbLine
 10
1114.315222876076
 20
224.1828093792407
 30
0.0
 11
1116.115222876076
 21
226.3278093792407
 31
0.0
  0
LINE
  5
2E5F
330
1F
100
AcDbEntity
  8
AM_5
  6
Continuous
100
AcDbLine
 10
1114.315222876076
 20
226.3278093792407
 30
0.0
 11
1116.115222876076
 21
224.1828093792407
 31
0.0
  0
TEXT
  5
2E60
330
1F
100
AcDbEntity
  8
AM_5
100
AcDbText
 10
1219.640699558455
 20
34.62370199683363
 30
0.0
 40
1.6
  1
+0.062
  7
China
100
AcDbText
  0
CIRCLE
  5
2E61
330
1F
100
AcDbEntity
  8
AM_5
  6
Continuous
100
AcDbCircle
 10
1205.392699558456
 20
34.63270199683365
 30
0.0
 40
0.9
  0
LINE
  5
2E62
330
1F
100
AcDbEntity
  8
AM_5
  6
Continuous
100
AcDbLine
 10
1204.810699558455
 20
33.03470199683369
 30
0.0
 11
1205.973699558455
 21
36.22970199683363
 31
0.0
  0
TEXT
  5
2E63
330
1F
100
AcDbEntity
  8
AM_5
100
AcDbText
 10
1206.688699558455
 20
33.03270199683374
 30
0.0
 40
3.2
  1
34H9
  7
China
100
AcDbText
  0
TEXT
  5
2E64
330
1F
100
AcDbEntity
  8
AM_5
100
AcDbText
 10
1229.634699558455
 20
33.03270199683374
 30
0.0
 40
3.2
  1
DEPTH2
  7
China
100
AcDbText
  0
LINE
  5
2E65
330
1F
100
AcDbEntity
  8
AM_5
100
AcDbLine
 10
1169.118699558455
 20
42.36470199683362
 30
0.0
 11
1166.301699558455
 21
20.96970199683363
 31
0.0
  0
LINE
  5
2E66
330
1F
100
AcDbEntity
  8
0
  6
Continuous
 62
     7
100
AcDbLine
 10
1164.115699558455
 20
40.19470199683354
 30
0.0
 11
1160.643699558455
 21
34.18170199683363
 31
0.0
  0
LINE
  5
2E67
330
1F
100
AcDbEntity
  8
AM_5
100
AcDbLine
 10
1166.144699558455
 20
42.75670199683344
 30
0.0
 11
1163.327699558455
 21
21.36170199683346
 31
0.0
  0
LINE
  5
2E68
330
1F
100
AcDbEntity
  8
AM_5
  6
Continuous
100
AcDbLine
 10
1182.654699558455
 20
53.34270199683368
 30
0.0
 11
1203.871699558455
 21
32.12570199683359
 31
0.0
  0
LINE
  5
2E69
330
1F
100
AcDbEntity
  8
AM_5
  6
Continuous
100
AcDbLine
 10
1203.872699558456
 20
32.12670199683356
 30
0.0
 11
1249.348699558455
 21
32.12870199683374
 31
0.0
  0
TEXT
  5
2E6A
330
1F
100
AcDbEntity
  8
AM_5
100
AcDbText
 10
1189.729545558455
 20
20.44523199683357
 30
0.0
 40
3.2
  1
DEPTH3
 50
352.5000000000008
  7
China
100
AcDbText
  0
LINE
  5
2E6B
330
1F
100
AcDbEntity
  8
AM_5
100
AcDbLine
 10
1156.796699558455
 20
23.22970199683362
 30
0.0
 11
1207.596699558455
 21
16.54170199683375
 31
0.0
  0
TEXT
  5
2E6C
330
1F
100
AcDbEntity
  8
AM_5
100
AcDbText
 10
1169.793952558455
 20
23.11610099683361
 30
0.0
 40
3.2
  1
3H9
 50
352.5999999999933
  7
China
100
AcDbText
  0
LINE
  5
2E6D
330
1F
100
AcDbEntity
  8
AM_5
100
AcDbLine
 10
1163.458699558455
 20
22.35270199683345
 30
0.0
 11
1160.588699558455
 21
23.54170199683375
 31
0.0
  0
LINE
  5
2E6E
330
1F
100
AcDbEntity
  8
AM_5
100
AcDbLine
 10
1163.458699558455
 20
22.35270199683345
 30
0.0
 11
1160.379699558455
 21
21.9477019968337
 31
0.0
  0
LINE
  5
2E6F
330
1F
100
AcDbEntity
  8
AM_5
100
AcDbLine
 10
1166.432699558455
 20
21.96070199683362
 30
0.0
 11
1169.301699558455
 21
20.77270199683352
 31
0.0
  0
LINE
  5
2E70
330
1F
100
AcDbEntity
  8
AM_5
100
AcDbLine
 10
1166.432699558455
 20
21.96070199683362
 30
0.0
 11
1169.511699558455
 21
22.36670199683357
 31
0.0
  0
TEXT
  5
2E71
330
1F
100
AcDbEntity
  8
AM_5
100
AcDbText
 10
1180.105122558456
 20
23.64096699683358
 30
0.0
 40
1.6
  1
+0.025
 50
352.5000000000008
  7
China
100
AcDbText
  0
TEXT
  5
2E72
330
1F
100
AcDbEntity
  8
AM_5
100
AcDbText
 10
1181.439122558455
 20
20.74996699683351
 30
0.0
 40
1.6
  1
0
 50
352.5000000000008
  7
China
100
AcDbText
  0
TEXT
  5
2E73
330
1F
100
AcDbEntity
  8
AM_5
100
AcDbText
 10
1221.108699558455
 20
32.39070199683346
 30
0.0
 40
1.6
  1
0
  7
China
100
AcDbText
  0
LINE
  5
2E74
330
1F
100
AcDbEntity
  8
AM_5
  6
Continuous
100
AcDbLine
 10
1214.852530357206
 20
103.2146309073925
 30
0.0
 11
1258.965530357206
 21
103.2146309073925
 31
0.0
  0
TEXT
  5
2E75
330
1F
100
AcDbEntity
  8
AM_5
100
AcDbText
 10
1214.756530357206
 20
98.91763090739249
 30
0.0
 40
3.2
  1
P.C.D.44
  7
China
100
AcDbText
  0
LINE
  5
2E76
330
1F
100
AcDbEntity
  8
AM_5
  6
Continuous
100
AcDbLine
 10
1195.428699558455
 20
125.1467019968337
 30
0.0
 11
1174.255699558455
 21
88.47470199683375
 31
0.0
  0
LINE
  5
2E77
330
1F
100
AcDbEntity
  8
AM_5
  6
Continuous
100
AcDbLine
 10
1214.852530357206
 20
103.2146309073925
 30
0.0
 11
1193.640699558455
 21
67.00870199683362
 31
0.0
  0
LINE
  5
2E78
330
1F
100
AcDbEntity
  8
0
  6
Continuous
 62
     7
100
AcDbLine
 10
1195.690699558455
 20
72.30370199683346
 30
0.0
 11
1202.633699558456
 21
72.30370199683346
 31
0.0
  0
LINE
  5
2E79
330
1F
100
AcDbEntity
  8
0
  6
Continuous
 62
     7
100
AcDbLine
 10
1195.656699558455
 20
58.30370199683347
 30
0.0
 11
1202.633699558456
 21
58.30370199683347
 31
0.0
  0
LINE
  5
2E7A
330
1F
100
AcDbEntity
  8
AM_7
  6
AM_ISO08W050x2
100
AcDbLine
 10
1167.315699558455
 20
40.15770199683373
 30
0.0
 11
1173.889699558455
 21
90.09470199683363
 31
0.0
  0
CIRCLE
  5
2E7D
330
1F
100
AcDbEntity
  8
0
  6
Continuous
 62
     7
100
AcDbCircle
 10
1170.633699558456
 20
65.36370199683364
 30
0.0
 40
17.0
  0
LINE
  5
2E7E
330
1F
100
AcDbEntity
  8
0
  6
Continuous
 62
     7
100
AcDbLine
 10
1170.956699558455
 20
45.11170199683346
 30
0.0
 11
1177.258699558455
 21
46.22370199683354
 31
0.0
  0
LINE
  5
2E81
330
1F
100
AcDbEntity
  8
0
  6
Continuous
 62
     7
100
AcDbLine
 10
1172.350699558455
 20
41.23670199683346
 30
0.0
 11
1172.666699558455
 21
39.44370199683357
 31
0.0
  0
LINE
  5
2E82
330
1F
100
AcDbEntity
  8
0
  6
Continuous
 62
     7
100
AcDbLine
 10
1169.379699558455
 20
44.34770199683356
 30
0.0
 11
1169.118699558455
 21
42.36470199683362
 31
0.0
  0
ARC
  5
2E83
330
1F
100
AcDbEntity
  8
0
  6
Continuous
 62
     7
100
AcDbCircle
 10
1167.631699558455
 20
42.56070199683352
 30
0.0
 40
1.5
100
AcDbArc
 50
172.5000000000008
 51
352.5000000000008
  0
LINE
  5
2E84
330
1F
100
AcDbEntity
  8
0
  6
Continuous
 62
     7
100
AcDbLine
 10
1166.405699558455
 20
44.73870199683363
 30
0.0
 11
1166.144699558455
 21
42.75670199683344
 31
0.0
  0
LINE
  5
2E85
330
1F
100
AcDbEntity
  8
0
  6
Continuous
 62
     7
100
AcDbLine
 10
1170.956699558455
 20
45.11170199683346
 30
0.0
 11
1171.590699558455
 21
41.51270199683375
 31
0.0
  0
LINE
  5
2E86
330
1F
100
AcDbEntity
  8
0
  6
Continuous
 62
     7
100
AcDbLine
 10
1171.590699558455
 20
41.51270199683375
 30
0.0
 11
1172.350699558455
 21
41.23670199683346
 31
0.0
  0
ARC
  5
2E87
330
1F
100
AcDbEntity
  8
0
  6
Continuous
 62
     7
100
AcDbCircle
 10
1167.892699558455
 20
44.5437019968337
 30
0.0
 40
1.5
100
AcDbArc
 50
352.5000000000008
 51
172.5000000000008
  0
POINT
  5
2E88
330
1F
100
AcDbEntity
  8
0
100
AcDbPoint
 10
1151.839699558455
 20
58.52270199683352
 30
0.0
  0
LINE
  5
2E89
330
1F
100
AcDbEntity
  8
0
  6
Continuous
 62
     7
100
AcDbLine
 10
1152.934699558455
 20
55.51570199683346
 30
0.0
 11
1150.745699558455
 21
61.52970199683358
 31
0.0
  0
POINT
  5
2E8A
330
1F
100
AcDbEntity
  8
0
100
AcDbPoint
 10
1170.633699558456
 20
65.36370199683364
 30
0.0
  0
LINE
  5
2E8B
330
1F
100
AcDbEntity
  8
0
  6
Continuous
 62
     7
100
AcDbLine
 10
1190.670699558455
 20
51.81570199683363
 30
0.0
 11
1192.066699558455
 21
50.64470199683359
 31
0.0
  0
LINE
  5
2E8C
330
1F
100
AcDbEntity
  8
0
  6
Continuous
 62
     7
100
AcDbLine
 10
1188.012699558455
 20
54.95970199683364
 30
0.0
 11
1183.898699558455
 21
50.05670199683362
 31
0.0
  0
LINE
  5
2E8D
330
1F
100
AcDbEntity
  8
0
  6
Continuous
 62
     7
100
AcDbLine
 10
1186.698699558455
 20
47.70770199683346
 30
0.0
 11
1183.898699558455
 21
50.05670199683362
 31
0.0
  0
ARC
  5
2E8E
330
1F
100
AcDbEntity
  8
0
  6
Continuous
 62
     7
100
AcDbCircle
 10
1170.633699558456
 20
65.36370199683364
 30
0.0
 40
26.0
100
AcDbArc
 50
285.5200000000007
 51
314.4829999999988
  0
LINE
  5
2E8F
330
1F
100
AcDbEntity
  8
0
  6
Continuous
 62
     7
100
AcDbLine
 10
1177.274699558455
 20
42.1057019968336
 30
0.0
 11
1177.590699558455
 21
40.31170199683373
 31
0.0
  0
LINE
  5
2E90
330
1F
100
AcDbEntity
  8
0
  6
Continuous
 62
     7
100
AcDbLine
 10
1177.893699558455
 20
42.62570199683358
 30
0.0
 11
1177.273699558455
 21
42.1057019968336
 31
0.0
  0
LINE
  5
2E91
330
1F
100
AcDbEntity
  8
0
  6
Continuous
 62
     7
100
AcDbLine
 10
1177.258699558455
 20
46.22370199683354
 30
0.0
 11
1177.893699558455
 21
42.62570199683358
 31
0.0
  0
LINE
  5
2E93
330
1F
100
AcDbEntity
  8
0
  6
Continuous
 62
     7
100
AcDbLine
 10
1186.698699558455
 20
47.70770199683346
 30
0.0
 11
1187.457699558455
 21
47.98370199683375
 31
0.0
  0
LINE
  5
2E94
330
1F
100
AcDbEntity
  8
0
  6
Continuous
 62
     7
100
AcDbLine
 10
1187.457699558455
 20
47.98370199683375
 30
0.0
 11
1188.852699558455
 21
46.81370199683368
 31
0.0
  0
CIRCLE
  5
2E95
330
1F
100
AcDbEntity
  8
0
  6
Continuous
 62
     2
100
AcDbCircle
 10
1192.633699558455
 20
65.36370199683364
 30
0.0
 40
2.0
  0
CIRCLE
  5
2E96
330
1F
100
AcDbEntity
  8
0
  6
Continuous
 62
     7
100
AcDbCircle
 10
1192.633699558455
 20
65.36370199683364
 30
0.0
 40
1.620999999999999
  0
LINE
  5
2E97
330
1F
100
AcDbEntity
  8
0
  6
Continuous
 62
     7
100
AcDbLine
 10
1190.810699558455
 20
52.61170199683346
 30
0.0
 11
1190.670699558455
 21
51.81570199683363
 31
0.0
  0
LINE
  5
2E98
330
1F
100
AcDbEntity
  8
0
  6
Continuous
 62
     7
100
AcDbLine
 10
1190.810699558455
 20
52.61170199683346
 30
0.0
 11
1188.012699558455
 21
54.95970199683364
 31
0.0
  0
CIRCLE
  5
2E99
330
1F
100
AcDbEntity
  8
0
  6
Continuous
 62
     7
100
AcDbCircle
 10
1173.505699558455
 20
87.17570199683377
 30
0.0
 40
1.5
  0
POINT
  5
2E9C
330
1F
100
AcDbEntity
  8
0
100
AcDbPoint
 10
1151.840699558455
 20
72.20370199683356
 30
0.0
  0
LINE
  5
2E9D
330
1F
100
AcDbEntity
  8
0
  6
Continuous
 62
     7
100
AcDbLine
 10
1152.935699558455
 20
75.21070199683362
 30
0.0
 11
1150.746699558455
 21
69.19670199683349
 31
0.0
  0
LINE
  5
2E9E
330
1F
100
AcDbEntity
  8
0
  6
Continuous
 62
     7
100
AcDbLine
 10
1164.236699558455
 20
90.56470199683365
 30
0.0
 11
1160.748699558455
 21
96.60670199683359
 31
0.0
  0
LINE
  5
2EA0
330
1F
100
AcDbEntity
  8
0
  6
Continuous
 62
     7
100
AcDbLine
 10
1202.633699558456
 20
58.30370199683347
 30
0.0
 11
1202.633699558456
 21
72.30370199683346
 31
0.0
  0
TEXT
  5
2EA1
330
1F
100
AcDbEntity
  8
AM_5
100
AcDbText
 10
1165.729699558456
 20
128.5977019968335
 30
0.0
 40
1.6
  1
+0.025
  7
China
100
AcDbText
  0
LINE
  5
2EA2
330
1F
100
AcDbEntity
  8
AM_5
100
AcDbLine
 10
1153.538699558455
 20
125.1467019968337
 30
0.0
 11
1195.428699558455
 21
125.1467019968337
 31
0.0
  0
TEXT
  5
2EA3
330
1F
100
AcDbEntity
  8
AM_5
100
AcDbText
 10
1156.059699558455
 20
126.5607019968335
 30
0.0
 40
3.2
  1
3H9
  7
China
100
AcDbText
  0
CIRCLE
  5
2EA4
330
1F
100
AcDbEntity
  8
AM_5
100
AcDbCircle
 10
1154.912699558455
 20
128.1607019968334
 30
0.0
 40
0.9
  0
LINE
  5
2EA5
330
1F
100
AcDbEntity
  8
AM_5
100
AcDbLine
 10
1154.330699558455
 20
126.5637019968337
 30
0.0
 11
1155.493699558455
 21
129.7587019968336
 31
0.0
  0
TEXT
  5
2EA6
330
1F
100
AcDbEntity
  8
AM_5
100
AcDbText
 10
1167.280699558455
 20
126.3427019968337
 30
0.0
 40
1.6
  1
0
  7
China
100
AcDbText
  0
TEXT
  5
2EA7
330
1F
100
AcDbEntity
  8
AM_5
100
AcDbText
 10
1175.638699558455
 20
126.8187019968335
 30
0.0
 40
3.2
  1
DEPTH3
  7
China
100
AcDbText
  0
TEXT
  5
2EA8
330
1F
100
AcDbEntity
  8
AM_5
100
AcDbText
 10
1214.626530357206
 20
104.1546309073923
 30
0.0
 40
3.2
  1
3-M4
  7
China
100
AcDbText
  0
LINE
  5
2EA9
330
1F
100
AcDbEntity
  8
AM_5
  6
Continuous
100
AcDbLine
 10
1228.127530357207
 20
106.8266309073923
 30
0.0
 11
1229.926530357206
 21
104.6826309073923
 31
0.0
  0
LINE
  5
2EAA
330
1F
100
AcDbEntity
  8
AM_5
  6
Continuous
100
AcDbLine
 10
1228.126530357206
 20
104.6826309073923
 30
0.0
 11
1229.926530357206
 21
106.8276309073923
 31
0.0
  0
TEXT
  5
2EAB
330
1F
100
AcDbEntity
  8
AM_5
100
AcDbText
 10
1230.626530357206
 20
104.1546309073923
 30
0.0
 40
3.2
  1
0.7DEPTH6
  7
China
100
AcDbText
  0
TEXT
  5
2EAC
330
1F
100
AcDbEntity
  8
AM_5
100
AcDbText
 10
1104.624384776494
 20
217.0833775822349
 30
0.0
 40
3.2
  1
(Finger opening port)
  7
China
100
AcDbText
  0
TEXT
  5
2EAD
330
1F
100
AcDbEntity
  8
AM_5
100
AcDbText
 10
1117.267105634941
 20
199.2082644621545
 30
0.0
 40
3.2
  1
(Finger 
  7
China
100
AcDbText
  0
TEXT
  5
2EAE
330
1F
100
AcDbEntity
  8
AM_5
100
AcDbText
 10
1115.959179601584
 20
194.2761525234916
 30
0.0
 40
3.2
  1
closing port)
  7
China
100
AcDbText
  0
TEXT
  5
2EAF
330
1F
100
AcDbEntity
  8
AM_5
100
AcDbText
 10
968.4670739004308
 20
116.1379193131533
 30
0.0
 40
3.2
  1
attachment)
  7
China
100
AcDbText
  0
TEXT
  5
2EB0
330
1F
100
AcDbEntity
  8
AM_5
100
AcDbText
 10
966.0840228431442
 20
120.4658271603518
 30
0.0
 40
3.2
  1
(Thread for mounting 
  7
China
100
AcDbText
  0
TEXT
  5
2EB1
330
1F
100
AcDbEntity
  8
AM_5
100
AcDbText
 10
895.0478483678933
 20
110.0703552881209
 30
0.0
 40
3.2
  1
(Mounting hole)
  7
China
100
AcDbText
  0
TEXT
  5
2EB2
330
1F
100
AcDbEntity
  8
AM_5
100
AcDbText
 10
1213.638151259677
 20
93.72516049222117
 30
0.0
 40
3.2
  1
(Mounting thread)
  7
China
100
AcDbText
  0
CIRCLE
  5
30F5
330
1F
100
AcDbEntity
  8
0
  6
Continuous
 62
     7
100
AcDbCircle
 10
1181.633699558455
 20
46.31114311357634
 30
0.0
 40
2.25
  0
CIRCLE
  5
30F6
330
1F
100
AcDbEntity
  8
0
  6
Continuous
 62
     2
100
AcDbCircle
 10
1159.633699558455
 20
84.41626088009167
 30
0.0
 40
2.0
  0
CIRCLE
  5
30F7
330
1F
100
AcDbEntity
  8
0
  6
Continuous
 62
     7
100
AcDbCircle
 10
1159.633699558455
 20
84.41626088009167
 30
0.0
 40
1.620999999999999
  0
CIRCLE
  5
30F8
330
1F
100
AcDbEntity
  8
0
  6
Continuous
 62
     7
100
AcDbCircle
 10
1181.633699558455
 20
84.41626088009115
 30
0.0
 40
2.25
  0
CIRCLE
  5
30F9
330
1F
100
AcDbEntity
  8
0
  6
Continuous
 62
     2
100
AcDbCircle
 10
1159.633699558455
 20
46.31114311357589
 30
0.0
 40
2.0
  0
CIRCLE
  5
30FA
330
1F
100
AcDbEntity
  8
0
  6
Continuous
 62
     7
100
AcDbCircle
 10
1159.633699558455
 20
46.31114311357589
 30
0.0
 40
1.620999999999999
  0
LINE
  5
3116
330
1F
100
AcDbEntity
  8
AM_7
100
AcDbLine
 10
1170.633699558456
 20
65.36370199683364
 30
0.0
 11
1203.633755808406
 21
65.36370199683364
 31
0.0
1001
GENIUS_GENOREF_13
1005
311A
  0
LINE
  5
3117
330
1F
100
AcDbEntity
  8
AM_7
100
AcDbLine
 10
1170.633699558456
 20
65.36370199683364
 30
0.0
 11
1170.633699558456
 21
98.3637582467842
 31
0.0
1001
GENIUS_GENOREF_13
1005
311A
  0
LINE
  5
3118
330
1F
100
AcDbEntity
  8
AM_7
100
AcDbLine
 10
1170.633699558456
 20
65.36370199683364
 30
0.0
 11
1137.633643308505
 21
65.36370199683364
 31
0.0
1001
GENIUS_GENOREF_13
1005
311A
  0
LINE
  5
3119
330
1F
100
AcDbEntity
  8
AM_7
100
AcDbLine
 10
1170.633699558456
 20
65.36370199683364
 30
0.0
 11
1170.633699558456
 21
32.36364574688308
 31
0.0
1001
GENIUS_GENOREF_13
1005
311A
  0
POINT
  5
311A
330
1F
100
AcDbEntity
  8
0
 60
     1
100
AcDbPoint
 10
0.0
 20
0.0
 30
0.0
1001
GENIUS_GENODEF_13
1002
{
1000
HIER
1070
    10
1002
}
1002
{
1000
MANEDIT
1070
     0
1002
}
1002
{
1000
NOSEL
1070
     0
1002
}
1002
{
1000
BEHIND
1070
     0
1002
}
1002
{
1000
OTHER
1070
     0
1002
}
1002
{
1000
REACTOR
1002
}
1001
GENIUS_GENOENT_13
1002
{
1000
MYREF
1005
311A
1002
}
1002
{
1000
GRP
1005
0
1002
}
1001
GENIUS_GENOBJ-N-CRS_13
1002
{
1000
OWNER
1000
GEN
1002
}
1001
GENIUS_GENOLIS_13
1002
{
1000
ENT
1005
3119
1005
3118
1005
3117
1005
3116
1002
}
  0
LINE
  5
31BC
330
1F
100
AcDbEntity
  8
AM_7
  6
AM_ISO08W050x2
100
AcDbLine
 10
1148.633699558455
 20
65.36370199683364
 30
0.0
 11
1151.883699558456
 21
65.36370199683364
 31
0.0
1001
GENIUS_GENOREF_13
1005
31C0
  0
LINE
  5
31BE
330
1F
100
AcDbEntity
  8
AM_7
  6
AM_ISO08W050x2
100
AcDbLine
 10
1148.633699558455
 20
65.36370199683364
 30
0.0
 11
1145.383699558455
 21
65.36370199683364
 31
0.0
1001
GENIUS_GENOREF_13
1005
31C0
  0
POINT
  5
31C0
330
1F
100
AcDbEntity
  8
0
 60
     1
100
AcDbPoint
 10
0.0
 20
0.0
 30
0.0
1001
GENIUS_GENOBJ-N-CRS_13
1002
{
1000
OWNER
1000
GEN
1002
}
1001
GENIUS_GENOLIS_13
1002
{
1000
ENT
1005
31BF
1005
31BE
1005
31BD
1005
31BC
1002
}
1001
GENIUS_GENOENT_13
1002
{
1000
MYREF
1005
31C0
1002
}
1002
{
1000
GRP
1005
0
1002
}
1001
GENIUS_GENODEF_13
1002
{
1000
HIER
1070
    10
1002
}
1002
{
1000
MANEDIT
1070
     1
1002
}
1002
{
1000
NOSEL
1070
     0
1002
}
1002
{
1000
BEHIND
1070
     0
1002
}
1002
{
1000
OTHER
1070
     0
1002
}
1002
{
1000
REACTOR
1002
}
  0
LINE
  5
31E8
330
1F
100
AcDbEntity
  8
AM_7
  6
AM_ISO08W050x2
100
AcDbLine
 10
1148.633699558455
 20
65.36370199683364
 30
0.0
 11
1151.883699558456
 21
65.36370199683364
 31
0.0
1001
GENIUS_GENOREF_13
1005
31EC
  0
LINE
  5
31E9
330
1F
100
AcDbEntity
  8
AM_7
  6
AM_ISO08W050x2
100
AcDbLine
 10
1148.633699558455
 20
65.36370199683364
 30
0.0
 11
1148.633699558455
 21
68.61370199683364
 31
0.0
1001
GENIUS_GENOREF_13
1005
31EC
  0
LINE
  5
31EA
330
1F
100
AcDbEntity
  8
AM_7
  6
AM_ISO08W050x2
100
AcDbLine
 10
1148.633699558455
 20
65.36370199683364
 30
0.0
 11
1145.383699558455
 21
65.36370199683364
 31
0.0
1001
GENIUS_GENOREF_13
1005
31EC
  0
LINE
  5
31EB
330
1F
100
AcDbEntity
  8
AM_7
  6
AM_ISO08W050x2
100
AcDbLine
 10
1148.633699558455
 20
65.36370199683364
 30
0.0
 11
1148.633699558455
 21
62.11370199683364
 31
0.0
1001
GENIUS_GENOREF_13
1005
31EC
  0
POINT
  5
31EC
330
1F
100
AcDbEntity
  8
0
 60
     1
100
AcDbPoint
 10
0.0
 20
0.0
 30
0.0
1001
GENIUS_GENOBJ-N-CRS_13
1002
{
1000
OWNER
1000
GEN
1002
}
1001
GENIUS_GENODEF_13
1002
{
1000
HIER
1070
    10
1002
}
1002
{
1000
MANEDIT
1070
     0
1002
}
1002
{
1000
NOSEL
1070
     0
1002
}
1002
{
1000
BEHIND
1070
     0
1002
}
1002
{
1000
OTHER
1070
     0
1002
}
1002
{
1000
REACTOR
1002
}
1001
GENIUS_GENOENT_13
1002
{
1000
MYREF
1005
31EC
1002
}
1002
{
1000
GRP
1005
0
1002
}
1001
GENIUS_GENOLIS_13
1002
{
1000
ENT
1005
31EB
1005
31EA
1005
31E9
1005
31E8
1002
}
  0
LINE
  5
31FA
330
1F
100
AcDbEntity
  8
AM_7
  6
AM_ISO08W050x2
100
AcDbLine
 10
1192.633699558455
 20
65.36370199683364
 30
0.0
 11
1195.633699558455
 21
65.36370199683364
 31
0.0
1001
GENIUS_GENOREF_13
1005
31FE
  0
LINE
  5
31FB
330
1F
100
AcDbEntity
  8
AM_7
  6
AM_ISO08W050x2
100
AcDbLine
 10
1192.633699558455
 20
65.36370199683364
 30
0.0
 11
1192.633699558455
 21
68.36370199683364
 31
0.0
1001
GENIUS_GENOREF_13
1005
31FE
  0
LINE
  5
31FC
330
1F
100
AcDbEntity
  8
AM_7
  6
AM_ISO08W050x2
100
AcDbLine
 10
1192.633699558455
 20
65.36370199683364
 30
0.0
 11
1189.633699558456
 21
65.36370199683364
 31
0.0
1001
GENIUS_GENOREF_13
1005
31FE
  0
LINE
  5
31FD
330
1F
100
AcDbEntity
  8
AM_7
  6
AM_ISO08W050x2
100
AcDbLine
 10
1192.633699558455
 20
65.36370199683364
 30
0.0
 11
1192.633699558455
 21
62.36370199683364
 31
0.0
1001
GENIUS_GENOREF_13
1005
31FE
  0
POINT
  5
31FE
330
1F
100
AcDbEntity
  8
0
 60
     1
100
AcDbPoint
 10
0.0
 20
0.0
 30
0.0
1001
GENIUS_GENODEF_13
1002
{
1000
HIER
1070
    10
1002
}
1002
{
1000
MANEDIT
1070
     0
1002
}
1002
{
1000
NOSEL
1070
     0
1002
}
1002
{
1000
BEHIND
1070
     0
1002
}
1002
{
1000
OTHER
1070
     0
1002
}
1002
{
1000
REACTOR
1002
}
1001
GENIUS_GENOENT_13
1002
{
1000
MYREF
1005
31FE
1002
}
1002
{
1000
GRP
1005
0
1002
}
1001
GENIUS_GENOBJ-N-CRS_13
1002
{
1000
OWNER
1000
GEN
1002
}
1001
GENIUS_GENOLIS_13
1002
{
1000
ENT
1005
31FD
1005
31FC
1005
31FB
1005
31FA
1002
}
  0
LINE
  5
31FF
330
1F
100
AcDbEntity
  8
AM_7
  6
AM_ISO08W050x2
100
AcDbLine
 10
1181.633699558455
 20
46.31114311357623
 30
0.0
 11
1180.008699558455
 21
49.12572567587563
 31
0.0
1001
GENIUS_GENOREF_13
1005
320B
  0
LINE
  5
3200
330
1F
100
AcDbEntity
  8
AM_7
  6
AM_ISO08W050x2
100
AcDbLine
 10
1181.633699558455
 20
46.31114311357623
 30
0.0
 11
1183.258699558455
 21
43.49656055127684
 31
0.0
1001
GENIUS_GENOREF_13
1005
320B
  0
LINE
  5
3201
330
1F
100
AcDbEntity
  8
AM_7
  6
AM_ISO08W050x2
100
AcDbLine
 10
1181.633699558455
 20
46.31114311357623
 30
0.0
 11
1180.008699558455
 21
49.12572567587563
 31
0.0
1001
GENIUS_GENOREF_13
1005
320A
  0
LINE
  5
3202
330
1F
100
AcDbEntity
  8
AM_7
  6
AM_ISO08W050x2
100
AcDbLine
 10
1181.633699558455
 20
46.31114311357623
 30
0.0
 11
1178.819116996156
 21
44.68614311357623
 31
0.0
1001
GENIUS_GENOREF_13
1005
320A
  0
LINE
  5
3203
330
1F
100
AcDbEntity
  8
AM_7
  6
AM_ISO08W050x2
100
AcDbLine
 10
1181.633699558455
 20
46.31114311357623
 30
0.0
 11
1183.258699558455
 21
43.49656055127684
 31
0.0
1001
GENIUS_GENOREF_13
1005
320A
  0
LINE
  5
3204
330
1F
100
AcDbEntity
  8
AM_7
  6
AM_ISO08W050x2
100
AcDbLine
 10
1181.633699558455
 20
46.31114311357623
 30
0.0
 11
1184.448282120754
 21
47.93614311357623
 31
0.0
1001
GENIUS_GENOREF_13
1005
320A
  0
LINE
  5
3205
330
1F
100
AcDbEntity
  8
AM_7
  6
AM_ISO08W050x2
100
AcDbLine
 10
1159.633699558455
 20
84.41626088009162
 30
0.0
 11
1158.133699558455
 21
87.01433709144476
 31
0.0
1001
GENIUS_GENOREF_13
1005
3209
  0
LINE
  5
3206
330
1F
100
AcDbEntity
  8
AM_7
  6
AM_ISO08W050x2
100
AcDbLine
 10
1159.633699558455
 20
84.41626088009162
 30
0.0
 11
1157.035623347102
 21
82.91626088009161
 31
0.0
1001
GENIUS_GENOREF_13
1005
3209
  0
LINE
  5
3207
330
1F
100
AcDbEntity
  8
AM_7
  6
AM_ISO08W050x2
100
AcDbLine
 10
1159.633699558455
 20
84.41626088009162
 30
0.0
 11
1161.133699558455
 21
81.81818466873824
 31
0.0
1001
GENIUS_GENOREF_13
1005
3209
  0
LINE
  5
3208
330
1F
100
AcDbEntity
  8
AM_7
  6
AM_ISO08W050x2
100
AcDbLine
 10
1159.633699558455
 20
84.41626088009162
 30
0.0
 11
1162.231775769808
 21
85.91626088009162
 31
0.0
1001
GENIUS_GENOREF_13
1005
3209
  0
POINT
  5
3209
330
1F
100
AcDbEntity
  8
0
 60
     1
100
AcDbPoint
 10
1825.040304094678
 20
-922.9601068573119
 30
0.0
1001
GENIUS_GENODEF_13
1002
{
1000
HIER
1070
    10
1002
}
1002
{
1000
MANEDIT
1070
     0
1002
}
1002
{
1000
NOSEL
1070
     0
1002
}
1002
{
1000
BEHIND
1070
     0
1002
}
1002
{
1000
OTHER
1070
     0
1002
}
1002
{
1000
REACTOR
1002
}
1001
GENIUS_GENOENT_13
1002
{
1000
MYREF
1005
3209
1002
}
1002
{
1000
GRP
1005
0
1002
}
1001
GENIUS_GENOBJ-N-CRS_13
1002
{
1000
OWNER
1000
GEN
1002
}
1001
GENIUS_GENOLIS_13
1002
{
1000
ENT
1005
3208
1005
3207
1005
3206
1005
3205
1002
}
  0
POINT
  5
320A
330
1F
100
AcDbEntity
  8
0
 60
     1
100
AcDbPoint
 10
1825.040304094678
 20
-922.9601068573119
 30
0.0
1001
GENIUS_GENOBJ-N-CRS_13
1002
{
1000
OWNER
1000
GEN
1002
}
1001
GENIUS_GENODEF_13
1002
{
1000
HIER
1070
    10
1002
}
1002
{
1000
MANEDIT
1070
     0
1002
}
1002
{
1000
NOSEL
1070
     0
1002
}
1002
{
1000
BEHIND
1070
     0
1002
}
1002
{
1000
OTHER
1070
     0
1002
}
1002
{
1000
REACTOR
1002
}
1001
GENIUS_GENOENT_13
1002
{
1000
MYREF
1005
320A
1002
}
1002
{
1000
GRP
1005
0
1002
}
1001
GENIUS_GENOLIS_13
1002
{
1000
ENT
1005
3204
1005
3203
1005
3202
1005
3201
1002
}
  0
POINT
  5
320B
330
1F
100
AcDbEntity
  8
0
 60
     1
100
AcDbPoint
 10
1825.040304094678
 20
-922.9601068573119
 30
0.0
1001
GENIUS_GENOBJ-N-CRS_13
1002
{
1000
OWNER
1000
GEN
1002
}
1001
GENIUS_GENOLIS_13
1002
{
1000
ENT
1005
31BF
1005
3200
1005
31BD
1005
31FF
1002
}
1001
GENIUS_GENOENT_13
1002
{
1000
MYREF
1005
320B
1002
}
1002
{
1000
GRP
1005
0
1002
}
1001
GENIUS_GENODEF_13
1002
{
1000
HIER
1070
    10
1002
}
1002
{
1000
MANEDIT
1070
     1
1002
}
1002
{
1000
NOSEL
1070
     0
1002
}
1002
{
1000
BEHIND
1070
     0
1002
}
1002
{
1000
OTHER
1070
     0
1002
}
1002
{
1000
REACTOR
1002
}
  0
LINE
  5
320C
330
1F
100
AcDbEntity
  8
AM_7
  6
AM_ISO08W050x2
100
AcDbLine
 10
1181.633699558455
 20
84.41626088009115
 30
0.0
 11
1180.008699558455
 21
81.60167831779153
 31
0.0
1001
GENIUS_GENOREF_13
1005
3218
  0
LINE
  5
320D
330
1F
100
AcDbEntity
  8
AM_7
  6
AM_ISO08W050x2
100
AcDbLine
 10
1181.633699558455
 20
84.41626088009115
 30
0.0
 11
1183.258699558455
 21
87.23084344239055
 31
0.0
1001
GENIUS_GENOREF_13
1005
3218
  0
LINE
  5
320E
330
1F
100
AcDbEntity
  8
AM_7
  6
AM_ISO08W050x2
100
AcDbLine
 10
1181.633699558455
 20
84.41626088009115
 30
0.0
 11
1180.008699558455
 21
81.60167831779153
 31
0.0
1001
GENIUS_GENOREF_13
1005
3217
  0
LINE
  5
320F
330
1F
100
AcDbEntity
  8
AM_7
  6
AM_ISO08W050x2
100
AcDbLine
 10
1181.633699558455
 20
84.41626088009115
 30
0.0
 11
1184.448282120754
 21
82.79126088009116
 31
0.0
1001
GENIUS_GENOREF_13
1005
3217
  0
LINE
  5
3210
330
1F
100
AcDbEntity
  8
AM_7
  6
AM_ISO08W050x2
100
AcDbLine
 10
1181.633699558455
 20
84.41626088009115
 30
0.0
 11
1183.258699558455
 21
87.23084344239055
 31
0.0
1001
GENIUS_GENOREF_13
1005
3217
  0
LINE
  5
3211
330
1F
100
AcDbEntity
  8
AM_7
  6
AM_ISO08W050x2
100
AcDbLine
 10
1181.633699558455
 20
84.41626088009115
 30
0.0
 11
1178.819116996156
 21
86.04126088009115
 31
0.0
1001
GENIUS_GENOREF_13
1005
3217
  0
LINE
  5
3212
330
1F
100
AcDbEntity
  8
AM_7
  6
AM_ISO08W050x2
100
AcDbLine
 10
1159.633699558455
 20
46.31114311357578
 30
0.0
 11
1158.133699558455
 21
43.7130669022224
 31
0.0
1001
GENIUS_GENOREF_13
1005
3216
  0
LINE
  5
3213
330
1F
100
AcDbEntity
  8
AM_7
  6
AM_ISO08W050x2
100
AcDbLine
 10
1159.633699558455
 20
46.31114311357578
 30
0.0
 11
1162.231775769808
 21
44.81114311357578
 31
0.0
1001
GENIUS_GENOREF_13
1005
3216
  0
LINE
  5
3214
330
1F
100
AcDbEntity
  8
AM_7
  6
AM_ISO08W050x2
100
AcDbLine
 10
1159.633699558455
 20
46.31114311357578
 30
0.0
 11
1161.133699558455
 21
48.90921932492915
 31
0.0
1001
GENIUS_GENOREF_13
1005
3216
  0
LINE
  5
3215
330
1F
100
AcDbEntity
  8
AM_7
  6
AM_ISO08W050x2
100
AcDbLine
 10
1159.633699558455
 20
46.31114311357578
 30
0.0
 11
1157.035623347102
 21
47.81114311357578
 31
0.0
1001
GENIUS_GENOREF_13
1005
3216
  0
POINT
  5
3216
330
1F
100
AcDbEntity
  8
0
 60
     1
100
AcDbPoint
 10
1711.827051265372
 20
1119.051212847812
 30
0.0
1001
GENIUS_GENODEF_13
1002
{
1000
HIER
1070
    10
1002
}
1002
{
1000
MANEDIT
1070
     0
1002
}
1002
{
1000
NOSEL
1070
     0
1002
}
1002
{
1000
BEHIND
1070
     0
1002
}
1002
{
1000
OTHER
1070
     0
1002
}
1002
{
1000
REACTOR
1002
}
1001
GENIUS_GENOENT_13
1002
{
1000
MYREF
1005
3216
1002
}
1002
{
1000
GRP
1005
0
1002
}
1001
GENIUS_GENOBJ-N-CRS_13
1002
{
1000
OWNER
1000
GEN
1002
}
1001
GENIUS_GENOLIS_13
1002
{
1000
ENT
1005
3215
1005
3214
1005
3213
1005
3212
1002
}
  0
POINT
  5
3217
330
1F
100
AcDbEntity
  8
0
 60
     1
100
AcDbPoint
 10
1711.827051265372
 20
1119.051212847812
 30
0.0
1001
GENIUS_GENOBJ-N-CRS_13
1002
{
1000
OWNER
1000
GEN
1002
}
1001
GENIUS_GENODEF_13
1002
{
1000
HIER
1070
    10
1002
}
1002
{
1000
MANEDIT
1070
     0
1002
}
1002
{
1000
NOSEL
1070
     0
1002
}
1002
{
1000
BEHIND
1070
     0
1002
}
1002
{
1000
OTHER
1070
     0
1002
}
1002
{
1000
REACTOR
1002
}
1001
GENIUS_GENOENT_13
1002
{
1000
MYREF
1005
3217
1002
}
1002
{
1000
GRP
1005
0
1002
}
1001
GENIUS_GENOLIS_13
1002
{
1000
ENT
1005
3211
1005
3210
1005
320F
1005
320E
1002
}
  0
POINT
  5
3218
330
1F
100
AcDbEntity
  8
0
 60
     1
100
AcDbPoint
 10
1711.827051265372
 20
1119.051212847812
 30
0.0
1001
GENIUS_GENOBJ-N-CRS_13
1002
{
1000
OWNER
1000
GEN
1002
}
1001
GENIUS_GENOLIS_13
1002
{
1000
ENT
1005
31BF
1005
320D
1005
31BD
1005
320C
1002
}
1001
GENIUS_GENOENT_13
1002
{
1000
MYREF
1005
3218
1002
}
1002
{
1000
GRP
1005
0
1002
}
1001
GENIUS_GENODEF_13
1002
{
1000
HIER
1070
    10
1002
}
1002
{
1000
MANEDIT
1070
     1
1002
}
1002
{
1000
NOSEL
1070
     0
1002
}
1002
{
1000
BEHIND
1070
     0
1002
}
1002
{
1000
OTHER
1070
     0
1002
}
1002
{
1000
REACTOR
1002
}
  0
ENDSEC
  0
SECTION
  2
OBJECTS
  0
DICTIONARY
  5
C
330
0
100
AcDbDictionary
281
     1
  3
ACAD_COLOR
350
8FD
  3
ACAD_GROUP
350
D
  3
ACAD_LAYOUT
350
1A
  3
ACAD_MATERIAL
350
8FC
  3
ACAD_MLINESTYLE
350
17
  3
ACAD_PLOTSETTINGS
350
19
  3
ACAD_PLOTSTYLENAME
350
E
  3
ACAD_TABLESTYLE
350
8FE
  3
ACDBHEADERROUNDTRIPXREC
350
34F1
  3
AcDbVariableDictionary
350
82
  3
AcmDictionary
350
45
  3
AMG
350
2B
  3
AMGSNAPSETTINGS
350
2026
  3
DWGPROPS
350
34F0
  0
DICTIONARY
  5
E05
330
2
100
AcDbDictionary
280
     1
281
     1
  3
ACAD_LAYERFILTERS
360
E57
  3
ACAD_LAYERSTATES
360
E80
  3
ACLYDICTIONARY
360
E56
  3
AMLAYER_GROUPCOLORS
360
1991
  0
DICTIONARY
  5
7D
330
1F
100
AcDbDictionary
280
     1
281
     1
  3
ACAD_SORTENTS
360
19C4
  0
DICTIONARY
  5
8FD
102
{ACAD_REACTORS
330
C
102
}
330
C
100
AcDbDictionary
281
     1
  0
DICTIONARY
  5
D
102
{ACAD_REACTORS
330
C
102
}
330
C
100
AcDbDictionary
281
     1
  0
DICTIONARY
  5
1A
102
{ACAD_REACTORS
330
C
102
}
330
C
100
AcDbDictionary
281
     1
  3
Layout1
350
1E
  3
Layout2
350
26
  3
Model
350
22
  0
DICTIONARY
  5
8FC
102
{ACAD_REACTORS
330
C
102
}
330
C
100
AcDbDictionary
281
     1
  0
DICTIONARY
  5
17
102
{ACAD_REACTORS
330
C
102
}
330
C
100
AcDbDictionary
281
     1
  3
Standard
350
18
  0
DICTIONARY
  5
19
102
{ACAD_REACTORS
330
C
102
}
330
C
100
AcDbDictionary
281
     1
  0
ACDBDICTIONARYWDFLT
  5
E
102
{ACAD_REACTORS
330
C
102
}
330
C
100
AcDbDictionary
281
     1
  3
Normal
350
F
100
AcDbDictionaryWithDefault
340
F
  0
DICTIONARY
  5
8FE
102
{ACAD_REACTORS
330
C
102
}
330
C
100
AcDbDictionary
281
     1
  3
Standard
350
8FF
  0
DICTIONARY
  5
34F1
102
{ACAD_REACTORS
330
C
102
}
330
C
100
AcDbDictionary
281
     1
  0
DICTIONARY
  5
82
102
{ACAD_REACTORS
330
C
102
}
330
C
100
AcDbDictionary
281
     1
  3
CTABLESTYLE
350
972
  3
DIMASSOC
350
85
  3
HIDETEXT
350
84
  3
INDEXCTL
350
83
  3
PROJECTNAME
350
973
  0
DICTIONARY
  5
45
102
{ACAD_REACTORS
330
C
102
}
330
C
100
AcDbDictionary
281
     1
  3
AcmStdDictionary
350
4A
  3
AMDTSECTSYM_ARROWCOLOR
350
90B
  0
DICTIONARY
  5
2B
102
{ACAD_REACTORS
330
C
102
}
330
C
100
AcDbDictionary
281
     1
  0
DICTIONARY
  5
2026
102
{ACAD_REACTORS
330
C
102
}
330
C
100
AcDbDictionary
281
     1
  0
XRECORD
  5
34F0
102
{ACAD_REACTORS
330
C
102
}
330
C
100
AcDbXrecord
280
     1
  1
DWGPROPS COOKIE
  2

  3

  4

  6

  7

  8

  9

300
AmdtFileType=84
301
=
302
=
303
=
304
=
305
=
306
=
307
=
308
=
309
=
 40
0.4130111574074074
 41
2453021.369367211
 42
2453805.582390949
  1

 90
        1
  0
DICTIONARY
  5
E57
102
{ACAD_REACTORS
330
E05
102
}
330
E05
100
AcDbDictionary
281
     1
  0
DICTIONARY
  5
E80
102
{ACAD_REACTORS
330
E05
102
}
330
E05
100
AcDbDictionary
281
     1
  0
DICTIONARY
  5
E56
102
{ACAD_REACTORS
330
E05
102
}
330
E05
100
AcDbDictionary
281
     1
1001
ACAD
1000
<All
  0
DICTIONARY
  5
1991
102
{ACAD_REACTORS
330
E05
102
}
330
E05
100
AcDbDictionary
280
     1
281
     1
  0
SORTENTSTABLE
  5
19C4
102
{ACAD_REACTORS
330
7D
102
}
330
7D
100
AcDbSortentsTable
330
1F
331
AE3
  5
AE3
  0
LAYOUT
  5
1E
102
{ACAD_XDICTIONARY
360
34F2
102
}
102
{ACAD_REACTORS
330
1A
102
}
330
1A
100
AcDbPlotSettings
  1

  2
自動 RD 上的 Epson Stylus Photo 750 單色
  4

  6

 40
0.0
 41
0.0
 42
0.0
 43
0.0
 44
0.0
 45
0.0
 46
0.0
 47
0.0
 48
0.0
 49
0.0
140
0.0
141
0.0
142
1.0
143
1.0
 70
   688
 72
     0
 73
     0
 74
     5
  7
彩色出圖.ctb
 75
    16
147
1.0
148
0.0
149
0.0
100
AcDbLayout
  1
Layout1
 70
     1
 71
     1
 10
0.0
 20
0.0
 11
420.0
 21
297.0
 12
0.0
 22
0.0
 32
0.0
 14
1.000000000000000E+20
 24
1.000000000000000E+20
 34
1.000000000000000E+20
 15
-1.000000000000000E+20
 25
-1.000000000000000E+20
 35
-1.000000000000000E+20
146
0.0
 13
0.0
 23
0.0
 33
0.0
 16
1.0
 26
0.0
 36
0.0
 17
0.0
 27
1.0
 37
0.0
 76
     0
330
1B
  0
LAYOUT
  5
26
102
{ACAD_XDICTIONARY
360
34F6
102
}
102
{ACAD_REACTORS
330
1A
102
}
330
1A
100
AcDbPlotSettings
  1

  2
自動 RD 上的 Epson Stylus Photo 750 單色
  4

  6

 40
0.0
 41
0.0
 42
0.0
 43
0.0
 44
0.0
 45
0.0
 46
0.0
 47
0.0
 48
0.0
 49
0.0
140
0.0
141
0.0
142
1.0
143
1.0
 70
   688
 72
     0
 73
     0
 74
     5
  7
彩色出圖.ctb
 75
    16
147
1.0
148
0.0
149
0.0
100
AcDbLayout
  1
Layout2
 70
     1
 71
     2
 10
0.0
 20
0.0
 11
12.0
 21
9.0
 12
0.0
 22
0.0
 32
0.0
 14
0.0
 24
0.0
 34
0.0
 15
0.0
 25
0.0
 35
0.0
146
0.0
 13
0.0
 23
0.0
 33
0.0
 16
1.0
 26
0.0
 36
0.0
 17
0.0
 27
1.0
 37
0.0
 76
     0
330
23
  0
LAYOUT
  5
22
102
{ACAD_XDICTIONARY
360
34F4
102
}
102
{ACAD_REACTORS
330
1A
102
}
330
1A
100
AcDbPlotSettings
  1

  2
自動 RD 上的 Epson Stylus Photo 750 單色
  4
A4
  6

 40
3.757083177566528
 41
14.7637300491333
 42
3.757080078125
 43
3.757080078125
 44
209.9733276367187
 45
296.9683227539062
 46
7.54
 47
0.0
 48
0.0
 49
0.0
140
0.0
141
0.0
142
1.0
143
1.817317462545654
 70
 11956
 72
     1
 73
     0
 74
     1
  7
彩色出圖.ctb
 75
     0
147
0.5502615919395967
148
-125.5654918467224
149
222.8859553785132
100
AcDbLayout
  1
Model
 70
     1
 71
     0
 10
0.0
 20
0.0
 11
12.0
 21
9.0
 12
0.0
 22
0.0
 32
0.0
 14
0.0
 24
0.0
 34
0.0
 15
0.0
 25
0.0
 35
0.0
146
0.0
 13
0.0
 23
0.0
 33
0.0
 16
1.0
 26
0.0
 36
0.0
 17
0.0
 27
1.0
 37
0.0
 76
     0
330
1F
  0
MLINESTYLE
  5
18
102
{ACAD_REACTORS
330
17
102
}
330
17
100
AcDbMlineStyle
  2
STANDARD
 70
     0
  3

 62
   256
 51
90.0
 52
90.0
 71
     2
 49
0.5
 62
   256
  6
BYLAYER
 49
-0.5
 62
   256
  6
BYLAYER
  0
ACDBPLACEHOLDER
  5
F
102
{ACAD_REACTORS
330
E
102
}
330
E
  0
TABLESTYLE
  5
8FF
102
{ACAD_REACTORS
330
8FE
102
}
330
8FE
100
AcDbTableStyle
  3
Standard
 70
     0
 71
     0
 40
1.5
 41
1.5
280
     0
281
     0
  7
STANDARD
140
4.5
170
     2
 62
     0
 63
     7
283
     0
274
    -2
284
     1
 64
     0
275
    -2
285
     1
 65
     0
276
    -2
286
     1
 66
     0
277
    -2
287
     1
 67
     0
278
    -2
288
     1
 68
     0
279
    -2
289
     1
 69
     0
  7
STANDARD
140
6.0
170
     5
 62
     0
 63
     7
283
     0
274
    -2
284
     1
 64
     0
275
    -2
285
     1
 65
     0
276
    -2
286
     1
 66
     0
277
    -2
287
     1
 67
     0
278
    -2
288
     1
 68
     0
279
    -2
289
     1
 69
     0
  7
STANDARD
140
4.5
170
     5
 62
     0
 63
     7
283
     0
274
    -2
284
     1
 64
     0
275
    -2
285
     1
 65
     0
276
    -2
286
     1
 66
     0
277
    -2
287
     1
 67
     0
278
    -2
288
     1
 68
     0
279
    -2
289
     1
 69
     0
  0
DICTIONARYVAR
  5
972
102
{ACAD_REACTORS
330
82
102
}
330
82
100
DictionaryVariables
280
     0
  1
STANDARD
  0
DICTIONARYVAR
  5
85
102
{ACAD_REACTORS
330
82
102
}
330
82
100
DictionaryVariables
280
     0
  1
2
  0
DICTIONARYVAR
  5
84
102
{ACAD_REACTORS
330
82
102
}
330
82
100
DictionaryVariables
280
     0
  1
1
  0
DICTIONARYVAR
  5
83
102
{ACAD_REACTORS
330
82
102
}
330
82
100
DictionaryVariables
280
     0
  1
0
  0
DICTIONARYVAR
  5
973
102
{ACAD_REACTORS
330
82
102
}
330
82
100
DictionaryVariables
280
     0
  1

  0
DICTIONARY
  5
4A
102
{ACAD_REACTORS
330
45
102
}
330
45
100
AcDbDictionary
281
     1
  0
XRECORD
  5
90B
102
{ACAD_REACTORS
330
45
102
}
330
45
100
AcDbXrecord
280
     1
 90
-1023410169
  0
DICTIONARY
  5
34F2
330
1E
100
AcDbDictionary
280
     1
281
     1
  3
ACAD_XREC_ROUNDTRIP
360
34F3
  0
DICTIONARY
  5
34F6
330
26
100
AcDbDictionary
280
     1
281
     1
  3
ACAD_XREC_ROUNDTRIP
360
34F7
  0
DICTIONARY
  5
34F4
330
22
100
AcDbDictionary
280
     1
281
     1
  3
ACAD_XREC_ROUNDTRIP
360
34F5
  0
XRECORD
  5
34F3
102
{ACAD_REACTORS
330
34F2
102
}
330
34F2
100
AcDbXrecord
280
     1
102
SHADEPLOT
 70
     0
102
SHADEPLOTRESLEVEL
 70
     2
102
SHADEPLOTCUSTOMDPI
 70
   300
  0
XRECORD
  5
34F7
102
{ACAD_REACTORS
330
34F6
102
}
330
34F6
100
AcDbXrecord
280
     1
102
SHADEPLOT
 70
     0
102
SHADEPLOTRESLEVEL
 70
     2
102
SHADEPLOTCUSTOMDPI
 70
   300
  0
XRECORD
  5
34F5
102
{ACAD_REACTORS
330
34F4
102
}
330
34F4
100
AcDbXrecord
280
     1
102
SHADEPLOT
 70
     0
102
SHADEPLOTRESLEVEL
 70
     2
102
SHADEPLOTCUSTOMDPI
 70
   300
  0
ENDSEC
  0
EOF
