  0
SECTION
  2
HEADER
  9
$ACADVER
  1
AC1015
  9
$ACADMAINTVER
 70
    20
  9
$DWGCODEPAGE
  3
ANSI_950
  9
$INSBASE
 10
0.0
 20
0.0
 30
0.0
  9
$EXTMIN
 10
872.5454205034356
 20
242.608542775012
 30
-0.0091170842936208
  9
$EXTMAX
 10
1318.14032303879
 20
566.6861005213791
 30
212.3202356805201
  9
$LIMMIN
 10
0.0
 20
0.0
  9
$LIMMAX
 10
420.0
 20
297.0
  9
$ORTHOMODE
 70
     1
  9
$REGENMODE
 70
     1
  9
$FILLMODE
 70
     1
  9
$QTEXTMODE
 70
     0
  9
$MIRRTEXT
 70
     1
  9
$LTSCALE
 40
1.0
  9
$ATTMODE
 70
     1
  9
$TEXTSIZE
 40
3.0
  9
$TRACEWID
 40
1.0
  9
$TEXTSTYLE
  7
CHINESET
  9
$CLAYER
  8
0
  9
$CELTYPE
  6
ByLayer
  9
$CECOLOR
 62
   256
  9
$CELTSCALE
 40
1.0
  9
$DISPSILH
 70
     0
  9
$DIMSCALE
 40
1.0
  9
$DIMASZ
 40
2.5
  9
$DIMEXO
 40
1.0
  9
$DIMDLI
 40
8.0
  9
$DIMRND
 40
0.0
  9
$DIMDLE
 40
0.0
  9
$DIMEXE
 40
1.5
  9
$DIMTP
 40
0.1
  9
$DIMTM
 40
0.1
  9
$DIMTXT
 40
3.0
  9
$DIMCEN
 40
3.0
  9
$DIMTSZ
 40
0.0
  9
$DIMTOL
 70
     0
  9
$DIMLIM
 70
     0
  9
$DIMTIH
 70
     0
  9
$DIMTOH
 70
     0
  9
$DIMSE1
 70
     0
  9
$DIMSE2
 70
     0
  9
$DIMTAD
 70
     1
  9
$DIMZIN
 70
     8
  9
$DIMBLK
  1

  9
$DIMASO
 70
     1
  9
$DIMSHO
 70
     1
  9
$DIMPOST
  1

  9
$DIMAPOST
  1
"
  9
$DIMALT
 70
     0
  9
$DIMALTD
 70
     2
  9
$DIMALTF
 40
0.0393701
  9
$DIMLFAC
 40
1.0
  9
$DIMTOFL
 70
     1
  9
$DIMTVP
 40
0.0
  9
$DIMTIX
 70
     0
  9
$DIMSOXD
 70
     0
  9
$DIMSAH
 70
     0
  9
$DIMBLK1
  1

  9
$DIMBLK2
  1

  9
$DIMSTYLE
  2
AM_ISO
  9
$DIMCLRD
 70
   256
  9
$DIMCLRE
 70
   256
  9
$DIMCLRT
 70
   256
  9
$DIMTFAC
 40
0.71
  9
$DIMGAP
 40
0.8
  9
$DIMJUST
 70
     0
  9
$DIMSD1
 70
     0
  9
$DIMSD2
 70
     0
  9
$DIMTOLJ
 70
     0
  9
$DIMTZIN
 70
     8
  9
$DIMALTZ
 70
     0
  9
$DIMALTTZ
 70
     0
  9
$DIMUPT
 70
     0
  9
$DIMDEC
 70
     2
  9
$DIMTDEC
 70
     8
  9
$DIMALTU
 70
     2
  9
$DIMALTTD
 70
     2
  9
$DIMTXSTY
  7
STANDARD
  9
$DIMAUNIT
 70
     0
  9
$DIMADEC
 70
     0
  9
$DIMALTRND
 40
0.0
  9
$DIMAZIN
 70
     2
  9
$DIMDSEP
 70
    46
  9
$DIMATFIT
 70
     3
  9
$DIMFRAC
 70
     0
  9
$DIMLDRBLK
  1

  9
$DIMLUNIT
 70
     2
  9
$DIMLWD
 70
    -1
  9
$DIMLWE
 70
    -1
  9
$DIMTMOVE
 70
     0
  9
$LUNITS
 70
     2
  9
$LUPREC
 70
     2
  9
$SKETCHINC
 40
1.0
  9
$FILLETRAD
 40
2.5
  9
$AUNITS
 70
     0
  9
$AUPREC
 70
     0
  9
$MENU
  1
.
  9
$ELEVATION
 40
0.0
  9
$PELEVATION
 40
0.0
  9
$THICKNESS
 40
0.0
  9
$LIMCHECK
 70
     0
  9
$CHAMFERA
 40
2.5
  9
$CHAMFERB
 40
2.5
  9
$CHAMFERC
 40
20.0
  9
$CHAMFERD
 40
0.0
  9
$SKPOLY
 70
     0
  9
$TDCREATE
 40
2453021.369367211
  9
$TDUCREATE
 40
2453021.036033877
  9
$TDUPDATE
 40
2453805.582755891
  9
$TDUUPDATE
 40
2453805.249422558
  9
$TDINDWG
 40
0.4282911111
  9
$TDUSRTIMER
 40
0.4282907639
  9
$USRTIMER
 70
     1
  9
$ANGBASE
 50
0.0
  9
$ANGDIR
 70
     0
  9
$PDMODE
 70
     0
  9
$PDSIZE
 40
0.0
  9
$PLINEWID
 40
0.0
  9
$SPLFRAME
 70
     0
  9
$SPLINETYPE
 70
     6
  9
$SPLINESEGS
 70
     8
  9
$HANDSEED
  5
3F0F
  9
$SURFTAB1
 70
     6
  9
$SURFTAB2
 70
     6
  9
$SURFTYPE
 70
     6
  9
$SURFU
 70
     6
  9
$SURFV
 70
     6
  9
$UCSBASE
  2

  9
$UCSNAME
  2

  9
$UCSORG
 10
0.0
 20
0.0
 30
0.0
  9
$UCSXDIR
 10
1.0
 20
0.0
 30
0.0
  9
$UCSYDIR
 10
0.0
 20
1.0
 30
0.0
  9
$UCSORTHOREF
  2

  9
$UCSORTHOVIEW
 70
     0
  9
$UCSORGTOP
 10
0.0
 20
0.0
 30
0.0
  9
$UCSORGBOTTOM
 10
0.0
 20
0.0
 30
0.0
  9
$UCSORGLEFT
 10
0.0
 20
0.0
 30
0.0
  9
$UCSORGRIGHT
 10
0.0
 20
0.0
 30
0.0
  9
$UCSORGFRONT
 10
0.0
 20
0.0
 30
0.0
  9
$UCSORGBACK
 10
0.0
 20
0.0
 30
0.0
  9
$PUCSBASE
  2

  9
$PUCSNAME
  2

  9
$PUCSORG
 10
0.0
 20
0.0
 30
0.0
  9
$PUCSXDIR
 10
1.0
 20
0.0
 30
0.0
  9
$PUCSYDIR
 10
0.0
 20
1.0
 30
0.0
  9
$PUCSORTHOREF
  2

  9
$PUCSORTHOVIEW
 70
     0
  9
$PUCSORGTOP
 10
0.0
 20
0.0
 30
0.0
  9
$PUCSORGBOTTOM
 10
0.0
 20
0.0
 30
0.0
  9
$PUCSORGLEFT
 10
0.0
 20
0.0
 30
0.0
  9
$PUCSORGRIGHT
 10
0.0
 20
0.0
 30
0.0
  9
$PUCSORGFRONT
 10
0.0
 20
0.0
 30
0.0
  9
$PUCSORGBACK
 10
0.0
 20
0.0
 30
0.0
  9
$USERI1
 70
     0
  9
$USERI2
 70
     0
  9
$USERI3
 70
     0
  9
$USERI4
 70
     0
  9
$USERI5
 70
     0
  9
$USERR1
 40
0.0
  9
$USERR2
 40
0.0
  9
$USERR3
 40
0.0
  9
$USERR4
 40
0.0
  9
$USERR5
 40
0.0
  9
$WORLDVIEW
 70
     1
  9
$SHADEDGE
 70
     3
  9
$SHADEDIF
 70
    70
  9
$TILEMODE
 70
     1
  9
$MAXACTVP
 70
    64
  9
$PINSBASE
 10
0.0
 20
0.0
 30
0.0
  9
$PLIMCHECK
 70
     0
  9
$PEXTMIN
 10
1.000000000000000E+20
 20
1.000000000000000E+20
 30
1.000000000000000E+20
  9
$PEXTMAX
 10
-1.000000000000000E+20
 20
-1.000000000000000E+20
 30
-1.000000000000000E+20
  9
$PLIMMIN
 10
0.0
 20
0.0
  9
$PLIMMAX
 10
420.0
 20
297.0
  9
$UNITMODE
 70
     0
  9
$VISRETAIN
 70
     1
  9
$PLINEGEN
 70
     0
  9
$PSLTSCALE
 70
     1
  9
$TREEDEPTH
 70
  3020
  9
$CMLSTYLE
  2
Standard
  9
$CMLJUST
 70
     0
  9
$CMLSCALE
 40
20.0
  9
$PROXYGRAPHICS
 70
     1
  9
$MEASUREMENT
 70
     1
  9
$CELWEIGHT
370
    -1
  9
$ENDCAPS
280
     0
  9
$JOINSTYLE
280
     0
  9
$LWDISPLAY
290
     0
  9
$INSUNITS
 70
     4
  9
$HYPERLINKBASE
  1

  9
$STYLESHEET
  1
彩色出圖.ctb
  9
$XEDIT
290
     1
  9
$CEPSNTYPE
380
     0
  9
$PSTYLEMODE
290
     1
  9
$FINGERPRINTGUID
  2
{6C02722A-18D3-491A-897A-B8025DE410A9}
  9
$VERSIONGUID
  2
{572FC2E7-9071-4405-A94D-7E2177B251A1}
  9
$EXTNAMES
290
     1
  9
$PSVPSCALE
 40
0.0
  9
$OLESTARTUP
290
     0
  0
ENDSEC
  0
SECTION
  2
CLASSES
  0
CLASS
  1
ACDBDICTIONARYWDFLT
  2
AcDbDictionaryWithDefault
  3
ObjectDBX Classes
 90
        0
280
     0
281
     0
  0
CLASS
  1
ACDBPLACEHOLDER
  2
AcDbPlaceHolder
  3
ObjectDBX Classes
 90
        0
280
     0
281
     0
  0
CLASS
  1
LAYOUT
  2
AcDbLayout
  3
ObjectDBX Classes
 90
        0
280
     0
281
     0
  0
CLASS
  1
AMGSETTINGSOBJ
  2
AmgSettingsObj
  3
"AcadM|Product Description: AutoCAD Mechanical 2000|Company: Autodesk"
 90
        0
280
     0
281
     0
  0
CLASS
  1
ACME_DOCUMENT
  2
AcMeDbDoc
  3
AcMeServices
 90
        0
280
     0
281
     0
  0
CLASS
  1
ACMESCOPE
  2
AcMeScope
  3
AcMeServices
 90
        0
280
     0
281
     0
  0
CLASS
  1
ACMECOMMANDHISTORY
  2
AcMeCommandHistory
  3
AcMeServices
 90
        0
280
     0
281
     0
  0
CLASS
  1
ACIMSYSVARMAN
  2
AcImSysVarManager
  3
AcMeServices
 90
        0
280
     0
281
     0
  0
CLASS
  1
ACIMREALSYSVAR
  2
AcImRealSysVar
  3
AcMeServices
 90
        0
280
     0
281
     0
  0
CLASS
  1
ACIMINTSYSVAR
  2
AcImIntSysVar
  3
AcMeServices
 90
        0
280
     0
281
     0
  0
CLASS
  1
ACMEDRAWINGMAN
  2
AcMeDrawingMan
  3
AcMeServices
 90
        0
280
     0
281
     0
  0
CLASS
  1
ACMEVIEW
  2
AcMeView
  3
AcMeServices
 90
        0
280
     0
281
     0
  0
CLASS
  1
ACDBENTITYCACHE
  2
AcMeEntityCache
  3
AcMeServices
 90
        0
280
     0
281
     0
  0
CLASS
  1
GSMANAGER
  2
AcMeGSManager
  3
AcMeServices
 90
        0
280
     0
281
     0
  0
CLASS
  1
AMDTINTERNALREACTOR
  2
AmdtInternalReactor
  3
AcMeServices
 90
        0
280
     0
281
     0
  0
CLASS
  1
ACMESTATEMGR
  2
AcMeStateMgr
  3
AcMeServices
 90
        0
280
     0
281
     0
  0
CLASS
  1
ACGREFMASTER
  2
AcGrefMaster
  3
AcAttribServices
 90
        0
280
     0
281
     0
  0
CLASS
  1
ACME_DATABASE
  2
AcMeDbDatabase
  3
AcMeServices
 90
        0
280
     0
281
     0
  0
CLASS
  1
ACRFINSADJUSTERMGR
  2
AcRfInsAdjusterMgr
  3
AcMeServices
 90
        0
280
     0
281
     0
  0
CLASS
  1
ACGREFACADMASTER
  2
AcGrefacadMaster
  3
AcGrefServices
 90
        0
280
     0
281
     0
  0
CLASS
  1
AMIMASTER
  2
AmiMaster
  3
AmiServices
 90
        0
280
     0
281
     0
  0
CLASS
  1
ACMDATADICTIONARY
  2
AcmDataDictionary
  3
"AcmSymBB|Product Description: AutoCAD Mechanical 2004 DX|Company: Autodesk"
 90
        0
280
     0
281
     0
  0
CLASS
  1
ACMDATAENTRYBLOCK
  2
AcmDataEntryBlock
  3
"AcmSymBB|Product Description: AutoCAD Mechanical 2004 DX|Company: Autodesk"
 90
    32768
280
     0
281
     0
  0
CLASS
  1
ACIMSTRSYSVAR
  2
AcImStrSysVar
  3
AcMeServices
 90
        0
280
     0
281
     0
  0
CLASS
  1
ACMSTANDARDISO
  2
AcmStandardISO
  3
"Amdt_StdImp|Product Description: AutoCAD Mechanical 2004 DX|Company: Autodesk"
 90
        0
280
     0
281
     0
  0
CLASS
  1
AMGOBJPROPCFG
  2
AmgObjPropCfg
  3
"AmgLay|Product Description: AutoCAD Mechanical 2000|Company: Autodesk"
 90
        1
280
     0
281
     0
  0
CLASS
  1
AMDTEDGESTANDARDISO
  2
AmdtEdgeStdISO
  3
"Amdt_StdImp|Product Description: AutoCAD Mechanical 2004 DX|Company: Autodesk"
 90
    32768
280
     0
281
     0
  0
CLASS
  1
ACMSURFSTANDARDISO
  2
AcmSurfTextStdISO
  3
"Amdt_StdImp|Product Description: AutoCAD Mechanical 2004 DX|Company: Autodesk"
 90
        0
280
     0
281
     0
  0
CLASS
  1
ACMFCFSTANDARDISO
  2
AcmFCFStdISO
  3
"Amdt_StdImp|Product Description: AutoCAD Mechanical 2004 DX|Company: Autodesk"
 90
        0
280
     0
281
     0
  0
CLASS
  1
ACMWELDSTANDARDISO
  2
AcmWeldingStdISO
  3
"Amdt_StdImp|Product Description: AutoCAD Mechanical 2004 DX|Company: Autodesk"
 90
        0
280
     0
281
     0
  0
CLASS
  1
ACMIDSTANDARDISO
  2
AcmIdStdISO
  3
"Amdt_StdImp|Product Description: AutoCAD Mechanical 2004 DX|Company: Autodesk"
 90
        0
280
     0
281
     0
  0
CLASS
  1
ACMDATUMSTANDARDISO
  2
AcmDatumStdISO
  3
"Amdt_StdImp|Product Description: AutoCAD Mechanical 2004 DX|Company: Autodesk"
 90
        0
280
     0
281
     0
  0
CLASS
  1
ACMBOMSTANDARDISO
  2
AcmBOMStdISO
  3
"Amdt_StdImp|Product Description: AutoCAD Mechanical 2004 DX|Company: Autodesk"
 90
        0
280
     0
281
     0
  0
CLASS
  1
ACMDETAILSTANDARDISO
  2
AmdtDetailSymStdISO
  3
"Amdt_StdImp|Product Description: AutoCAD Mechanical 2004 DX|Company: Autodesk"
 90
        0
280
     0
281
     0
  0
CLASS
  1
ACMSECTIONSTANDARDISO
  2
AmdtSectionSymStdISO
  3
"Amdt_StdImp|Product Description: AutoCAD Mechanical 2004 DX|Company: Autodesk"
 90
        0
280
     0
281
     0
  0
CLASS
  1
ACMCENTERLINESTANDARDISO
  2
AmdtCenterLineStdISO
  3
"Amdt_StdImp|Product Description: AutoCAD Mechanical 2004 DX|Company: Autodesk"
 90
        0
280
     0
281
     0
  0
CLASS
  1
ACMNOTESTANDARDISO
  2
AmdtNoteStdISO
  3
"Amdt_StdImp|Product Description: AutoCAD Mechanical 2004 DX|Company: Autodesk"
 90
        0
280
     0
281
     0
  0
CLASS
  1
ACAMGLAYSTD
  2
AcAmgLayStd
  3
"AcAmgLayStd|Product Description: AutoCAD Mechanical 2000|Company: Autodesk"
 90
        0
280
     0
281
     0
  0
CLASS
  1
ACAMGDIMSTD
  2
AcAmgDimStd
  3
"AcAmgDimStd|Product Description: AutoCAD Mechanical 2000|Company: Autodesk"
 90
        0
280
     0
281
     0
  0
CLASS
  1
ACAMGHOLECHARTSTDISO
  2
AcAmgHoleChartStdISO
  3
ACMSYMBB_MODULE_NAME
 90
        0
280
     0
281
     0
  0
CLASS
  1
ACAMGTITLESTD
  2
AcAmgTitleStd
  3
"TITLEAPP"
 90
        0
280
     0
281
     0
  0
CLASS
  1
LAYER_INDEX
  2
AcDbLayerIndex
  3
ObjectDBX Classes
 90
    32768
280
     0
281
     0
  0
CLASS
  1
IDBUFFER
  2
AcDbIdBuffer
  3
ObjectDBX Classes
 90
    32768
280
     0
281
     0
  0
CLASS
  1
DICTIONARYVAR
  2
AcDbDictionaryVar
  3
ObjectDBX Classes
 90
        0
280
     0
281
     0
  0
CLASS
  1
ACAMGFILTERDAT
  2
AcAmgFilterDat
  3
"AcadM|Product Description: AutoCAD Mechanical 2000|Company: Autodesk"
 90
        0
280
     0
281
     0
  0
CLASS
  1
AMDTFORMULAUPDATEDISPATCHER
  2
AmdtFormulaUpdateDispatcher
  3
AcMeServices
 90
    32768
280
     0
281
     0
  0
CLASS
  1
DIMASSOC
  2
AcDbDimAssoc
  3
"AcDbDimAssoc|Product Desc:     AcDim ARX App For Dimension|Company:          Autodesk, Inc.|WEB Address:      www.autodesk.com"
 90
    32768
280
     0
281
     0
  0
CLASS
  1
AMDTNOTE
  2
AmdtNote
  3
"AcmSymBB|Product Description: AutoCAD Mechanical 2004 DX|Company: Autodesk"
 90
    33791
280
     0
281
     1
  0
CLASS
  1
TABLESTYLE
  2
AcDbTableStyle
  3
ObjectDBX Classes
 90
     2047
280
     0
281
     0
  0
CLASS
  1
AM_DRAWING_MGR
  2
AcDmDwgMgr
  3
AcMechDwgViewMgmt
 90
        0
280
     0
281
     0
  0
CLASS
  1
AM_DWG_DOCUMENT
  2
AcDmDwgDocument
  3
AcMechDwgViewMgmt
 90
        0
280
     0
281
     0
  0
CLASS
  1
AM_DWG_SHEET
  2
AcDmSheet
  3
AcMechDwgViewMgmt
 90
        0
280
     0
281
     0
  0
CLASS
  1
AM_VIEWDIMPARMAP
  2
AcDmViewDimParMap
  3
AcMechDwgViewMgmt
 90
        0
280
     0
281
     0
  0
CLASS
  1
AM_DWGMGR_NAME
  2
AcDmDwgMgrName
  3
AcMechDwgViewMgmt
 90
        0
280
     0
281
     0
  0
CLASS
  1
AMDTMENUSTATEMGR
  2
AmdtMenuStateMgr
  3
McadcomServices
 90
        0
280
     0
281
     0
  0
CLASS
  1
AMDTMCOMMENUSTATE
  2
AmdtMcomMenuState
  3
McadcomServices
 90
        0
280
     0
281
     0
  0
CLASS
  1
MAPIAMMOUDLE
  2
MApiAmModule
  3
MApiAmServices
 90
        0
280
     0
281
     0
  0
CLASS
  1
AMDTADMENUSTATE
  2
AmdtAdMenuState
  3
DesignerServices
 90
        0
280
     0
281
     0
  0
CLASS
  1
ADAPPL
  2
AcAdAppl
  3
DesignerServices
 90
        0
280
     0
281
     0
  0
CLASS
  1
DEPMGR
  2
AcAdDepMgr
  3
DesignerServices
 90
        0
280
     0
281
     0
  0
CLASS
  1
PARAMMGR
  2
AcAdParamMgr
  3
DesignerServices
 90
        0
280
     0
281
     0
  0
CLASS
  1
PARAMSCOPE
  2
AcAdParamScope
  3
DesignerServices
 90
        0
280
     0
281
     0
  0
CLASS
  1
NAMEDAPPL
  2
AcAdNamedAppl
  3
DesignerServices
 90
        0
280
     0
281
     0
  0
CLASS
  1
AMDTDMMENUSTATE
  2
AmdtDmMenuState
  3
AcMechDwgViewMgmt
 90
        0
280
     0
281
     0
  0
CLASS
  1
AMDTAMMENUSTATE
  2
AmdtAmMenuState
  3
DesignerAssemblies
 90
        0
280
     0
281
     0
  0
CLASS
  1
ACAMPROJECT
  2
AcAmProject
  3
DesignerAssemblies
 90
        0
280
     0
281
     0
  0
CLASS
  1
ACAMGRCOMPDEF
  2
AcAmGrCompDef
  3
DesignerAssemblies
 90
        0
280
     0
281
     0
  0
CLASS
  1
ACCMCONTEXT
  2
AcCmContext
  3
DesignerAssemblies
 90
        0
280
     0
281
     0
  0
CLASS
  1
ACAMCOMPDEF
  2
AcAmCompDef
  3
DesignerAssemblies
 90
        0
280
     0
281
     0
  0
CLASS
  1
ACAMCOMPDEFMGR
  2
AcAmCompDefMgr
  3
DesignerAssemblies
 90
        0
280
     0
281
     0
  0
CLASS
  1
AMCONTEXTMGR
  2
AcAmContextMgr
  3
DesignerAssemblies
 90
        0
280
     0
281
     0
  0
CLASS
  1
ACAMCONTEXTMODELER
  2
AcAmContextModeler
  3
DesignerAssemblies
 90
        0
280
     0
281
     0
  0
CLASS
  1
ACMTHREADLINESTANDARDISO
  2
AmdtThreadLineStdISO
  3
"Amdt_StdImp|Product Description: AutoCAD Mechanical 2004 DX|Company: Autodesk"
 90
        0
280
     0
281
     0
  0
CLASS
  1
CATALOGSTATE
  2
AcAmCatalogState
  3
DesignerAssemblies
 90
        0
280
     0
281
     0
  0
CLASS
  1
ACAMGRCOMPDEFSET
  2
AcAmGrCompDefSet
  3
DesignerAssemblies
 90
        0
280
     0
281
     0
  0
CLASS
  1
AMDTBROWSERDBTAB
  2
AmdtBrowserDbTab
  3
McadcomServices
 90
        0
280
     0
281
     0
  0
CLASS
  1
CBROWSERAPPOBJECT
  2
CBrowserAppObject
  3
McadcomServices
 90
        0
280
     0
281
     0
  0
CLASS
  1
DM_PLACEHOLDER
  2
AcDmSelsetPlaceholder
  3
AcMechDwgViewMgmt
 90
        0
280
     0
281
     0
  0
CLASS
  1
VAACXREFPANELOBJECT
  2
VaAcXREFPanelObject
  3
VAAC_ADDIN
 90
    32768
280
     0
281
     0
  0
CLASS
  1
VAACIMAGEINVENTORY
  2
VaAcImageInventory
  3
VAAC_ADDIN
 90
    32768
280
     0
281
     0
  0
CLASS
  1
AMDTEDGESTANDARDISO13715
  2
AmdtEdgeStdISO13715
  3
"Amdt_StdImp|Product Description: AutoCAD Mechanical 2004 DX|Company: Autodesk"
 90
        0
280
     0
281
     0
  0
CLASS
  1
AMDTNOTETEMPLATEDB
  2
AmdtNoteTemplateDB
  3
AMDT_STDIMP_MODULE_NAME
 90
        0
280
     0
281
     0
  0
CLASS
  1
ACRFATTGENMGR
  2
AcRfAttGeneralMgr
  3
AcAttribServices
 90
        0
280
     0
281
     0
  0
CLASS
  1
STDPART2D
  2
AmgStdPart
  3
"AmgStdPart|Product Description: AutoCAD Mechanical 2000|Company: Autodesk"
 90
    33791
280
     0
281
     1
  0
CLASS
  1
ACAMSTDPCOMPDEF
  2
AcAmStdpCompDef
  3
DesignerAssemblies
 90
    32768
280
     0
281
     0
  0
CLASS
  1
ACRFOBJATTMGR
  2
AcRfObjAttGroupMgr
  3
AcAttribServices
 90
    32768
280
     0
281
     0
  0
CLASS
  1
ACRFMCADAPIATTHOLDER
  2
AcRfMCADAPIAttHolder
  3
AcAttribServices
 90
    32768
280
     0
281
     0
  0
CLASS
  1
AMDTSYSATTR
  2
AmdtSystemAttribute
  3
AcAttribServices
 90
    32768
280
     0
281
     0
  0
CLASS
  1
ACAMCOMP
  2
AcAmComp
  3
DesignerAssemblies
 90
    32768
280
     0
281
     0
  0
CLASS
  1
AC_AM_STDP_VIEW_DEF
  2
AcAmStdpViewDef
  3
DesignerAssemblies
 90
    32768
280
     0
281
     0
  0
CLASS
  1
AC_AM_MVD_DEP_MGR
  2
AcAmMVDdepMgr
  3
DesignerAssemblies
 90
        0
280
     0
281
     0
  0
CLASS
  1
AC_AM_MASTER_VIEW_DEF
  2
AcAmMasterViewDef
  3
DesignerAssemblies
 90
        0
280
     0
281
     0
  0
CLASS
  1
AC_AM_DIRTY_NODES
  2
AcAmDirtyNodes
  3
DesignerAssemblies
 90
        0
280
     0
281
     0
  0
CLASS
  1
AC_AM_MAPPER_CACHE
  2
AcAmMapperCache
  3
DesignerAssemblies
 90
        0
280
     0
281
     0
  0
CLASS
  1
ACAMMVDBACKUPOBJECT
  2
AcAmMVDBackupObject
  3
DesignerAssemblies
 90
        0
280
     0
281
     0
  0
CLASS
  1
AC_AM_COMP_VIEW_INST
  2
AcAmCompView
  3
DesignerAssemblies
 90
    32768
280
     0
281
     0
  0
CLASS
  1
AC_AM_2D_XREF_MGR
  2
AcAmXrefMgr2d
  3
DesignerAssemblies
 90
        0
280
     0
281
     0
  0
CLASS
  1
SORTENTSTABLE
  2
AcDbSortentsTable
  3
ObjectDBX Classes
 90
        0
280
     0
281
     0
  0
ENDSEC
  0
SECTION
  2
TABLES
  0
TABLE
  2
VPORT
  5
8
330
0
100
AcDbSymbolTable
 70
     3
  0
VPORT
  5
3F06
330
8
100
AcDbSymbolTableRecord
100
AcDbViewportTableRecord
  2
*Active
 70
     0
 10
0.0
 20
0.0
 11
1.0
 21
1.0
 12
1095.316939822392
 22
404.6552845254356
 13
0.0
 23
0.0
 14
2.5
 24
2.5
 15
10.0
 25
10.0
 16
0.0
 26
0.0
 36
1.0
 17
0.0
 27
0.0
 37
0.0
 40
327.9525535811484
 41
1.81766917293233
 42
50.0
 43
0.0
 44
0.0
 50
0.0
 51
0.0
 71
     0
 72
   100
 73
     1
 74
     3
 75
     0
 76
     0
 77
     0
 78
     0
281
     0
 65
     1
110
0.0
120
0.0
130
0.0
111
1.0
121
0.0
131
0.0
112
0.0
122
1.0
132
0.0
 79
     0
146
0.0
  0
ENDTAB
  0
TABLE
  2
LTYPE
  5
5
330
0
100
AcDbSymbolTable
 70
    14
  0
LTYPE
  5
14
330
5
100
AcDbSymbolTableRecord
100
AcDbLinetypeTableRecord
  2
ByBlock
 70
     0
  3

 72
    65
 73
     0
 40
0.0
  0
LTYPE
  5
15
330
5
100
AcDbSymbolTableRecord
100
AcDbLinetypeTableRecord
  2
ByLayer
 70
     0
  3

 72
    65
 73
     0
 40
0.0
  0
LTYPE
  5
16
330
5
100
AcDbSymbolTableRecord
100
AcDbLinetypeTableRecord
  2
Continuous
 70
     0
  3
Solid line
 72
    65
 73
     0
 40
0.0
  0
LTYPE
  5
4D
330
5
100
AcDbSymbolTableRecord
100
AcDbLinetypeTableRecord
  2
AM_ISO02W050
 70
     0
  3
__ __ __ __ __ __ __ __ __ __ __ __ __ __ __
 72
    65
 73
     2
 40
7.5
 49
6.0
 74
     0
 49
-1.5
 74
     0
  0
LTYPE
  5
4E
330
5
100
AcDbSymbolTableRecord
100
AcDbLinetypeTableRecord
  2
AM_ISO08W050
 70
     0
  3
____ . ____ . ____ . ____ . ____ . ____ . ____
 72
    65
 73
     4
 40
18.0
 49
12.0
 74
     0
 49
-1.5
 74
     0
 49
3.0
 74
     0
 49
-1.5
 74
     0
  0
LTYPE
  5
4F
330
5
100
AcDbSymbolTableRecord
100
AcDbLinetypeTableRecord
  2
AM_ISO09W050
 70
     0
  3
_____ . . _____ . . _____ . . ____ .. ____
 72
    65
 73
     6
 40
22.5
 49
12.0
 74
     0
 49
-1.5
 74
     0
 49
3.0
 74
     0
 49
-1.5
 74
     0
 49
3.0
 74
     0
 49
-1.5
 74
     0
  0
LTYPE
  5
50
330
5
100
AcDbSymbolTableRecord
100
AcDbLinetypeTableRecord
  2
Amconstr
 70
     0
  3
_______________________
 72
    65
 73
     2
 40
9999.0
 49
9999.0
 74
     0
 49
0.0
 74
     0
  0
LTYPE
  5
51
330
5
100
AcDbSymbolTableRecord
100
AcDbLinetypeTableRecord
  2
AM_ISO08W050x2
 70
     0
  3
__ . __ . __ . __ . __ . __
 72
    65
 73
     4
 40
9.0
 49
6.0
 74
     0
 49
-0.75
 74
     0
 49
1.5
 74
     0
 49
-0.75
 74
     0
  0
LTYPE
  5
52
330
5
100
AcDbSymbolTableRecord
100
AcDbLinetypeTableRecord
  2
AM_ISO02W050x2
 70
     0
  3
 _ _ _ _ _ _ _ _ _ _ _ _
 72
    65
 73
     2
 40
3.75
 49
3.0
 74
     0
 49
-0.75
 74
     0
  0
LTYPE
  5
55
330
5
100
AcDbSymbolTableRecord
100
AcDbLinetypeTableRecord
  2
Amzigzag
 70
     0
  3
/\/-/\/-/\/-/\/-/\/-/\/
 72
    65
 73
     2
 40
11.0001
 49
0.0001
 74
     4
 75
   135
340
54
 46
0.04
 50
0.0
 44
0.0
 45
0.0
 49
-11.0
 74
     0
  0
LTYPE
  5
63
330
5
100
AcDbSymbolTableRecord
100
AcDbLinetypeTableRecord
  2
ACISOWELD
 70
     0
  3
_ _ _ _ _
 72
    65
 73
     2
 40
2.0
 49
2.0
 74
     0
 49
-1.0
 74
     0
  0
LTYPE
  5
64
330
5
100
AcDbSymbolTableRecord
100
AcDbLinetypeTableRecord
  2
ACISOTGB
 70
     0
  3
__ . . __ . .
 72
    65
 73
     6
 40
9.0
 49
4.0
 74
     0
 49
-1.0
 74
     0
 49
1.0
 74
     0
 49
-1.0
 74
     0
 49
1.0
 74
     0
 49
-1.0
 74
     0
  0
LTYPE
  5
65
330
5
100
AcDbSymbolTableRecord
100
AcDbLinetypeTableRecord
  2
ACISOTGL
 70
     0
  3
_ _ _ _ _
 72
    65
 73
     2
 40
3.0
 49
2.0
 74
     0
 49
-1.0
 74
     0
  0
LTYPE
  5
68
330
5
100
AcDbSymbolTableRecord
100
AcDbLinetypeTableRecord
  2
CENTER
 70
     0
  3
__ . __
 72
    65
 73
     4
 40
7.0
 49
4.0
 74
     0
 49
-1.0
 74
     0
 49
1.0
 74
     0
 49
-1.0
 74
     0
  0
LTYPE
  5
932
330
5
100
AcDbSymbolTableRecord
100
AcDbLinetypeTableRecord
  2
HIDDEN
 70
     0
  3
Hidden __ __ __ __ __ __ __ __ __ __ __ __ __ _
 72
    65
 73
     2
 40
9.524999999999998
 49
6.349999999999999
 74
     0
 49
-3.174999999999999
 74
     0
  0
LTYPE
  5
933
330
5
100
AcDbSymbolTableRecord
100
AcDbLinetypeTableRecord
  2
PHANTOM2
 70
     0
  3
Phantom (.5x) ___ _ _ ___ _ _ ___ _ _ ___ _ _
 72
    65
 73
     6
 40
31.75
 49
15.875
 74
     0
 49
-3.174999999999999
 74
     0
 49
3.174999999999999
 74
     0
 49
-3.174999999999999
 74
     0
 49
3.174999999999999
 74
     0
 49
-3.174999999999999
 74
     0
  0
ENDTAB
  0
TABLE
  2
LAYER
  5
2
102
{ACAD_XDICTIONARY
360
E05
102
}
330
0
100
AcDbSymbolTable
 70
     6
  0
LAYER
  5
10
330
2
100
AcDbSymbolTableRecord
100
AcDbLayerTableRecord
  2
0
 70
     0
 62
     7
  6
Continuous
370
    -3
390
F
  0
LAYER
  5
2D7
330
2
100
AcDbSymbolTableRecord
100
AcDbLayerTableRecord
  2
M_1
 70
     0
 62
     7
  6
Continuous
370
    -3
390
F
  0
LAYER
  5
42A
330
2
100
AcDbSymbolTableRecord
100
AcDbLayerTableRecord
  2
AM_5
 70
     0
 62
     5
  6
Continuous
370
    50
390
F
  0
LAYER
  5
43E
330
2
100
AcDbSymbolTableRecord
100
AcDbLayerTableRecord
  2
Defpoints
 70
     0
 62
     7
  6
Continuous
290
     0
370
    -3
390
F
  0
LAYER
  5
E7E
330
2
100
AcDbSymbolTableRecord
100
AcDbLayerTableRecord
  2
AM_7
 70
     0
 62
     1
  6
CENTER
370
    25
390
F
  0
LAYER
  5
2787
330
2
100
AcDbSymbolTableRecord
100
AcDbLayerTableRecord
  2
LOGO
 70
     0
 62
     7
  6
Continuous
370
    -3
390
F
  0
ENDTAB
  0
TABLE
  2
STYLE
  5
3
330
0
100
AcDbSymbolTable
 70
     8
  0
STYLE
  5
11
330
3
100
AcDbSymbolTableRecord
100
AcDbTextStyleTableRecord
  2
STANDARD
 70
     0
 40
0.0
 41
1.0
 50
0.0
 71
     0
 42
3.5
  3
ISOCP.SHX
  4
CHINESET.SHX
  0
STYLE
  5
54
330
3
100
AcDbSymbolTableRecord
100
AcDbTextStyleTableRecord
  2

 70
     1
 40
0.0
 41
1.0
 50
0.0
 71
     0
 42
2.5
  3
ltypeshp.shx
  4

  0
STYLE
  5
56
330
3
100
AcDbSymbolTableRecord
100
AcDbTextStyleTableRecord
  2
ACISOTS
 70
     0
 40
1.0
 41
1.0
 50
0.0
 71
     0
 42
2.5
  3
isocp.shx
  4
chineset.shx
  0
STYLE
  5
62
330
3
100
AcDbSymbolTableRecord
100
AcDbTextStyleTableRecord
  2
ACISOGDT
 70
     0
 40
0.0
 41
1.0
 50
0.0
 71
     0
 42
3.5
  3
amgdt.shx
  4

  0
STYLE
  5
9E
330
3
100
AcDbSymbolTableRecord
100
AcDbTextStyleTableRecord
  2
DAYUS
 70
     0
 40
0.0
 41
1.0
 50
0.0
 71
     0
 42
2.5
  3
simplex
  4
dayus
  0
STYLE
  5
10CF
330
3
100
AcDbSymbolTableRecord
100
AcDbTextStyleTableRecord
  2
CHINESET
 70
     0
 40
0.0
 41
0.75
 50
0.0
 71
     0
 42
3.0
  3
simplex.shx
  4
CHINESET.SHX
  0
STYLE
  5
2BA6
330
3
100
AcDbSymbolTableRecord
100
AcDbTextStyleTableRecord
  2
China
 70
     0
 40
0.0
 41
1.0
 50
0.0
 71
     0
 42
2.5
  3
romans.shx
  4
chineset.shx
  0
ENDTAB
  0
TABLE
  2
VIEW
  5
6
330
0
100
AcDbSymbolTable
 70
     0
  0
ENDTAB
  0
TABLE
  2
UCS
  5
7
330
0
100
AcDbSymbolTable
 70
     0
  0
ENDTAB
  0
TABLE
  2
APPID
  5
9
330
0
100
AcDbSymbolTable
 70
    31
  0
APPID
  5
12
330
9
100
AcDbSymbolTableRecord
100
AcDbRegAppTableRecord
  2
ACAD
 70
     0
  0
APPID
  5
30
330
9
100
AcDbSymbolTableRecord
100
AcDbRegAppTableRecord
  2
MCAD_NO_VIS
 70
     0
  0
APPID
  5
31
330
9
100
AcDbSymbolTableRecord
100
AcDbRegAppTableRecord
  2
ACAD_TEMP_GRAPHIC
 70
     0
  0
APPID
  5
42
330
9
100
AcDbSymbolTableRecord
100
AcDbRegAppTableRecord
  2
ACATTRIBSERVICES
 70
     0
  0
APPID
  5
20A
330
9
100
AcDbSymbolTableRecord
100
AcDbRegAppTableRecord
  2
GENIUS_GENODEF_13
 70
     0
  0
APPID
  5
20B
330
9
100
AcDbSymbolTableRecord
100
AcDbRegAppTableRecord
  2
GENIUS_GENOBJ-N-HTC_13
 70
     0
  0
APPID
  5
20C
330
9
100
AcDbSymbolTableRecord
100
AcDbRegAppTableRecord
  2
GENIUS_GENHATCH_13
 70
     0
  0
APPID
  5
935
330
9
100
AcDbSymbolTableRecord
100
AcDbRegAppTableRecord
  2
AD_DRAW
 70
     0
  0
APPID
  5
953
330
9
100
AcDbSymbolTableRecord
100
AcDbRegAppTableRecord
  2
DESIGNERASSEMBLIES
 70
     0
  0
APPID
  5
958
330
9
100
AcDbSymbolTableRecord
100
AcDbRegAppTableRecord
  2
ACADM_DIM_EDIT
 70
     0
  0
APPID
  5
959
330
9
100
AcDbSymbolTableRecord
100
AcDbRegAppTableRecord
  2
AMDT_DM_ADJ
 70
     0
  0
APPID
  5
E24
330
9
100
AcDbSymbolTableRecord
100
AcDbRegAppTableRecord
  2
ACAD_DSTYLE_DIMTEXT_FILL
 70
     0
  0
APPID
  5
10D0
330
9
100
AcDbSymbolTableRecord
100
AcDbRegAppTableRecord
  2
ACAD_PSEXT
 70
     0
  0
APPID
  5
16F7
330
9
100
AcDbSymbolTableRecord
100
AcDbRegAppTableRecord
  2
ACAD_DIMASSOC_DIMLFAC
 70
     0
  0
APPID
  5
16F8
330
9
100
AcDbSymbolTableRecord
100
AcDbRegAppTableRecord
  2
ACAD_DIMASSOC_CALC_DIMLFAC
 70
     0
  0
APPID
  5
16F9
330
9
100
AcDbSymbolTableRecord
100
AcDbRegAppTableRecord
  2
ACAD_DIMASSOC_OVERRIDDEN_DIMLFAC
 70
     0
  0
APPID
  5
1997
330
9
100
AcDbSymbolTableRecord
100
AcDbRegAppTableRecord
  2
GEVID1139552286
 70
     0
  0
APPID
  5
1998
330
9
100
AcDbSymbolTableRecord
100
AcDbRegAppTableRecord
  2
GEVDC
 70
     0
  0
APPID
  5
1999
330
9
100
AcDbSymbolTableRecord
100
AcDbRegAppTableRecord
  2
GEVRADREF
 70
     0
  0
APPID
  5
19A2
330
9
100
AcDbSymbolTableRecord
100
AcDbRegAppTableRecord
  2
AMG_2DHIDE
 70
     0
  0
APPID
  5
19A3
330
9
100
AcDbSymbolTableRecord
100
AcDbRegAppTableRecord
  2
AMG_2DSTRUCT_BTR
 70
     0
  0
APPID
  5
19B4
330
9
100
AcDbSymbolTableRecord
100
AcDbRegAppTableRecord
  2
ACADM_2DVIEW_IGN_NOTIFY
 70
     0
  0
APPID
  5
19DC
330
9
100
AcDbSymbolTableRecord
100
AcDbRegAppTableRecord
  2
GENIUS_GENOENT_13
 70
     0
  0
APPID
  5
19DD
330
9
100
AcDbSymbolTableRecord
100
AcDbRegAppTableRecord
  2
GENIUS_GENOBJ-N-CRS_13
 70
     0
  0
APPID
  5
19DE
330
9
100
AcDbSymbolTableRecord
100
AcDbRegAppTableRecord
  2
GENIUS_GENOLIS_13
 70
     0
  0
APPID
  5
19DF
330
9
100
AcDbSymbolTableRecord
100
AcDbRegAppTableRecord
  2
GENIUS_GENOREF_13
 70
     0
  0
APPID
  5
1B28
330
9
100
AcDbSymbolTableRecord
100
AcDbRegAppTableRecord
  2
GENIUS_GENOBJ-N-CEN_13
 70
     0
  0
APPID
  5
1B29
330
9
100
AcDbSymbolTableRecord
100
AcDbRegAppTableRecord
  2
GENIUS_GENCEN_19
 70
     0
  0
APPID
  5
2753
330
9
100
AcDbSymbolTableRecord
100
AcDbRegAppTableRecord
  2
GENIUS_GENDTOL_13
 70
     0
  0
APPID
  5
2788
330
9
100
AcDbSymbolTableRecord
100
AcDbRegAppTableRecord
  2
GENIUS_GENREC_14
 70
     0
  0
APPID
  5
2789
330
9
100
AcDbSymbolTableRecord
100
AcDbRegAppTableRecord
  2
GENIUS_GENOBJ-N-REC_13
 70
     0
  0
ENDTAB
  0
TABLE
  2
DIMSTYLE
  5
A
330
0
100
AcDbSymbolTable
 70
    10
100
AcDbDimStyleTable
 71
     2
340
6B
340
75
  0
DIMSTYLE
105
6B
330
A
100
AcDbSymbolTableRecord
100
AcDbDimStyleTableRecord
  2
AM_ISO
 70
     0
  4
"
 41
2.5
 42
1.0
 43
8.0
 44
1.5
 47
0.1
 48
0.1
 73
     0
 74
     0
 77
     1
 78
     8
 79
     2
140
3.0
141
3.0
143
0.0393701
146
0.71
147
0.8
172
     1
176
   256
177
   256
178
   256
271
     2
272
     2
283
     0
284
     8
340
11
371
    -1
372
    -1
  0
DIMSTYLE
105
6C
330
A
100
AcDbSymbolTableRecord
100
AcDbDimStyleTableRecord
  2
AM_ISO$3
 70
     0
  4
"
 41
2.5
 42
1.0
 43
8.0
 44
1.5
 47
0.1
 48
0.1
 73
     0
 77
     1
 78
     8
 79
     2
140
3.0
141
3.0
143
0.0393701
146
0.71
147
0.8
176
   256
177
   256
178
   256
271
     2
272
     2
283
     0
284
     8
288
     1
289
     0
340
11
371
    -1
372
    -1
  0
DIMSTYLE
105
6D
330
A
100
AcDbSymbolTableRecord
100
AcDbDimStyleTableRecord
  2
AM_ISO$4
 70
     0
  4
"
 41
2.5
 42
1.0
 43
8.0
 44
1.5
 47
0.1
 48
0.1
 73
     0
 77
     1
 78
     8
 79
     2
140
3.0
141
3.0
143
0.0393701
146
0.71
147
0.8
176
   256
177
   256
178
   256
271
     2
272
     2
283
     0
284
     8
288
     1
289
     0
340
11
371
    -1
372
    -1
  0
DIMSTYLE
105
6E
330
A
100
AcDbSymbolTableRecord
100
AcDbDimStyleTableRecord
  2
AM_ISO$6
 70
     0
  4
"
 41
2.5
 42
1.0
 43
8.0
 44
1.5
 47
0.1
 48
0.1
 73
     0
 74
     0
 78
     8
 79
     2
140
3.0
141
3.0
143
0.0393701
146
0.71
147
0.8
172
     1
176
   256
177
   256
178
   256
271
     2
272
     2
283
     0
284
     8
340
11
371
    -1
372
    -1
  0
DIMSTYLE
105
6F
102
{ACAD_REACTORS
330
384E
330
384F
102
}
330
A
100
AcDbSymbolTableRecord
100
AcDbDimStyleTableRecord
  2
AM_ISO$7
 70
     0
  4
"
 41
2.5
 42
1.0
 43
8.0
 44
1.5
 47
0.1
 48
0.1
 73
     0
 74
     0
 77
     1
 78
     8
 79
     2
140
5.0
141
3.0
143
0.0393701
146
0.71
147
0.8
172
     1
176
   256
177
   256
178
   256
271
     2
272
     2
283
     0
284
     8
340
11
371
    -1
372
    -1
  0
DIMSTYLE
105
70
330
A
100
AcDbSymbolTableRecord
100
AcDbDimStyleTableRecord
  2
AM_ISO$SF
 70
     0
  4
"
 41
2.5
 42
1.0
 43
10.0
 44
1.0
 47
0.1
 48
0.1
 73
     0
 74
     0
 75
     1
 76
     1
 77
     1
 78
     8
 79
     2
140
3.5
141
0.0
143
0.0393701
146
0.71
147
1.5
172
     1
176
   256
177
   256
178
     2
271
     2
272
     3
274
     4
283
     0
284
     8
340
11
371
    -1
372
    -1
  0
DIMSTYLE
105
75
330
A
100
AcDbSymbolTableRecord
100
AcDbDimStyleTableRecord
  2
AM_ISO$SH
 70
     0
  4
"
 41
2.5
 42
1.0
 43
10.0
 44
1.0
 47
0.1
 48
0.1
 73
     0
 74
     0
 75
     1
 76
     1
 77
     1
 78
     8
 79
     2
140
3.5
141
0.0
143
0.0393701
144
2.0
146
0.71
147
1.5
172
     1
173
     1
176
   256
177
   256
178
     2
271
     2
272
     3
274
     4
283
     0
284
     8
340
11
343
71
371
    -1
372
    -1
  0
DIMSTYLE
105
E7F
102
{ACAD_REACTORS
330
3852
330
3851
330
3888
330
3878
330
3850
330
386C
330
3866
330
385A
330
386D
330
37E7
330
374F
330
374C
330
374B
330
3759
330
3758
330
375A
330
3787
330
3784
330
375B
330
3768
330
3767
102
}
330
A
100
AcDbSymbolTableRecord
100
AcDbDimStyleTableRecord
  2
AM_ISO$0
 70
     0
  4
"
 41
2.5
 42
1.0
 43
8.0
 44
1.5
 47
0.1
 48
0.1
 73
     0
 74
     0
 77
     1
 78
     8
 79
     2
140
3.0
141
3.0
143
0.0393701
146
0.71
147
0.8
172
     1
176
   256
177
   256
178
   256
271
     2
272
     2
283
     0
284
     8
340
11
371
    -1
372
    -1
  0
DIMSTYLE
105
1597
330
A
100
AcDbSymbolTableRecord
100
AcDbDimStyleTableRecord
  2
AM_ISO$2
 70
     0
  4
"
 41
2.5
 42
1.0
 43
8.0
 44
1.5
 47
0.1
 48
0.1
 73
     0
 74
     0
 77
     1
 78
     8
 79
     2
140
3.0
141
3.0
143
0.0393701
146
0.71
147
0.8
172
     1
176
   256
177
   256
178
   256
271
     2
272
     2
283
     0
284
     8
340
11
371
    -1
372
    -1
  0
ENDTAB
  0
TABLE
  2
BLOCK_RECORD
  5
1
330
0
100
AcDbSymbolTable
 70
    27
  0
BLOCK_RECORD
  5
1F
102
{ACAD_XDICTIONARY
360
7D
102
}
330
1
100
AcDbSymbolTableRecord
100
AcDbBlockTableRecord
  2
*Model_Space
340
22
  0
BLOCK_RECORD
  5
1B
330
1
100
AcDbSymbolTableRecord
100
AcDbBlockTableRecord
  2
*Paper_Space
340
1E
  0
BLOCK_RECORD
  5
23
330
1
100
AcDbSymbolTableRecord
100
AcDbBlockTableRecord
  2
*Paper_Space0
340
26
  0
BLOCK_RECORD
  5
71
330
1
100
AcDbSymbolTableRecord
100
AcDbBlockTableRecord
  2
GENAXEH
340
0
  0
BLOCK_RECORD
  5
19B9
330
1
100
AcDbSymbolTableRecord
100
AcDbBlockTableRecord
  2
*U4
340
0
  0
BLOCK_RECORD
  5
38CE
330
1
100
AcDbSymbolTableRecord
100
AcDbBlockTableRecord
  2
*D5
340
0
  0
BLOCK_RECORD
  5
38DA
330
1
100
AcDbSymbolTableRecord
100
AcDbBlockTableRecord
  2
*D6
340
0
  0
BLOCK_RECORD
  5
38E8
330
1
100
AcDbSymbolTableRecord
100
AcDbBlockTableRecord
  2
*D7
340
0
  0
BLOCK_RECORD
  5
38F3
330
1
100
AcDbSymbolTableRecord
100
AcDbBlockTableRecord
  2
*D8
340
0
  0
BLOCK_RECORD
  5
38FF
330
1
100
AcDbSymbolTableRecord
100
AcDbBlockTableRecord
  2
*D9
340
0
  0
BLOCK_RECORD
  5
390A
330
1
100
AcDbSymbolTableRecord
100
AcDbBlockTableRecord
  2
*D10
340
0
  0
BLOCK_RECORD
  5
3916
330
1
100
AcDbSymbolTableRecord
100
AcDbBlockTableRecord
  2
*D11
340
0
  0
BLOCK_RECORD
  5
3924
330
1
100
AcDbSymbolTableRecord
100
AcDbBlockTableRecord
  2
*D12
340
0
  0
BLOCK_RECORD
  5
3931
330
1
100
AcDbSymbolTableRecord
100
AcDbBlockTableRecord
  2
*D13
340
0
  0
BLOCK_RECORD
  5
393C
330
1
100
AcDbSymbolTableRecord
100
AcDbBlockTableRecord
  2
*D14
340
0
  0
BLOCK_RECORD
  5
3947
330
1
100
AcDbSymbolTableRecord
100
AcDbBlockTableRecord
  2
*D15
340
0
  0
BLOCK_RECORD
  5
3953
330
1
100
AcDbSymbolTableRecord
100
AcDbBlockTableRecord
  2
*D16
340
0
  0
BLOCK_RECORD
  5
395F
330
1
100
AcDbSymbolTableRecord
100
AcDbBlockTableRecord
  2
*D17
340
0
  0
BLOCK_RECORD
  5
396B
330
1
100
AcDbSymbolTableRecord
100
AcDbBlockTableRecord
  2
*D18
340
0
  0
BLOCK_RECORD
  5
3976
330
1
100
AcDbSymbolTableRecord
100
AcDbBlockTableRecord
  2
*D19
340
0
  0
BLOCK_RECORD
  5
3982
330
1
100
AcDbSymbolTableRecord
100
AcDbBlockTableRecord
  2
*D20
340
0
  0
BLOCK_RECORD
  5
398F
330
1
100
AcDbSymbolTableRecord
100
AcDbBlockTableRecord
  2
*D21
340
0
  0
BLOCK_RECORD
  5
399B
330
1
100
AcDbSymbolTableRecord
100
AcDbBlockTableRecord
  2
*D22
340
0
  0
BLOCK_RECORD
  5
39A7
330
1
100
AcDbSymbolTableRecord
100
AcDbBlockTableRecord
  2
*D23
340
0
  0
BLOCK_RECORD
  5
39B3
330
1
100
AcDbSymbolTableRecord
100
AcDbBlockTableRecord
  2
*D24
340
0
  0
BLOCK_RECORD
  5
39C0
330
1
100
AcDbSymbolTableRecord
100
AcDbBlockTableRecord
  2
*D25
340
0
  0
ENDTAB
  0
ENDSEC
  0
SECTION
  2
BLOCKS
  0
BLOCK
  5
20
330
1F
100
AcDbEntity
  8
0
100
AcDbBlockBegin
  2
*Model_Space
 70
     0
 10
0.0
 20
0.0
 30
0.0
  3
*Model_Space
  1

  0
ENDBLK
  5
21
330
1F
100
AcDbEntity
  8
0
100
AcDbBlockEnd
  0
BLOCK
  5
1C
330
1B
100
AcDbEntity
 67
     1
  8
0
100
AcDbBlockBegin
  2
*Paper_Space
 70
     0
 10
0.0
 20
0.0
 30
0.0
  3
*Paper_Space
  1

  0
ENDBLK
  5
1D
330
1B
100
AcDbEntity
 67
     1
  8
0
100
AcDbBlockEnd
  0
BLOCK
  5
24
330
23
100
AcDbEntity
  8
0
100
AcDbBlockBegin
  2
*Paper_Space0
 70
     0
 10
0.0
 20
0.0
 30
0.0
  3
*Paper_Space0
  1

  0
ENDBLK
  5
25
330
23
100
AcDbEntity
  8
0
100
AcDbBlockEnd
  0
BLOCK
  5
73
330
71
100
AcDbEntity
  8
0
100
AcDbBlockBegin
  2
GENAXEH
 70
     0
 10
0.0
 20
0.0
 30
0.0
  3
GENAXEH
  1

  0
LINE
  5
72
330
71
100
AcDbEntity
  8
0
100
AcDbLine
 10
-1.0
 20
0.0
 30
0.0
 11
1.0
 21
0.0
 31
0.0
  0
ENDBLK
  5
74
330
71
100
AcDbEntity
  8
0
100
AcDbBlockEnd
  0
BLOCK
  5
19BA
330
19B9
100
AcDbEntity
  8
0
100
AcDbBlockBegin
  2
*U4
 70
     1
 10
0.0
 20
0.0
 30
0.0
  3
*U4
  1

  0
ENDBLK
  5
19BB
330
19B9
100
AcDbEntity
  8
0
100
AcDbBlockEnd
  0
BLOCK
  5
38D8
330
38CE
100
AcDbEntity
  8
0
100
AcDbBlockBegin
  2
*D5
 70
     1
 10
0.0
 20
0.0
 30
0.0
  3
*D5
  1

  0
LINE
  5
3DCD
330
38CE
100
AcDbEntity
  8
AM_5
100
AcDbLine
 10
1115.188591891659
 20
511.2366246943493
 30
0.0
 11
1128.498218892702
 21
511.2366246943493
 31
0.0
  0
LINE
  5
3DCE
330
38CE
100
AcDbEntity
  8
AM_5
100
AcDbLine
 10
1115.188591891659
 20
449.2366246943495
 30
0.0
 11
1128.498218892702
 21
449.2366246943495
 31
0.0
  0
LINE
  5
3DCF
330
38CE
100
AcDbEntity
  8
AM_5
100
AcDbLine
 10
1126.998218892702
 20
508.7366246943494
 30
0.0
 11
1126.998218892702
 21
451.7366246943494
 31
0.0
  0
SOLID
  5
3DD0
330
38CE
100
AcDbEntity
  8
AM_5
100
AcDbTrace
 10
1126.581552226035
 20
508.7366246943494
 30
0.0
 11
1127.414885559369
 21
508.7366246943494
 31
0.0
 12
1126.998218892702
 22
511.2366246943493
 32
0.0
 13
1126.998218892702
 23
511.2366246943493
 33
0.0
  0
SOLID
  5
3DD1
330
38CE
100
AcDbEntity
  8
AM_5
100
AcDbTrace
 10
1126.581552226035
 20
451.7366246943494
 30
0.0
 11
1127.414885559369
 21
451.7366246943494
 31
0.0
 12
1126.998218892702
 22
449.2366246943495
 32
0.0
 13
1126.998218892702
 23
449.2366246943495
 33
0.0
  0
MTEXT
  5
3DD2
330
38CE
100
AcDbEntity
  8
AM_5
100
AcDbMText
 10
1124.697923617111
 20
480.2366246943496
 30
0.0
 40
3.0
 41
0.0
 71
     5
 72
     1
  1
%%C62
 11
0.0000000000000001
 21
1.0
 31
0.0
 73
     1
 44
1.0
1001
ACAD
1000
MTEXTBEGIN
1070
    73
1070
     1
1070
    44
1040
1.0
1070
    74
1070
     0
1000
MTEXTEND
  0
POINT
  5
3DD3
330
38CE
100
AcDbEntity
  8
Defpoints
 62
     0
100
AcDbPoint
 10
1114.188591891658
 20
511.2366246943493
 30
0.0
  0
POINT
  5
3DD4
330
38CE
100
AcDbEntity
  8
Defpoints
 62
     0
100
AcDbPoint
 10
1114.188591891658
 20
449.2366246943495
 30
0.0
  0
POINT
  5
3DD5
330
38CE
100
AcDbEntity
  8
Defpoints
 62
     0
100
AcDbPoint
 10
1126.998218892702
 20
449.2366246943495
 30
0.0
  0
ENDBLK
  5
38D9
330
38CE
100
AcDbEntity
  8
0
100
AcDbBlockEnd
  0
BLOCK
  5
38E6
330
38DA
100
AcDbEntity
  8
0
100
AcDbBlockBegin
  2
*D6
 70
     1
 10
0.0
 20
0.0
 30
0.0
  3
*D6
  1

  0
LINE
  5
3EC6
330
38DA
100
AcDbEntity
  8
AM_5
100
AcDbLine
 10
1070.189591891659
 20
508.0016246943493
 30
0.0
 11
1070.189591891659
 21
536.7976629486227
 31
0.0
  0
LINE
  5
3EC7
330
38DA
100
AcDbEntity
  8
AM_5
100
AcDbLine
 10
1067.188591891659
 20
520.2546727650992
 30
0.0
 11
1067.188591891659
 21
536.7976629486227
 31
0.0
  0
LINE
  5
3EC8
330
38DA
100
AcDbEntity
  8
AM_5
100
AcDbLine
 10
1072.689591891658
 20
535.2976629486227
 30
0.0
 11
1075.189591891658
 21
535.2976629486227
 31
0.0
  0
LINE
  5
3EC9
330
38DA
100
AcDbEntity
  8
AM_5
100
AcDbLine
 10
1064.688591891658
 20
535.2976629486227
 30
0.0
 11
1062.188591891659
 21
535.2976629486227
 31
0.0
  0
LINE
  5
3ECA
330
38DA
100
AcDbEntity
  8
AM_5
100
AcDbLine
 10
1070.189591891659
 20
535.2976629486227
 30
0.0
 11
1067.188591891659
 21
535.2976629486227
 31
0.0
  0
SOLID
  5
3ECB
330
38DA
100
AcDbEntity
  8
AM_5
100
AcDbTrace
 10
1072.689591891658
 20
535.7143296152893
 30
0.0
 11
1072.689591891658
 21
534.8809962819561
 31
0.0
 12
1070.189591891659
 22
535.2976629486227
 32
0.0
 13
1070.189591891659
 23
535.2976629486227
 33
0.0
  0
SOLID
  5
3ECC
330
38DA
100
AcDbEntity
  8
AM_5
100
AcDbTrace
 10
1064.688591891658
 20
535.7143296152893
 30
0.0
 11
1064.688591891658
 21
534.8809962819561
 31
0.0
 12
1067.188591891659
 22
535.2976629486227
 32
0.0
 13
1067.188591891659
 23
535.2976629486227
 33
0.0
  0
MTEXT
  5
3ECD
330
38DA
100
AcDbEntity
  8
AM_5
100
AcDbMText
 10
1068.689091891658
 20
537.5976629486226
 30
0.0
 40
3.0
 41
0.0
 71
     5
 72
     1
  1
3
 73
     1
 44
1.0
1001
ACAD
1000
MTEXTBEGIN
1070
    73
1070
     1
1070
    44
1040
1.0
1070
    74
1070
     0
1000
MTEXTEND
  0
POINT
  5
3ECE
330
38DA
100
AcDbEntity
  8
Defpoints
 62
     0
100
AcDbPoint
 10
1070.189591891659
 20
507.0016246943493
 30
0.0
  0
POINT
  5
3ECF
330
38DA
100
AcDbEntity
  8
Defpoints
 62
     0
100
AcDbPoint
 10
1067.188591891659
 20
519.2546727650992
 30
0.0
  0
POINT
  5
3ED0
330
38DA
100
AcDbEntity
  8
Defpoints
 62
     0
100
AcDbPoint
 10
1067.188591891659
 20
535.2976629486227
 30
0.0
  0
ENDBLK
  5
38E7
330
38DA
100
AcDbEntity
  8
0
100
AcDbBlockEnd
  0
BLOCK
  5
38F1
330
38E8
100
AcDbEntity
  8
0
100
AcDbBlockBegin
  2
*D7
 70
     1
 10
0.0
 20
0.0
 30
0.0
  3
*D7
  1

  0
LINE
  5
3EBD
330
38E8
100
AcDbEntity
  8
AM_5
100
AcDbLine
 10
1070.189591891659
 20
526.8838047200424
 30
0.0
 11
1070.189591891659
 21
536.7976629486227
 31
0.0
  0
LINE
  5
3EBE
330
38E8
100
AcDbEntity
  8
AM_5
100
AcDbLine
 10
1114.188591891658
 20
512.2366246943494
 30
0.0
 11
1114.188591891658
 21
536.7976629486227
 31
0.0
  0
LINE
  5
3EBF
330
38E8
100
AcDbEntity
  8
AM_5
100
AcDbLine
 10
1072.689591891658
 20
535.2976629486227
 30
0.0
 11
1111.688591891659
 21
535.2976629486227
 31
0.0
  0
SOLID
  5
3EC0
330
38E8
100
AcDbEntity
  8
AM_5
100
AcDbTrace
 10
1072.689591891658
 20
535.7143296152893
 30
0.0
 11
1072.689591891658
 21
534.8809962819561
 31
0.0
 12
1070.189591891659
 22
535.2976629486227
 32
0.0
 13
1070.189591891659
 23
535.2976629486227
 33
0.0
  0
SOLID
  5
3EC1
330
38E8
100
AcDbEntity
  8
AM_5
100
AcDbTrace
 10
1111.688591891659
 20
535.7143296152893
 30
0.0
 11
1111.688591891659
 21
534.8809962819561
 31
0.0
 12
1114.188591891658
 22
535.2976629486227
 32
0.0
 13
1114.188591891658
 23
535.2976629486227
 33
0.0
  0
MTEXT
  5
3EC2
330
38E8
100
AcDbEntity
  8
AM_5
100
AcDbMText
 10
1092.189091891659
 20
537.5976629486226
 30
0.0
 40
3.0
 41
0.0
 71
     5
 72
     1
  1
44
 73
     1
 44
1.0
1001
ACAD
1000
MTEXTBEGIN
1070
    73
1070
     1
1070
    44
1040
1.0
1070
    74
1070
     0
1000
MTEXTEND
  0
POINT
  5
3EC3
330
38E8
100
AcDbEntity
  8
Defpoints
 62
     0
100
AcDbPoint
 10
1070.189591891659
 20
525.8838047200424
 30
0.0
  0
POINT
  5
3EC4
330
38E8
100
AcDbEntity
  8
Defpoints
 62
     0
100
AcDbPoint
 10
1114.188591891658
 20
511.2366246943493
 30
0.0
  0
POINT
  5
3EC5
330
38E8
100
AcDbEntity
  8
Defpoints
 62
     0
100
AcDbPoint
 10
1114.188591891658
 20
535.2976629486227
 30
0.0
  0
ENDBLK
  5
38F2
330
38E8
100
AcDbEntity
  8
0
100
AcDbBlockEnd
  0
BLOCK
  5
38FD
330
38F3
100
AcDbEntity
  8
0
100
AcDbBlockBegin
  2
*D8
 70
     1
 10
0.0
 20
0.0
 30
0.0
  3
*D8
  1

  0
LINE
  5
3EB4
330
38F3
100
AcDbEntity
  8
AM_5
100
AcDbLine
 10
1114.188591891658
 20
526.8838047200424
 30
0.0
 11
1114.188591891658
 21
544.7976629486227
 31
0.0
  0
LINE
  5
3EB5
330
38F3
100
AcDbEntity
  8
AM_5
100
AcDbLine
 10
1067.188591891659
 20
526.8838047200424
 30
0.0
 11
1067.188591891659
 21
544.7976629486227
 31
0.0
  0
LINE
  5
3EB6
330
38F3
100
AcDbEntity
  8
AM_5
100
AcDbLine
 10
1111.688591891659
 20
543.2976629486226
 30
0.0
 11
1069.688591891658
 21
543.2976629486226
 31
0.0
  0
SOLID
  5
3EB7
330
38F3
100
AcDbEntity
  8
AM_5
100
AcDbTrace
 10
1111.688591891659
 20
543.7143296152893
 30
0.0
 11
1111.688591891659
 21
542.8809962819561
 31
0.0
 12
1114.188591891658
 22
543.2976629486226
 32
0.0
 13
1114.188591891658
 23
543.2976629486226
 33
0.0
  0
SOLID
  5
3EB8
330
38F3
100
AcDbEntity
  8
AM_5
100
AcDbTrace
 10
1069.688591891658
 20
543.7143296152893
 30
0.0
 11
1069.688591891658
 21
542.8809962819561
 31
0.0
 12
1067.188591891659
 22
543.2976629486226
 32
0.0
 13
1067.188591891659
 23
543.2976629486226
 33
0.0
  0
MTEXT
  5
3EB9
330
38F3
100
AcDbEntity
  8
AM_5
100
AcDbMText
 10
1090.688591891658
 20
545.5976629486226
 30
0.0
 40
3.0
 41
0.0
 71
     5
 72
     1
  1
47
 73
     1
 44
1.0
1001
ACAD
1000
MTEXTBEGIN
1070
    73
1070
     1
1070
    44
1040
1.0
1070
    74
1070
     0
1000
MTEXTEND
  0
POINT
  5
3EBA
330
38F3
100
AcDbEntity
  8
Defpoints
 62
     0
100
AcDbPoint
 10
1114.188591891658
 20
525.8838047200424
 30
0.0
  0
POINT
  5
3EBB
330
38F3
100
AcDbEntity
  8
Defpoints
 62
     0
100
AcDbPoint
 10
1067.188591891659
 20
525.8838047200424
 30
0.0
  0
POINT
  5
3EBC
330
38F3
100
AcDbEntity
  8
Defpoints
 62
     0
100
AcDbPoint
 10
1067.188591891659
 20
543.2976629486226
 30
0.0
  0
ENDBLK
  5
38FE
330
38F3
100
AcDbEntity
  8
0
100
AcDbBlockEnd
  0
BLOCK
  5
3908
330
38FF
100
AcDbEntity
  8
0
100
AcDbBlockBegin
  2
*D9
 70
     1
 10
0.0
 20
0.0
 30
0.0
  3
*D9
  1

  0
LINE
  5
3DB9
330
38FF
100
AcDbEntity
  8
AM_5
100
AcDbLine
 10
1055.534714140813
 20
494.2366246943495
 30
0.0
 11
1055.034714140813
 21
494.2366246943495
 31
0.0
  0
LINE
  5
3DBA
330
38FF
100
AcDbEntity
  8
AM_5
100
AcDbLine
 10
1066.188591891658
 20
503.2366246943494
 30
0.0
 11
1055.034714140813
 21
503.2366246943494
 31
0.0
  0
LINE
  5
3DBB
330
38FF
100
AcDbEntity
  8
AM_5
100
AcDbLine
 10
1056.534714140813
 20
496.7366246943495
 30
0.0
 11
1056.534714140813
 21
500.7366246943494
 31
0.0
  0
SOLID
  5
3DBC
330
38FF
100
AcDbEntity
  8
AM_5
100
AcDbTrace
 10
1056.118047474146
 20
496.7366246943495
 30
0.0
 11
1056.95138080748
 21
496.7366246943495
 31
0.0
 12
1056.534714140813
 22
494.2366246943495
 32
0.0
 13
1056.534714140813
 23
494.2366246943495
 33
0.0
  0
SOLID
  5
3DBD
330
38FF
100
AcDbEntity
  8
AM_5
100
AcDbTrace
 10
1056.118047474146
 20
500.7366246943494
 30
0.0
 11
1056.95138080748
 21
500.7366246943494
 31
0.0
 12
1056.534714140813
 22
503.2366246943494
 32
0.0
 13
1056.534714140813
 23
503.2366246943494
 33
0.0
  0
MTEXT
  5
3DBE
330
38FF
100
AcDbEntity
  8
AM_5
100
AcDbMText
 10
1054.234714140813
 20
498.7366246943496
 30
0.0
 40
3.0
 41
0.0
 71
     5
 72
     1
  1
9
 11
0.0000000000000001
 21
1.0
 31
0.0
 73
     1
 44
1.0
1001
ACAD
1000
MTEXTBEGIN
1070
    73
1070
     1
1070
    44
1040
1.0
1070
    74
1070
     0
1000
MTEXTEND
  0
POINT
  5
3DBF
330
38FF
100
AcDbEntity
  8
Defpoints
 62
     0
100
AcDbPoint
 10
1056.534714140813
 20
494.2366246943495
 30
0.0
  0
POINT
  5
3DC0
330
38FF
100
AcDbEntity
  8
Defpoints
 62
     0
100
AcDbPoint
 10
1067.188591891659
 20
503.2366246943494
 30
0.0
  0
POINT
  5
3DC1
330
38FF
100
AcDbEntity
  8
Defpoints
 62
     0
100
AcDbPoint
 10
1056.534714140813
 20
503.2366246943494
 30
0.0
  0
ENDBLK
  5
3909
330
38FF
100
AcDbEntity
  8
0
100
AcDbBlockEnd
  0
BLOCK
  5
3914
330
390A
100
AcDbEntity
  8
0
100
AcDbBlockBegin
  2
*D10
 70
     1
 10
0.0
 20
0.0
 30
0.0
  3
*D10
  1

  0
LINE
  5
3DB0
330
390A
100
AcDbEntity
  8
AM_5
100
AcDbLine
 10
1066.188591891658
 20
494.2366246943495
 30
0.0
 11
1055.034714140813
 21
494.2366246943495
 31
0.0
  0
LINE
  5
3DB1
330
390A
100
AcDbEntity
  8
AM_5
100
AcDbLine
 10
1065.325591891658
 20
480.2366246943495
 30
0.0
 11
1055.034714140813
 21
480.2366246943495
 31
0.0
  0
LINE
  5
3DB2
330
390A
100
AcDbEntity
  8
AM_5
100
AcDbLine
 10
1056.534714140813
 20
491.7366246943495
 30
0.0
 11
1056.534714140813
 21
482.7366246943495
 31
0.0
  0
SOLID
  5
3DB3
330
390A
100
AcDbEntity
  8
AM_5
100
AcDbTrace
 10
1056.118047474146
 20
491.7366246943495
 30
0.0
 11
1056.95138080748
 21
491.7366246943495
 31
0.0
 12
1056.534714140813
 22
494.2366246943495
 32
0.0
 13
1056.534714140813
 23
494.2366246943495
 33
0.0
  0
SOLID
  5
3DB4
330
390A
100
AcDbEntity
  8
AM_5
100
AcDbTrace
 10
1056.118047474146
 20
482.7366246943495
 30
0.0
 11
1056.95138080748
 21
482.7366246943495
 31
0.0
 12
1056.534714140813
 22
480.2366246943495
 32
0.0
 13
1056.534714140813
 23
480.2366246943495
 33
0.0
  0
MTEXT
  5
3DB5
330
390A
100
AcDbEntity
  8
AM_5
100
AcDbMText
 10
1054.234714140813
 20
487.2366246943497
 30
0.0
 40
3.0
 41
0.0
 71
     5
 72
     1
  1
14
 11
0.0000000000000001
 21
1.0
 31
0.0
 73
     1
 44
1.0
1001
ACAD
1000
MTEXTBEGIN
1070
    73
1070
     1
1070
    44
1040
1.0
1070
    74
1070
     0
1000
MTEXTEND
  0
POINT
  5
3DB6
330
390A
100
AcDbEntity
  8
Defpoints
 62
     0
100
AcDbPoint
 10
1067.188591891659
 20
494.2366246943495
 30
0.0
  0
POINT
  5
3DB7
330
390A
100
AcDbEntity
  8
Defpoints
 62
     0
100
AcDbPoint
 10
1066.325591891658
 20
480.2366246943495
 30
0.0
  0
POINT
  5
3DB8
330
390A
100
AcDbEntity
  8
Defpoints
 62
     0
100
AcDbPoint
 10
1056.534714140813
 20
480.2366246943495
 30
0.0
  0
ENDBLK
  5
3915
330
390A
100
AcDbEntity
  8
0
100
AcDbBlockEnd
  0
BLOCK
  5
3922
330
3916
100
AcDbEntity
  8
0
100
AcDbBlockBegin
  2
*D11
 70
     1
 10
0.0
 20
0.0
 30
0.0
  3
*D11
  1

  0
LINE
  5
3EA9
330
3916
100
AcDbEntity
  8
AM_5
100
AcDbLine
 10
1069.188591891658
 20
507.2366246943494
 30
0.0
 11
1069.188591891658
 21
528.7976629486227
 31
0.0
  0
LINE
  5
3EAA
330
3916
100
AcDbEntity
  8
AM_5
100
AcDbLine
 10
1067.188591891659
 20
516.2366246943494
 30
0.0
 11
1067.188591891659
 21
528.7976629486227
 31
0.0
  0
LINE
  5
3EAB
330
3916
100
AcDbEntity
  8
AM_5
100
AcDbLine
 10
1071.688591891658
 20
527.2976629486227
 30
0.0
 11
1074.188591891658
 21
527.2976629486227
 31
0.0
  0
LINE
  5
3EAC
330
3916
100
AcDbEntity
  8
AM_5
100
AcDbLine
 10
1064.688591891658
 20
527.2976629486227
 30
0.0
 11
1059.132233623942
 21
527.2976629486227
 31
0.0
  0
LINE
  5
3EAD
330
3916
100
AcDbEntity
  8
AM_5
100
AcDbLine
 10
1069.188591891658
 20
527.2976629486227
 30
0.0
 11
1067.188591891659
 21
527.2976629486227
 31
0.0
  0
SOLID
  5
3EAE
330
3916
100
AcDbEntity
  8
AM_5
100
AcDbTrace
 10
1071.688591891658
 20
527.7143296152893
 30
0.0
 11
1071.688591891658
 21
526.8809962819561
 31
0.0
 12
1069.188591891658
 22
527.2976629486227
 32
0.0
 13
1069.188591891658
 23
527.2976629486227
 33
0.0
  0
SOLID
  5
3EAF
330
3916
100
AcDbEntity
  8
AM_5
100
AcDbTrace
 10
1064.688591891658
 20
527.7143296152893
 30
0.0
 11
1064.688591891658
 21
526.8809962819561
 31
0.0
 12
1067.188591891659
 22
527.2976629486227
 32
0.0
 13
1067.188591891659
 23
527.2976629486227
 33
0.0
  0
MTEXT
  5
3EB0
330
3916
100
AcDbEntity
  8
AM_5
100
AcDbMText
 10
1060.6604127578
 20
529.5979582242132
 30
0.0
 40
3.0
 41
0.0
 71
     5
 72
     1
  1
2
 73
     1
 44
1.0
1001
ACAD
1000
MTEXTBEGIN
1070
    73
1070
     1
1070
    44
1040
1.0
1070
    74
1070
     0
1000
MTEXTEND
  0
POINT
  5
3EB1
330
3916
100
AcDbEntity
  8
Defpoints
 62
     0
100
AcDbPoint
 10
1069.188591891658
 20
506.2366246943494
 30
0.0
  0
POINT
  5
3EB2
330
3916
100
AcDbEntity
  8
Defpoints
 62
     0
100
AcDbPoint
 10
1067.188591891659
 20
515.2366246943493
 30
0.0
  0
POINT
  5
3EB3
330
3916
100
AcDbEntity
  8
Defpoints
 62
     0
100
AcDbPoint
 10
1067.188591891659
 20
527.2976629486227
 30
0.0
  0
ENDBLK
  5
3923
330
3916
100
AcDbEntity
  8
0
100
AcDbBlockEnd
  0
BLOCK
  5
392F
330
3924
100
AcDbEntity
  8
0
100
AcDbBlockBegin
  2
*D12
 70
     1
 10
0.0
 20
0.0
 30
0.0
  3
*D12
  1

  0
LINE
  5
3DC2
330
3924
100
AcDbEntity
  8
AM_5
100
AcDbLine
 10
1055.534714140813
 20
503.2366246943494
 30
0.0
 11
1055.034714140813
 21
503.2366246943494
 31
0.0
  0
LINE
  5
3DC3
330
3924
100
AcDbEntity
  8
AM_5
100
AcDbLine
 10
1066.188591891658
 20
506.2366246943494
 30
0.0
 11
1055.034714140813
 21
506.2366246943494
 31
0.0
  0
LINE
  5
3DC4
330
3924
100
AcDbEntity
  8
AM_5
100
AcDbLine
 10
1056.534714140813
 20
500.7366246943494
 30
0.0
 11
1056.534714140813
 21
498.2366246943493
 31
0.0
  0
LINE
  5
3DC5
330
3924
100
AcDbEntity
  8
AM_5
100
AcDbLine
 10
1056.534714140813
 20
508.7366246943494
 30
0.0
 11
1056.534714140813
 21
518.7514051313548
 31
0.0
  0
LINE
  5
3DC6
330
3924
100
AcDbEntity
  8
AM_5
100
AcDbLine
 10
1056.534714140813
 20
503.2366246943494
 30
0.0
 11
1056.534714140813
 21
506.2366246943494
 31
0.0
  0
SOLID
  5
3DC7
330
3924
100
AcDbEntity
  8
AM_5
100
AcDbTrace
 10
1056.118047474146
 20
500.7366246943494
 30
0.0
 11
1056.95138080748
 21
500.7366246943494
 31
0.0
 12
1056.534714140813
 22
503.2366246943494
 32
0.0
 13
1056.534714140813
 23
503.2366246943494
 33
0.0
  0
SOLID
  5
3DC8
330
3924
100
AcDbEntity
  8
AM_5
100
AcDbTrace
 10
1056.118047474146
 20
508.7366246943494
 30
0.0
 11
1056.95138080748
 21
508.7366246943494
 31
0.0
 12
1056.534714140813
 22
506.2366246943494
 32
0.0
 13
1056.534714140813
 23
506.2366246943494
 33
0.0
  0
MTEXT
  5
3DC9
330
3924
100
AcDbEntity
  8
AM_5
100
AcDbMText
 10
1054.234714140813
 20
514.9940149128521
 30
0.0
 40
3.0
 41
0.0
 71
     5
 72
     1
  1
3H9
 11
0.0000000000000001
 21
1.0
 31
0.0
 73
     1
 44
1.0
1001
ACAD
1000
MTEXTBEGIN
1070
    73
1070
     1
1070
    44
1040
1.0
1070
    74
1070
     0
1000
MTEXTEND
  0
POINT
  5
3DCA
330
3924
100
AcDbEntity
  8
Defpoints
 62
     0
100
AcDbPoint
 10
1056.534714140813
 20
503.2366246943494
 30
0.0
  0
POINT
  5
3DCB
330
3924
100
AcDbEntity
  8
Defpoints
 62
     0
100
AcDbPoint
 10
1067.188591891659
 20
506.2366246943494
 30
0.0
  0
POINT
  5
3DCC
330
3924
100
AcDbEntity
  8
Defpoints
 62
     0
100
AcDbPoint
 10
1056.534714140813
 20
506.2366246943494
 30
0.0
  0
ENDBLK
  5
3930
330
3924
100
AcDbEntity
  8
0
100
AcDbBlockEnd
  0
BLOCK
  5
393A
330
3931
100
AcDbEntity
  8
0
100
AcDbBlockBegin
  2
*D13
 70
     1
 10
0.0
 20
0.0
 30
0.0
  3
*D13
  1

  0
LINE
  5
3EA0
330
3931
100
AcDbEntity
  8
AM_5
100
AcDbLine
 10
1105.188591891659
 20
518.2960659081182
 30
0.0
 11
1105.188591891659
 21
528.7976629486227
 31
0.0
  0
LINE
  5
3EA1
330
3931
100
AcDbEntity
  8
AM_5
100
AcDbLine
 10
1088.188591891658
 20
492.5566246943494
 30
0.0
 11
1088.188591891658
 21
528.7976629486227
 31
0.0
  0
LINE
  5
3EA2
330
3931
100
AcDbEntity
  8
AM_5
100
AcDbLine
 10
1102.688591891658
 20
527.2976629486227
 30
0.0
 11
1090.688591891658
 21
527.2976629486227
 31
0.0
  0
SOLID
  5
3EA3
330
3931
100
AcDbEntity
  8
AM_5
100
AcDbTrace
 10
1102.688591891658
 20
527.7143296152893
 30
0.0
 11
1102.688591891658
 21
526.8809962819561
 31
0.0
 12
1105.188591891659
 22
527.2976629486227
 32
0.0
 13
1105.188591891659
 23
527.2976629486227
 33
0.0
  0
SOLID
  5
3EA4
330
3931
100
AcDbEntity
  8
AM_5
100
AcDbTrace
 10
1090.688591891658
 20
527.7143296152893
 30
0.0
 11
1090.688591891658
 21
526.8809962819561
 31
0.0
 12
1088.188591891658
 22
527.2976629486227
 32
0.0
 13
1088.188591891658
 23
527.2976629486227
 33
0.0
  0
MTEXT
  5
3EA5
330
3931
100
AcDbEntity
  8
AM_5
100
AcDbMText
 10
1096.688591891658
 20
529.5976629486226
 30
0.0
 40
3.0
 41
0.0
 71
     5
 72
     1
  1
17
 73
     1
 44
1.0
1001
ACAD
1000
MTEXTBEGIN
1070
    73
1070
     1
1070
    44
1040
1.0
1070
    74
1070
     0
1000
MTEXTEND
  0
POINT
  5
3EA6
330
3931
100
AcDbEntity
  8
Defpoints
 62
     0
100
AcDbPoint
 10
1105.188591891659
 20
517.2960659081182
 30
0.0
  0
POINT
  5
3EA7
330
3931
100
AcDbEntity
  8
Defpoints
 62
     0
100
AcDbPoint
 10
1088.188591891658
 20
491.5566246943495
 30
0.0
  0
POINT
  5
3EA8
330
3931
100
AcDbEntity
  8
Defpoints
 62
     0
100
AcDbPoint
 10
1088.188591891658
 20
527.2976629486227
 30
0.0
  0
ENDBLK
  5
393B
330
3931
100
AcDbEntity
  8
0
100
AcDbBlockEnd
  0
BLOCK
  5
3945
330
393C
100
AcDbEntity
  8
0
100
AcDbBlockBegin
  2
*D14
 70
     1
 10
0.0
 20
0.0
 30
0.0
  3
*D14
  1

  0
LINE
  5
3E97
330
393C
100
AcDbEntity
  8
AM_5
100
AcDbLine
 10
1105.188591891659
 20
508.9206246943494
 30
0.0
 11
1105.188591891659
 21
528.7976629486227
 31
0.0
  0
LINE
  5
3E98
330
393C
100
AcDbEntity
  8
AM_5
100
AcDbLine
 10
1114.188591891658
 20
518.2960659081182
 30
0.0
 11
1114.188591891658
 21
528.7976629486227
 31
0.0
  0
LINE
  5
3E99
330
393C
100
AcDbEntity
  8
AM_5
100
AcDbLine
 10
1107.688591891658
 20
527.2976629486227
 30
0.0
 11
1111.688591891659
 21
527.2976629486227
 31
0.0
  0
SOLID
  5
3E9A
330
393C
100
AcDbEntity
  8
AM_5
100
AcDbTrace
 10
1107.688591891658
 20
527.7143296152893
 30
0.0
 11
1107.688591891658
 21
526.8809962819561
 31
0.0
 12
1105.188591891659
 22
527.2976629486227
 32
0.0
 13
1105.188591891659
 23
527.2976629486227
 33
0.0
  0
SOLID
  5
3E9B
330
393C
100
AcDbEntity
  8
AM_5
100
AcDbTrace
 10
1111.688591891659
 20
527.7143296152893
 30
0.0
 11
1111.688591891659
 21
526.8809962819561
 31
0.0
 12
1114.188591891658
 22
527.2976629486227
 32
0.0
 13
1114.188591891658
 23
527.2976629486227
 33
0.0
  0
MTEXT
  5
3E9C
330
393C
100
AcDbEntity
  8
AM_5
100
AcDbMText
 10
1109.688591891659
 20
529.5976629486226
 30
0.0
 40
3.0
 41
0.0
 71
     5
 72
     1
  1
9
 73
     1
 44
1.0
1001
ACAD
1000
MTEXTBEGIN
1070
    73
1070
     1
1070
    44
1040
1.0
1070
    74
1070
     0
1000
MTEXTEND
  0
POINT
  5
3E9D
330
393C
100
AcDbEntity
  8
Defpoints
 62
     0
100
AcDbPoint
 10
1105.188591891659
 20
507.9206246943495
 30
0.0
  0
POINT
  5
3E9E
330
393C
100
AcDbEntity
  8
Defpoints
 62
     0
100
AcDbPoint
 10
1114.188591891658
 20
517.2960659081182
 30
0.0
  0
POINT
  5
3E9F
330
393C
100
AcDbEntity
  8
Defpoints
 62
     0
100
AcDbPoint
 10
1114.188591891658
 20
527.2976629486227
 30
0.0
  0
ENDBLK
  5
3946
330
393C
100
AcDbEntity
  8
0
100
AcDbBlockEnd
  0
BLOCK
  5
3951
330
3947
100
AcDbEntity
  8
0
100
AcDbBlockBegin
  2
*D15
 70
     1
 10
0.0
 20
0.0
 30
0.0
  3
*D15
  1

  0
LINE
  5
3DEA
330
3947
100
AcDbEntity
  8
AM_5
100
AcDbLine
 10
1197.291359442599
 20
396.6401548051082
 30
0.0
 11
1156.057015842271
 21
402.0689249239207
 31
0.0
  0
LINE
  5
3DEB
330
3947
100
AcDbEntity
  8
AM_5
100
AcDbLine
 10
1193.832383195805
 20
370.3674241600158
 30
0.0
 11
1152.598039595477
 21
375.7961942788284
 31
0.0
  0
LINE
  5
3DEC
330
3947
100
AcDbEntity
  8
AM_5
100
AcDbLine
 10
1157.217857083596
 20
399.3945188940814
 30
0.0
 11
1154.411531390594
 21
378.0790099763918
 31
0.0
  0
SOLID
  5
3DED
330
3947
100
AcDbEntity
  8
AM_5
100
AcDbTrace
 10
1156.804755272978
 20
399.4489064402308
 30
0.0
 11
1157.630958894212
 21
399.3401313479319
 31
0.0
 12
1157.544182360492
 22
401.8731297577827
 32
0.0
 13
1157.544182360492
 23
401.8731297577827
 33
0.0
  0
SOLID
  5
3DEE
330
3947
100
AcDbEntity
  8
AM_5
100
AcDbTrace
 10
1153.998429579977
 20
378.1333975225412
 30
0.0
 11
1154.824633201211
 21
378.0246224302423
 31
0.0
 12
1154.085206113698
 22
375.6003991126905
 32
0.0
 13
1154.085206113698
 23
375.6003991126905
 33
0.0
  0
MTEXT
  5
3DEF
330
3947
100
AcDbEntity
  8
AM_5
100
AcDbMText
 10
1153.534079493175
 20
389.0370222323371
 30
0.0
 40
3.0
 41
0.0
 71
     5
 72
     1
  1
26.5
 11
0.1305301107586344
 21
0.9914443454805411
 31
0.0
 73
     1
 44
1.0
1001
ACAD
1000
MTEXTBEGIN
1070
    73
1070
     1
1070
    44
1040
1.0
1070
    74
1070
     0
1000
MTEXTEND
  0
POINT
  5
3DF0
330
3947
100
AcDbEntity
  8
Defpoints
 62
     0
100
AcDbPoint
 10
1198.282803788079
 20
396.5096246943496
 30
0.0
  0
POINT
  5
3DF1
330
3947
100
AcDbEntity
  8
Defpoints
 62
     0
100
AcDbPoint
 10
1194.823827541285
 20
370.2368940492572
 30
0.0
  0
POINT
  5
3DF2
330
3947
100
AcDbEntity
  8
Defpoints
 62
     0
100
AcDbPoint
 10
1154.085206113698
 20
375.6003991126905
 30
0.0
  0
ENDBLK
  5
3952
330
3947
100
AcDbEntity
  8
0
100
AcDbBlockEnd
  0
BLOCK
  5
395D
330
3953
100
AcDbEntity
  8
0
100
AcDbBlockBegin
  2
*D16
 70
     1
 10
0.0
 20
0.0
 30
0.0
  3
*D16
  1

  0
LINE
  5
3DE1
330
3953
100
AcDbEntity
  8
AM_5
100
AcDbLine
 10
1193.832381611565
 20
370.3674121263168
 30
0.0
 11
1152.597972125393
 21
375.7956817610895
 31
0.0
  0
LINE
  5
3DE2
330
3953
100
AcDbEntity
  8
AM_5
100
AcDbLine
 10
1190.765141415431
 20
347.0679360963037
 30
0.0
 11
1149.530731929259
 21
352.4962057310763
 31
0.0
  0
LINE
  5
3DE3
330
3953
100
AcDbEntity
  8
AM_5
100
AcDbLine
 10
1153.758845827326
 20
373.1212898211971
 30
0.0
 11
1151.34419601649
 21
354.7790434397898
 31
0.0
  0
SOLID
  5
3DE4
330
3953
100
AcDbEntity
  8
AM_5
100
AcDbTrace
 10
1153.345743356609
 20
373.1756723533053
 30
0.0
 11
1154.171948298043
 21
373.066907289089
 31
0.0
 12
1154.085141019975
 22
375.5999046455
 32
0.0
 13
1154.085141019975
 23
375.5999046455
 33
0.0
  0
SOLID
  5
3DE5
330
3953
100
AcDbEntity
  8
AM_5
100
AcDbTrace
 10
1150.931093545773
 20
354.833425971898
 30
0.0
 11
1151.757298487207
 21
354.7246609076816
 31
0.0
 12
1151.017900823841
 22
352.3004286154868
 32
0.0
 13
1151.017900823841
 23
352.3004286154868
 33
0.0
  0
MTEXT
  5
3DE6
330
3953
100
AcDbEntity
  8
AM_5
100
AcDbMText
 10
1150.270902533767
 20
364.2503967465328
 30
0.0
 40
3.0
 41
0.0
 71
     5
 72
     1
  1
23.5
 11
0.1305180770596264
 21
0.991445929721161
 31
0.0
 73
     1
 44
1.0
1001
ACAD
1000
MTEXTBEGIN
1070
    73
1070
     1
1070
    44
1040
1.0
1070
    74
1070
     0
1000
MTEXTEND
  0
POINT
  5
3DE7
330
3953
100
AcDbEntity
  8
Defpoints
 62
     0
100
AcDbPoint
 10
1194.823827541285
 20
370.2368940492572
 30
0.0
  0
POINT
  5
3DE8
330
3953
100
AcDbEntity
  8
Defpoints
 62
     0
100
AcDbPoint
 10
1191.756587345151
 20
346.9374180192441
 30
0.0
  0
POINT
  5
3DE9
330
3953
100
AcDbEntity
  8
Defpoints
 62
     0
100
AcDbPoint
 10
1151.017900823841
 20
352.3004286154868
 30
0.0
  0
ENDBLK
  5
395E
330
3953
100
AcDbEntity
  8
0
100
AcDbBlockEnd
  0
BLOCK
  5
3969
330
395F
100
AcDbEntity
  8
0
100
AcDbBlockBegin
  2
*D17
 70
     1
 10
0.0
 20
0.0
 30
0.0
  3
*D17
  1

  0
LINE
  5
3DD6
330
395F
100
AcDbEntity
  8
AM_5
100
AcDbLine
 10
1190.76514141543
 20
347.0679360963037
 30
0.0
 11
1149.530731929258
 21
352.4962057310746
 31
0.0
  0
LINE
  5
3DD7
330
395F
100
AcDbEntity
  8
AM_5
100
AcDbLine
 10
1189.982019610106
 20
341.1191591616693
 30
0.0
 11
1148.747610123934
 21
346.5474287964402
 31
0.0
  0
LINE
  5
3DD8
330
395F
100
AcDbEntity
  8
AM_5
100
AcDbLine
 10
1151.344196016489
 20
354.7790434397882
 30
0.0
 11
1151.670491209138
 21
357.257658264091
 31
0.0
  0
LINE
  5
3DD9
330
395F
100
AcDbEntity
  8
AM_5
100
AcDbLine
 10
1149.908483825867
 20
343.8730368565479
 30
0.0
 11
1149.582188633218
 21
341.3944220322449
 31
0.0
  0
LINE
  5
3DDA
330
395F
100
AcDbEntity
  8
AM_5
100
AcDbLine
 10
1151.01790082384
 20
352.3004286154852
 30
0.0
 11
1150.234779018516
 21
346.3516516808507
 31
0.0
  0
SOLID
  5
3DDB
330
395F
100
AcDbEntity
  8
AM_5
100
AcDbTrace
 10
1150.931093545772
 20
354.8334259718963
 30
0.0
 11
1151.757298487207
 21
354.72466090768
 31
0.0
 12
1151.01790082384
 22
352.3004286154852
 32
0.0
 13
1151.01790082384
 23
352.3004286154852
 33
0.0
  0
SOLID
  5
3DDC
330
395F
100
AcDbEntity
  8
AM_5
100
AcDbTrace
 10
1149.49538135515
 20
343.9274193886561
 30
0.0
 11
1150.321586296584
 21
343.8186543244396
 31
0.0
 12
1150.234779018516
 22
346.3516516808507
 32
0.0
 13
1150.234779018516
 23
346.3516516808507
 33
0.0
  0
MTEXT
  5
3DDD
330
395F
100
AcDbEntity
  8
AM_5
100
AcDbMText
 10
1148.346014282819
 20
349.6262317254051
 30
0.0
 40
3.0
 41
0.0
 71
     5
 72
     1
  1
6
 11
0.1305180770595832
 21
0.9914459297211667
 31
0.0
 73
     1
 44
1.0
1001
ACAD
1000
MTEXTBEGIN
1070
    73
1070
     1
1070
    44
1040
1.0
1070
    74
1070
     0
1000
MTEXTEND
  0
POINT
  5
3DDE
330
395F
100
AcDbEntity
  8
Defpoints
 62
     0
100
AcDbPoint
 10
1191.756587345151
 20
346.9374180192441
 30
0.0
  0
POINT
  5
3DDF
330
395F
100
AcDbEntity
  8
Defpoints
 62
     0
100
AcDbPoint
 10
1190.973465539827
 20
340.9886410846096
 30
0.0
  0
POINT
  5
3DE0
330
395F
100
AcDbEntity
  8
Defpoints
 62
     0
100
AcDbPoint
 10
1150.234779018516
 20
346.3516516808507
 30
0.0
  0
ENDBLK
  5
396A
330
395F
100
AcDbEntity
  8
0
100
AcDbBlockEnd
  0
BLOCK
  5
3974
330
396B
100
AcDbEntity
  8
0
100
AcDbBlockBegin
  2
*D18
 70
     1
 10
0.0
 20
0.0
 30
0.0
  3
*D18
  1

  0
LINE
  5
3E88
330
396B
100
AcDbEntity
  8
AM_5
100
AcDbLine
 10
1082.188591891658
 20
324.9869158523195
 30
0.0
 11
1082.188591891658
 21
321.3869628748444
 31
0.0
  0
LINE
  5
3E89
330
396B
100
AcDbEntity
  8
AM_5
100
AcDbLine
 10
1075.188591891659
 20
334.8826246943495
 30
0.0
 11
1075.188591891659
 21
321.3869628748444
 31
0.0
  0
LINE
  5
3E8A
330
396B
100
AcDbEntity
  8
AM_5
100
AcDbLine
 10
1079.688591891658
 20
322.8869628748443
 30
0.0
 11
1077.688591891658
 21
322.8869628748443
 31
0.0
  0
SOLID
  5
3E8B
330
396B
100
AcDbEntity
  8
AM_5
100
AcDbTrace
 10
1079.688591891658
 20
323.303629541511
 30
0.0
 11
1079.688591891658
 21
322.4702962081777
 31
0.0
 12
1082.188591891658
 22
322.8869628748443
 32
0.0
 13
1082.188591891658
 23
322.8869628748443
 33
0.0
  0
SOLID
  5
3E8C
330
396B
100
AcDbEntity
  8
AM_5
100
AcDbTrace
 10
1077.688591891658
 20
323.303629541511
 30
0.0
 11
1077.688591891658
 21
322.4702962081777
 31
0.0
 12
1075.188591891659
 22
322.8869628748443
 32
0.0
 13
1075.188591891659
 23
322.8869628748443
 33
0.0
  0
MTEXT
  5
3E8D
330
396B
100
AcDbEntity
  8
AM_5
100
AcDbMText
 10
1078.688591891658
 20
325.1869628748444
 30
0.0
 40
3.0
 41
0.0
 71
     5
 72
     1
  1
7
 73
     1
 44
1.0
1001
ACAD
1000
MTEXTBEGIN
1070
    73
1070
     1
1070
    44
1040
1.0
1070
    74
1070
     0
1000
MTEXTEND
  0
POINT
  5
3E8E
330
396B
100
AcDbEntity
  8
Defpoints
 62
     0
100
AcDbPoint
 10
1082.188591891658
 20
325.9869158523195
 30
0.0
  0
POINT
  5
3E8F
330
396B
100
AcDbEntity
  8
Defpoints
 62
     0
100
AcDbPoint
 10
1075.188591891659
 20
335.8826246943495
 30
0.0
  0
POINT
  5
3E90
330
396B
100
AcDbEntity
  8
Defpoints
 62
     0
100
AcDbPoint
 10
1075.188591891659
 20
322.8869628748443
 30
0.0
  0
ENDBLK
  5
3975
330
396B
100
AcDbEntity
  8
0
100
AcDbBlockEnd
  0
BLOCK
  5
3980
330
3976
100
AcDbEntity
  8
0
100
AcDbBlockBegin
  2
*D19
 70
     1
 10
0.0
 20
0.0
 30
0.0
  3
*D19
  1

  0
LINE
  5
3E7F
330
3976
100
AcDbEntity
  8
AM_5
100
AcDbLine
 10
1082.188591891658
 20
334.8826246943495
 30
0.0
 11
1082.188591891658
 21
321.3869628748444
 31
0.0
  0
LINE
  5
3E80
330
3976
100
AcDbEntity
  8
AM_5
100
AcDbLine
 10
1114.189591891658
 20
338.2366246943495
 30
0.0
 11
1114.189591891658
 21
321.3869628748444
 31
0.0
  0
LINE
  5
3E81
330
3976
100
AcDbEntity
  8
AM_5
100
AcDbLine
 10
1084.688591891659
 20
322.8869628748443
 30
0.0
 11
1111.689591891658
 21
322.8869628748443
 31
0.0
  0
SOLID
  5
3E82
330
3976
100
AcDbEntity
  8
AM_5
100
AcDbTrace
 10
1084.688591891659
 20
323.303629541511
 30
0.0
 11
1084.688591891659
 21
322.4702962081777
 31
0.0
 12
1082.188591891658
 22
322.8869628748443
 32
0.0
 13
1082.188591891658
 23
322.8869628748443
 33
0.0
  0
SOLID
  5
3E83
330
3976
100
AcDbEntity
  8
AM_5
100
AcDbTrace
 10
1111.689591891658
 20
323.303629541511
 30
0.0
 11
1111.689591891658
 21
322.4702962081777
 31
0.0
 12
1114.189591891658
 22
322.8869628748443
 32
0.0
 13
1114.189591891658
 23
322.8869628748443
 33
0.0
  0
MTEXT
  5
3E84
330
3976
100
AcDbEntity
  8
AM_5
100
AcDbMText
 10
1098.189091891659
 20
325.1872581504349
 30
0.0
 40
3.0
 41
0.0
 71
     5
 72
     1
  1
32
 73
     1
 44
1.0
1001
ACAD
1000
MTEXTBEGIN
1070
    73
1070
     1
1070
    44
1040
1.0
1070
    74
1070
     0
1000
MTEXTEND
  0
POINT
  5
3E85
330
3976
100
AcDbEntity
  8
Defpoints
 62
     0
100
AcDbPoint
 10
1082.188591891658
 20
335.8826246943495
 30
0.0
  0
POINT
  5
3E86
330
3976
100
AcDbEntity
  8
Defpoints
 62
     0
100
AcDbPoint
 10
1114.189591891658
 20
339.2366246943495
 30
0.0
  0
POINT
  5
3E87
330
3976
100
AcDbEntity
  8
Defpoints
 62
     0
100
AcDbPoint
 10
1114.189591891658
 20
322.8869628748443
 30
0.0
  0
ENDBLK
  5
3981
330
3976
100
AcDbEntity
  8
0
100
AcDbBlockEnd
  0
BLOCK
  5
398D
330
3982
100
AcDbEntity
  8
0
100
AcDbBlockBegin
  2
*D20
 70
     1
 10
0.0
 20
0.0
 30
0.0
  3
*D20
  1

  0
LINE
  5
3E05
330
3982
100
AcDbEntity
  8
AM_5
100
AcDbLine
 10
1010.333513625548
 20
337.1026056417209
 30
0.0
 11
1016.612186303979
 21
326.2279445626786
 31
0.0
  0
LINE
  5
3E06
330
3982
100
AcDbEntity
  8
AM_5
100
AcDbLine
 10
1017.261513625548
 20
341.1026056417207
 30
0.0
 11
1023.540186303979
 21
330.2279445626784
 31
0.0
  0
LINE
  5
3E07
330
3982
100
AcDbEntity
  8
AM_5
100
AcDbLine
 10
1018.027217435007
 20
328.7770006425291
 30
0.0
 11
1020.625122171863
 21
330.276945640714
 31
0.0
  0
LINE
  5
3E08
330
3982
100
AcDbEntity
  8
AM_5
100
AcDbLine
 10
1022.790169803435
 20
331.5269731416216
 30
0.0
 11
1031.203354753986
 21
336.3844702262355
 31
0.0
  0
SOLID
  5
3E09
330
3982
100
AcDbEntity
  8
AM_5
100
AcDbTrace
 10
1017.818879518189
 20
329.1378419144578
 30
0.0
 11
1018.235555351824
 21
328.4161593706004
 31
0.0
 12
1015.862169803435
 22
327.5269731416217
 32
0.0
 13
1015.862169803435
 23
327.5269731416217
 33
0.0
  0
SOLID
  5
3E0A
330
3982
100
AcDbEntity
  8
AM_5
100
AcDbTrace
 10
1020.416784255045
 20
330.6377869126426
 30
0.0
 11
1020.833460088681
 21
329.9161043687854
 31
0.0
 12
1022.790169803435
 22
331.5269731416216
 32
0.0
 13
1022.790169803435
 23
331.5269731416216
 33
0.0
  0
MTEXT
  5
3E0B
330
3982
100
AcDbEntity
  8
AM_5
100
AcDbMText
 10
1026.929260793662
 20
336.5725792554283
 30
0.0
 40
3.0
 41
0.0
 71
     5
 72
     1
  1
8h9
 11
0.8660190526287424
 21
0.5000110003630074
 31
0.0
 73
     1
 44
1.0
1001
ACAD
1000
MTEXTBEGIN
1070
    73
1070
     1
1070
    44
1040
1.0
1070
    74
1070
     0
1000
MTEXTEND
  0
POINT
  5
3E0C
330
3982
100
AcDbEntity
  8
Defpoints
 62
     0
100
AcDbPoint
 10
1009.833502625186
 20
337.9686246943496
 30
0.0
  0
POINT
  5
3E0D
330
3982
100
AcDbEntity
  8
Defpoints
 62
     0
100
AcDbPoint
 10
1016.761502625185
 20
341.9686246943494
 30
0.0
  0
POINT
  5
3E0E
330
3982
100
AcDbEntity
  8
Defpoints
 62
     0
100
AcDbPoint
 10
1022.790169803435
 20
331.5269731416216
 30
0.0
  0
ENDBLK
  5
398E
330
3982
100
AcDbEntity
  8
0
100
AcDbBlockEnd
  0
BLOCK
  5
3999
330
398F
100
AcDbEntity
  8
0
100
AcDbBlockBegin
  2
*D21
 70
     1
 10
0.0
 20
0.0
 30
0.0
  3
*D21
  1

  0
LINE
  5
3E58
330
398F
100
AcDbEntity
  8
AM_5
100
AcDbLine
 10
960.7245026251858
 20
361.1516246943495
 30
0.0
 11
960.7245026251858
 21
318.1001712225072
 31
0.0
  0
LINE
  5
3E59
330
398F
100
AcDbEntity
  8
AM_5
100
AcDbLine
 10
995.7242186311271
 20
369.2364253601418
 30
0.0
 11
995.7242186311271
 21
318.1001712225072
 31
0.0
  0
LINE
  5
3E5A
330
398F
100
AcDbEntity
  8
AM_5
100
AcDbLine
 10
963.2245026251858
 20
319.6001712225073
 30
0.0
 11
993.224218631127
 21
319.6001712225073
 31
0.0
  0
SOLID
  5
3E5B
330
398F
100
AcDbEntity
  8
AM_5
100
AcDbTrace
 10
963.2245026251858
 20
320.0168378891739
 30
0.0
 11
963.2245026251858
 21
319.1835045558406
 31
0.0
 12
960.7245026251858
 22
319.6001712225073
 32
0.0
 13
960.7245026251858
 23
319.6001712225073
 33
0.0
  0
SOLID
  5
3E5C
330
398F
100
AcDbEntity
  8
AM_5
100
AcDbTrace
 10
993.224218631127
 20
320.0168378891739
 30
0.0
 11
993.224218631127
 21
319.1835045558406
 31
0.0
 12
995.7242186311271
 22
319.6001712225073
 32
0.0
 13
995.7242186311271
 23
319.6001712225073
 33
0.0
  0
MTEXT
  5
3E5D
330
398F
100
AcDbEntity
  8
AM_5
100
AcDbMText
 10
978.2243606281562
 20
321.9001712225073
 30
0.0
 40
3.0
 41
0.0
 71
     5
 72
     1
  1
35
 73
     1
 44
1.0
1001
ACAD
1000
MTEXTBEGIN
1070
    73
1070
     1
1070
    44
1040
1.0
1070
    74
1070
     0
1000
MTEXTEND
  0
POINT
  5
3E5E
330
398F
100
AcDbEntity
  8
Defpoints
 62
     0
100
AcDbPoint
 10
960.7245026251858
 20
362.1516246943495
 30
0.0
  0
POINT
  5
3E5F
330
398F
100
AcDbEntity
  8
Defpoints
 62
     0
100
AcDbPoint
 10
995.7242186311271
 20
370.2364253601418
 30
0.0
  0
POINT
  5
3E60
330
398F
100
AcDbEntity
  8
Defpoints
 62
     0
100
AcDbPoint
 10
995.7242186311271
 20
319.6001712225073
 30
0.0
  0
ENDBLK
  5
399A
330
398F
100
AcDbEntity
  8
0
100
AcDbBlockEnd
  0
BLOCK
  5
39A5
330
399B
100
AcDbEntity
  8
0
100
AcDbBlockBegin
  2
*D22
 70
     1
 10
0.0
 20
0.0
 30
0.0
  3
*D22
  1

  0
LINE
  5
3E70
330
399B
100
AcDbEntity
  8
AM_5
100
AcDbLine
 10
959.7245026251858
 20
378.1516246943495
 30
0.0
 11
930.4573009230141
 21
378.1516246943495
 31
0.0
  0
LINE
  5
3E71
330
399B
100
AcDbEntity
  8
AM_5
100
AcDbLine
 10
959.7245026251858
 20
362.1516246943495
 30
0.0
 11
930.4573009230141
 21
362.1516246943495
 31
0.0
  0
LINE
  5
3E72
330
399B
100
AcDbEntity
  8
AM_5
100
AcDbLine
 10
931.9573009230142
 20
375.6516246943495
 30
0.0
 11
931.9573009230142
 21
364.6516246943495
 31
0.0
  0
SOLID
  5
3E73
330
399B
100
AcDbEntity
  8
AM_5
100
AcDbTrace
 10
931.5406342563475
 20
375.6516246943495
 30
0.0
 11
932.3739675896808
 21
375.6516246943495
 31
0.0
 12
931.9573009230142
 22
378.1516246943495
 32
0.0
 13
931.9573009230142
 23
378.1516246943495
 33
0.0
  0
SOLID
  5
3E74
330
399B
100
AcDbEntity
  8
AM_5
100
AcDbTrace
 10
931.5406342563475
 20
364.6516246943495
 30
0.0
 11
932.3739675896808
 21
364.6516246943495
 31
0.0
 12
931.9573009230142
 22
362.1516246943495
 32
0.0
 13
931.9573009230142
 23
362.1516246943495
 33
0.0
  0
MTEXT
  5
3E75
330
399B
100
AcDbEntity
  8
AM_5
100
AcDbMText
 10
929.657300923014
 20
370.1516246943497
 30
0.0
 40
3.0
 41
0.0
 71
     5
 72
     1
  1
16
 11
0.0000000000000001
 21
1.0
 31
0.0
 73
     1
 44
1.0
1001
ACAD
1000
MTEXTBEGIN
1070
    73
1070
     1
1070
    44
1040
1.0
1070
    74
1070
     0
1000
MTEXTEND
  0
POINT
  5
3E76
330
399B
100
AcDbEntity
  8
Defpoints
 62
     0
100
AcDbPoint
 10
960.7245026251858
 20
378.1516246943495
 30
0.0
  0
POINT
  5
3E77
330
399B
100
AcDbEntity
  8
Defpoints
 62
     0
100
AcDbPoint
 10
960.7245026251858
 20
362.1516246943495
 30
0.0
  0
POINT
  5
3E78
330
399B
100
AcDbEntity
  8
Defpoints
 62
     0
100
AcDbPoint
 10
931.9573009230142
 20
362.1516246943495
 30
0.0
  0
ENDBLK
  5
39A6
330
399B
100
AcDbEntity
  8
0
100
AcDbBlockEnd
  0
BLOCK
  5
39B1
330
39A7
100
AcDbEntity
  8
0
100
AcDbBlockBegin
  2
*D23
 70
     1
 10
0.0
 20
0.0
 30
0.0
  3
*D23
  1

  0
LINE
  5
3E67
330
39A7
100
AcDbEntity
  8
AM_5
100
AcDbLine
 10
959.7245026251858
 20
374.2366246943495
 30
0.0
 11
938.4573009230141
 21
374.2366246943495
 31
0.0
  0
LINE
  5
3E68
330
39A7
100
AcDbEntity
  8
AM_5
100
AcDbLine
 10
959.7245026251858
 20
366.2366246943495
 30
0.0
 11
938.4573009230141
 21
366.2366246943495
 31
0.0
  0
LINE
  5
3E69
330
39A7
100
AcDbEntity
  8
AM_5
100
AcDbLine
 10
939.9573009230142
 20
371.7366246943495
 30
0.0
 11
939.9573009230142
 21
368.7366246943495
 31
0.0
  0
SOLID
  5
3E6A
330
39A7
100
AcDbEntity
  8
AM_5
100
AcDbTrace
 10
939.5406342563475
 20
371.7366246943495
 30
0.0
 11
940.3739675896808
 21
371.7366246943495
 31
0.0
 12
939.9573009230142
 22
374.2366246943495
 32
0.0
 13
939.9573009230142
 23
374.2366246943495
 33
0.0
  0
SOLID
  5
3E6B
330
39A7
100
AcDbEntity
  8
AM_5
100
AcDbTrace
 10
939.5406342563475
 20
368.7366246943495
 30
0.0
 11
940.3739675896808
 21
368.7366246943495
 31
0.0
 12
939.9573009230142
 22
366.2366246943495
 32
0.0
 13
939.9573009230142
 23
366.2366246943495
 33
0.0
  0
MTEXT
  5
3E6C
330
39A7
100
AcDbEntity
  8
AM_5
100
AcDbMText
 10
937.657300923014
 20
370.2366246943497
 30
0.0
 40
3.0
 41
0.0
 71
     5
 72
     1
  1
8
 11
0.0000000000000001
 21
1.0
 31
0.0
 73
     1
 44
1.0
1001
ACAD
1000
MTEXTBEGIN
1070
    73
1070
     1
1070
    44
1040
1.0
1070
    74
1070
     0
1000
MTEXTEND
  0
POINT
  5
3E6D
330
39A7
100
AcDbEntity
  8
Defpoints
 62
     0
100
AcDbPoint
 10
960.7245026251858
 20
374.2366246943495
 30
0.0
  0
POINT
  5
3E6E
330
39A7
100
AcDbEntity
  8
Defpoints
 62
     0
100
AcDbPoint
 10
960.7245026251858
 20
366.2366246943495
 30
0.0
  0
POINT
  5
3E6F
330
39A7
100
AcDbEntity
  8
Defpoints
 62
     0
100
AcDbPoint
 10
939.9573009230142
 20
366.2366246943495
 30
0.0
  0
ENDBLK
  5
39B2
330
39A7
100
AcDbEntity
  8
0
100
AcDbBlockEnd
  0
BLOCK
  5
39BE
330
39B3
100
AcDbEntity
  8
0
100
AcDbBlockBegin
  2
*D24
 70
     1
 10
0.0
 20
0.0
 30
0.0
  3
*D24
  1

  0
LINE
  5
3E4D
330
39B3
100
AcDbEntity
  8
AM_5
100
AcDbLine
 10
977.2245026251857
 20
333.5581886940409
 30
0.0
 11
977.2245026251857
 21
326.1001712225072
 31
0.0
  0
LINE
  5
3E4E
330
39B3
100
AcDbEntity
  8
AM_5
100
AcDbLine
 10
981.7245026251857
 20
365.2366246943495
 30
0.0
 11
981.7245026251857
 21
326.1001712225072
 31
0.0
  0
LINE
  5
3E4F
330
39B3
100
AcDbEntity
  8
AM_5
100
AcDbLine
 10
974.7245026251858
 20
327.6001712225073
 30
0.0
 11
972.2245026251858
 21
327.6001712225073
 31
0.0
  0
LINE
  5
3E50
330
39B3
100
AcDbEntity
  8
AM_5
100
AcDbLine
 10
984.2245026251857
 20
327.6001712225073
 30
0.0
 11
992.9487666938976
 21
327.6001712225073
 31
0.0
  0
LINE
  5
3E51
330
39B3
100
AcDbEntity
  8
AM_5
100
AcDbLine
 10
977.2245026251857
 20
327.6001712225073
 30
0.0
 11
981.7245026251857
 21
327.6001712225073
 31
0.0
  0
SOLID
  5
3E52
330
39B3
100
AcDbEntity
  8
AM_5
100
AcDbTrace
 10
974.7245026251858
 20
328.0168378891739
 30
0.0
 11
974.7245026251858
 21
327.1835045558406
 31
0.0
 12
977.2245026251857
 22
327.6001712225073
 32
0.0
 13
977.2245026251857
 23
327.6001712225073
 33
0.0
  0
SOLID
  5
3E53
330
39B3
100
AcDbEntity
  8
AM_5
100
AcDbTrace
 10
984.2245026251857
 20
328.0168378891739
 30
0.0
 11
984.2245026251857
 21
327.1835045558406
 31
0.0
 12
981.7245026251857
 22
327.6001712225073
 32
0.0
 13
981.7245026251857
 23
327.6001712225073
 33
0.0
  0
MTEXT
  5
3E54
330
39B3
100
AcDbEntity
  8
AM_5
100
AcDbMText
 10
989.8366346595416
 20
329.9001712225073
 30
0.0
 40
3.0
 41
0.0
 71
     5
 72
     1
  1
4.5
 73
     1
 44
1.0
1001
ACAD
1000
MTEXTBEGIN
1070
    73
1070
     1
1070
    44
1040
1.0
1070
    74
1070
     0
1000
MTEXTEND
  0
POINT
  5
3E55
330
39B3
100
AcDbEntity
  8
Defpoints
 62
     0
100
AcDbPoint
 10
977.2245026251857
 20
334.5581886940408
 30
0.0
  0
POINT
  5
3E56
330
39B3
100
AcDbEntity
  8
Defpoints
 62
     0
100
AcDbPoint
 10
981.7245026251857
 20
366.2366246943495
 30
0.0
  0
POINT
  5
3E57
330
39B3
100
AcDbEntity
  8
Defpoints
 62
     0
100
AcDbPoint
 10
981.7245026251857
 20
327.6001712225073
 30
0.0
  0
ENDBLK
  5
39BF
330
39B3
100
AcDbEntity
  8
0
100
AcDbBlockEnd
  0
BLOCK
  5
39CA
330
39C0
100
AcDbEntity
  8
0
100
AcDbBlockBegin
  2
*D25
 70
     1
 10
0.0
 20
0.0
 30
0.0
  3
*D25
  1

  0
LINE
  5
3E44
330
39C0
100
AcDbEntity
  8
AM_5
100
AcDbLine
 10
965.2245026251858
 20
366.4776246943495
 30
0.0
 11
965.2245026251858
 21
326.1001712225072
 31
0.0
  0
LINE
  5
3E45
330
39C0
100
AcDbEntity
  8
AM_5
100
AcDbLine
 10
977.2245026251857
 20
366.3216246943495
 30
0.0
 11
977.2245026251857
 21
326.1001712225072
 31
0.0
  0
LINE
  5
3E46
330
39C0
100
AcDbEntity
  8
AM_5
100
AcDbLine
 10
967.7245026251858
 20
327.6001712225073
 30
0.0
 11
974.7245026251858
 21
327.6001712225073
 31
0.0
  0
SOLID
  5
3E47
330
39C0
100
AcDbEntity
  8
AM_5
100
AcDbTrace
 10
967.7245026251858
 20
328.0168378891739
 30
0.0
 11
967.7245026251858
 21
327.1835045558406
 31
0.0
 12
965.2245026251858
 22
327.6001712225073
 32
0.0
 13
965.2245026251858
 23
327.6001712225073
 33
0.0
  0
SOLID
  5
3E48
330
39C0
100
AcDbEntity
  8
AM_5
100
AcDbTrace
 10
974.7245026251858
 20
328.0168378891739
 30
0.0
 11
974.7245026251858
 21
327.1835045558406
 31
0.0
 12
977.2245026251857
 22
327.6001712225073
 32
0.0
 13
977.2245026251857
 23
327.6001712225073
 33
0.0
  0
MTEXT
  5
3E49
330
39C0
100
AcDbEntity
  8
AM_5
100
AcDbMText
 10
971.2245026251858
 20
329.9004664980978
 30
0.0
 40
3.0
 41
0.0
 71
     5
 72
     1
  1
12
 73
     1
 44
1.0
1001
ACAD
1000
MTEXTBEGIN
1070
    73
1070
     1
1070
    44
1040
1.0
1070
    74
1070
     0
1000
MTEXTEND
  0
POINT
  5
3E4A
330
39C0
100
AcDbEntity
  8
Defpoints
 62
     0
100
AcDbPoint
 10
965.2245026251858
 20
367.4776246943495
 30
0.0
  0
POINT
  5
3E4B
330
39C0
100
AcDbEntity
  8
Defpoints
 62
     0
100
AcDbPoint
 10
977.2245026251857
 20
367.3216246943495
 30
0.0
  0
POINT
  5
3E4C
330
39C0
100
AcDbEntity
  8
Defpoints
 62
     0
100
AcDbPoint
 10
977.2245026251857
 20
327.6001712225073
 30
0.0
  0
ENDBLK
  5
39CB
330
39C0
100
AcDbEntity
  8
0
100
AcDbBlockEnd
  0
ENDSEC
  0
SECTION
  2
ENTITIES
  0
TEXT
  5
AE3
330
1F
100
AcDbEntity
  8
M_1
 62
     4
100
AcDbText
 10
298.4979942115772
 20
71.23545134413652
 30
0.0
 40
5.0
  1

 41
0.75
  7
DAYUS
 11
298.4979942115772
 21
71.23545134413652
 31
0.0
100
AcDbText
 73
     1
  0
LINE
  5
2824
330
1F
100
AcDbEntity
  8
LOGO
 62
     1
100
AcDbLine
 10
1318.090631435742
 20
275.0463332580791
 30
0.0
 11
872.590631435742
 21
275.0463332580791
 31
0.0
  0
LWPOLYLINE
  5
2838
330
1F
100
AcDbEntity
  8
0
 62
     4
100
AcDbPolyline
 90
        4
 70
     1
 43
0.0
 10
872.590631435742
 20
275.0463332580791
 10
1318.090631435741
 20
275.0463332580791
 10
1318.090631435741
 20
566.6510246607932
 10
872.590631435742
 20
566.6510246607932
1001
GENIUS_GENREC_14
1002
{
1000
PYDIR
1011
872.590631435742
1021
566.6510246607932
1031
0.0
1002
}
1002
{
1000
PXDIR
1011
1318.090631435741
1021
275.0463332580791
1031
0.0
1002
}
1002
{
1000
PORI
1011
872.590631435742
1021
275.0463332580791
1031
0.0
1002
}
1002
{
1000
PINS
1011
872.590631435742
1021
275.0463332580791
1031
0.0
1002
}
1002
{
1000
PINS2
1011
1318.090631435741
1021
566.6510246607932
1031
0.0
1002
}
1002
{
1000
C
1070
     1
1002
}
1001
GENIUS_GENODEF_13
1002
{
1000
HIER
1070
     0
1002
}
1002
{
1000
MANEDIT
1070
     0
1002
}
1002
{
1000
NOSEL
1070
     0
1002
}
1002
{
1000
BEHIND
1070
     0
1002
}
1002
{
1000
OTHER
1070
     0
1002
}
1002
{
1000
REACTOR
1002
}
1001
GENIUS_GENOBJ-N-REC_13
1002
{
1000
OWNER
1000
GEN
1002
}
  0
LWPOLYLINE
  5
2872
330
1F
100
AcDbEntity
  8
LOGO
 62
     4
100
AcDbPolyline
 90
        4
 70
     1
 43
0.0
 10
872.590631435742
 20
275.0463332580791
 10
1318.090631435741
 20
275.0463332580791
 10
1318.090631435741
 20
242.6510246607935
 10
872.590631435742
 20
242.6510246607935
1001
GENIUS_GENREC_14
1002
{
1000
PYDIR
1011
872.590631435742
1021
242.6510246607935
1031
0.0
1002
}
1002
{
1000
PXDIR
1011
1318.090631435741
1021
275.0463332580791
1031
0.0
1002
}
1002
{
1000
PORI
1011
872.590631435742
1021
275.0463332580791
1031
0.0
1002
}
1002
{
1000
PINS
1011
872.590631435742
1021
275.0463332580791
1031
0.0
1002
}
1002
{
1000
PINS2
1011
1318.090631435741
1021
242.6510246607935
1031
0.0
1002
}
1002
{
1000
C
1070
     1
1002
}
1001
GENIUS_GENOBJ-N-REC_13
1002
{
1000
OWNER
1000
GEN
1002
}
1001
GENIUS_GENODEF_13
1002
{
1000
HIER
1070
     0
1002
}
1002
{
1000
MANEDIT
1070
     0
1002
}
1002
{
1000
NOSEL
1070
     0
1002
}
1002
{
1000
BEHIND
1070
     0
1002
}
1002
{
1000
OTHER
1070
     0
1002
}
1002
{
1000
REACTOR
1002
}
  0
LINE
  5
2873
330
1F
100
AcDbEntity
  8
LOGO
 62
     4
100
AcDbLine
 10
1010.01549194674
 20
257.2289135295727
 30
0.0
 11
1010.01549194674
 21
245.3506337105675
 31
0.0
  0
LINE
  5
2874
330
1F
100
AcDbEntity
  8
LOGO
 62
     4
100
AcDbLine
 10
988.4186195485504
 20
257.2289135295727
 30
0.0
 11
988.4186195485504
 21
245.3506337105675
 31
0.0
  0
LINE
  5
2875
330
1F
100
AcDbEntity
  8
LOGO
 62
     4
100
AcDbLine
 10
1010.01549194674
 20
245.3506337105675
 30
0.0
 11
988.4186195485504
 21
245.3506337105675
 31
0.0
  0
LINE
  5
2876
330
1F
100
AcDbEntity
  8
LOGO
 62
     4
100
AcDbLine
 10
1020.070653447866
 20
271.8068023983505
 30
0.0
 11
988.4186195485504
 21
271.8068023983505
 31
0.0
  0
LINE
  5
2877
330
1F
100
AcDbEntity
  8
LOGO
 62
     4
100
AcDbLine
 10
1020.070653447866
 20
262.0882098191651
 30
0.0
 11
988.4186195485504
 21
262.0882098191651
 31
0.0
  0
LINE
  5
2878
330
1F
100
AcDbEntity
  8
LOGO
 62
     4
100
AcDbLine
 10
988.4186195485504
 20
271.8068023983505
 30
0.0
 11
988.4186195485504
 21
262.0882098191651
 31
0.0
  0
LINE
  5
2879
330
1F
100
AcDbEntity
  8
LOGO
 62
     4
100
AcDbLine
 10
1020.070653447866
 20
271.8068023983505
 30
0.0
 11
1020.070653447866
 21
262.0882098191651
 31
0.0
  0
LINE
  5
287A
330
1F
100
AcDbEntity
  8
LOGO
 62
     4
100
AcDbLine
 10
1000.343870040388
 20
262.0882098191651
 30
0.0
 11
1000.343870040388
 21
257.2289135295727
 31
0.0
  0
TEXT
  5
287B
330
1F
100
AcDbEntity
  8
LOGO
  6
Continuous
100
AcDbText
 10
990.1454612430638
 20
264.1169518114891
 30
0.0
 40
5.669999999999999
  1
MCHG2
  7
CHINESET
100
AcDbText
  0
LINE
  5
287C
330
1F
100
AcDbEntity
  8
LOGO
 62
     4
100
AcDbLine
 10
1010.01549194674
 20
257.2289135295727
 30
0.0
 11
988.4186195485504
 21
257.2289135295727
 31
0.0
  0
TEXT
  5
287D
330
1F
100
AcDbEntity
  8
LOGO
  6
Continuous
100
AcDbText
 10
995.348987526472
 20
247.0272277185426
 30
212.3135157312807
 40
2.429999999999999
  1
Model
 41
0.8
  7
CHINESET
100
AcDbText
  0
TEXT
  5
287E
330
1F
100
AcDbEntity
  8
LOGO
100
AcDbText
 10
994.7022005209134
 20
251.5319240161649
 30
212.3135157312807
 40
4.05
  1
型號
  7
CHINESET
100
AcDbText
  0
LINE
  5
288A
330
1F
100
AcDbEntity
  8
LOGO
  6
Continuous
100
AcDbLine
 10
1021.447667090436
 20
266.9130813179418
 30
0.0
 11
1025.739042957718
 21
266.9130813179418
 31
0.0
  0
LINE
  5
288B
330
1F
100
AcDbEntity
  8
LOGO
 62
     4
100
AcDbLine
 10
1034.438696878962
 20
257.2289135295727
 30
0.0
 11
1034.438696878962
 21
245.3506337105675
 31
0.0
  0
LINE
  5
288C
330
1F
100
AcDbEntity
  8
LOGO
 62
     4
100
AcDbLine
 10
1012.841824480772
 20
257.2289135295727
 30
0.0
 11
1012.841824480772
 21
245.3506337105675
 31
0.0
  0
LINE
  5
288D
330
1F
100
AcDbEntity
  8
LOGO
 62
     4
100
AcDbLine
 10
1034.438696878962
 20
245.3506337105675
 30
0.0
 11
1012.841824480772
 21
245.3506337105675
 31
0.0
  0
LINE
  5
288E
330
1F
100
AcDbEntity
  8
LOGO
 62
     4
100
AcDbLine
 10
1043.699357056837
 20
271.8068023983505
 30
0.0
 11
1027.092745831924
 21
271.8068023983505
 31
0.0
  0
LINE
  5
288F
330
1F
100
AcDbEntity
  8
LOGO
 62
     4
100
AcDbLine
 10
1043.699357056837
 20
262.0882098191651
 30
0.0
 11
1027.092745831924
 21
262.0882098191651
 31
0.0
  0
LINE
  5
2890
330
1F
100
AcDbEntity
  8
LOGO
 62
     4
100
AcDbLine
 10
1027.092745831924
 20
271.8068023983505
 30
0.0
 11
1027.092745831924
 21
262.0882098191651
 31
0.0
  0
LINE
  5
2891
330
1F
100
AcDbEntity
  8
LOGO
 62
     4
100
AcDbLine
 10
1043.699357056837
 20
271.8068023983505
 30
0.0
 11
1043.699357056837
 21
262.0882098191651
 31
0.0
  0
LINE
  5
2892
330
1F
100
AcDbEntity
  8
LOGO
 62
     4
100
AcDbLine
 10
1034.559720401442
 20
262.0882098191651
 30
0.0
 11
1034.559720401442
 21
259.6585616743689
 31
0.0
  0
TEXT
  5
2893
330
1F
100
AcDbEntity
  8
LOGO
  6
Continuous
100
AcDbText
 10
1031.239916528782
 20
264.1169518114891
 30
0.0
 40
5.669999999999999
  1
40
  7
CHINESET
100
AcDbText
  0
LINE
  5
2894
330
1F
100
AcDbEntity
  8
LOGO
 62
     4
100
AcDbLine
 10
1034.438696878962
 20
257.2289135295727
 30
0.0
 11
1012.841824480772
 21
257.2289135295727
 31
0.0
  0
LINE
  5
2895
330
1F
100
AcDbEntity
  8
LOGO
  6
Continuous
100
AcDbLine
 10
1062.303619325195
 20
266.9130813179418
 30
0.0
 11
1066.594995192478
 21
266.9130813179418
 31
0.0
  0
LINE
  5
2896
330
1F
100
AcDbEntity
  8
LOGO
 62
     4
100
AcDbLine
 10
1084.859530526305
 20
257.2289135295727
 30
0.0
 11
1084.859530526305
 21
245.3506337105675
 31
0.0
  0
LINE
  5
2897
330
1F
100
AcDbEntity
  8
LOGO
 62
     4
100
AcDbLine
 10
1059.997725723493
 20
257.2289135295727
 30
0.0
 11
1059.997725723493
 21
245.3506337105675
 31
0.0
  0
LINE
  5
2898
330
1F
100
AcDbEntity
  8
LOGO
 62
     4
100
AcDbLine
 10
1084.859530526305
 20
245.3506337105675
 30
0.0
 11
1059.997725723493
 21
245.3506337105675
 31
0.0
  0
LINE
  5
2899
330
1F
100
AcDbEntity
  8
LOGO
 62
     4
100
AcDbLine
 10
1078.289010687545
 20
271.8068023983505
 30
0.0
 11
1067.948698066682
 21
271.8068023983505
 31
0.0
  0
LINE
  5
289A
330
1F
100
AcDbEntity
  8
LOGO
 62
     4
100
AcDbLine
 10
1078.289010687545
 20
262.0882098191651
 30
0.0
 11
1067.948698066682
 21
262.0882098191651
 31
0.0
  0
LINE
  5
289B
330
1F
100
AcDbEntity
  8
LOGO
 62
     4
100
AcDbLine
 10
1067.948698066682
 20
271.8068023983505
 30
0.0
 11
1067.948698066682
 21
262.0882098191651
 31
0.0
  0
LINE
  5
289C
330
1F
100
AcDbEntity
  8
LOGO
 62
     4
100
AcDbLine
 10
1078.289010687545
 20
271.8068023983505
 30
0.0
 11
1078.289010687545
 21
262.0882098191651
 31
0.0
  0
LINE
  5
289D
330
1F
100
AcDbEntity
  8
LOGO
 62
     4
100
AcDbLine
 10
1073.118854377114
 20
262.0882098191651
 30
0.0
 11
1073.118854377114
 21
257.2289135295727
 31
0.0
  0
LINE
  5
289F
330
1F
100
AcDbEntity
  8
LOGO
 62
     4
100
AcDbLine
 10
1084.859530526305
 20
257.2289135295727
 30
0.0
 11
1059.997725723493
 21
257.2289135295727
 31
0.0
  0
TEXT
  5
28A2
330
1F
100
AcDbEntity
  8
LOGO
  6
Continuous
100
AcDbText
 10
1017.365486560543
 20
247.0272277185426
 30
212.3135157312807
 40
2.429999999999999
  1
Tube I.D.
 41
0.8
  7
CHINESET
100
AcDbText
  0
TEXT
  5
28A3
330
1F
100
AcDbEntity
  8
LOGO
100
AcDbText
 10
1018.345288741324
 20
251.5319240161649
 30
212.3135157312807
 40
4.05
  1
內徑
  7
CHINESET
100
AcDbText
  0
TEXT
  5
28A4
330
1F
100
AcDbEntity
  8
LOGO
  6
Continuous
100
AcDbText
 10
1062.256139707243
 20
247.0272277185426
 30
212.3135157312807
 40
2.429999999999999
  1
Sensor switch
 41
0.8
  7
CHINESET
100
AcDbText
  0
TEXT
  5
28A5
330
1F
100
AcDbEntity
  8
LOGO
100
AcDbText
 10
1062.087651495323
 20
251.5319240161649
 30
212.3135157312807
 40
4.05
  1
感應器型式
  7
CHINESET
100
AcDbText
  0
LINE
  5
28A6
330
1F
100
AcDbEntity
  8
LOGO
 62
     4
100
AcDbLine
 10
1060.435698783227
 20
271.8068023983505
 30
0.0
 11
1045.071112994605
 21
271.8068023983505
 31
0.0
  0
LINE
  5
28A7
330
1F
100
AcDbEntity
  8
LOGO
 62
     4
100
AcDbLine
 10
1060.435698783227
 20
262.0882098191651
 30
0.0
 11
1045.071112994605
 21
262.0882098191651
 31
0.0
  0
LINE
  5
28A8
330
1F
100
AcDbEntity
  8
LOGO
 62
     4
100
AcDbLine
 10
1045.071112994605
 20
271.8068023983505
 30
0.0
 11
1045.071112994605
 21
262.0882098191651
 31
0.0
  0
LINE
  5
28A9
330
1F
100
AcDbEntity
  8
LOGO
 62
     4
100
AcDbLine
 10
1060.435698783227
 20
271.8068023983505
 30
0.0
 11
1060.435698783227
 21
262.0882098191651
 31
0.0
  0
TEXT
  5
28AA
330
1F
100
AcDbEntity
  8
LOGO
  6
Continuous
100
AcDbText
 10
1047.329739164956
 20
264.1169518114891
 30
0.0
 40
5.669999999999999
  1
(M)
  7
CHINESET
100
AcDbText
  0
LINE
  5
28AB
330
1F
100
AcDbEntity
  8
LOGO
 62
     4
100
AcDbLine
 10
1056.447747388875
 20
257.2289135295727
 30
0.0
 11
1056.447747388875
 21
245.3506337105675
 31
0.0
  0
LINE
  5
28AC
330
1F
100
AcDbEntity
  8
LOGO
 62
     4
100
AcDbLine
 10
1038.853651823033
 20
257.2289135295727
 30
0.0
 11
1038.853651823033
 21
245.3506337105675
 31
0.0
  0
LINE
  5
28AD
330
1F
100
AcDbEntity
  8
LOGO
 62
     4
100
AcDbLine
 10
1056.447747388875
 20
245.3506337105675
 30
0.0
 11
1038.853651823033
 21
245.3506337105675
 31
0.0
  0
LINE
  5
28AE
330
1F
100
AcDbEntity
  8
LOGO
 62
     4
100
AcDbLine
 10
1056.447747388875
 20
257.2289135295727
 30
0.0
 11
1038.853651823033
 21
257.2289135295727
 31
0.0
  0
TEXT
  5
28AF
330
1F
100
AcDbEntity
  8
LOGO
  6
Continuous
100
AcDbText
 10
1042.678155401099
 20
247.0272277185426
 30
212.3135157312807
 40
2.429999999999999
  1
Magnet
 41
0.8
  7
CHINESET
100
AcDbText
  0
TEXT
  5
28B0
330
1F
100
AcDbEntity
  8
LOGO
100
AcDbText
 10
1041.382273639989
 20
251.5319240161649
 30
212.3135157312807
 40
4.05
  1
附磁石
  7
CHINESET
100
AcDbText
  0
LINE
  5
28B1
330
1F
100
AcDbEntity
  8
LOGO
 62
     4
100
AcDbLine
 10
1052.753405888917
 20
262.0882098191651
 30
0.0
 11
1052.753405888917
 21
259.6585616743689
 31
0.0
  0
LINE
  5
28B9
330
1F
100
AcDbEntity
  8
LOGO
 62
     4
100
AcDbLine
 10
1034.559720401442
 20
259.6585616743689
 30
0.0
 11
1023.640260679867
 21
259.6585616743689
 31
0.0
  0
LINE
  5
28BA
330
1F
100
AcDbEntity
  8
LOGO
 62
     4
100
AcDbLine
 10
1023.640260679867
 20
257.2289135295727
 30
0.0
 11
1023.640260679867
 21
259.6585616743689
 31
0.0
  0
LINE
  5
28BB
330
1F
100
AcDbEntity
  8
LOGO
 62
     4
100
AcDbLine
 10
1052.753405888917
 20
259.6585616743689
 30
0.0
 11
1047.650699605954
 21
259.6585616743689
 31
0.0
  0
LINE
  5
28BC
330
1F
100
AcDbEntity
  8
LOGO
 62
     4
100
AcDbLine
 10
1047.650699605954
 20
257.2289135295727
 30
0.0
 11
1047.650699605954
 21
259.6585616743689
 31
0.0
  0
TEXT
  5
299D
330
1F
100
AcDbEntity
  8
LOGO
 62
     7
100
AcDbText
 10
945.7370932116479
 20
260.8544998148889
 30
0.0
 40
4.319374479638009
  1
Order example:
 41
0.8
  7
CHINESET
100
AcDbText
  0
TEXT
  5
299E
330
1F
100
AcDbEntity
  8
LOGO
 62
     7
100
AcDbText
 10
946.5120247130688
 20
266.9352847443215
 30
0.0
 40
6.479061719457012
  1
訂購代號:
  7
CHINESET
100
AcDbText
  0
LINE
  5
29A0
330
1F
100
AcDbEntity
  8
LOGO
 62
     4
100
AcDbLine
 10
943.8603103497692
 20
242.6510246607938
 30
0.0
 11
943.8603103497692
 21
275.0463332580792
 31
0.0
  0
TEXT
  5
29A1
330
1F
100
AcDbEntity
  8
LOGO
  6
Continuous
100
AcDbText
 10
884.2271719036164
 20
249.0150341459473
 30
0.0
 40
4.85929628959276
  1
金器工業股份有限公司
  7
CHINESET
100
AcDbText
  0
TEXT
  5
29A2
330
1F
100
AcDbEntity
  8
LOGO
  6
Continuous
100
AcDbText
 10
875.3016059839959
 20
244.1547858152653
 30
0.0
 40
3.239530859728506
  1
MINDMAN INDUSTRIAL CO., LTD.
 41
0.85
  7
CHINESET
100
AcDbText
  0
LINE
  5
29A3
330
1F
100
AcDbEntity
  8
LOGO
100
AcDbLine
 10
943.8603103497692
 20
268.5672715386221
 30
0.0
 11
896.3471910737508
 21
268.5672715386221
 31
0.0
  0
LINE
  5
29A4
330
1F
100
AcDbEntity
  8
LOGO
100
AcDbLine
 10
943.8603103497692
 20
262.0882098191651
 30
0.0
 11
896.3471910737508
 21
262.0882098191651
 31
0.0
  0
LINE
  5
29A5
330
1F
100
AcDbEntity
  8
LOGO
 62
     4
100
AcDbLine
 10
943.8603103497692
 20
255.6091480997084
 30
0.0
 11
872.590631435742
 21
255.6091480997084
 31
0.0
  0
LINE
  5
29A6
330
1F
100
AcDbEntity
  8
LOGO
 62
     4
100
AcDbLine
 10
896.3471910737508
 20
255.6091480997084
 30
0.0
 11
896.3471910737508
 21
275.0463332580792
 31
0.0
  0
TEXT
  5
29A7
330
1F
100
AcDbEntity
  8
LOGO
100
AcDbText
 10
928.8201655138383
 20
257.2289135295721
 30
0.0
 40
3.239530859728506
  1
mm
  7
CHINESET
 72
     1
 11
932.8310132449308
 21
258.8486789594364
 31
0.0
100
AcDbText
 73
     2
  0
TEXT
  5
29A8
330
1F
100
AcDbEntity
  8
LOGO
100
AcDbText
 10
927.1232683968376
 20
270.1870369684862
 30
0.0
 40
3.239530859728506
  1
1 : 1
  7
CHINESET
 72
     1
 11
932.8310132449308
 21
271.8068023983505
 31
0.0
100
AcDbText
 73
     2
  0
LINE
  5
29A9
330
1F
100
AcDbEntity
  8
LOGO
 62
     4
100
AcDbLine
 10
922.2634379515788
 20
255.6091480997084
 30
0.0
 11
922.2634379515788
 21
275.0463332580792
 31
0.0
  0
CIRCLE
  5
29AA
330
1F
100
AcDbEntity
  8
LOGO
  6
Continuous
100
AcDbCircle
 10
928.2618345324808
 20
265.334670059109
 30
0.0
 40
1.880947867119423
  0
CIRCLE
  5
29AB
330
1F
100
AcDbEntity
  8
LOGO
  6
Continuous
100
AcDbCircle
 10
928.2618345324808
 20
265.334670059109
 30
0.0
 40
1.102068939238267
  0
LINE
  5
29AC
330
1F
100
AcDbEntity
  8
LOGO
100
AcDbLine
 10
940.0819291854201
 20
263.4537221919892
 30
0.0
 11
940.0819291854201
 21
267.2156179262287
 31
0.0
  0
LINE
  5
29AD
330
1F
100
AcDbEntity
  8
LOGO
100
AcDbLine
 10
934.1852655935603
 20
264.2326011198709
 30
0.0
 11
934.1852655935603
 21
266.4367389983473
 31
0.0
  0
LINE
  5
29AE
330
1F
100
AcDbEntity
  8
LOGO
  6
Continuous
100
AcDbLine
 10
934.1852655935603
 20
266.4367389983473
 30
0.0
 11
940.0819291854201
 21
267.2156179262287
 31
0.0
  0
LINE
  5
29AF
330
1F
100
AcDbEntity
  8
LOGO
  6
Continuous
100
AcDbLine
 10
934.1852655935603
 20
264.2326011198709
 30
0.0
 11
940.0819291854201
 21
263.4537221919892
 31
0.0
  0
TEXT
  5
29B0
330
1F
100
AcDbEntity
  8
LOGO
100
AcDbText
 10
899.018357813893
 20
270.1886312257991
 30
212.3135157312807
 40
3.239530859728506
  1
比例 Scale:
 41
0.9
  7
CHINESET
 72
     4
 11
909.3053145126649
 21
271.8068023983505
 31
212.3135157312807
100
AcDbText
  0
TEXT
  5
29B1
330
1F
100
AcDbEntity
  8
LOGO
100
AcDbText
 10
898.831795545632
 20
263.7535444372217
 30
212.3135157312807
 40
3.239530859728506
  1
投影  View:
 41
0.9
  7
CHINESET
 72
     4
 11
909.3053145126649
 21
265.3277406788934
 31
212.3135157312807
100
AcDbText
  0
TEXT
  5
29B2
330
1F
100
AcDbEntity
  8
LOGO
100
AcDbText
 10
899.1485175359358
 20
257.2289135295721
 30
212.3135157312807
 40
3.239530859728506
  1
單位  Unit:
 41
0.9
  7
CHINESET
 72
     4
 11
909.3053145126649
 21
258.8486789594364
 31
212.3135157312807
100
AcDbText
  0
SOLID
  5
29B4
330
1F
100
AcDbEntity
  8
LOGO
 62
     5
100
AcDbTrace
 10
875.9516966932258
 20
260.9944070430993
 30
0.0
 11
877.3523848316827
 21
260.9944070430989
 31
0.0
 12
883.1966353404162
 22
274.276794562949
 32
0.0
 13
884.5973234788736
 23
274.2767945629483
 33
0.0
  0
SOLID
  5
29B5
330
1F
100
AcDbEntity
  8
LOGO
 62
     5
100
AcDbTrace
 10
877.9319799234595
 20
260.9944070430993
 30
0.0
 11
879.3326680619163
 21
260.9944070430993
 31
0.0
 12
884.5973234788736
 22
273.2142035613605
 32
0.0
 13
883.1966353404162
 23
268.0783470536852
 33
0.0
  0
SOLID
  5
29B6
330
1F
100
AcDbEntity
  8
LOGO
 62
     2
100
AcDbTrace
 10
877.3523848316827
 20
260.9944070430989
 30
0.0
 11
877.9319799234595
 21
260.9944070430993
 31
0.0
 12
884.5973234788736
 22
274.2767945629483
 32
0.0
 13
885.1769185706498
 23
274.2767945629483
 33
0.0
  0
SOLID
  5
29B7
330
1F
100
AcDbEntity
  8
LOGO
 62
     5
100
AcDbTrace
 10
873.7060501164728
 20
256.1644479449725
 30
0.0
 11
874.189046026286
 21
256.1644479449725
 31
0.0
 12
875.5492001017158
 22
258.5794274940358
 32
0.0
 13
876.0321960115275
 23
258.5794274940358
 33
0.0
  0
SOLID
  5
29B8
330
1F
100
AcDbEntity
  8
LOGO
 62
     5
100
AcDbTrace
 10
875.5492001017158
 20
258.5794274940358
 30
0.0
 11
876.0321960115275
 21
258.5794274940358
 31
0.0
 12
875.5492001017158
 22
256.1644479449725
 32
0.0
 13
876.0321960115275
 23
256.1644479449725
 33
0.0
  0
SOLID
  5
29B9
330
1F
100
AcDbEntity
  8
LOGO
 62
     5
100
AcDbTrace
 10
875.5492001017158
 20
256.1644479449725
 30
0.0
 11
876.0321960115275
 21
256.1644479449725
 31
0.0
 12
877.3923500869596
 22
258.5794274940358
 32
0.0
 13
877.8753459967719
 23
258.5794274940358
 33
0.0
  0
SOLID
  5
29BA
330
1F
100
AcDbEntity
  8
LOGO
 62
     5
100
AcDbTrace
 10
877.3923500869596
 20
258.5794274940358
 30
0.0
 11
877.8753459967719
 21
258.5794274940358
 31
0.0
 12
877.3923500869596
 22
256.1644479449725
 32
0.0
 13
877.8753459967719
 23
256.1644479449725
 33
0.0
  0
POLYLINE
  5
29BB
330
1F
100
AcDbEntity
  8
LOGO
 62
     5
100
AcDb2dPolyline
 66
     1
 10
0.0
 20
0.0
 30
0.0
 40
0.483769941719457
 41
0.483769941719457
  0
VERTEX
  5
29BC
330
29BB
100
AcDbEntity
  8
LOGO
 62
     5
100
AcDbVertex
100
AcDb2dVertex
 10
893.5822084492508
 20
257.6134356744104
 30
0.0
 42
1.0
  0
VERTEX
  5
29BD
330
29BB
100
AcDbEntity
  8
LOGO
 62
     5
100
AcDbVertex
100
AcDb2dVertex
 10
892.1308986240921
 20
257.6134356744104
 30
0.0
 42
1.0
  0
SEQEND
  5
29BE
330
29BB
100
AcDbEntity
  8
LOGO
 62
     5
  0
POLYLINE
  5
29BF
330
1F
100
AcDbEntity
  8
LOGO
 62
     5
100
AcDb2dPolyline
 66
     1
 10
0.0
 20
0.0
 30
0.0
 70
     1
  0
VERTEX
  5
29C0
330
29BF
100
AcDbEntity
  8
LOGO
 62
     5
100
AcDbVertex
100
AcDb2dVertex
 10
889.3951150494068
 20
257.3719377195037
 30
0.0
 42
1.000000057330635
  0
VERTEX
  5
29C1
330
29BF
100
AcDbEntity
  8
LOGO
 62
     5
100
AcDbVertex
100
AcDb2dVertex
 10
890.844102778845
 20
257.3719377195037
 30
0.0
 42
1.000000057330635
  0
SEQEND
  5
29C2
330
29BF
100
AcDbEntity
  8
LOGO
 62
     5
  0
CIRCLE
  5
29C3
330
1F
100
AcDbEntity
  8
LOGO
 62
     5
100
AcDbCircle
 10
890.119608914127
 20
257.3719377195037
 30
0.0
 40
0.7244938647190589
  0
POLYLINE
  5
29C4
330
1F
100
AcDbEntity
  8
LOGO
 62
     5
100
AcDb2dPolyline
 66
     1
 10
0.0
 20
0.0
 30
0.0
 70
     1
 40
0.483769941719457
 41
0.483769941719457
  0
VERTEX
  5
29C5
330
29C4
100
AcDbEntity
  8
LOGO
 62
     5
100
AcDbVertex
100
AcDb2dVertex
 10
889.1520690306874
 20
257.3719377195037
 30
0.0
 42
1.0
  0
VERTEX
  5
29C6
330
29C4
100
AcDbEntity
  8
LOGO
 62
     5
100
AcDbVertex
100
AcDb2dVertex
 10
891.0871487975651
 20
257.3719377195037
 30
0.0
 42
1.0
  0
SEQEND
  5
29C7
330
29C4
100
AcDbEntity
  8
LOGO
 62
     5
  0
LINE
  5
29C8
330
1F
100
AcDbEntity
  8
LOGO
100
AcDbLine
 10
893.8225453562962
 20
256.1644479449725
 30
0.0
 11
893.8225453562962
 21
257.6134356744104
 31
0.0
  0
SOLID
  5
29C9
330
1F
100
AcDbEntity
  8
LOGO
 62
     5
100
AcDbTrace
 10
890.8440544792561
 20
258.5794274940358
 30
0.0
 11
891.3270503890679
 21
258.5794274940358
 31
0.0
 12
890.8440544792561
 22
256.1644479449725
 32
0.0
 13
891.3270503890679
 23
256.1644479449725
 33
0.0
  0
SOLID
  5
29CA
330
1F
100
AcDbEntity
  8
LOGO
 62
     5
100
AcDbTrace
 10
891.8905617170453
 20
256.1644479449725
 30
0.0
 11
892.3735576268587
 21
256.1644479449725
 31
0.0
 12
891.8905617170453
 22
258.5794274940358
 32
0.0
 13
892.3735576268587
 23
258.5794274940358
 33
0.0
  0
SOLID
  5
29CB
330
1F
100
AcDbEntity
  8
LOGO
 62
     5
100
AcDbTrace
 10
893.3395494464843
 20
257.6134356744104
 30
0.0
 11
893.8225453562962
 21
257.6134356744104
 31
0.0
 12
893.3395494464843
 22
256.1644479449725
 32
0.0
 13
893.8225453562962
 23
256.1644479449725
 33
0.0
  0
SOLID
  5
29CC
330
1F
100
AcDbEntity
  8
LOGO
 62
     5
100
AcDbTrace
 10
891.842262126064
 20
273.2142035613605
 30
0.0
 11
890.4415739876078
 21
268.0783470536852
 31
0.0
 12
891.842262126064
 22
260.9944070430989
 32
0.0
 13
890.4415739876078
 23
260.9944070430989
 33
0.0
  0
SOLID
  5
29CD
330
1F
100
AcDbEntity
  8
LOGO
 62
     5
100
AcDbTrace
 10
892.42185721784
 20
260.9944070430989
 30
0.0
 11
893.8225453562962
 21
260.9944070430989
 31
0.0
 12
892.42185721784
 22
274.2767945629483
 32
0.0
 13
893.8225453562962
 23
274.276794562949
 33
0.0
  0
SOLID
  5
29CE
330
1F
100
AcDbEntity
  8
LOGO
 62
     2
100
AcDbTrace
 10
891.842262126064
 20
274.276794562949
 30
0.0
 11
892.42185721784
 21
274.2767945629483
 31
0.0
 12
891.842262126064
 22
260.9944070430989
 32
0.0
 13
892.42185721784
 23
260.9944070430989
 33
0.0
  0
POLYLINE
  5
29CF
330
1F
100
AcDbEntity
  8
LOGO
 62
     5
100
AcDb2dPolyline
 66
     1
 10
0.0
 20
0.0
 30
0.0
 40
0.483769941719457
 41
0.483769941719457
  0
VERTEX
  5
29D0
330
29CF
100
AcDbEntity
  8
LOGO
 62
     5
100
AcDbVertex
100
AcDb2dVertex
 10
886.6592348755416
 20
257.6134356744104
 30
0.0
 42
1.0
  0
VERTEX
  5
29D1
330
29CF
100
AcDbEntity
  8
LOGO
 62
     5
100
AcDbVertex
100
AcDb2dVertex
 10
885.2079250503827
 20
257.6134356744104
 30
0.0
 42
1.0
  0
SEQEND
  5
29D2
330
29CF
100
AcDbEntity
  8
LOGO
 62
     5
  0
POLYLINE
  5
29D3
330
1F
100
AcDbEntity
  8
LOGO
 62
     5
100
AcDb2dPolyline
 66
     1
 10
0.0
 20
0.0
 30
0.0
 40
0.483769941719457
 41
0.483769941719457
  0
VERTEX
  5
29D4
330
29D3
100
AcDbEntity
  8
LOGO
 62
     5
100
AcDbVertex
100
AcDb2dVertex
 10
888.1082226049782
 20
257.6134356744104
 30
0.0
 42
1.0
  0
VERTEX
  5
29D5
330
29D3
100
AcDbEntity
  8
LOGO
 62
     5
100
AcDbVertex
100
AcDb2dVertex
 10
886.6569127798202
 20
257.6134356744104
 30
0.0
 42
1.0
  0
SEQEND
  5
29D6
330
29D3
100
AcDbEntity
  8
LOGO
 62
     5
  0
POLYLINE
  5
29D7
330
1F
100
AcDbEntity
  8
LOGO
 62
     5
100
AcDb2dPolyline
 66
     1
 10
0.0
 20
0.0
 30
0.0
 40
0.483769941719457
 41
0.483769941719457
  0
VERTEX
  5
29D8
330
29D7
100
AcDbEntity
  8
LOGO
 62
     5
100
AcDbVertex
100
AcDb2dVertex
 10
881.185249031269
 20
257.6134356744104
 30
0.0
 42
1.0
  0
VERTEX
  5
29D9
330
29D7
100
AcDbEntity
  8
LOGO
 62
     5
100
AcDbVertex
100
AcDb2dVertex
 10
879.7339392061109
 20
257.6134356744104
 30
0.0
 42
1.0
  0
SEQEND
  5
29DA
330
29D7
100
AcDbEntity
  8
LOGO
 62
     5
  0
SOLID
  5
29DB
330
1F
100
AcDbEntity
  8
LOGO
 62
     5
100
AcDbTrace
 10
879.4936022990649
 20
258.5794274940358
 30
0.0
 11
879.9765982088768
 21
258.5794274940358
 31
0.0
 12
879.4936022990649
 22
256.1644479449725
 32
0.0
 13
879.9765982088768
 23
256.1644479449725
 33
0.0
  0
SOLID
  5
29DC
330
1F
100
AcDbEntity
  8
LOGO
 62
     5
100
AcDbTrace
 10
880.9425900285033
 20
257.6134356744104
 30
0.0
 11
881.4255859383164
 21
257.6134356744104
 31
0.0
 12
880.9425900285033
 22
256.1644479449725
 32
0.0
 13
881.4255859383164
 23
256.1644479449725
 33
0.0
  0
POLYLINE
  5
29DD
330
1F
100
AcDbEntity
  8
LOGO
 62
     5
100
AcDb2dPolyline
 66
     1
 10
0.0
 20
0.0
 30
0.0
 70
     1
 40
0.483769941719457
 41
0.483769941719457
  0
VERTEX
  5
29DE
330
29DD
100
AcDbEntity
  8
LOGO
 62
     5
100
AcDbVertex
100
AcDb2dVertex
 10
882.2290954569773
 20
257.3719377195037
 30
0.0
 42
1.0
  0
VERTEX
  5
29DF
330
29DD
100
AcDbEntity
  8
LOGO
 62
     5
100
AcDbVertex
100
AcDb2dVertex
 10
884.1641752238556
 20
257.3719377195037
 30
0.0
 42
1.0
  0
SEQEND
  5
29E0
330
29DD
100
AcDbEntity
  8
LOGO
 62
     5
  0
SOLID
  5
29E1
330
1F
100
AcDbEntity
  8
LOGO
 62
     5
100
AcDbTrace
 10
883.9210809055453
 20
259.3039213587553
 30
0.0
 11
884.4040768153579
 21
259.3039213587553
 31
0.0
 12
883.9210809055453
 22
256.1644479449725
 32
0.0
 13
884.4040768153579
 23
256.1644479449725
 33
0.0
  0
SOLID
  5
29E2
330
1F
100
AcDbEntity
  8
LOGO
 62
     5
100
AcDbTrace
 10
884.9675881433375
 20
258.5794274940358
 30
0.0
 11
885.4505840531494
 21
258.5794274940358
 31
0.0
 12
884.9675881433375
 22
256.1644479449725
 32
0.0
 13
885.4505840531494
 23
256.1644479449725
 33
0.0
  0
SOLID
  5
29E3
330
1F
100
AcDbEntity
  8
LOGO
 62
     5
100
AcDbTrace
 10
886.4165758727743
 20
257.6134356744104
 30
0.0
 11
886.8995717825875
 21
257.6134356744104
 31
0.0
 12
886.4165758727743
 22
256.1644479449725
 32
0.0
 13
886.8995717825875
 23
256.1644479449725
 33
0.0
  0
SOLID
  5
29E4
330
1F
100
AcDbEntity
  8
LOGO
 62
     5
100
AcDbTrace
 10
887.8655636022125
 20
257.6134356744104
 30
0.0
 11
888.348559512025
 21
257.6134356744104
 31
0.0
 12
887.8655636022125
 22
256.1644479449718
 32
0.0
 13
888.348559512025
 23
256.1644479449718
 33
0.0
  0
SOLID
  5
29E5
330
1F
100
AcDbEntity
  8
LOGO
 62
     5
100
AcDbTrace
 10
878.4470950612734
 20
258.9175246309048
 30
0.0
 11
878.9300909710876
 21
258.9175246309048
 31
0.0
 12
878.4470950612734
 22
259.3039213587553
 32
0.0
 13
878.9300909710876
 23
259.3039213587553
 33
0.0
  0
SOLID
  5
29E6
330
1F
100
AcDbEntity
  8
LOGO
 62
     5
100
AcDbTrace
 10
878.4470950612734
 20
258.5794274940358
 30
0.0
 11
878.9300909710876
 21
258.5794274940358
 31
0.0
 12
878.4470950612734
 22
256.1644479449718
 32
0.0
 13
878.9300909710876
 23
256.1644479449725
 33
0.0
  0
SOLID
  5
29E7
330
1F
100
AcDbEntity
  8
LOGO
 62
     5
100
AcDbTrace
 10
883.1966353404162
 20
260.9944070430993
 30
0.0
 11
884.5973234788736
 21
260.9944070430993
 31
0.0
 12
883.1966353404162
 22
268.0783470536852
 32
0.0
 13
884.5973234788736
 23
273.2142035613605
 33
0.0
  0
SOLID
  5
29E8
330
1F
100
AcDbEntity
  8
LOGO
 62
     5
100
AcDbTrace
 10
885.1769185706498
 20
274.2767945629483
 30
0.0
 11
886.5776067091058
 21
274.276794562949
 31
0.0
 12
885.1769185706498
 22
262.0569980446871
 32
0.0
 13
886.5776067091058
 23
267.1928545523623
 33
0.0
  0
SOLID
  5
29E9
330
1F
100
AcDbEntity
  8
LOGO
 62
     2
100
AcDbTrace
 10
884.5973234788736
 20
274.2767945629483
 30
0.0
 11
885.1769185706498
 21
274.2767945629483
 31
0.0
 12
884.5973234788736
 22
260.9944070430993
 32
0.0
 13
885.1769185706498
 23
260.9944070430993
 33
0.0
  0
SOLID
  5
29EA
330
1F
100
AcDbEntity
  8
LOGO
 62
     5
100
AcDbTrace
 10
885.1769185706498
 20
262.0569980446871
 30
0.0
 11
886.5776067091058
 21
267.1928545523623
 31
0.0
 12
891.842262126064
 22
274.276794562949
 32
0.0
 13
890.4415739876078
 23
274.276794562949
 33
0.0
  0
SOLID
  5
29EB
330
1F
100
AcDbEntity
  8
LOGO
 62
     5
100
AcDbTrace
 10
885.1769185706498
 20
260.9944070430993
 30
0.0
 11
886.5776067091058
 21
260.9944070430993
 31
0.0
 12
891.842262126064
 22
273.2142035613605
 32
0.0
 13
890.4415739876078
 23
268.0783470536852
 33
0.0
  0
SOLID
  5
29EC
330
1F
100
AcDbEntity
  8
LOGO
 62
     2
100
AcDbTrace
 10
884.5973234788736
 20
260.9944070430993
 30
0.0
 11
885.1769185706498
 21
260.9944070430993
 31
0.0
 12
891.842262126064
 22
274.276794562949
 32
0.0
 13
892.42185721784
 23
274.2767945629483
 33
0.0
  0
TEXT
  5
2A2D
330
1F
100
AcDbEntity
  8
LOGO
100
AcDbText
 10
945.3612980075741
 20
244.3744422919465
 30
0.0
 40
3.24
  1
10603100
 41
0.7
  7
CHINESET
 72
     1
 11
953.245298007574
 21
244.3744422919465
 31
0.0
100
AcDbText
  0
LINE
  5
2A2E
330
1F
100
AcDbEntity
  8
LOGO
 62
     4
100
AcDbLine
 10
963.3003103497676
 20
249.1300863802517
 30
0.0
 11
963.3003103497692
 21
242.6510246607943
 31
0.0
  0
LINE
  5
2A2F
330
1F
100
AcDbEntity
  8
LOGO
 62
     4
100
AcDbLine
 10
963.3003103497676
 20
249.1300863802517
 30
0.0
 11
943.8603103497692
 21
249.1300863802517
 31
0.0
  0
LINE
  5
2A30
330
1F
100
AcDbEntity
  8
LOGO
  6
AM_ISO08W050x2
 48
0.3
100
AcDbLine
 10
925.6689197326803
 20
265.334670059109
 30
0.0
 11
930.8547493322814
 21
265.334670059109
 31
0.0
1001
GENIUS_GENOREF_13
1005
2A35
  0
LINE
  5
2A31
330
1F
100
AcDbEntity
  8
LOGO
  6
AM_ISO08W050x2
 48
0.3
100
AcDbLine
 10
928.2618345324808
 20
262.7417552593083
 30
0.0
 11
928.2618345324808
 21
267.9275848589095
 31
0.0
1001
GENIUS_GENOREF_13
1005
2A34
  0
LINE
  5
2A32
330
1F
100
AcDbEntity
  8
LOGO
  6
AM_ISO08W050x2
 48
0.3
100
AcDbLine
 10
933.7136964032092
 20
265.334670059109
 30
0.0
 11
940.6757041206361
 21
265.334670059109
 31
0.0
1001
GENIUS_GENOREF_13
1005
2A33
  0
POINT
  5
2A33
330
1F
100
AcDbEntity
  8
0
 60
     1
100
AcDbPoint
 10
-1846.718893173345
 20
-1185.064967107847
 30
0.0
1001
GENIUS_GENOBJ-N-CRS_13
1002
{
1000
OWNER
1000
GEN
1002
}
1001
GENIUS_GENOLIS_13
1002
{
1000
ENT
1005
0
1005
0
1005
0
1005
2A32
1002
}
1001
GENIUS_GENOENT_13
1002
{
1000
MYREF
1005
2A33
1002
}
1002
{
1000
GRP
1005
0
1002
}
1001
GENIUS_GENODEF_13
1002
{
1000
HIER
1070
    10
1002
}
1002
{
1000
MANEDIT
1070
     1
1002
}
1002
{
1000
NOSEL
1070
     0
1002
}
1002
{
1000
BEHIND
1070
     0
1002
}
1002
{
1000
OTHER
1070
     0
1002
}
1002
{
1000
REACTOR
1002
}
  0
POINT
  5
2A34
330
1F
100
AcDbEntity
  8
0
 60
     1
100
AcDbPoint
 10
-1858.0434783962
 20
-1176.18938062921
 30
0.0
1001
GENIUS_GENOBJ-N-CRS_13
1002
{
1000
OWNER
1000
GEN
1002
}
1001
GENIUS_GENOLIS_13
1002
{
1000
ENT
1005
0
1005
0
1005
0
1005
2A31
1002
}
1001
GENIUS_GENOENT_13
1002
{
1000
MYREF
1005
2A34
1002
}
1002
{
1000
GRP
1005
0
1002
}
1001
GENIUS_GENODEF_13
1002
{
1000
HIER
1070
    10
1002
}
1002
{
1000
MANEDIT
1070
     1
1002
}
1002
{
1000
NOSEL
1070
     0
1002
}
1002
{
1000
BEHIND
1070
     0
1002
}
1002
{
1000
OTHER
1070
     0
1002
}
1002
{
1000
REACTOR
1002
}
  0
POINT
  5
2A35
330
1F
100
AcDbEntity
  8
0
 60
     1
100
AcDbPoint
 10
-1851.684804698363
 20
-1185.064967107847
 30
0.0
1001
GENIUS_GENOBJ-N-CRS_13
1002
{
1000
OWNER
1000
GEN
1002
}
1001
GENIUS_GENOLIS_13
1002
{
1000
ENT
1005
0
1005
0
1005
0
1005
2A30
1002
}
1001
GENIUS_GENOENT_13
1002
{
1000
MYREF
1005
2A35
1002
}
1002
{
1000
GRP
1005
0
1002
}
1001
GENIUS_GENODEF_13
1002
{
1000
HIER
1070
    10
1002
}
1002
{
1000
MANEDIT
1070
     1
1002
}
1002
{
1000
NOSEL
1070
     0
1002
}
1002
{
1000
BEHIND
1070
     0
1002
}
1002
{
1000
OTHER
1070
     0
1002
}
1002
{
1000
REACTOR
1002
}
  0
TEXT
  5
3748
330
1F
100
AcDbEntity
  8
AM_5
100
AcDbText
 10
1186.69280378808
 20
430.5596246943493
 30
0.0
 40
1.6
  1
+0.030
  7
China
100
AcDbText
  0
LINE
  5
3749
330
1F
100
AcDbEntity
  8
AM_5
100
AcDbLine
 10
1173.74280378808
 20
428.0366246943494
 30
0.0
 11
1216.48480378808
 21
428.0366246943494
 31
0.0
  0
ARC
  5
374A
330
1F
100
AcDbEntity
  8
0
  6
Continuous
 62
     7
100
AcDbCircle
 10
1191.49480378808
 20
344.9546246943494
 30
0.0
 40
2.0
100
AcDbArc
 50
352.500000000001
 51
172.500000000001
  0
DIMENSION
  5
374B
330
1F
100
AcDbEntity
  8
AM_5
100
AcDbDimension
  2
*D15
 10
1154.085206113698
 20
375.6003991126905
 30
0.0
 11
1153.534079493175
 21
389.0370222323371
 31
0.0
 70
    33
 71
     5
 42
26.49945079101565
  3
AM_ISO$0
100
AcDbAlignedDimension
 13
1198.28280378808
 23
396.5096246943494
 33
0.0
 14
1194.823827541285
 24
370.2368940492572
 34
0.0
  0
DIMENSION
  5
374C
330
1F
100
AcDbEntity
  8
AM_5
100
AcDbDimension
  2
*D16
 10
1151.017900823841
 20
352.3004286154868
 30
0.0
 11
1150.270902533767
 21
364.2503967465328
 31
0.0
 70
    33
 71
     5
 42
23.50050096687164
  3
AM_ISO$0
100
AcDbAlignedDimension
 13
1194.823827541285
 23
370.2368940492572
 33
0.0
 14
1191.756587345151
 24
346.9374180192441
 34
0.0
  0
ARC
  5
374D
330
1F
100
AcDbEntity
  8
0
  6
Continuous
 62
     7
100
AcDbCircle
 10
1191.23380378808
 20
342.9716246943494
 30
0.0
 40
2.0
100
AcDbArc
 50
172.500000000001
 51
352.500000000001
  0
ARC
  5
374E
330
1F
100
AcDbEntity
  8
0
  6
Continuous
 62
     7
100
AcDbCircle
 10
1194.82380378808
 20
370.2366246943495
 30
0.0
 40
31.0
100
AcDbArc
 50
204.6230000000047
 51
275.374000000006
  0
DIMENSION
  5
374F
330
1F
100
AcDbEntity
  8
AM_5
100
AcDbDimension
  2
*D17
 10
1150.234779018516
 20
346.3516516808507
 30
0.0
 11
1148.346014282819
 21
349.6262317254051
 31
0.0
 70
    33
 71
     5
 42
6.000102230796869
  3
AM_ISO$0
100
AcDbAlignedDimension
 13
1191.756587345151
 23
346.9374180192441
 33
0.0
 14
1190.973465539827
 24
340.9886410846096
 34
0.0
  0
LINE
  5
3750
330
1F
100
AcDbEntity
  8
AM_5
100
AcDbLine
 10
1178.75480378808
 20
322.7386246943495
 30
0.0
 11
1231.98080378808
 21
315.7306246943495
 31
0.0
  0
ARC
  5
3751
330
1F
100
AcDbEntity
  8
0
  6
Continuous
 62
     7
100
AcDbCircle
 10
1194.82380378808
 20
370.2366246943495
 30
0.0
 40
31.0
100
AcDbArc
 50
324.6249999999996
 51
155.373999999996
  0
CIRCLE
  5
3752
330
1F
100
AcDbEntity
  8
0
  6
CENTER
 62
     2
100
AcDbCircle
 10
1194.82380378808
 20
370.2366246943495
 30
0.0
 40
26.5
  0
CIRCLE
  5
3753
330
1F
100
AcDbEntity
  8
0
  6
Continuous
 62
     7
100
AcDbCircle
 10
1194.82380378808
 20
370.2366246943495
 30
0.0
 40
21.0
  0
LINE
  5
3757
330
1F
100
AcDbEntity
  8
AM_5
100
AcDbLine
 10
1189.25180378808
 20
343.2326246943494
 30
0.0
 11
1186.28980378808
 21
320.7376246943495
 31
0.0
  0
DIMENSION
  5
3758
330
1F
100
AcDbEntity
  8
AM_5
100
AcDbDimension
  2
*D18
 10
1075.188591891659
 20
322.8869628748443
 30
0.0
 11
1078.688591891658
 21
325.1869628748444
 31
0.0
 70
    32
 71
     5
 42
7.0
  3
AM_ISO$0
100
AcDbAlignedDimension
 13
1082.188591891658
 23
325.9869158523195
 33
0.0
 14
1075.188591891659
 24
335.8826246943495
 34
0.0
100
AcDbRotatedDimension
  0
DIMENSION
  5
3759
330
1F
100
AcDbEntity
  8
AM_5
100
AcDbDimension
  2
*D19
 10
1114.189591891658
 20
322.8869628748443
 30
0.0
 11
1098.189091891659
 21
325.1872581504349
 31
0.0
 70
    32
 71
     5
 42
32.00099999999998
  3
AM_ISO$0
100
AcDbAlignedDimension
 13
1082.188591891658
 23
335.8826246943495
 33
0.0
 14
1114.189591891658
 24
339.2366246943495
 34
0.0
100
AcDbRotatedDimension
  0
DIMENSION
  5
375A
330
1F
100
AcDbEntity
  8
AM_5
100
AcDbDimension
  2
*D20
 10
1022.790169803435
 20
331.5269731416216
 30
0.0
 11
1028.079286094496
 21
334.5807354343822
 31
0.0
 70
   161
  1
8h9
 71
     5
 42
7.999823998063902
  3
AM_ISO$0
100
AcDbAlignedDimension
 13
1009.833502625186
 23
337.9686246943495
 33
0.0
 14
1016.761502625186
 24
341.9686246943495
 34
0.0
  0
DIMENSION
  5
375B
330
1F
100
AcDbEntity
  8
AM_5
100
AcDbDimension
  2
*D21
 10
995.7242186311271
 20
319.6001712225073
 30
0.0
 11
978.2243606281562
 21
319.6001712225073
 31
0.0
 70
   160
 71
     5
 42
34.99971600594131
  3
AM_ISO$0
100
AcDbAlignedDimension
 13
960.7245026251858
 23
362.1516246943495
 33
0.0
 14
995.7242186311271
 24
370.2364253601418
 34
0.0
100
AcDbRotatedDimension
  0
LINE
  5
375C
330
1F
100
AcDbEntity
  8
AM_5
100
AcDbLine
 10
1186.42080378808
 20
321.7296246943495
 30
0.0
 11
1183.55080378808
 21
322.9176246943495
 31
0.0
  0
LINE
  5
375D
330
1F
100
AcDbEntity
  8
AM_5
100
AcDbLine
 10
1186.42080378808
 20
321.7296246943495
 30
0.0
 11
1183.34080378808
 21
321.3236246943495
 31
0.0
  0
LINE
  5
375E
330
1F
100
AcDbEntity
  8
AM_5
100
AcDbLine
 10
902.0607026251857
 20
418.0366246943495
 30
0.0
 11
968.0525026251856
 21
418.0366246943495
 31
0.0
  0
LINE
  5
375F
330
1F
100
AcDbEntity
  8
AM_5
100
AcDbLine
 10
902.0607026251857
 20
428.0366246943494
 30
0.0
 11
962.2795026251859
 21
428.0366246943494
 31
0.0
  0
LINE
  5
3760
330
1F
100
AcDbEntity
  8
0
  6
Continuous
 62
     7
100
AcDbLine
 10
960.7245026251858
 20
378.1516246943495
 30
0.0
 11
965.7515026251857
 21
378.1516246943495
 31
0.0
  0
LINE
  5
3761
330
1F
100
AcDbEntity
  8
0
  6
Continuous
 62
     7
100
AcDbLine
 10
960.7245026251858
 20
362.1516246943495
 30
0.0
 11
965.7975026251856
 21
362.1516246943495
 31
0.0
  0
LINE
  5
3762
330
1F
100
AcDbEntity
  8
0
  6
Continuous
 62
     7
100
AcDbLine
 10
960.7245026251858
 20
366.2366246943495
 30
0.0
 11
987.2245026251858
 21
366.2366246943495
 31
0.0
  0
LINE
  5
3763
330
1F
100
AcDbEntity
  8
0
  6
Continuous
 62
     7
100
AcDbLine
 10
960.7245026251858
 20
374.2366246943495
 30
0.0
 11
987.2245026251858
 21
374.2366246943495
 31
0.0
  0
LINE
  5
3764
330
1F
100
AcDbEntity
  8
AM_7
100
AcDbLine
 10
957.8377846321984
 20
370.2366246943495
 30
0.0
 11
1034.569502625186
 21
370.2366246943495
 31
0.0
  0
ARC
  5
3765
330
1F
100
AcDbEntity
  8
0
  6
Continuous
 62
     7
100
AcDbCircle
 10
995.7245026251857
 20
370.2366246943495
 30
0.0
 40
31.0
100
AcDbArc
 50
67.55270000000431
 51
172.5870000000014
  0
LINE
  5
3766
330
1F
100
AcDbEntity
  8
0
  6
Continuous
 62
     7
100
AcDbLine
 10
960.7245026251858
 20
378.1516246943495
 30
0.0
 11
960.7245026251858
 21
362.1516246943495
 31
0.0
  0
DIMENSION
  5
3767
330
1F
100
AcDbEntity
  8
AM_5
100
AcDbDimension
  2
*D22
 10
931.9573009230142
 20
362.1516246943495
 30
0.0
 11
929.657300923014
 21
370.1516246943497
 31
0.0
 70
    32
 71
     5
 42
16.0
  3
AM_ISO$0
100
AcDbAlignedDimension
 13
960.7245026251858
 23
378.1516246943495
 33
0.0
 14
960.7245026251858
 24
362.1516246943495
 34
0.0
 50
90.0
100
AcDbRotatedDimension
  0
DIMENSION
  5
3768
330
1F
100
AcDbEntity
  8
AM_5
100
AcDbDimension
  2
*D23
 10
939.9573009230142
 20
366.2366246943495
 30
0.0
 11
937.657300923014
 21
370.2366246943497
 31
0.0
 70
    32
 71
     5
 42
8.0
  3
AM_ISO$0
100
AcDbAlignedDimension
 13
960.7245026251858
 23
374.2366246943495
 33
0.0
 14
960.7245026251858
 24
366.2366246943495
 34
0.0
 50
90.0
100
AcDbRotatedDimension
  0
TEXT
  5
3769
330
1F
100
AcDbEntity
  8
AM_5
100
AcDbText
 10
903.2074026251857
 20
419.6366246943494
 30
0.0
 40
3.2
  1
P.C.D.53
  7
China
100
AcDbText
  0
TEXT
  5
376A
330
1F
100
AcDbEntity
  8
AM_5
100
AcDbText
 10
913.0907026251858
 20
428.9866246943495
 30
0.0
 40
3.2
  1
5.5BORE9.5xDEPTH9
  7
China
100
AcDbText
  0
TEXT
  5
376B
330
1F
100
AcDbEntity
  8
AM_5
100
AcDbText
 10
903.4907026251858
 20
428.9866246943495
 30
0.0
 40
3.2
  1
3-
  7
China
100
AcDbText
  0
CIRCLE
  5
376C
330
1F
100
AcDbEntity
  8
AM_5
100
AcDbCircle
 10
911.4906026251858
 20
430.5866246943494
 30
0.0
 40
0.9
  0
LINE
  5
376D
330
1F
100
AcDbEntity
  8
AM_5
100
AcDbLine
 10
910.9093026251857
 20
428.9886246943495
 30
0.0
 11
912.0721026251858
 21
432.1836246943494
 31
0.0
  0
CIRCLE
  5
376E
330
1F
100
AcDbEntity
  8
0
  6
Continuous
 62
     7
100
AcDbCircle
 10
1010.909502625185
 20
396.6876246943495
 30
0.0
 40
1.620999999999999
  0
CIRCLE
  5
376F
330
1F
100
AcDbEntity
  8
0
  6
Continuous
 62
     2
100
AcDbCircle
 10
1010.909502625185
 20
396.6876246943495
 30
0.0
 40
2.0
  0
LINE
  5
3770
330
1F
100
AcDbEntity
  8
AM_7
100
AcDbLine
 10
1013.314502625185
 20
395.2996246943494
 30
0.0
 11
1008.584502625185
 21
398.0306246943494
 31
0.0
  0
LINE
  5
3771
330
1F
100
AcDbEntity
  8
0
  6
Continuous
 62
     7
100
AcDbLine
 10
1009.686502625186
 20
402.5896246943494
 30
0.0
 11
996.4925026251858
 21
379.6086246943494
 31
0.0
  0
LINE
  5
3772
330
1F
100
AcDbEntity
  8
0
  6
Continuous
 62
     7
100
AcDbLine
 10
986.5265026251856
 20
395.5386246943494
 30
0.0
 11
984.4505026251857
 21
399.1146246943495
 31
0.0
  0
ARC
  5
3773
330
1F
100
AcDbEntity
  8
0
  6
Continuous
 62
     7
100
AcDbCircle
 10
982.4185026251857
 20
393.1546246943494
 30
0.0
 40
4.75
100
AcDbArc
 50
210.1390000000006
 51
30.13909999999901
  0
ARC
  5
3774
330
1F
100
AcDbEntity
  8
0
  6
Continuous
 62
     7
100
AcDbCircle
 10
995.7245026251857
 20
370.2366246943495
 30
0.0
 40
27.0
100
AcDbArc
 50
68.65860000000416
 51
110.0070000000049
  0
LINE
  5
3775
330
1F
100
AcDbEntity
  8
0
  6
Continuous
 62
     7
100
AcDbLine
 10
1016.614502625185
 20
398.5896246943495
 30
0.0
 11
1003.420502625186
 21
375.6086246943494
 31
0.0
  0
LINE
  5
3776
330
1F
100
AcDbEntity
  8
0
  6
Continuous
 62
     7
100
AcDbLine
 10
1020.078502625186
 20
396.5906246943495
 30
0.0
 11
1017.565502625185
 21
392.2366246943495
 31
0.0
  0
LINE
  5
3777
330
1F
100
AcDbEntity
  8
AM_7
100
AcDbLine
 10
979.6365026251859
 20
342.2156246943495
 30
0.0
 11
1013.793502625186
 21
401.7086246943494
 31
0.0
  0
LINE
  5
3778
330
1F
100
AcDbEntity
  8
AM_7
100
AcDbLine
 10
1014.243502625186
 20
338.3386246943494
 30
0.0
 11
979.3395026251857
 21
398.4576246943495
 31
0.0
  0
LINE
  5
3779
330
1F
100
AcDbEntity
  8
AM_5
100
AcDbLine
 10
962.2795026251859
 20
428.0366246943494
 30
0.0
 11
981.0435026251857
 21
395.5356246943495
 31
0.0
  0
LINE
  5
377A
330
1F
100
AcDbEntity
  8
0
  6
Continuous
 62
     7
100
AcDbLine
 10
1010.639502625186
 20
388.1836246943494
 30
0.0
 11
1003.711502625185
 21
392.1836246943494
 31
0.0
  0
LINE
  5
377B
330
1F
100
AcDbEntity
  8
0
  6
Continuous
 62
     7
100
AcDbLine
 10
1012.133502625185
 20
390.7856246943495
 30
0.0
 11
1005.205502625186
 21
394.7856246943495
 31
0.0
  0
LINE
  5
377C
330
1F
100
AcDbEntity
  8
0
  6
Continuous
 62
     7
100
AcDbLine
 10
1005.333502625185
 20
345.7626246943495
 30
0.0
 11
1012.261502625186
 21
349.7626246943495
 31
0.0
  0
LINE
  5
377D
330
1F
100
AcDbEntity
  8
0
  6
Continuous
 62
     7
100
AcDbLine
 10
1003.833502625186
 20
348.3606246943494
 30
0.0
 11
1010.761502625186
 21
352.3606246943495
 31
0.0
  0
ARC
  5
377E
330
1F
100
AcDbEntity
  8
0
  6
Continuous
 62
     7
100
AcDbCircle
 10
995.7245026251857
 20
370.2366246943495
 30
0.0
 40
15.5
100
AcDbArc
 50
315.2800000000038
 51
45.18380000000103
  0
LINE
  5
377F
330
1F
100
AcDbEntity
  8
0
  6
Continuous
 62
     7
100
AcDbLine
 10
1006.369502625186
 20
335.9686246943495
 30
0.0
 11
1020.226502625185
 21
343.9686246943495
 31
0.0
  0
LINE
  5
3780
330
1F
100
AcDbEntity
  8
0
  6
Continuous
 62
     7
100
AcDbLine
 10
1003.511502625186
 20
364.9176246943495
 30
0.0
 11
1016.761502625186
 21
341.9686246943495
 31
0.0
  0
LINE
  5
3781
330
1F
100
AcDbEntity
  8
0
  6
Continuous
 62
     7
100
AcDbLine
 10
996.5835026251857
 20
360.9176246943495
 30
0.0
 11
1009.833502625186
 21
337.9686246943495
 31
0.0
  0
LINE
  5
3782
330
1F
100
AcDbEntity
  8
0
  6
Continuous
 62
     7
100
AcDbLine
 10
996.5835026251857
 20
360.9176246943495
 30
0.0
 11
1003.511502625186
 21
364.9176246943495
 31
0.0
  0
ARC
  5
3783
330
1F
100
AcDbEntity
  8
0
  6
Continuous
 62
     7
100
AcDbCircle
 10
995.7245026251857
 20
370.2366246943495
 30
0.0
 40
15.5
100
AcDbArc
 50
194.9580000000029
 51
285.3689999999996
  0
DIMENSION
  5
3784
330
1F
100
AcDbEntity
  8
AM_5
100
AcDbDimension
  2
*D24
 10
981.7245026251857
 20
327.6001712225073
 30
0.0
 11
989.8366346595416
 21
327.6001712225073
 31
0.0
 70
   160
 71
     5
 42
4.5
  3
AM_ISO$0
100
AcDbAlignedDimension
 13
977.2245026251857
 23
334.5581886940408
 33
0.0
 14
981.7245026251857
 24
366.2366246943495
 34
0.0
100
AcDbRotatedDimension
  0
ARC
  5
3785
330
1F
100
AcDbEntity
  8
0
  6
Continuous
 62
     7
100
AcDbCircle
 10
995.7245026251857
 20
370.2366246943495
 30
0.0
 40
31.0
100
AcDbArc
 50
187.4149999999994
 51
215.5129999999942
  0
ARC
  5
3786
330
1F
100
AcDbEntity
  8
0
  6
Continuous
 62
     7
100
AcDbCircle
 10
995.7245026251857
 20
370.2366246943495
 30
0.0
 40
27.0
100
AcDbArc
 50
188.5210000000006
 51
213.8360000000036
  0
DIMENSION
  5
3787
330
1F
100
AcDbEntity
  8
AM_5
100
AcDbDimension
  2
*D25
 10
977.2245026251857
 20
327.6001712225073
 30
0.0
 11
971.2245026251858
 21
329.9004664980978
 31
0.0
 70
    32
 71
     5
 42
12.0
  3
AM_ISO$0
100
AcDbAlignedDimension
 13
965.2245026251858
 23
367.4776246943495
 33
0.0
 14
977.2245026251857
 24
367.3216246943495
 34
0.0
100
AcDbRotatedDimension
  0
CIRCLE
  5
3788
330
1F
100
AcDbEntity
  8
0
  6
Continuous
 62
     7
100
AcDbCircle
 10
982.5295026251858
 20
347.2556246943495
 30
0.0
 40
2.75
  0
LINE
  5
3789
330
1F
100
AcDbEntity
  8
AM_7
100
AcDbLine
 10
986.6515026251857
 20
344.8876246943495
 30
0.0
 11
978.1875026251857
 21
349.7466246943495
 31
0.0
  0
ARC
  5
378A
330
1F
100
AcDbEntity
  8
0
  6
Continuous
 62
     7
100
AcDbCircle
 10
995.7245026251857
 20
370.2366246943495
 30
0.0
 40
31.0
100
AcDbArc
 50
224.7630000000003
 51
255.5149999999977
  0
ARC
  5
378B
330
1F
100
AcDbEntity
  8
0
  6
Continuous
 62
     7
100
AcDbCircle
 10
982.5295026251858
 20
347.2556246943495
 30
0.0
 40
4.75
100
AcDbArc
 50
330.1390000000018
 51
150.1390000000017
  0
LINE
  5
378C
330
1F
100
AcDbEntity
  8
0
  6
Continuous
 62
     7
100
AcDbLine
 10
986.6495026251858
 20
344.8896246943494
 30
0.0
 11
984.5915026251857
 21
341.3046246943495
 31
0.0
  0
LINE
  5
378D
330
1F
100
AcDbEntity
  8
0
  6
Continuous
 62
     7
100
AcDbLine
 10
978.4105026251857
 20
349.6196246943494
 30
0.0
 11
976.3525026251857
 21
346.0346246943495
 31
0.0
  0
LINE
  5
378E
330
1F
100
AcDbEntity
  8
0
  6
Continuous
 62
     7
100
AcDbLine
 10
973.2495026251855
 20
355.4706246943494
 30
0.0
 11
976.0785026251857
 21
357.8566246943494
 31
0.0
  0
LINE
  5
378F
330
1F
100
AcDbEntity
  8
0
  6
Continuous
 62
     7
100
AcDbLine
 10
973.2495026251855
 20
355.4706246943494
 30
0.0
 11
973.3915026251857
 21
354.6756246943494
 31
0.0
  0
LINE
  5
3790
330
1F
100
AcDbEntity
  8
0
  6
Continuous
 62
     7
100
AcDbLine
 10
970.4905026251855
 20
352.2296246943495
 30
0.0
 11
973.3915026251857
 21
354.6756246943494
 31
0.0
  0
LINE
  5
3791
330
1F
100
AcDbEntity
  8
0
  6
Continuous
 62
     7
100
AcDbLine
 10
976.0785026251857
 20
357.8566246943494
 30
0.0
 11
980.2045026251859
 21
352.9636246943494
 31
0.0
  0
LINE
  5
3792
330
1F
100
AcDbEntity
  8
0
  6
Continuous
 62
     7
100
AcDbLine
 10
977.3755026251858
 20
350.5786246943494
 30
0.0
 11
980.2045026251859
 21
352.9636246943494
 31
0.0
  0
LINE
  5
3793
330
1F
100
AcDbEntity
  8
0
  6
Continuous
 62
     7
100
AcDbLine
 10
973.7135026251857
 20
348.4076246943495
 30
0.0
 11
976.6145026251857
 21
350.8536246943495
 31
0.0
  0
ARC
  5
3794
330
1F
100
AcDbEntity
  8
0
  6
Continuous
 62
     7
100
AcDbCircle
 10
995.7245026251857
 20
370.2366246943495
 30
0.0
 40
27.0
100
AcDbArc
 50
226.4399999999938
 51
230.0069999999967
  0
LINE
  5
3795
330
1F
100
AcDbEntity
  8
0
  6
Continuous
 62
     7
100
AcDbLine
 10
976.6145026251857
 20
350.8536246943495
 30
0.0
 11
977.3755026251858
 21
350.5786246943494
 31
0.0
  0
LINE
  5
3796
330
1F
100
AcDbEntity
  8
0
  6
Continuous
 62
     7
100
AcDbLine
 10
987.9995026251856
 20
344.4776246943495
 30
0.0
 11
988.6335026251856
 21
348.1246246943495
 31
0.0
  0
LINE
  5
3797
330
1F
100
AcDbEntity
  8
0
  6
Continuous
 62
     7
100
AcDbLine
 10
994.3045026251857
 20
343.3816246943495
 30
0.0
 11
994.9385026251857
 21
347.0286246943495
 31
0.0
  0
ARC
  5
3798
330
1F
100
AcDbEntity
  8
0
  6
Continuous
 62
     7
100
AcDbCircle
 10
995.7245026251857
 20
370.2366246943495
 30
0.0
 40
31.0
100
AcDbArc
 50
264.7659999999978
 51
292.7440000000046
  0
ARC
  5
3799
330
1F
100
AcDbEntity
  8
0
  6
Continuous
 62
     7
100
AcDbCircle
 10
995.7245026251857
 20
370.2366246943495
 30
0.0
 40
27.0
100
AcDbArc
 50
266.4509999999989
 51
291.6619999999961
  0
ARC
  5
379A
330
1F
100
AcDbEntity
  8
0
  6
Continuous
 62
     7
100
AcDbCircle
 10
995.7245026251857
 20
370.2366246943495
 30
0.0
 40
27.0
100
AcDbArc
 50
250.271999999994
 51
253.8329999999999
  0
LINE
  5
379B
330
1F
100
AcDbEntity
  8
0
  6
Continuous
 62
     7
100
AcDbLine
 10
988.6195026251858
 20
343.9596246943495
 30
0.0
 11
987.9995026251856
 21
344.4776246943495
 31
0.0
  0
LINE
  5
379C
330
1F
100
AcDbEntity
  8
0
  6
Continuous
 62
     7
100
AcDbLine
 10
992.8965026251857
 20
339.3666246943494
 30
0.0
 11
993.5465026251856
 21
343.1026246943495
 31
0.0
  0
LINE
  5
379D
330
1F
100
AcDbEntity
  8
0
  6
Continuous
 62
     7
100
AcDbLine
 10
994.3045026251857
 20
343.3806246943496
 30
0.0
 11
993.5455026251856
 21
343.1026246943495
 31
0.0
  0
LINE
  5
379E
330
1F
100
AcDbEntity
  8
0
  6
Continuous
 62
     7
100
AcDbLine
 10
987.9705026251857
 20
340.2216246943494
 30
0.0
 11
988.6205026251857
 21
343.9606246943494
 31
0.0
  0
LINE
  5
379F
330
1F
100
AcDbEntity
  8
0
  6
Continuous
 62
     7
100
AcDbLine
 10
1006.369502625186
 20
335.9686246943495
 30
0.0
 11
1003.855502625186
 21
340.3226246943494
 31
0.0
  0
LINE
  5
37A0
330
1F
100
AcDbEntity
  8
0
  6
Continuous
 62
     7
100
AcDbLine
 10
994.9385026251857
 20
347.0286246943495
 30
0.0
 11
988.6335026251856
 21
348.1246246943495
 31
0.0
  0
CIRCLE
  5
37A1
330
1F
100
AcDbEntity
  8
0
  6
Continuous
 62
     7
100
AcDbCircle
 10
1005.013502625186
 20
354.2376246943495
 30
0.0
 40
1.620999999999999
  0
CIRCLE
  5
37A2
330
1F
100
AcDbEntity
  8
0
  6
Continuous
 62
     2
100
AcDbCircle
 10
1005.013502625186
 20
354.2376246943495
 30
0.0
 40
2.0
  0
LINE
  5
37A3
330
1F
100
AcDbEntity
  8
AM_7
100
AcDbLine
 10
1002.549502625186
 20
352.8156246943495
 30
0.0
 11
1007.498502625185
 21
355.6726246943494
 31
0.0
  0
LINE
  5
37A4
330
1F
100
AcDbEntity
  8
0
  6
Continuous
 62
     7
100
AcDbLine
 10
999.3335026251857
 20
356.1546246943494
 30
0.0
 11
1006.261502625186
 21
360.1546246943494
 31
0.0
  0
LINE
  5
37A5
330
1F
100
AcDbEntity
  8
AM_7
100
AcDbLine
 10
977.6665026251858
 20
390.3946246943494
 30
0.0
 11
987.2475026251857
 21
395.9576246943496
 31
0.0
  0
CIRCLE
  5
37A6
330
1F
100
AcDbEntity
  8
0
  6
Continuous
 62
     7
100
AcDbCircle
 10
982.4185026251857
 20
393.1536246943494
 30
0.0
 40
2.75
  0
ARC
  5
37A7
330
1F
100
AcDbEntity
  8
0
  6
Continuous
 62
     7
100
AcDbCircle
 10
995.7245026251857
 20
370.2366246943495
 30
0.0
 40
15.5
100
AcDbArc
 50
75.09430000000091
 51
165.047000000003
  0
ARC
  5
37A8
330
1F
100
AcDbEntity
  8
0
  6
Continuous
 62
     7
100
AcDbCircle
 10
995.7245026251857
 20
370.2366246943495
 30
0.0
 40
27.0
100
AcDbArc
 50
130.271999999996
 51
171.4820000000016
  0
LINE
  5
37A9
330
1F
100
AcDbEntity
  8
0
  6
Continuous
 62
     7
100
AcDbLine
 10
972.7245026251857
 20
374.2366246943495
 30
0.0
 11
972.7245026251857
 21
366.2366246943495
 31
0.0
  0
CIRCLE
  5
37AA
330
1F
100
AcDbEntity
  8
0
  6
Continuous
 62
     7
100
AcDbCircle
 10
965.2245026251858
 20
370.1626246943495
 30
0.0
 40
1.620999999999999
  0
CIRCLE
  5
37AB
330
1F
100
AcDbEntity
  8
0
  6
Continuous
 62
     2
100
AcDbCircle
 10
965.2245026251858
 20
370.1626246943495
 30
0.0
 40
2.0
  0
LINE
  5
37AC
330
1F
100
AcDbEntity
  8
AM_7
100
AcDbLine
 10
965.2245026251858
 20
372.9386246943495
 30
0.0
 11
965.2245026251858
 21
367.4776246943495
 31
0.0
  0
LINE
  5
37AD
330
1F
100
AcDbEntity
  8
0
  6
Continuous
 62
     7
100
AcDbLine
 10
969.7245026251858
 20
374.2366246943495
 30
0.0
 11
969.7245026251858
 21
366.2366246943495
 31
0.0
  0
CIRCLE
  5
37AE
330
1F
100
AcDbEntity
  8
0
  6
Continuous
 62
     7
100
AcDbCircle
 10
977.2245026251857
 20
370.1916246943495
 30
0.0
 40
1.620999999999999
  0
CIRCLE
  5
37AF
330
1F
100
AcDbEntity
  8
0
  6
Continuous
 62
     2
100
AcDbCircle
 10
977.2245026251857
 20
370.1916246943495
 30
0.0
 40
2.0
  0
LINE
  5
37B0
330
1F
100
AcDbEntity
  8
AM_7
100
AcDbLine
 10
977.2245026251857
 20
373.0366246943495
 30
0.0
 11
977.2245026251857
 21
367.3216246943495
 31
0.0
  0
LINE
  5
37B1
330
1F
100
AcDbEntity
  8
0
  6
Continuous
 62
     7
100
AcDbLine
 10
981.7245026251857
 20
374.2366246943495
 30
0.0
 11
981.7245026251857
 21
366.2366246943495
 31
0.0
  0
LINE
  5
37B2
330
1F
100
AcDbEntity
  8
0
  6
Continuous
 62
     7
100
AcDbLine
 10
978.3105026251858
 20
390.7686246943494
 30
0.0
 11
976.2345026251857
 21
394.3446246943495
 31
0.0
  0
LINE
  5
37B3
330
1F
100
AcDbEntity
  8
0
  6
Continuous
 62
     7
100
AcDbLine
 10
1003.420502625186
 20
375.6086246943494
 30
0.0
 11
996.4925026251858
 21
379.6086246943494
 31
0.0
  0
LINE
  5
37B4
330
1F
100
AcDbEntity
  8
0
  6
Continuous
 62
     7
100
AcDbLine
 10
987.2245026251858
 20
374.2366246943495
 30
0.0
 11
987.2245026251858
 21
366.2366246943495
 31
0.0
  0
POINT
  5
37B5
330
1F
100
AcDbEntity
  8
0
100
AcDbPoint
 10
995.7245026251857
 20
370.2366246943495
 30
0.0
  0
CIRCLE
  5
37B6
330
1F
100
AcDbEntity
  8
0
  6
Continuous
 62
     7
100
AcDbCircle
 10
1004.935502625186
 20
386.2816246943494
 30
0.0
 40
1.620999999999999
  0
CIRCLE
  5
37B7
330
1F
100
AcDbEntity
  8
0
  6
Continuous
 62
     2
100
AcDbCircle
 10
1004.935502625186
 20
386.2816246943494
 30
0.0
 40
2.0
  0
LINE
  5
37B8
330
1F
100
AcDbEntity
  8
AM_7
100
AcDbLine
 10
1007.398502625186
 20
384.8586246943494
 30
0.0
 11
1002.449502625186
 21
387.7156246943495
 31
0.0
  0
LINE
  5
37B9
330
1F
100
AcDbEntity
  8
0
  6
Continuous
 62
     7
100
AcDbLine
 10
1006.158502625186
 20
380.3786246943495
 30
0.0
 11
999.2305026251859
 21
384.3786246943495
 31
0.0
  0
LINE
  5
37BA
330
1F
100
AcDbEntity
  8
0
  6
Continuous
 62
     7
100
AcDbLine
 10
1025.633502625185
 20
362.0906246943495
 30
0.0
 11
1022.064502625185
 21
363.3806246943495
 31
0.0
  0
ARC
  5
37BB
330
1F
100
AcDbEntity
  8
0
  6
Continuous
 62
     7
100
AcDbCircle
 10
995.7245026251857
 20
370.2366246943495
 30
0.0
 40
31.0
100
AcDbArc
 50
344.7639999999987
 51
15.51429999999805
  0
LINE
  5
37BC
330
1F
100
AcDbEntity
  8
0
  6
Continuous
 62
     7
100
AcDbLine
 10
1016.267502625185
 20
359.4136246943494
 30
0.0
 11
1018.441502625186
 21
365.4326246943494
 31
0.0
  0
TEXT
  5
37BD
330
1F
100
AcDbEntity
  8
AM_5
100
AcDbText
 10
1030.539989685965
 20
336.8393471755565
 30
0.0
 40
1.6
  1
-0.036
 50
29.99999999999772
  7
China
100
AcDbText
  0
TEXT
  5
37BE
330
1F
100
AcDbEntity
  8
AM_5
100
AcDbText
 10
1031.029044296907
 20
339.59370676851
 30
0.0
 40
1.6
  1
0
 50
29.99999999999772
  7
China
100
AcDbText
  0
ARC
  5
37BF
330
1F
100
AcDbEntity
  8
0
  6
Continuous
 62
     7
100
AcDbCircle
 10
995.7245026251857
 20
370.2366246943495
 30
0.0
 40
31.0
100
AcDbArc
 50
307.5719999999947
 51
335.5130000000012
  0
LINE
  5
37C0
330
1F
100
AcDbEntity
  8
0
  6
Continuous
 62
     7
100
AcDbLine
 10
1020.225502625186
 20
343.9686246943495
 30
0.0
 11
1017.689502625185
 21
348.3616246943495
 31
0.0
  0
CIRCLE
  5
37C1
330
1F
100
AcDbEntity
  8
0
  6
Continuous
 62
     7
100
AcDbCircle
 10
1011.038502625186
 20
343.8606246943495
 30
0.0
 40
1.620999999999999
  0
CIRCLE
  5
37C2
330
1F
100
AcDbEntity
  8
0
  6
Continuous
 62
     2
100
AcDbCircle
 10
1011.038502625186
 20
343.8606246943495
 30
0.0
 40
2.0
  0
LINE
  5
37C3
330
1F
100
AcDbEntity
  8
AM_7
100
AcDbLine
 10
1008.633502625186
 20
342.4716246943494
 30
0.0
 11
1013.363502625185
 21
345.2026246943494
 31
0.0
  0
LINE
  5
37C4
330
1F
100
AcDbEntity
  8
0
  6
Continuous
 62
     7
100
AcDbLine
 10
1019.748502625185
 20
358.1566246943494
 30
0.0
 11
1020.366502625186
 21
358.6776246943494
 31
0.0
  0
ARC
  5
37C5
330
1F
100
AcDbEntity
  8
0
  6
Continuous
 62
     7
100
AcDbCircle
 10
995.7245026251857
 20
370.2366246943495
 30
0.0
 40
27.0
100
AcDbArc
 50
308.7009999999994
 51
333.8410000000037
  0
POINT
  5
37C6
330
1F
100
AcDbEntity
  8
0
100
AcDbPoint
 10
1017.354502625186
 20
362.4236246943494
 30
0.0
  0
LINE
  5
37C7
330
1F
100
AcDbEntity
  8
0
  6
Continuous
 62
     7
100
AcDbLine
 10
1019.748502625185
 20
358.1566246943494
 30
0.0
 11
1016.267502625185
 21
359.4136246943494
 31
0.0
  0
LINE
  5
37C8
330
1F
100
AcDbEntity
  8
0
  6
Continuous
 62
     7
100
AcDbLine
 10
1023.935502625185
 20
357.3876246943495
 30
0.0
 11
1020.366502625186
 21
358.6776246943494
 31
0.0
  0
LINE
  5
37C9
330
1F
100
AcDbEntity
  8
0
  6
Continuous
 62
     7
100
AcDbLine
 10
1016.215502625186
 20
381.1606246943495
 30
0.0
 11
1018.419502625185
 21
375.1516246943495
 31
0.0
  0
CIRCLE
  5
37CA
330
1F
100
AcDbEntity
  8
0
  6
Continuous
 62
     7
100
AcDbCircle
 10
1022.224502625186
 20
370.3016246943495
 30
0.0
 40
2.75
  0
ARC
  5
37CB
330
1F
100
AcDbEntity
  8
0
  6
Continuous
 62
     7
100
AcDbCircle
 10
1022.224502625186
 20
370.3016246943495
 30
0.0
 40
4.75
100
AcDbArc
 50
90.13910000000402
 51
270.1389999999991
  0
LINE
  5
37CC
330
1F
100
AcDbEntity
  8
0
  6
Continuous
 62
     7
100
AcDbLine
 10
1021.921502625185
 20
364.1756246943494
 30
0.0
 11
1018.442502625186
 21
365.4326246943494
 31
0.0
  0
LINE
  5
37CD
330
1F
100
AcDbEntity
  8
0
  6
Continuous
 62
     7
100
AcDbLine
 10
1021.893502625185
 20
376.4256246943494
 30
0.0
 11
1018.419502625185
 21
375.1516246943495
 31
0.0
  0
POINT
  5
37CE
330
1F
100
AcDbEntity
  8
0
100
AcDbPoint
 10
1017.317502625186
 20
378.1556246943494
 30
0.0
  0
LINE
  5
37CF
330
1F
100
AcDbEntity
  8
0
  6
Continuous
 62
     7
100
AcDbLine
 10
1025.594502625185
 20
378.5286246943495
 30
0.0
 11
1022.032502625186
 21
377.2226246943494
 31
0.0
  0
LINE
  5
37D0
330
1F
100
AcDbEntity
  8
0
  6
Continuous
 62
     7
100
AcDbLine
 10
1022.032502625186
 20
377.2226246943494
 30
0.0
 11
1021.893502625185
 21
376.4256246943494
 31
0.0
  0
LINE
  5
37D1
330
1F
100
AcDbEntity
  8
AM_7
100
AcDbLine
 10
1022.236502625186
 20
365.1636246943494
 30
0.0
 11
1022.211502625185
 21
375.2096246943495
 31
0.0
  0
LINE
  5
37D2
330
1F
100
AcDbEntity
  8
0
  6
Continuous
 62
     7
100
AcDbLine
 10
1022.064502625185
 20
363.3796246943494
 30
0.0
 11
1021.922502625185
 21
364.1756246943494
 31
0.0
  0
LINE
  5
37D3
330
1F
100
AcDbEntity
  8
0
  6
Continuous
 62
     7
100
AcDbLine
 10
1022.235502625186
 20
365.5516246943495
 30
0.0
 11
1026.369502625186
 21
365.5616246943495
 31
0.0
  0
ARC
  5
37D4
330
1F
100
AcDbEntity
  8
0
  6
Continuous
 62
     7
100
AcDbCircle
 10
995.7245026251857
 20
370.2366246943495
 30
0.0
 40
27.0
100
AcDbArc
 50
346.4339999999976
 51
350.0070000000026
  0
LINE
  5
37D5
330
1F
100
AcDbEntity
  8
0
  6
Continuous
 62
     7
100
AcDbLine
 10
1022.212502625186
 20
375.0516246943495
 30
0.0
 11
1026.346502625186
 21
375.0616246943494
 31
0.0
  0
ARC
  5
37D6
330
1F
100
AcDbEntity
  8
0
  6
Continuous
 62
     7
100
AcDbCircle
 10
995.7245026251857
 20
370.2366246943495
 30
0.0
 40
27.0
100
AcDbArc
 50
10.2715999999988
 51
13.83939999999862
  0
LINE
  5
37D7
330
1F
100
AcDbEntity
  8
0
  6
Continuous
 62
     7
100
AcDbLine
 10
1019.690502625185
 20
382.4346246943494
 30
0.0
 11
1020.310502625186
 21
381.9166246943495
 31
0.0
  0
ARC
  5
37D8
330
1F
100
AcDbEntity
  8
0
  6
Continuous
 62
     7
100
AcDbCircle
 10
995.7245026251857
 20
370.2366246943495
 30
0.0
 40
31.0
100
AcDbArc
 50
24.76570000000407
 51
52.72539999999954
  0
ARC
  5
37D9
330
1F
100
AcDbEntity
  8
0
  6
Continuous
 62
     7
100
AcDbCircle
 10
995.7245026251857
 20
370.2366246943495
 30
0.0
 40
27.0
100
AcDbArc
 50
26.44170000000273
 51
51.6193999999956
  0
LINE
  5
37DA
330
1F
100
AcDbEntity
  8
0
  6
Continuous
 62
     7
100
AcDbLine
 10
1019.689502625185
 20
382.4346246943494
 30
0.0
 11
1016.215502625186
 21
381.1606246943495
 31
0.0
  0
LINE
  5
37DB
330
1F
100
AcDbEntity
  8
0
  6
Continuous
 62
     7
100
AcDbLine
 10
1023.872502625185
 20
383.2226246943494
 30
0.0
 11
1020.310502625186
 21
381.9166246943495
 31
0.0
  0
LINE
  5
37DC
330
1F
100
AcDbEntity
  8
AM_5
100
AcDbLine
 10
972.8251663156729
 20
428.0366246943494
 30
0.0
 11
1029.009502625186
 21
428.0366246943494
 31
0.0
  0
TEXT
  5
37DD
330
1F
100
AcDbEntity
  8
AM_5
100
AcDbText
 10
988.4271663156731
 20
429.2376246943494
 30
0.0
 40
3.2
  1
0.7DEPTH8
  7
China
100
AcDbText
  0
LINE
  5
37DE
330
1F
100
AcDbEntity
  8
0
  6
Continuous
 62
     7
100
AcDbLine
 10
1020.078502625186
 20
396.5906246943495
 30
0.0
 11
1006.222502625186
 21
404.5906246943494
 31
0.0
  0
LINE
  5
37DF
330
1F
100
AcDbEntity
  8
0
  6
Continuous
 62
     7
100
AcDbLine
 10
1006.222502625186
 20
404.5906246943494
 30
0.0
 11
1003.686502625185
 21
400.1966246943494
 31
0.0
  0
TEXT
  5
37E0
330
1F
100
AcDbEntity
  8
AM_5
100
AcDbText
 10
972.4271663156731
 20
429.2376246943494
 30
0.0
 40
3.2
  1
6-M4
  7
China
100
AcDbText
  0
LINE
  5
37E1
330
1F
100
AcDbEntity
  8
AM_5
100
AcDbLine
 10
985.927166315673
 20
431.9106246943495
 30
0.0
 11
987.726166315673
 21
429.7656246943495
 31
0.0
  0
LINE
  5
37E2
330
1F
100
AcDbEntity
  8
AM_5
100
AcDbLine
 10
985.927166315673
 20
429.7656246943495
 30
0.0
 11
987.726166315673
 21
431.9106246943495
 31
0.0
  0
LINE
  5
37E3
330
1F
100
AcDbEntity
  8
AM_5
100
AcDbLine
 10
1029.009502625186
 20
428.0366246943494
 30
0.0
 11
1011.910502625186
 21
398.4196246943495
 31
0.0
  0
LINE
  5
37E4
330
1F
100
AcDbEntity
  8
0
  6
Continuous
 62
     7
100
AcDbLine
 10
1082.188591891658
 20
455.7346246943494
 30
0.0
 11
1082.188591891658
 21
472.1166246943494
 31
0.0
  0
LINE
  5
37E5
330
1F
100
AcDbEntity
  8
0
  6
Continuous
 62
     7
100
AcDbLine
 10
1114.188591891658
 20
449.2366246943495
 30
0.0
 11
1114.188591891658
 21
511.2366246943493
 31
0.0
  0
LINE
  5
37E6
330
1F
100
AcDbEntity
  8
0
  6
Continuous
 62
     7
100
AcDbLine
 10
1067.188591891659
 20
459.1986246943495
 30
0.0
 11
1067.188591891659
 21
476.6706246943495
 31
0.0
  0
DIMENSION
  5
37E7
330
1F
100
AcDbEntity
  8
AM_5
100
AcDbDimension
  2
*D5
 10
1126.998218892702
 20
449.2366246943495
 30
0.0
 11
1124.697923617111
 21
480.2366246943496
 31
0.0
 70
    32
  1
%%C<>
 71
     5
 42
61.99999999999988
  3
AM_ISO$0
100
AcDbAlignedDimension
 13
1114.188591891658
 23
511.2366246943493
 33
0.0
 14
1114.188591891658
 24
449.2366246943495
 34
0.0
 50
90.0
100
AcDbRotatedDimension
  0
LINE
  5
37E8
330
1F
100
AcDbEntity
  8
0
  6
Continuous
 62
     7
100
AcDbLine
 10
1075.188591891659
 20
398.5896246943495
 30
0.0
 11
1075.188591891659
 21
392.2356246943494
 31
0.0
  0
LINE
  5
37E9
330
1F
100
AcDbEntity
  8
0
  6
Continuous
 62
     7
100
AcDbLine
 10
1082.188591891658
 20
404.5896246943494
 30
0.0
 11
1082.188591891658
 21
392.2356246943494
 31
0.0
  0
LINE
  5
37EA
330
1F
100
AcDbEntity
  8
0
  6
Continuous
 62
     7
100
AcDbLine
 10
1067.188591891659
 20
402.5896246943494
 30
0.0
 11
1067.188591891659
 21
380.4036246943494
 31
0.0
  0
LINE
  5
37EB
330
1F
100
AcDbEntity
  8
0
  6
Continuous
 62
     7
100
AcDbLine
 10
1114.189591891658
 20
401.2366246943495
 30
0.0
 11
1114.189591891658
 21
339.2366246943495
 31
0.0
  0
LINE
  5
37EC
330
1F
100
AcDbEntity
  8
0
  6
Continuous
 62
     7
100
AcDbLine
 10
1075.188591891659
 20
392.2356246943494
 30
0.0
 11
1082.188591891658
 21
392.2356246943494
 31
0.0
  0
LINE
  5
37ED
330
1F
100
AcDbEntity
  8
0
  6
Continuous
 62
     7
100
AcDbLine
 10
1075.188591891659
 20
343.8826246943495
 30
0.0
 11
1082.188591891658
 21
343.8826246943495
 31
0.0
  0
LINE
  5
37EE
330
1F
100
AcDbEntity
  8
0
  6
Continuous
 62
     7
100
AcDbLine
 10
1075.188591891659
 20
348.2366246943495
 30
0.0
 11
1082.188591891658
 21
348.2366246943495
 31
0.0
  0
LINE
  5
37EF
330
1F
100
AcDbEntity
  8
0
  6
Continuous
 62
     7
100
AcDbLine
 10
1072.498591891658
 20
378.5286246943495
 30
0.0
 11
1114.189591891658
 21
378.5286246943495
 31
0.0
  0
LINE
  5
37F0
330
1F
100
AcDbEntity
  8
0
  6
Continuous
 62
     7
100
AcDbLine
 10
1072.498591891658
 20
383.2226246943494
 30
0.0
 11
1114.189591891658
 21
383.2226246943494
 31
0.0
  0
LINE
  5
37F1
330
1F
100
AcDbEntity
  8
AM_7
100
AcDbLine
 10
1061.701591891658
 20
370.2366246943495
 30
0.0
 11
1120.564591891658
 21
370.2366246943495
 31
0.0
  0
LINE
  5
37F2
330
1F
100
AcDbEntity
  8
0
  6
Continuous
 62
     7
100
AcDbLine
 10
1072.498591891658
 20
361.9436246943494
 30
0.0
 11
1114.189591891658
 21
361.9436246943494
 31
0.0
  0
LINE
  5
37F3
330
1F
100
AcDbEntity
  8
0
  6
Continuous
 62
     7
100
AcDbLine
 10
1072.498591891658
 20
357.2496246943495
 30
0.0
 11
1114.189591891658
 21
357.2496246943495
 31
0.0
  0
LINE
  5
37F4
330
1F
100
AcDbEntity
  8
0
  6
Continuous
 62
     7
100
AcDbLine
 10
1075.188591891659
 20
335.8826246943495
 30
0.0
 11
1082.188591891658
 21
335.8826246943495
 31
0.0
  0
LINE
  5
37F5
330
1F
100
AcDbEntity
  8
0
  6
Continuous
 62
     7
100
AcDbLine
 10
1072.498591891658
 20
365.4116246943495
 30
0.0
 11
1072.498591891658
 21
361.9436246943494
 31
0.0
  0
LINE
  5
37F6
330
1F
100
AcDbEntity
  8
0
  6
Continuous
 62
     7
100
AcDbLine
 10
1070.188591891658
 20
348.7466246943495
 30
0.0
 11
1070.188591891658
 21
391.7266246943496
 31
0.0
  0
LINE
  5
37F7
330
1F
100
AcDbEntity
  8
0
  6
Continuous
 62
     7
100
AcDbLine
 10
1072.498591891658
 20
357.2496246943495
 30
0.0
 11
1072.498591891658
 21
345.5616246943495
 31
0.0
  0
LINE
  5
37F8
330
1F
100
AcDbEntity
  8
0
  6
Continuous
 62
     7
100
AcDbLine
 10
1072.498591891658
 20
345.5616246943495
 30
0.0
 11
1070.189591891659
 21
348.7456246943494
 31
0.0
  0
LINE
  5
37F9
330
1F
100
AcDbEntity
  8
0
  6
Continuous
 62
     7
100
AcDbLine
 10
1075.188591891659
 20
341.8826246943495
 30
0.0
 11
1075.188591891659
 21
348.2366246943495
 31
0.0
  0
LINE
  5
37FA
330
1F
100
AcDbEntity
  8
0
  6
Continuous
 62
     7
100
AcDbLine
 10
1067.188591891659
 20
337.8826246943495
 30
0.0
 11
1067.188591891659
 21
360.0696246943494
 31
0.0
  0
LINE
  5
37FB
330
1F
100
AcDbEntity
  8
0
  6
Continuous
 62
     7
100
AcDbLine
 10
1067.188591891659
 20
337.8826246943495
 30
0.0
 11
1075.188591891659
 21
337.8826246943495
 31
0.0
  0
LINE
  5
37FC
330
1F
100
AcDbEntity
  8
0
  6
Continuous
 62
     7
100
AcDbLine
 10
1067.188591891659
 20
341.8826246943495
 30
0.0
 11
1075.188591891659
 21
341.8826246943495
 31
0.0
  0
LINE
  5
37FD
330
1F
100
AcDbEntity
  8
0
  6
Continuous
 62
     7
100
AcDbLine
 10
1072.498591891658
 20
345.5616246943495
 30
0.0
 11
1075.188591891659
 21
345.5616246943495
 31
0.0
  0
LINE
  5
37FE
330
1F
100
AcDbEntity
  8
0
  6
Continuous
 62
     7
100
AcDbLine
 10
1075.188591891659
 20
335.8826246943495
 30
0.0
 11
1075.188591891659
 21
337.8826246943495
 31
0.0
  0
LINE
  5
37FF
330
1F
100
AcDbEntity
  8
0
  6
Continuous
 62
     7
100
AcDbLine
 10
1067.188591891659
 20
349.6766246943495
 30
0.0
 11
1069.188591891658
 21
349.6766246943495
 31
0.0
  0
LINE
  5
3800
330
1F
100
AcDbEntity
  8
0
  6
Continuous
 62
     7
100
AcDbLine
 10
1067.188591891659
 20
352.2746246943496
 30
0.0
 11
1069.188591891658
 21
352.2746246943496
 31
0.0
  0
LINE
  5
3801
330
1F
100
AcDbEntity
  8
0
  6
Continuous
 62
     7
100
AcDbLine
 10
1067.188591891659
 20
360.0696246943494
 30
0.0
 11
1070.188591891658
 21
360.0696246943494
 31
0.0
  0
LINE
  5
3802
330
1F
100
AcDbEntity
  8
0
  6
Continuous
 62
     7
100
AcDbLine
 10
1072.498591891658
 20
361.9436246943494
 30
0.0
 11
1070.189591891659
 21
363.0136246943495
 31
0.0
  0
LINE
  5
3803
330
1F
100
AcDbEntity
  8
0
  6
Continuous
 62
     7
100
AcDbLine
 10
1070.188591891658
 20
358.9246246943494
 30
0.0
 11
1072.498591891658
 21
357.2496246943495
 31
0.0
  0
LINE
  5
3804
330
1F
100
AcDbEntity
  8
0
  6
Continuous
 62
     7
100
AcDbLine
 10
1069.188591891658
 20
349.6766246943495
 30
0.0
 11
1069.188591891658
 21
352.2746246943496
 31
0.0
  0
LINE
  5
3805
330
1F
100
AcDbEntity
  8
0
  6
Continuous
 62
     7
100
AcDbLine
 10
1067.188591891659
 20
366.2896246943494
 30
0.0
 11
1070.188591891658
 21
366.2896246943494
 31
0.0
  0
LINE
  5
3806
330
1F
100
AcDbEntity
  8
0
  6
Continuous
 62
     7
100
AcDbLine
 10
1067.188591891659
 20
374.1836246943494
 30
0.0
 11
1070.188591891658
 21
374.1836246943494
 31
0.0
  0
LINE
  5
3807
330
1F
100
AcDbEntity
  8
0
  6
Continuous
 62
     7
100
AcDbLine
 10
1067.188591891659
 20
366.2896246943494
 30
0.0
 11
1067.188591891659
 21
374.1836246943494
 31
0.0
  0
LINE
  5
3808
330
1F
100
AcDbEntity
  8
0
  6
Continuous
 62
     7
100
AcDbLine
 10
1072.498591891658
 20
378.5286246943495
 30
0.0
 11
1070.189591891659
 21
377.4586246943495
 31
0.0
  0
LINE
  5
3809
330
1F
100
AcDbEntity
  8
0
  6
Continuous
 62
     7
100
AcDbLine
 10
1079.188591891659
 20
365.4116246943495
 30
0.0
 11
1079.188591891659
 21
375.0606246943495
 31
0.0
  0
LINE
  5
380A
330
1F
100
AcDbEntity
  8
0
  6
Continuous
 62
     7
100
AcDbLine
 10
1070.189591891659
 20
366.0336246943495
 30
0.0
 11
1072.498591891658
 21
365.4116246943495
 31
0.0
  0
LINE
  5
380B
330
1F
100
AcDbEntity
  8
0
  6
Continuous
 62
     7
100
AcDbLine
 10
1072.498591891658
 20
375.0606246943495
 30
0.0
 11
1070.189591891659
 21
374.4376246943494
 31
0.0
  0
LINE
  5
380C
330
1F
100
AcDbEntity
  8
0
  6
Continuous
 62
     7
100
AcDbLine
 10
1072.498591891658
 20
365.4116246943495
 30
0.0
 11
1079.188591891659
 21
365.4116246943495
 31
0.0
  0
LINE
  5
380D
330
1F
100
AcDbEntity
  8
0
  6
Continuous
 62
     7
100
AcDbLine
 10
1072.498591891658
 20
375.0606246943495
 30
0.0
 11
1079.188591891659
 21
375.0606246943495
 31
0.0
  0
LINE
  5
380E
330
1F
100
AcDbEntity
  8
0
  6
Continuous
 62
     7
100
AcDbLine
 10
1072.498591891658
 20
375.0606246943495
 30
0.0
 11
1072.498591891658
 21
378.5286246943495
 31
0.0
  0
LINE
  5
380F
330
1F
100
AcDbEntity
  8
0
  6
Continuous
 62
     7
100
AcDbLine
 10
1067.188591891659
 20
380.4036246943494
 30
0.0
 11
1070.188591891658
 21
380.4036246943494
 31
0.0
  0
LINE
  5
3810
330
1F
100
AcDbEntity
  8
0
  6
Continuous
 62
     7
100
AcDbLine
 10
1067.188591891659
 20
388.1976246943494
 30
0.0
 11
1069.188591891658
 21
388.1976246943494
 31
0.0
  0
LINE
  5
3811
330
1F
100
AcDbEntity
  8
0
  6
Continuous
 62
     7
100
AcDbLine
 10
1067.188591891659
 20
390.7956246943495
 30
0.0
 11
1069.188591891658
 21
390.7956246943495
 31
0.0
  0
LINE
  5
3812
330
1F
100
AcDbEntity
  8
0
  6
Continuous
 62
     7
100
AcDbLine
 10
1072.498591891658
 20
394.9106246943495
 30
0.0
 11
1075.188591891659
 21
394.9106246943495
 31
0.0
  0
LINE
  5
3813
330
1F
100
AcDbEntity
  8
0
  6
Continuous
 62
     7
100
AcDbLine
 10
1070.189591891659
 20
381.5476246943494
 30
0.0
 11
1072.498591891658
 21
383.2226246943494
 31
0.0
  0
LINE
  5
3814
330
1F
100
AcDbEntity
  8
0
  6
Continuous
 62
     7
100
AcDbLine
 10
1069.188591891658
 20
390.7956246943495
 30
0.0
 11
1069.188591891658
 21
388.1976246943494
 31
0.0
  0
LINE
  5
3815
330
1F
100
AcDbEntity
  8
0
  6
Continuous
 62
     7
100
AcDbLine
 10
1072.498591891658
 20
383.2226246943494
 30
0.0
 11
1072.498591891658
 21
394.9106246943495
 31
0.0
  0
LINE
  5
3816
330
1F
100
AcDbEntity
  8
0
  6
Continuous
 62
     7
100
AcDbLine
 10
1072.498591891658
 20
394.9106246943495
 30
0.0
 11
1070.188591891658
 21
391.7266246943496
 31
0.0
  0
LINE
  5
3817
330
1F
100
AcDbEntity
  8
0
  6
Continuous
 62
     7
100
AcDbLine
 10
1082.188591891658
 20
339.2366246943495
 30
0.0
 11
1114.189591891658
 21
339.2366246943495
 31
0.0
  0
LINE
  5
3818
330
1F
100
AcDbEntity
  8
0
  6
Continuous
 62
     7
100
AcDbLine
 10
1082.188591891658
 20
335.8826246943495
 30
0.0
 11
1082.188591891658
 21
348.2366246943495
 31
0.0
  0
POINT
  5
3819
330
1F
100
AcDbEntity
  8
0
100
AcDbPoint
 10
1114.189591891658
 20
370.2366246943495
 30
0.0
  0
LINE
  5
381A
330
1F
100
AcDbEntity
  8
0
  6
Continuous
 62
     7
100
AcDbLine
 10
1075.188591891659
 20
455.7346246943494
 30
0.0
 11
1082.188591891658
 21
455.7346246943494
 31
0.0
  0
LINE
  5
381B
330
1F
100
AcDbEntity
  8
0
  6
Continuous
 62
     7
100
AcDbLine
 10
1114.188591891658
 20
450.3656246943494
 30
0.0
 11
1072.498591891658
 21
450.3656246943494
 31
0.0
  0
LINE
  5
381C
330
1F
100
AcDbEntity
  8
0
  6
Continuous
 62
     7
100
AcDbLine
 10
1114.188591891658
 20
452.0876246943494
 30
0.0
 11
1072.498591891658
 21
452.0876246943494
 31
0.0
  0
LINE
  5
381D
330
1F
100
AcDbEntity
  8
0
  6
Continuous
 62
     7
100
AcDbLine
 10
1072.498591891658
 20
449.2366246943495
 30
0.0
 11
1114.188591891658
 21
449.2366246943495
 31
0.0
  0
LINE
  5
381E
330
1F
100
AcDbEntity
  8
0
  6
Continuous
 62
     7
100
AcDbLine
 10
1075.188591891659
 20
396.5896246943495
 30
0.0
 11
1082.188591891658
 21
396.5896246943495
 31
0.0
  0
LINE
  5
381F
330
1F
100
AcDbEntity
  8
0
  6
Continuous
 62
     7
100
AcDbLine
 10
1075.188591891659
 20
404.5896246943494
 30
0.0
 11
1082.188591891658
 21
404.5896246943494
 31
0.0
  0
LINE
  5
3820
330
1F
100
AcDbEntity
  8
0
  6
Continuous
 62
     7
100
AcDbLine
 10
1067.188591891659
 20
402.5896246943494
 30
0.0
 11
1075.188591891659
 21
402.5896246943494
 31
0.0
  0
LINE
  5
3821
330
1F
100
AcDbEntity
  8
0
  6
Continuous
 62
     7
100
AcDbLine
 10
1067.188591891659
 20
398.5896246943495
 30
0.0
 11
1075.188591891659
 21
398.5896246943495
 31
0.0
  0
LINE
  5
3822
330
1F
100
AcDbEntity
  8
0
  6
Continuous
 62
     7
100
AcDbLine
 10
1075.188591891659
 20
404.5896246943494
 30
0.0
 11
1075.188591891659
 21
402.5896246943494
 31
0.0
  0
LINE
  5
3823
330
1F
100
AcDbEntity
  8
0
  6
Continuous
 62
     7
100
AcDbLine
 10
1067.188591891659
 20
459.1986246943495
 30
0.0
 11
1075.188591891659
 21
459.1986246943495
 31
0.0
  0
LINE
  5
3824
330
1F
100
AcDbEntity
  8
0
  6
Continuous
 62
     7
100
AcDbLine
 10
1070.188591891658
 20
453.2366246943495
 30
0.0
 11
1072.498591891658
 21
449.2366246943495
 31
0.0
  0
LINE
  5
3825
330
1F
100
AcDbEntity
  8
0
  6
Continuous
 62
     7
100
AcDbLine
 10
1072.498591891658
 20
450.3656246943494
 30
0.0
 11
1070.188591891658
 21
454.2196246943494
 31
0.0
  0
LINE
  5
3826
330
1F
100
AcDbEntity
  8
0
  6
Continuous
 62
     7
100
AcDbLine
 10
1072.498591891658
 20
450.3656246943494
 30
0.0
 11
1072.498591891658
 21
449.2366246943495
 31
0.0
  0
LINE
  5
3827
330
1F
100
AcDbEntity
  8
0
  6
Continuous
 62
     7
100
AcDbLine
 10
1070.188591891658
 20
455.7196246943495
 30
0.0
 11
1072.498591891658
 21
452.0876246943494
 31
0.0
  0
LINE
  5
3828
330
1F
100
AcDbEntity
  8
0
  6
Continuous
 62
     7
100
AcDbLine
 10
1070.188591891658
 20
453.2366246943495
 30
0.0
 11
1070.188591891658
 21
459.1986246943495
 31
0.0
  0
LINE
  5
3829
330
1F
100
AcDbEntity
  8
0
  6
Continuous
 62
     7
100
AcDbLine
 10
1072.498591891658
 20
459.1986246943495
 30
0.0
 11
1072.498591891658
 21
452.0876246943494
 31
0.0
  0
LINE
  5
382A
330
1F
100
AcDbEntity
  8
0
  6
Continuous
 62
     7
100
AcDbLine
 10
1075.188591891659
 20
455.7346246943494
 30
0.0
 11
1075.188591891659
 21
459.1986246943495
 31
0.0
  0
LINE
  5
382B
330
1F
100
AcDbEntity
  8
0
  6
Continuous
 62
     7
100
AcDbLine
 10
1082.188591891658
 20
401.2366246943495
 30
0.0
 11
1114.189591891658
 21
401.2366246943495
 31
0.0
  0
LINE
  5
382C
330
1F
100
AcDbEntity
  8
0
  6
Continuous
 62
     7
100
AcDbLine
 10
1170.32280378808
 20
396.5046246943495
 30
0.0
 11
1172.86780378808
 21
392.1206246943494
 31
0.0
  0
LINE
  5
382D
330
1F
100
AcDbEntity
  8
0
  6
Continuous
 62
     7
100
AcDbLine
 10
1164.932803788079
 20
362.0186246943494
 30
0.0
 11
1168.49980378808
 21
363.3166246943495
 31
0.0
  0
LINE
  5
382E
330
1F
100
AcDbEntity
  8
0
  6
Continuous
 62
     7
100
AcDbLine
 10
1174.30480378808
 20
359.3636246943495
 30
0.0
 11
1172.11580378808
 21
365.3776246943494
 31
0.0
  0
ARC
  5
382F
330
1F
100
AcDbEntity
  8
0
  6
Continuous
 62
     7
100
AcDbCircle
 10
1194.82380378808
 20
370.2366246943495
 30
0.0
 40
31.0
100
AcDbArc
 50
164.6249999999978
 51
195.3719999999995
  0
LINE
  5
3832
330
1F
100
AcDbEntity
  8
0
  6
Continuous
 62
     7
100
AcDbLine
 10
1170.46980378808
 20
343.8826246943495
 30
0.0
 11
1172.97380378808
 21
348.2446246943494
 31
0.0
  0
LINE
  5
3833
330
1F
100
AcDbEntity
  8
0
  6
Continuous
 62
     7
100
AcDbLine
 10
1170.46980378808
 20
343.8826246943495
 30
0.0
 11
1184.32580378808
 21
335.8826246943495
 31
0.0
  0
LINE
  5
3834
330
1F
100
AcDbEntity
  8
0
  6
Continuous
 62
     7
100
AcDbLine
 10
1184.32580378808
 20
335.8826246943495
 30
0.0
 11
1186.84980378808
 21
340.2796246943494
 31
0.0
  0
LINE
  5
3835
330
1F
100
AcDbEntity
  8
0
  6
Continuous
 62
     7
100
AcDbLine
 10
1189.51280378808
 20
345.2156246943494
 30
0.0
 11
1189.25180378808
 21
343.2326246943494
 31
0.0
  0
POINT
  5
3836
330
1F
100
AcDbEntity
  8
0
100
AcDbPoint
 10
1173.20980378808
 20
362.3706246943494
 30
0.0
  0
LINE
  5
3837
330
1F
100
AcDbEntity
  8
0
  6
Continuous
 62
     7
100
AcDbLine
 10
1166.64280378808
 20
357.3196246943494
 30
0.0
 11
1170.20780378808
 21
358.6176246943494
 31
0.0
  0
LINE
  5
3838
330
1F
100
AcDbEntity
  8
0
  6
Continuous
 62
     7
100
AcDbLine
 10
1170.82780378808
 20
358.0986246943494
 30
0.0
 11
1174.30480378808
 21
359.3636246943495
 31
0.0
  0
LINE
  5
3839
330
1F
100
AcDbEntity
  8
0
  6
Continuous
 62
     7
100
AcDbLine
 10
1170.82780378808
 20
358.0986246943494
 30
0.0
 11
1170.20780378808
 21
358.6176246943494
 31
0.0
  0
LINE
  5
383A
330
1F
100
AcDbEntity
  8
0
  6
Continuous
 62
     7
100
AcDbLine
 10
1164.932803788079
 20
378.4556246943495
 30
0.0
 11
1168.49880378808
 21
377.1576246943495
 31
0.0
  0
CIRCLE
  5
383B
330
1F
100
AcDbEntity
  8
0
  6
Continuous
 62
     7
100
AcDbCircle
 10
1168.32380378808
 20
370.2366246943495
 30
0.0
 40
2.75
  0
LINE
  5
383C
330
1F
100
AcDbEntity
  8
0
  6
Continuous
 62
     7
100
AcDbLine
 10
1174.30480378808
 20
381.1096246943495
 30
0.0
 11
1172.11580378808
 21
375.0956246943494
 31
0.0
  0
LINE
  5
383D
330
1F
100
AcDbEntity
  8
0
  6
Continuous
 62
     7
100
AcDbLine
 10
1168.49880378808
 20
377.1566246943494
 30
0.0
 11
1168.63880378808
 21
376.3616246943495
 31
0.0
  0
POINT
  5
383E
330
1F
100
AcDbEntity
  8
0
100
AcDbPoint
 10
1173.20980378808
 20
378.1026246943495
 30
0.0
  0
LINE
  5
383F
330
1F
100
AcDbEntity
  8
0
  6
Continuous
 62
     7
100
AcDbLine
 10
1168.49980378808
 20
363.3166246943495
 30
0.0
 11
1168.64080378808
 21
364.1126246943495
 31
0.0
  0
LINE
  5
3840
330
1F
100
AcDbEntity
  8
0
  6
Continuous
 62
     7
100
AcDbLine
 10
1168.64080378808
 20
364.1126246943495
 30
0.0
 11
1172.11580378808
 21
365.3776246943494
 31
0.0
  0
LINE
  5
3841
330
1F
100
AcDbEntity
  8
0
  6
Continuous
 62
     7
100
AcDbLine
 10
1168.63880378808
 20
376.3616246943495
 30
0.0
 11
1172.11580378808
 21
375.0956246943494
 31
0.0
  0
LINE
  5
3842
330
1F
100
AcDbEntity
  8
0
  6
Continuous
 62
     7
100
AcDbLine
 10
1170.82780378808
 20
382.3756246943494
 30
0.0
 11
1174.30480378808
 21
381.1096246943495
 31
0.0
  0
LINE
  5
3843
330
1F
100
AcDbEntity
  8
0
  6
Continuous
 62
     7
100
AcDbLine
 10
1166.64280378808
 20
383.1536246943494
 30
0.0
 11
1170.20880378808
 21
381.8556246943495
 31
0.0
  0
LINE
  5
3844
330
1F
100
AcDbEntity
  8
0
  6
Continuous
 62
     7
100
AcDbLine
 10
1170.82780378808
 20
382.3756246943494
 30
0.0
 11
1170.20880378808
 21
381.8556246943495
 31
0.0
  0
TEXT
  5
3847
330
1F
100
AcDbEntity
  8
AM_5
100
AcDbText
 10
1188.31480378808
 20
428.5506246943493
 30
0.0
 40
1.6
  1
0
  7
China
100
AcDbText
  0
TEXT
  5
3848
330
1F
100
AcDbEntity
  8
AM_5
100
AcDbText
 10
1176.77780378808
 20
428.9096246943495
 30
0.0
 40
3.2
  1
4H9
  7
China
100
AcDbText
  0
LINE
  5
3849
330
1F
100
AcDbEntity
  8
0
  6
Continuous
 62
     7
100
AcDbLine
 10
1184.17880378808
 20
404.5046246943494
 30
0.0
 11
1170.32180378808
 21
396.5046246943495
 31
0.0
  0
LINE
  5
384A
330
1F
100
AcDbEntity
  8
0
  6
Continuous
 62
     7
100
AcDbLine
 10
1184.17880378808
 20
404.5046246943494
 30
0.0
 11
1186.70480378808
 21
400.1546246943494
 31
0.0
  0
CIRCLE
  5
384B
330
1F
100
AcDbEntity
  8
AM_5
100
AcDbCircle
 10
1174.90180378808
 20
430.5866246943494
 30
0.0
 40
0.9
  0
LINE
  5
384C
330
1F
100
AcDbEntity
  8
AM_5
100
AcDbLine
 10
1174.31980378808
 20
428.9896246943494
 30
0.0
 11
1175.48280378808
 21
432.1846246943493
 31
0.0
  0
TEXT
  5
384D
330
1F
100
AcDbEntity
  8
AM_5
100
AcDbText
 10
1125.395174773495
 20
524.7155827982521
 30
0.0
 40
3.2
  1
M5
  7
China
100
AcDbText
  0
LEADER
  5
384E
330
1F
100
AcDbEntity
  8
AM_5
100
AcDbLeader
  3
AM_ISO$7
 76
     3
 10
1108.724746313643
 20
506.0200772756321
 30
0.0
 10
1122.899099188313
 20
523.2405279302655
 30
0.0
 10
1148.00170470027
 20
523.2405279302655
 30
0.0
1001
ACAD
1000
DSTYLE
1002
{
1070
   140
1040
3.0
1002
}
  0
LEADER
  5
384F
330
1F
100
AcDbEntity
  8
AM_5
100
AcDbLeader
  3
AM_ISO$7
 76
     3
 10
1091.966589865036
 20
488.112843095856
 30
0.0
 10
1139.508784726278
 20
503.37834486133
 30
0.0
 10
1167.186194182234
 20
503.37834486133
 30
0.0
1001
ACAD
1000
DSTYLE
1002
{
1070
   140
1040
3.0
1002
}
  0
DIMENSION
  5
3850
330
1F
100
AcDbEntity
  8
AM_5
100
AcDbDimension
  2
*D6
 10
1067.188591891659
 20
535.2976629486227
 30
0.0
 11
1068.689091891658
 21
537.5976629486226
 31
0.0
 70
    32
 71
     5
 42
3.000999999999976
  3
AM_ISO$0
100
AcDbAlignedDimension
 13
1070.189591891659
 23
507.0016246943493
 33
0.0
 14
1067.188591891659
 24
519.2546727650992
 34
0.0
100
AcDbRotatedDimension
  0
DIMENSION
  5
3851
330
1F
100
AcDbEntity
  8
AM_5
100
AcDbDimension
  2
*D7
 10
1114.188591891658
 20
535.2976629486227
 30
0.0
 11
1092.189091891659
 21
537.5976629486226
 31
0.0
 70
    32
 71
     5
 42
43.99900000000002
  3
AM_ISO$0
100
AcDbAlignedDimension
 13
1070.189591891659
 23
525.8838047200424
 33
0.0
 14
1114.188591891658
 24
511.2366246943493
 34
0.0
100
AcDbRotatedDimension
  0
DIMENSION
  5
3852
330
1F
100
AcDbEntity
  8
AM_5
100
AcDbDimension
  2
*D8
 10
1067.188591891659
 20
543.2976629486226
 30
0.0
 11
1090.688591891658
 21
545.5976629486226
 31
0.0
 70
    32
 71
     5
 42
47.0
  3
AM_ISO$0
100
AcDbAlignedDimension
 13
1114.188591891658
 23
525.8838047200424
 33
0.0
 14
1067.188591891659
 24
525.8838047200424
 34
0.0
100
AcDbRotatedDimension
  0
LINE
  5
3853
330
1F
100
AcDbEntity
  8
0
  6
Continuous
 62
     7
100
AcDbLine
 10
1075.188591891659
 20
510.1666246943494
 30
0.0
 11
1082.188591891658
 21
510.1666246943494
 31
0.0
  0
LINE
  5
3854
330
1F
100
AcDbEntity
  8
0
  6
Continuous
 62
     7
100
AcDbLine
 10
1067.188591891659
 20
515.2366246943493
 30
0.0
 11
1082.188591891658
 21
515.2366246943493
 31
0.0
  0
LINE
  5
3855
330
1F
100
AcDbEntity
  8
AM_7
100
AcDbLine
 10
1066.325591891658
 20
480.2366246943495
 30
0.0
 11
1117.123591891658
 21
480.2366246943495
 31
0.0
  0
LINE
  5
3856
330
1F
100
AcDbEntity
  8
0
  6
Continuous
 62
     7
100
AcDbLine
 10
1075.188591891659
 20
469.5906246943494
 30
0.0
 11
1082.188591891658
 21
469.5906246943494
 31
0.0
  0
LINE
  5
3857
330
1F
100
AcDbEntity
  8
0
  6
Continuous
 62
     7
100
AcDbLine
 10
1075.188591891659
 20
472.1166246943494
 30
0.0
 11
1082.188591891658
 21
472.1166246943494
 31
0.0
  0
LINE
  5
3858
330
1F
100
AcDbEntity
  8
0
  6
Continuous
 62
     7
100
AcDbLine
 10
1079.188591891659
 20
491.3696246943494
 30
0.0
 11
1079.188591891659
 21
499.6076246943494
 31
0.0
  0
LINE
  5
3859
330
1F
100
AcDbEntity
  8
0
  6
Continuous
 62
     7
100
AcDbLine
 10
1067.188591891659
 20
494.2366246943495
 30
0.0
 11
1067.188591891659
 21
503.2366246943494
 31
0.0
  0
DIMENSION
  5
385A
330
1F
100
AcDbEntity
  8
AM_5
100
AcDbDimension
  2
*D9
 10
1056.534714140813
 20
503.2366246943494
 30
0.0
 11
1054.234714140813
 21
498.7366246943496
 31
0.0
 70
    32
 71
     5
 42
8.999999999999886
  3
AM_ISO$0
100
AcDbAlignedDimension
 13
1056.534714140813
 23
494.2366246943495
 33
0.0
 14
1067.188591891659
 24
503.2366246943494
 34
0.0
 50
90.0
100
AcDbRotatedDimension
  0
LINE
  5
385B
330
1F
100
AcDbEntity
  8
0
  6
Continuous
 62
     7
100
AcDbLine
 10
1070.188591891658
 20
469.8056246943495
 30
0.0
 11
1070.188591891658
 21
507.0016246943493
 31
0.0
  0
LINE
  5
385C
330
1F
100
AcDbEntity
  8
0
  6
Continuous
 62
     7
100
AcDbLine
 10
1072.498591891658
 20
491.3696246943494
 30
0.0
 11
1072.498591891658
 21
468.2606246943493
 31
0.0
  0
LINE
  5
385D
330
1F
100
AcDbEntity
  8
0
  6
Continuous
 62
     7
100
AcDbLine
 10
1067.188591891659
 20
476.6706246943495
 30
0.0
 11
1070.188591891658
 21
476.6706246943495
 31
0.0
  0
LINE
  5
385E
330
1F
100
AcDbEntity
  8
0
  6
Continuous
 62
     7
100
AcDbLine
 10
1067.188591891659
 20
466.1266246943494
 30
0.0
 11
1075.188591891659
 21
466.1266246943494
 31
0.0
  0
LINE
  5
385F
330
1F
100
AcDbEntity
  8
0
  6
Continuous
 62
     7
100
AcDbLine
 10
1067.188591891659
 20
472.1516246943495
 30
0.0
 11
1069.188591891658
 21
472.1516246943495
 31
0.0
  0
LINE
  5
3860
330
1F
100
AcDbEntity
  8
0
  6
Continuous
 62
     7
100
AcDbLine
 10
1067.188591891659
 20
470.6456246943494
 30
0.0
 11
1069.188591891658
 21
470.6456246943494
 31
0.0
  0
LINE
  5
3861
330
1F
100
AcDbEntity
  8
0
  6
Continuous
 62
     7
100
AcDbLine
 10
1070.188591891658
 20
469.8046246943495
 30
0.0
 11
1072.498591891658
 21
468.2596246943494
 31
0.0
  0
LINE
  5
3862
330
1F
100
AcDbEntity
  8
0
  6
Continuous
 62
     7
100
AcDbLine
 10
1069.188591891658
 20
470.6456246943494
 30
0.0
 11
1069.188591891658
 21
472.1516246943495
 31
0.0
  0
LINE
  5
3863
330
1F
100
AcDbEntity
  8
0
  6
Continuous
 62
     7
100
AcDbLine
 10
1075.188591891659
 20
466.1266246943494
 30
0.0
 11
1075.188591891659
 21
472.1166246943494
 31
0.0
  0
LINE
  5
3864
330
1F
100
AcDbEntity
  8
0
  6
Continuous
 62
     7
100
AcDbLine
 10
1072.498591891658
 20
468.2606246943493
 30
0.0
 11
1075.188591891659
 21
468.2606246943493
 31
0.0
  0
LINE
  5
3865
330
1F
100
AcDbEntity
  8
0
  6
Continuous
 62
     7
100
AcDbLine
 10
1067.188591891659
 20
494.2366246943495
 30
0.0
 11
1070.188591891658
 21
494.2366246943495
 31
0.0
  0
DIMENSION
  5
3866
330
1F
100
AcDbEntity
  8
AM_5
100
AcDbDimension
  2
*D10
 10
1056.534714140813
 20
480.2366246943495
 30
0.0
 11
1054.234714140813
 21
487.2366246943497
 31
0.0
 70
    32
 71
     5
 42
14.0
  3
AM_ISO$0
100
AcDbAlignedDimension
 13
1067.188591891659
 23
494.2366246943495
 33
0.0
 14
1066.325591891658
 24
480.2366246943495
 34
0.0
 50
90.0
100
AcDbRotatedDimension
  0
LINE
  5
3867
330
1F
100
AcDbEntity
  8
0
  6
Continuous
 62
     7
100
AcDbLine
 10
1072.498591891658
 20
491.3696246943494
 30
0.0
 11
1079.188591891659
 21
491.3696246943494
 31
0.0
  0
LINE
  5
3868
330
1F
100
AcDbEntity
  8
0
  6
Continuous
 62
     7
100
AcDbLine
 10
1072.498591891658
 20
491.3696246943494
 30
0.0
 11
1070.189591891659
 21
489.9326246943494
 31
0.0
  0
TEXT
  5
3869
330
1F
100
AcDbEntity
  8
AM_5
100
AcDbText
 10
1054.14255315752
 20
518.1161784616896
 30
0.0
 40
1.6
  1
+0.025
 50
90.0
  7
China
100
AcDbText
  0
LINE
  5
386A
330
1F
100
AcDbEntity
  8
0
  6
Continuous
 62
     7
100
AcDbLine
 10
1075.188591891659
 20
510.1666246943494
 30
0.0
 11
1075.188591891659
 21
515.2366246943493
 31
0.0
  0
LINE
  5
386B
330
1F
100
AcDbEntity
  8
0
  6
Continuous
 62
     7
100
AcDbLine
 10
1067.188591891659
 20
506.2366246943494
 30
0.0
 11
1067.188591891659
 21
515.2366246943493
 31
0.0
  0
DIMENSION
  5
386C
330
1F
100
AcDbEntity
  8
AM_5
100
AcDbDimension
  2
*D11
 10
1067.188591891659
 20
527.2976629486227
 30
0.0
 11
1060.6604127578
 21
527.2976629486227
 31
0.0
 70
   160
 71
     5
 42
2.0
  3
AM_ISO$0
100
AcDbAlignedDimension
 13
1069.188591891658
 23
506.2366246943494
 33
0.0
 14
1067.188591891659
 24
515.2366246943493
 34
0.0
100
AcDbRotatedDimension
  0
DIMENSION
  5
386D
330
1F
100
AcDbEntity
  8
AM_5
100
AcDbDimension
  2
*D12
 10
1056.534714140813
 20
506.2366246943494
 30
0.0
 11
1056.534714140813
 21
514.9940149128521
 31
0.0
 70
   160
  1
3H9
 71
     5
 42
3.0
  3
AM_ISO$0
100
AcDbAlignedDimension
 13
1056.534714140813
 23
503.2366246943494
 33
0.0
 14
1067.188591891659
 24
506.2366246943494
 34
0.0
 50
90.0
100
AcDbRotatedDimension
  0
LINE
  5
386E
330
1F
100
AcDbEntity
  8
0
  6
Continuous
 62
     7
100
AcDbLine
 10
1067.188591891659
 20
503.2366246943494
 30
0.0
 11
1069.188591891658
 21
503.2366246943494
 31
0.0
  0
LINE
  5
386F
330
1F
100
AcDbEntity
  8
0
  6
Continuous
 62
     7
100
AcDbLine
 10
1067.188591891659
 20
506.2366246943494
 30
0.0
 11
1069.188591891658
 21
506.2366246943494
 31
0.0
  0
LINE
  5
3870
330
1F
100
AcDbEntity
  8
0
  6
Continuous
 62
     7
100
AcDbLine
 10
1072.498591891658
 20
510.9676246943494
 30
0.0
 11
1075.188591891659
 21
510.9676246943494
 31
0.0
  0
LINE
  5
3871
330
1F
100
AcDbEntity
  8
0
  6
Continuous
 62
     7
100
AcDbLine
 10
1070.188591891658
 20
497.1076246943494
 30
0.0
 11
1072.497591891658
 21
499.6066246943493
 31
0.0
  0
LINE
  5
3872
330
1F
100
AcDbEntity
  8
0
  6
Continuous
 62
     7
100
AcDbLine
 10
1069.188591891658
 20
503.2366246943494
 30
0.0
 11
1069.188591891658
 21
506.2366246943494
 31
0.0
  0
LINE
  5
3873
330
1F
100
AcDbEntity
  8
0
  6
Continuous
 62
     7
100
AcDbLine
 10
1072.498591891658
 20
499.6076246943494
 30
0.0
 11
1079.188591891659
 21
499.6076246943494
 31
0.0
  0
LINE
  5
3874
330
1F
100
AcDbEntity
  8
0
  6
Continuous
 62
     7
100
AcDbLine
 10
1070.189591891659
 20
507.0016246943493
 30
0.0
 11
1072.498591891658
 21
510.9666246943494
 31
0.0
  0
LINE
  5
3875
330
1F
100
AcDbEntity
  8
0
  6
Continuous
 62
     7
100
AcDbLine
 10
1072.498591891658
 20
510.9676246943494
 30
0.0
 11
1072.498591891658
 21
499.6076246943494
 31
0.0
  0
TEXT
  5
3876
330
1F
100
AcDbEntity
  8
AM_5
100
AcDbText
 10
1056.273763063178
 20
520.1277346594094
 30
0.0
 40
1.6
  1
0
 50
90.0
  7
China
100
AcDbText
  0
LINE
  5
3877
330
1F
100
AcDbEntity
  8
AM_5
100
AcDbLine
 10
1056.534714140813
 20
518.7842437419684
 30
0.0
 11
1056.534714140813
 21
526.7877768143166
 31
0.0
  0
DIMENSION
  5
3878
330
1F
100
AcDbEntity
  8
AM_5
100
AcDbDimension
  2
*D13
 10
1088.188591891658
 20
527.2976629486227
 30
0.0
 11
1096.688591891658
 21
529.5976629486226
 31
0.0
 70
    32
 71
     5
 42
17.0
  3
AM_ISO$0
100
AcDbAlignedDimension
 13
1105.188591891659
 23
517.2960659081182
 33
0.0
 14
1088.188591891658
 24
491.5566246943495
 34
0.0
100
AcDbRotatedDimension
  0
ARC
  5
3879
330
1F
100
AcDbEntity
  8
0
  6
Continuous
 62
     7
100
AcDbCircle
 10
1088.188591891658
 20
485.6166246943494
 30
0.0
 40
5.000059999999999
100
AcDbArc
 50
179.7139999999989
 51
0.2860000000010329
  0
ARC
  5
387A
330
1F
100
AcDbEntity
  8
0
  6
Continuous
 62
     7
100
AcDbCircle
 10
1088.188591891658
 20
485.4886246943494
 30
0.0
 40
5.00232
100
AcDbArc
 50
0.0
 51
178.2550000000027
  0
LINE
  5
387B
330
1F
100
AcDbEntity
  8
AM_7
100
AcDbLine
 10
1094.419591891659
 20
485.6416246943495
 30
0.0
 11
1082.301591891658
 21
485.6416246943495
 31
0.0
  0
ARC
  5
387C
330
1F
100
AcDbEntity
  8
0
  6
Continuous
 62
     7
100
AcDbCircle
 10
1088.188591891658
 20
485.6086246943493
 30
0.0
 40
2.49862
100
AcDbArc
 50
0.0
 51
0.7370089999988025
  0
LINE
  5
387D
330
1F
100
AcDbEntity
  8
AM_7
100
AcDbLine
 10
1088.188591891658
 20
479.5746246943495
 30
0.0
 11
1088.188591891658
 21
491.5566246943495
 31
0.0
  0
ARC
  5
387E
330
1F
100
AcDbEntity
  8
0
  6
Continuous
 62
     7
100
AcDbCircle
 10
1088.188591891658
 20
485.6086246943493
 30
0.0
 40
2.49862
100
AcDbArc
 50
179.260999999997
 51
0.0
  0
ARC
  5
387F
330
1F
100
AcDbEntity
  8
0
  6
Continuous
 62
     7
100
AcDbCircle
 10
1088.188591891658
 20
485.4956246943494
 30
0.0
 40
2.50267
100
AcDbArc
 50
0.0
 51
176.657000000002
  0
POINT
  5
3880
330
1F
100
AcDbEntity
  8
0
100
AcDbPoint
 10
1114.188591891658
 20
480.2366246943495
 30
0.0
  0
ARC
  5
3881
330
1F
100
AcDbEntity
  8
0
  6
Continuous
 62
     7
100
AcDbCircle
 10
1103.921591891658
 20
503.5376246943494
 30
0.0
 40
1.230839999999999
100
AcDbArc
 50
139.8669999999944
 51
237.5599999999959
  0
ARC
  5
3882
330
1F
100
AcDbEntity
  8
0
  6
Continuous
 62
     7
100
AcDbCircle
 10
1105.189591891658
 20
506.7946246943494
 30
0.0
 40
6.342609999999999
100
AcDbArc
 50
227.5100000000002
 51
312.4899999999998
  0
ARC
  5
3883
330
1F
100
AcDbEntity
  8
0
  6
Continuous
 62
     7
100
AcDbCircle
 10
1105.188591891659
 20
499.0866246943494
 30
0.0
 40
7.782869999999999
100
AcDbArc
 50
62.98190000000452
 51
117.0180000000059
  0
LINE
  5
3884
330
1F
100
AcDbEntity
  8
AM_7
100
AcDbLine
 10
1111.013591891658
 20
503.9686246943495
 30
0.0
 11
1098.938591891658
 21
503.9686246943495
 31
0.0
  0
LINE
  5
3885
330
1F
100
AcDbEntity
  8
0
  6
Continuous
 62
     7
100
AcDbLine
 10
1082.188591891658
 20
511.2366246943493
 30
0.0
 11
1114.188591891658
 21
511.2366246943493
 31
0.0
  0
LINE
  5
3886
330
1F
100
AcDbEntity
  8
0
  6
Continuous
 62
     7
100
AcDbLine
 10
1082.188591891658
 20
510.1666246943494
 30
0.0
 11
1082.188591891658
 21
515.2366246943493
 31
0.0
  0
ARC
  5
3887
330
1F
100
AcDbEntity
  8
0
  6
Continuous
 62
     7
100
AcDbCircle
 10
1102.562591891658
 20
503.8226246943493
 30
0.0
 40
2.378029999999999
100
AcDbArc
 50
112.4739999999956
 51
225.807000000008
  0
DIMENSION
  5
3888
330
1F
100
AcDbEntity
  8
AM_5
100
AcDbDimension
  2
*D14
 10
1114.188591891658
 20
527.2976629486227
 30
0.0
 11
1109.688591891659
 21
529.5976629486226
 31
0.0
 70
    32
 71
     5
 42
9.0
  3
AM_ISO$0
100
AcDbAlignedDimension
 13
1105.188591891659
 23
507.9206246943495
 33
0.0
 14
1114.188591891658
 24
517.2960659081182
 34
0.0
100
AcDbRotatedDimension
  0
ARC
  5
3889
330
1F
100
AcDbEntity
  8
0
  6
Continuous
 62
     7
100
AcDbCircle
 10
1105.189591891658
 20
505.2986246943494
 30
0.0
 40
3.39918
100
AcDbArc
 50
235.4490000000046
 51
304.5509999999954
  0
ARC
  5
388A
330
1F
100
AcDbEntity
  8
0
  6
Continuous
 62
     7
100
AcDbCircle
 10
1105.188591891659
 20
501.6146246943494
 30
0.0
 40
3.50158
100
AcDbArc
 50
50.89629999999492
 51
129.1040000000044
  0
ARC
  5
388B
330
1F
100
AcDbEntity
  8
0
  6
Continuous
 62
     7
100
AcDbCircle
 10
1107.815591891658
 20
503.8226246943493
 30
0.0
 40
2.378099999999999
100
AcDbArc
 50
314.1959999999969
 51
67.52360000000535
  0
ARC
  5
388C
330
1F
100
AcDbEntity
  8
0
  6
Continuous
 62
     7
100
AcDbCircle
 10
1106.456591891658
 20
503.5376246943494
 30
0.0
 40
1.23075
100
AcDbArc
 50
302.441
 51
40.14110000000155
  0
LINE
  5
388D
330
1F
100
AcDbEntity
  8
AM_7
100
AcDbLine
 10
1105.188591891659
 20
499.5896246943495
 30
0.0
 11
1105.188591891659
 21
507.9206246943495
 31
0.0
  0
TEXT
  5
388E
330
1F
100
AcDbEntity
  8
AM_5
100
AcDbText
 10
1140.794553387165
 20
504.5592570360383
 30
0.0
 40
3.2
  1
M5
  7
China
100
AcDbText
  0
LINE
  5
388F
330
1F
100
AcDbEntity
  8
AM_5
100
AcDbLine
 10
1147.894553387165
 20
505.0862570360384
 30
0.0
 11
1149.694553387165
 21
507.2312570360383
 31
0.0
  0
LINE
  5
3890
330
1F
100
AcDbEntity
  8
AM_5
100
AcDbLine
 10
1147.894553387165
 20
507.2312570360383
 30
0.0
 11
1149.694553387165
 21
505.0862570360384
 31
0.0
  0
TEXT
  5
3891
330
1F
100
AcDbEntity
  8
AM_5
100
AcDbText
 10
1150.394553387165
 20
504.5592570360383
 30
0.0
 40
3.2
  1
0.8
  7
China
100
AcDbText
  0
TEXT
  5
3892
330
1F
100
AcDbEntity
  8
AM_5
100
AcDbText
 10
1134.995174773495
 20
524.7155827982521
 30
0.0
 40
3.2
  1
0.8
  7
China
100
AcDbText
  0
LINE
  5
3893
330
1F
100
AcDbEntity
  8
AM_5
100
AcDbLine
 10
1132.495174773495
 20
527.3885827982521
 30
0.0
 11
1134.295174773495
 21
525.2435827982521
 31
0.0
  0
LINE
  5
3894
330
1F
100
AcDbEntity
  8
AM_5
100
AcDbLine
 10
1132.495174773495
 20
525.2435827982521
 30
0.0
 11
1134.295174773495
 21
527.3885827982521
 31
0.0
  0
LINE
  5
3895
330
1F
100
AcDbEntity
  8
AM_5
100
AcDbLine
 10
1209.67280378808
 20
355.3866246943494
 30
0.0
 11
1241.49680378808
 21
323.5626246943494
 31
0.0
  0
LINE
  5
3896
330
1F
100
AcDbEntity
  8
AM_5
100
AcDbLine
 10
1193.21680378808
 20
342.7106246943495
 30
0.0
 11
1190.25580378808
 21
320.2156246943494
 31
0.0
  0
TEXT
  5
3897
330
1F
100
AcDbEntity
  8
AM_5
100
AcDbText
 10
1268.85480378808
 20
324.8556246943494
 30
0.0
 40
3.2
  1
DEPTH2
  7
China
100
AcDbText
  0
LINE
  5
3898
330
1F
100
AcDbEntity
  8
AM_5
100
AcDbLine
 10
1241.49680378808
 20
323.5626246943494
 30
0.0
 11
1288.31180378808
 21
323.5626246943494
 31
0.0
  0
TEXT
  5
3899
330
1F
100
AcDbEntity
  8
AM_5
100
AcDbText
 10
1212.20464978808
 20
320.0031546943494
 30
0.0
 40
3.2
  1
DEPTH4
 50
352.500000000001
  7
China
100
AcDbText
  0
LINE
  5
389A
330
1F
100
AcDbEntity
  8
AM_5
100
AcDbLine
 10
1190.38580378808
 20
321.2076246943496
 30
0.0
 11
1193.25580378808
 21
320.0186246943494
 31
0.0
  0
LINE
  5
389B
330
1F
100
AcDbEntity
  8
AM_5
100
AcDbLine
 10
1190.38580378808
 20
321.2066246943495
 30
0.0
 11
1193.46580378808
 21
321.6126246943495
 31
0.0
  0
TEXT
  5
389C
330
1F
100
AcDbEntity
  8
AM_5
100
AcDbText
 10
1191.86064978808
 20
322.9671546943495
 30
0.0
 40
3.2
  1
4H9
 50
352.500000000001
  7
China
100
AcDbText
  0
TEXT
  5
389D
330
1F
100
AcDbEntity
  8
AM_5
100
AcDbText
 10
1201.84822678808
 20
323.6478896943495
 30
0.0
 40
1.6
  1
+0.030
 50
352.500000000001
  7
China
100
AcDbText
  0
TEXT
  5
389E
330
1F
100
AcDbEntity
  8
AM_5
100
AcDbText
 10
1202.98122678808
 20
321.0978896943495
 30
0.0
 40
1.6
  1
0
 50
352.500000000001
  7
China
100
AcDbText
  0
TEXT
  5
389F
330
1F
100
AcDbEntity
  8
AM_5
100
AcDbText
 10
1258.82280378808
 20
326.4596246943495
 30
0.0
 40
1.6
  1
+0.062
  7
China
100
AcDbText
  0
TEXT
  5
38A0
330
1F
100
AcDbEntity
  8
AM_5
100
AcDbText
 10
1245.95180378808
 20
324.7316246943494
 30
0.0
 40
3.2
  1
42H9
  7
China
100
AcDbText
  0
CIRCLE
  5
38A1
330
1F
100
AcDbEntity
  8
AM_5
100
AcDbCircle
 10
1243.89980378808
 20
326.2696246943495
 30
0.0
 40
0.9
  0
LINE
  5
38A2
330
1F
100
AcDbEntity
  8
AM_5
100
AcDbLine
 10
1243.31880378808
 20
324.6726246943495
 30
0.0
 11
1244.48180378808
 21
327.8676246943494
 31
0.0
  0
TEXT
  5
38A3
330
1F
100
AcDbEntity
  8
AM_5
100
AcDbText
 10
1260.43180378808
 20
324.3556246943494
 30
0.0
 40
1.6
  1
0
  7
China
100
AcDbText
  0
LINE
  5
38A4
330
1F
100
AcDbEntity
  8
AM_5
100
AcDbLine
 10
1243.754607342618
 20
409.0970714235582
 30
0.0
 11
1294.357607342618
 21
409.0970714235582
 31
0.0
  0
TEXT
  5
38A5
330
1F
100
AcDbEntity
  8
AM_5
100
AcDbText
 10
1259.787607342619
 20
410.1850714235581
 30
0.0
 40
3.2
  1
0.8DEPTH7.5
  7
China
100
AcDbText
  0
ARC
  5
38A6
330
1F
100
AcDbEntity
  8
0
  6
Continuous
 62
     7
100
AcDbCircle
 10
1198.28280378808
 20
396.5096246943494
 30
0.0
 40
2.0
100
AcDbArc
 50
82.50709999999882
 51
82.16099999999389
  0
LINE
  5
38A7
330
1F
100
AcDbEntity
  8
AM_7
100
AcDbLine
 10
1198.72480378808
 20
399.8696246943495
 30
0.0
 11
1190.86380378808
 21
340.1556246943494
 31
0.0
  0
LINE
  5
38A8
330
1F
100
AcDbEntity
  8
AM_5
100
AcDbLine
 10
1243.754607342618
 20
409.0970714235582
 30
0.0
 11
1222.57380378808
 21
372.4016246943495
 31
0.0
  0
LINE
  5
38A9
330
1F
100
AcDbEntity
  8
0
  6
Continuous
 62
     7
100
AcDbLine
 10
1229.82380378808
 20
362.3216246943495
 30
0.0
 11
1229.82380378808
 21
378.3216246943494
 31
0.0
  0
LINE
  5
38AA
330
1F
100
AcDbEntity
  8
0
  6
Continuous
 62
     7
100
AcDbLine
 10
1214.49880378808
 20
357.9036246943494
 30
0.0
 11
1210.38580378808
 21
353.0016246943494
 31
0.0
  0
LINE
  5
38AB
330
1F
100
AcDbEntity
  8
0
  6
Continuous
 62
     7
100
AcDbLine
 10
1213.21980378808
 20
350.6226246943495
 30
0.0
 11
1210.38580378808
 21
353.0006246943494
 31
0.0
  0
ARC
  5
38AC
330
1F
100
AcDbEntity
  8
0
  6
Continuous
 62
     7
100
AcDbCircle
 10
1194.82380378808
 20
370.2366246943495
 30
0.0
 40
31.0
100
AcDbArc
 50
284.6250000000049
 51
315.3740000000037
  0
LINE
  5
38AE
330
1F
100
AcDbEntity
  8
0
  6
Continuous
 62
     7
100
AcDbLine
 10
1202.61080378808
 20
344.4976246943495
 30
0.0
 11
1201.96880378808
 21
348.1406246943495
 31
0.0
  0
LINE
  5
38AF
330
1F
100
AcDbEntity
  8
0
  6
Continuous
 62
     7
100
AcDbLine
 10
1196.30880378808
 20
343.3856246943494
 30
0.0
 11
1195.66580378808
 21
347.0296246943494
 31
0.0
  0
LINE
  5
38B0
330
1F
100
AcDbEntity
  8
0
  6
Continuous
 62
     7
100
AcDbLine
 10
1197.72680378808
 20
339.3726246943495
 30
0.0
 11
1197.06780378808
 21
343.1096246943495
 31
0.0
  0
LINE
  5
38B1
330
1F
100
AcDbEntity
  8
0
  6
Continuous
 62
     7
100
AcDbLine
 10
1196.30880378808
 20
343.3856246943494
 30
0.0
 11
1197.06780378808
 21
343.1096246943495
 31
0.0
  0
LINE
  5
38B2
330
1F
100
AcDbEntity
  8
0
  6
Continuous
 62
     7
100
AcDbLine
 10
1193.47780378808
 20
344.6936246943494
 30
0.0
 11
1193.21680378808
 21
342.7106246943495
 31
0.0
  0
LINE
  5
38B3
330
1F
100
AcDbEntity
  8
0
  6
Continuous
 62
     7
100
AcDbLine
 10
1201.99180378808
 20
343.9786246943495
 30
0.0
 11
1202.61080378808
 21
344.4976246943495
 31
0.0
  0
LINE
  5
38B4
330
1F
100
AcDbEntity
  8
0
  6
Continuous
 62
     7
100
AcDbLine
 10
1202.65080378808
 20
340.2406246943495
 30
0.0
 11
1201.99180378808
 21
343.9776246943495
 31
0.0
  0
LINE
  5
38B5
330
1F
100
AcDbEntity
  8
0
  6
Continuous
 62
     7
100
AcDbLine
 10
1195.66580378808
 20
347.0296246943494
 30
0.0
 11
1201.96880378808
 21
348.1416246943495
 31
0.0
  0
LINE
  5
38B6
330
1F
100
AcDbEntity
  8
0
  6
Continuous
 62
     7
100
AcDbLine
 10
1216.88680378808
 20
348.4596246943495
 30
0.0
 11
1213.97880378808
 21
350.8996246943496
 31
0.0
  0
LINE
  5
38B7
330
1F
100
AcDbEntity
  8
0
  6
Continuous
 62
     7
100
AcDbLine
 10
1217.33380378808
 20
355.5246246943495
 30
0.0
 11
1214.49880378808
 21
357.9036246943494
 31
0.0
  0
LINE
  5
38B8
330
1F
100
AcDbEntity
  8
0
  6
Continuous
 62
     7
100
AcDbLine
 10
1213.97880378808
 20
350.8996246943496
 30
0.0
 11
1213.21980378808
 21
350.6226246943495
 31
0.0
  0
LINE
  5
38B9
330
1F
100
AcDbEntity
  8
0
  6
Continuous
 62
     7
100
AcDbLine
 10
1220.10080378808
 20
352.2896246943494
 30
0.0
 11
1217.19380378808
 21
354.7286246943495
 31
0.0
  0
LINE
  5
38BA
330
1F
100
AcDbEntity
  8
0
  6
Continuous
 62
     7
100
AcDbLine
 10
1217.33380378808
 20
355.5256246943495
 30
0.0
 11
1217.19380378808
 21
354.7296246943495
 31
0.0
  0
LINE
  5
38BB
330
1F
100
AcDbEntity
  8
0
  6
Continuous
 62
     7
100
AcDbLine
 10
1224.792803788079
 20
362.3086246943494
 30
0.0
 11
1229.82380378808
 21
362.3216246943495
 31
0.0
  0
POINT
  5
38BC
330
1F
100
AcDbEntity
  8
0
100
AcDbPoint
 10
1194.82380378808
 20
370.2356246943494
 30
0.0
  0
CIRCLE
  5
38BE
330
1F
100
AcDbEntity
  8
0
  6
Continuous
 62
     7
100
AcDbCircle
 10
1221.32380378808
 20
370.2366246943495
 30
0.0
 40
2.067
  0
CIRCLE
  5
38BF
330
1F
100
AcDbEntity
  8
0
  6
Continuous
 62
     2
100
AcDbCircle
 10
1221.32380378808
 20
370.2366246943495
 30
0.0
 40
2.5
  0
LINE
  5
38C0
330
1F
100
AcDbEntity
  8
0
  6
Continuous
 62
     7
100
AcDbLine
 10
1224.75380378808
 20
378.3086246943494
 30
0.0
 11
1229.82380378808
 21
378.3216246943494
 31
0.0
  0
TEXT
  5
38C1
330
1F
100
AcDbEntity
  8
AM_5
100
AcDbText
 10
1197.09380378808
 20
428.9096246943495
 30
0.0
 40
3.2
  1
DEPTH4
  7
China
100
AcDbText
  0
LINE
  5
38C2
330
1F
100
AcDbEntity
  8
AM_5
100
AcDbLine
 10
1216.48480378808
 20
428.0366246943494
 30
0.0
 11
1199.28280378808
 21
398.2416246943494
 31
0.0
  0
TEXT
  5
38C3
330
1F
100
AcDbEntity
  8
AM_5
100
AcDbText
 10
1243.787607342619
 20
404.6180714235581
 30
0.0
 40
3.2
  1
P.C.D.53
  7
China
100
AcDbText
  0
TEXT
  5
38C4
330
1F
100
AcDbEntity
  8
AM_5
100
AcDbText
 10
1243.787607342619
 20
410.1850714235581
 30
0.0
 40
3.2
  1
3-M5
  7
China
100
AcDbText
  0
LINE
  5
38C5
330
1F
100
AcDbEntity
  8
AM_5
100
AcDbLine
 10
1257.287607342618
 20
412.8570714235581
 30
0.0
 11
1259.087607342619
 21
410.7120714235581
 31
0.0
  0
LINE
  5
38C6
330
1F
100
AcDbEntity
  8
AM_5
100
AcDbLine
 10
1257.287607342618
 20
410.7130714235581
 30
0.0
 11
1259.087607342619
 21
412.8570714235581
 31
0.0
  0
TEXT
  5
38C7
330
1F
100
AcDbEntity
  8
AM_5
100
AcDbText
 10
1123.042172854318
 20
518.8918669080476
 30
0.0
 40
3.2
  1
(Finger opening port)
  7
China
100
AcDbText
  0
TEXT
  5
38C8
330
1F
100
AcDbEntity
  8
AM_5
100
AcDbText
 10
1134.126537368639
 20
496.2685437953219
 30
0.0
 40
3.2
  1
(Finger closing 
  7
China
100
AcDbText
  0
TEXT
  5
38C9
330
1F
100
AcDbEntity
  8
AM_5
100
AcDbText
 10
1136.133473621169
 20
491.3364318566589
 30
0.0
 40
3.2
  1
port)
  7
China
100
AcDbText
  0
TEXT
  5
38CA
330
1F
100
AcDbEntity
  8
AM_5
100
AcDbText
 10
972.9795765122624
 20
418.8127934326144
 30
0.0
 40
3.2
  1
attachment)
  7
China
100
AcDbText
  0
TEXT
  5
38CB
330
1F
100
AcDbEntity
  8
AM_5
100
AcDbText
 10
970.5965254549758
 20
423.1407012798128
 30
0.0
 40
3.2
  1
(Thread for mounting 
  7
China
100
AcDbText
  0
TEXT
  5
38CC
330
1F
100
AcDbEntity
  8
AM_5
100
AcDbText
 10
901.2903261071521
 20
413.0805713307969
 30
0.0
 40
3.2
  1
(Mounting hole)
  7
China
100
AcDbText
  0
TEXT
  5
38CD
330
1F
100
AcDbEntity
  8
AM_5
100
AcDbText
 10
1243.04702897657
 20
400.1742110178789
 30
0.0
 40
3.2
  1
(Mounting thread)
  7
China
100
AcDbText
  0
LINE
  5
3A98
330
1F
100
AcDbEntity
  8
AM_7
  6
AM_ISO08W050x2
100
AcDbLine
 10
1168.32380378808
 20
370.2366246943495
 30
0.0
 11
1172.07380378808
 21
370.2366246943495
 31
0.0
1001
GENIUS_GENOREF_13
1005
3A9C
  0
LINE
  5
3A99
330
1F
100
AcDbEntity
  8
AM_7
  6
AM_ISO08W050x2
100
AcDbLine
 10
1168.32380378808
 20
370.2366246943495
 30
0.0
 11
1168.32380378808
 21
373.9866246943496
 31
0.0
1001
GENIUS_GENOREF_13
1005
3A9C
  0
LINE
  5
3A9A
330
1F
100
AcDbEntity
  8
AM_7
  6
AM_ISO08W050x2
100
AcDbLine
 10
1168.32380378808
 20
370.2366246943495
 30
0.0
 11
1164.57380378808
 21
370.2366246943495
 31
0.0
1001
GENIUS_GENOREF_13
1005
3A9C
  0
LINE
  5
3A9B
330
1F
100
AcDbEntity
  8
AM_7
  6
AM_ISO08W050x2
100
AcDbLine
 10
1168.32380378808
 20
370.2366246943495
 30
0.0
 11
1168.32380378808
 21
366.4866246943495
 31
0.0
1001
GENIUS_GENOREF_13
1005
3A9C
  0
POINT
  5
3A9C
330
1F
100
AcDbEntity
  8
0
 60
     1
100
AcDbPoint
 10
0.0
 20
0.0
 30
0.0
1001
GENIUS_GENOLIS_13
1002
{
1000
ENT
1005
3A9B
1005
3A9A
1005
3A99
1005
3A98
1002
}
1001
GENIUS_GENODEF_13
1002
{
1000
HIER
1070
    10
1002
}
1002
{
1000
MANEDIT
1070
     0
1002
}
1002
{
1000
NOSEL
1070
     0
1002
}
1002
{
1000
BEHIND
1070
     0
1002
}
1002
{
1000
OTHER
1070
     0
1002
}
1002
{
1000
REACTOR
1002
}
1001
GENIUS_GENOENT_13
1002
{
1000
MYREF
1005
3A9C
1002
}
1002
{
1000
GRP
1005
0
1002
}
1001
GENIUS_GENOBJ-N-CRS_13
1002
{
1000
OWNER
1000
GEN
1002
}
  0
LINE
  5
3AAA
330
1F
100
AcDbEntity
  8
AM_7
  6
AM_ISO08W050x2
100
AcDbLine
 10
1221.32380378808
 20
370.2366246943495
 30
0.0
 11
1224.82380378808
 21
370.2366246943495
 31
0.0
1001
GENIUS_GENOREF_13
1005
3AAE
  0
LINE
  5
3AAB
330
1F
100
AcDbEntity
  8
AM_7
  6
AM_ISO08W050x2
100
AcDbLine
 10
1221.32380378808
 20
370.2366246943495
 30
0.0
 11
1221.32380378808
 21
373.7366246943495
 31
0.0
1001
GENIUS_GENOREF_13
1005
3AAE
  0
LINE
  5
3AAC
330
1F
100
AcDbEntity
  8
AM_7
  6
AM_ISO08W050x2
100
AcDbLine
 10
1221.32380378808
 20
370.2366246943495
 30
0.0
 11
1217.82380378808
 21
370.2366246943495
 31
0.0
1001
GENIUS_GENOREF_13
1005
3AAE
  0
LINE
  5
3AAD
330
1F
100
AcDbEntity
  8
AM_7
  6
AM_ISO08W050x2
100
AcDbLine
 10
1221.32380378808
 20
370.2366246943495
 30
0.0
 11
1221.32380378808
 21
366.7366246943495
 31
0.0
1001
GENIUS_GENOREF_13
1005
3AAE
  0
POINT
  5
3AAE
330
1F
100
AcDbEntity
  8
0
 60
     1
100
AcDbPoint
 10
0.0
 20
0.0
 30
0.0
1001
GENIUS_GENOBJ-N-CRS_13
1002
{
1000
OWNER
1000
GEN
1002
}
1001
GENIUS_GENOLIS_13
1002
{
1000
ENT
1005
3AAD
1005
3AAC
1005
3AAB
1005
3AAA
1002
}
1001
GENIUS_GENOENT_13
1002
{
1000
MYREF
1005
3AAE
1002
}
1002
{
1000
GRP
1005
0
1002
}
1001
GENIUS_GENODEF_13
1002
{
1000
HIER
1070
    10
1002
}
1002
{
1000
MANEDIT
1070
     0
1002
}
1002
{
1000
NOSEL
1070
     0
1002
}
1002
{
1000
BEHIND
1070
     0
1002
}
1002
{
1000
OTHER
1070
     0
1002
}
1002
{
1000
REACTOR
1002
}
  0
LINE
  5
3AAF
330
1F
100
AcDbEntity
  8
AM_7
  6
AM_ISO08W050x2
100
AcDbLine
 10
1208.073786229383
 20
347.2869616315796
 30
0.0
 11
1206.198786229383
 21
350.5345568957713
 31
0.0
1001
GENIUS_GENOREF_13
1005
3AB8
  0
LINE
  5
3AB0
330
1F
100
AcDbEntity
  8
AM_7
  6
AM_ISO08W050x2
100
AcDbLine
 10
1208.073786229383
 20
347.2869616315796
 30
0.0
 11
1204.826190965192
 21
345.4119616315797
 31
0.0
1001
GENIUS_GENOREF_13
1005
3AB8
  0
LINE
  5
3AB1
330
1F
100
AcDbEntity
  8
AM_7
  6
AM_ISO08W050x2
100
AcDbLine
 10
1208.073786229383
 20
347.2869616315796
 30
0.0
 11
1209.948786229383
 21
344.0393663673881
 31
0.0
1001
GENIUS_GENOREF_13
1005
3AB8
  0
LINE
  5
3AB2
330
1F
100
AcDbEntity
  8
AM_7
  6
AM_ISO08W050x2
100
AcDbLine
 10
1208.073786229383
 20
347.2869616315796
 30
0.0
 11
1211.321381493575
 21
349.1619616315796
 31
0.0
1001
GENIUS_GENOREF_13
1005
3AB8
  0
LINE
  5
3AB3
330
1F
100
AcDbEntity
  8
AM_7
  6
AM_ISO08W050x2
100
AcDbLine
 10
1181.573786229384
 20
393.186308032155
 30
0.0
 11
1179.823786229383
 21
396.2173969454004
 31
0.0
1001
GENIUS_GENOREF_13
1005
3AB7
  0
LINE
  5
3AB4
330
1F
100
AcDbEntity
  8
AM_7
  6
AM_ISO08W050x2
100
AcDbLine
 10
1181.573786229384
 20
393.186308032155
 30
0.0
 11
1178.542697316138
 21
391.436308032155
 31
0.0
1001
GENIUS_GENOREF_13
1005
3AB7
  0
LINE
  5
3AB5
330
1F
100
AcDbEntity
  8
AM_7
  6
AM_ISO08W050x2
100
AcDbLine
 10
1181.573786229384
 20
393.186308032155
 30
0.0
 11
1183.323786229383
 21
390.1552191189094
 31
0.0
1001
GENIUS_GENOREF_13
1005
3AB7
  0
LINE
  5
3AB6
330
1F
100
AcDbEntity
  8
AM_7
  6
AM_ISO08W050x2
100
AcDbLine
 10
1181.573786229384
 20
393.186308032155
 30
0.0
 11
1184.604875142629
 21
394.936308032155
 31
0.0
1001
GENIUS_GENOREF_13
1005
3AB7
  0
POINT
  5
3AB7
330
1F
100
AcDbEntity
  8
0
 60
     1
100
AcDbPoint
 10
2112.870010520135
 20
-479.3928199477888
 30
0.0
1001
GENIUS_GENOBJ-N-CRS_13
1002
{
1000
OWNER
1000
GEN
1002
}
1001
GENIUS_GENOLIS_13
1002
{
1000
ENT
1005
3AB6
1005
3AB5
1005
3AB4
1005
3AB3
1002
}
1001
GENIUS_GENOENT_13
1002
{
1000
MYREF
1005
3AB7
1002
}
1002
{
1000
GRP
1005
0
1002
}
1001
GENIUS_GENODEF_13
1002
{
1000
HIER
1070
    10
1002
}
1002
{
1000
MANEDIT
1070
     0
1002
}
1002
{
1000
NOSEL
1070
     0
1002
}
1002
{
1000
BEHIND
1070
     0
1002
}
1002
{
1000
OTHER
1070
     0
1002
}
1002
{
1000
REACTOR
1002
}
  0
POINT
  5
3AB8
330
1F
100
AcDbEntity
  8
0
 60
     1
100
AcDbPoint
 10
2112.870010520135
 20
-479.3928199477888
 30
0.0
1001
GENIUS_GENOLIS_13
1002
{
1000
ENT
1005
3AB2
1005
3AB1
1005
3AB0
1005
3AAF
1002
}
1001
GENIUS_GENODEF_13
1002
{
1000
HIER
1070
    10
1002
}
1002
{
1000
MANEDIT
1070
     0
1002
}
1002
{
1000
NOSEL
1070
     0
1002
}
1002
{
1000
BEHIND
1070
     0
1002
}
1002
{
1000
OTHER
1070
     0
1002
}
1002
{
1000
REACTOR
1002
}
1001
GENIUS_GENOENT_13
1002
{
1000
MYREF
1005
3AB8
1002
}
1002
{
1000
GRP
1005
0
1002
}
1001
GENIUS_GENOBJ-N-CRS_13
1002
{
1000
OWNER
1000
GEN
1002
}
  0
LINE
  5
3AB9
330
1F
100
AcDbEntity
  8
AM_7
  6
AM_ISO08W050x2
100
AcDbLine
 10
1208.073786229384
 20
393.1862877571193
 30
0.0
 11
1206.198786229384
 21
389.9386924929276
 31
0.0
1001
GENIUS_GENOREF_13
1005
3AC2
  0
LINE
  5
3ABA
330
1F
100
AcDbEntity
  8
AM_7
  6
AM_ISO08W050x2
100
AcDbLine
 10
1208.073786229384
 20
393.1862877571193
 30
0.0
 11
1211.321381493576
 21
391.3112877571193
 31
0.0
1001
GENIUS_GENOREF_13
1005
3AC2
  0
LINE
  5
3ABB
330
1F
100
AcDbEntity
  8
AM_7
  6
AM_ISO08W050x2
100
AcDbLine
 10
1208.073786229384
 20
393.1862877571193
 30
0.0
 11
1209.948786229384
 21
396.433883021311
 31
0.0
1001
GENIUS_GENOREF_13
1005
3AC2
  0
LINE
  5
3ABC
330
1F
100
AcDbEntity
  8
AM_7
  6
AM_ISO08W050x2
100
AcDbLine
 10
1208.073786229384
 20
393.1862877571193
 30
0.0
 11
1204.826190965192
 21
395.0612877571193
 31
0.0
1001
GENIUS_GENOREF_13
1005
3AC2
  0
LINE
  5
3ABD
330
1F
100
AcDbEntity
  8
AM_7
  6
AM_ISO08W050x2
100
AcDbLine
 10
1181.573786229384
 20
347.2869413565441
 30
0.0
 11
1179.823786229384
 21
344.2558524432986
 31
0.0
1001
GENIUS_GENOREF_13
1005
3AC1
  0
LINE
  5
3ABE
330
1F
100
AcDbEntity
  8
AM_7
  6
AM_ISO08W050x2
100
AcDbLine
 10
1181.573786229384
 20
347.2869413565441
 30
0.0
 11
1184.604875142629
 21
345.5369413565441
 31
0.0
1001
GENIUS_GENOREF_13
1005
3AC1
  0
LINE
  5
3ABF
330
1F
100
AcDbEntity
  8
AM_7
  6
AM_ISO08W050x2
100
AcDbLine
 10
1181.573786229384
 20
347.2869413565441
 30
0.0
 11
1183.323786229384
 21
350.3180302697897
 31
0.0
1001
GENIUS_GENOREF_13
1005
3AC1
  0
LINE
  5
3AC0
330
1F
100
AcDbEntity
  8
AM_7
  6
AM_ISO08W050x2
100
AcDbLine
 10
1181.573786229384
 20
347.2869413565441
 30
0.0
 11
1178.542697316138
 21
349.036941356544
 31
0.0
1001
GENIUS_GENOREF_13
1005
3AC1
  0
POINT
  5
3AC1
330
1F
100
AcDbEntity
  8
0
 60
     1
100
AcDbPoint
 10
1471.601365726713
 20
1590.102694030837
 30
0.0
1001
GENIUS_GENOBJ-N-CRS_13
1002
{
1000
OWNER
1000
GEN
1002
}
1001
GENIUS_GENOLIS_13
1002
{
1000
ENT
1005
3AC0
1005
3ABF
1005
3ABE
1005
3ABD
1002
}
1001
GENIUS_GENOENT_13
1002
{
1000
MYREF
1005
3AC1
1002
}
1002
{
1000
GRP
1005
0
1002
}
1001
GENIUS_GENODEF_13
1002
{
1000
HIER
1070
    10
1002
}
1002
{
1000
MANEDIT
1070
     0
1002
}
1002
{
1000
NOSEL
1070
     0
1002
}
1002
{
1000
BEHIND
1070
     0
1002
}
1002
{
1000
OTHER
1070
     0
1002
}
1002
{
1000
REACTOR
1002
}
  0
POINT
  5
3AC2
330
1F
100
AcDbEntity
  8
0
 60
     1
100
AcDbPoint
 10
1471.601365726713
 20
1590.102694030837
 30
0.0
1001
GENIUS_GENOLIS_13
1002
{
1000
ENT
1005
3ABC
1005
3ABB
1005
3ABA
1005
3AB9
1002
}
1001
GENIUS_GENODEF_13
1002
{
1000
HIER
1070
    10
1002
}
1002
{
1000
MANEDIT
1070
     0
1002
}
1002
{
1000
NOSEL
1070
     0
1002
}
1002
{
1000
BEHIND
1070
     0
1002
}
1002
{
1000
OTHER
1070
     0
1002
}
1002
{
1000
REACTOR
1002
}
1001
GENIUS_GENOENT_13
1002
{
1000
MYREF
1005
3AC2
1002
}
1002
{
1000
GRP
1005
0
1002
}
1001
GENIUS_GENOBJ-N-CRS_13
1002
{
1000
OWNER
1000
GEN
1002
}
  0
CIRCLE
  5
3AC3
330
1F
100
AcDbEntity
  8
0
  6
Continuous
 62
     7
100
AcDbCircle
 10
1208.07380378808
 20
347.2869514940618
 30
0.0
 40
2.75
  0
CIRCLE
  5
3AC4
330
1F
100
AcDbEntity
  8
0
  6
Continuous
 62
     7
100
AcDbCircle
 10
1181.57380378808
 20
393.186297894637
 30
0.0
 40
2.067
  0
CIRCLE
  5
3AC5
330
1F
100
AcDbEntity
  8
0
  6
Continuous
 62
     2
100
AcDbCircle
 10
1181.57380378808
 20
393.186297894637
 30
0.0
 40
2.5
  0
CIRCLE
  5
3AC6
330
1F
100
AcDbEntity
  8
0
  6
Continuous
 62
     7
100
AcDbCircle
 10
1208.07380378808
 20
393.1862978946374
 30
0.0
 40
2.75
  0
CIRCLE
  5
3AC7
330
1F
100
AcDbEntity
  8
0
  6
Continuous
 62
     7
100
AcDbCircle
 10
1181.57380378808
 20
347.2869514940622
 30
0.0
 40
2.067
  0
CIRCLE
  5
3AC8
330
1F
100
AcDbEntity
  8
0
  6
Continuous
 62
     2
100
AcDbCircle
 10
1181.57380378808
 20
347.2869514940622
 30
0.0
 40
2.5
  0
LINE
  5
3ADA
330
1F
100
AcDbEntity
  8
AM_7
100
AcDbLine
 10
1194.82380378808
 20
370.2366246943495
 30
0.0
 11
1230.823907002213
 21
370.2366246943495
 31
0.0
1001
GENIUS_GENOREF_13
1005
3ADE
  0
LINE
  5
3ADB
330
1F
100
AcDbEntity
  8
AM_7
100
AcDbLine
 10
1194.82380378808
 20
370.2366246943495
 30
0.0
 11
1194.82380378808
 21
406.2367279084829
 31
0.0
1001
GENIUS_GENOREF_13
1005
3ADE
  0
LINE
  5
3ADC
330
1F
100
AcDbEntity
  8
AM_7
100
AcDbLine
 10
1194.82380378808
 20
370.2366246943495
 30
0.0
 11
1158.823700573946
 21
370.2366246943495
 31
0.0
1001
GENIUS_GENOREF_13
1005
3ADE
  0
LINE
  5
3ADD
330
1F
100
AcDbEntity
  8
AM_7
100
AcDbLine
 10
1194.82380378808
 20
370.2366246943495
 30
0.0
 11
1194.82380378808
 21
334.236521480216
 31
0.0
1001
GENIUS_GENOREF_13
1005
3ADE
  0
POINT
  5
3ADE
330
1F
100
AcDbEntity
  8
0
 60
     1
100
AcDbPoint
 10
0.0
 20
0.0
 30
0.0
1001
GENIUS_GENODEF_13
1002
{
1000
HIER
1070
    10
1002
}
1002
{
1000
MANEDIT
1070
     0
1002
}
1002
{
1000
NOSEL
1070
     0
1002
}
1002
{
1000
BEHIND
1070
     0
1002
}
1002
{
1000
OTHER
1070
     0
1002
}
1002
{
1000
REACTOR
1002
}
1001
GENIUS_GENOENT_13
1002
{
1000
MYREF
1005
3ADE
1002
}
1002
{
1000
GRP
1005
0
1002
}
1001
GENIUS_GENOBJ-N-CRS_13
1002
{
1000
OWNER
1000
GEN
1002
}
1001
GENIUS_GENOLIS_13
1002
{
1000
ENT
1005
3ADD
1005
3ADC
1005
3ADB
1005
3ADA
1002
}
  0
ENDSEC
  0
SECTION
  2
OBJECTS
  0
DICTIONARY
  5
C
330
0
100
AcDbDictionary
281
     1
  3
ACAD_COLOR
350
8FD
  3
ACAD_GROUP
350
D
  3
ACAD_LAYOUT
350
1A
  3
ACAD_MATERIAL
350
8FC
  3
ACAD_MLINESTYLE
350
17
  3
ACAD_PLOTSETTINGS
350
19
  3
ACAD_PLOTSTYLENAME
350
E
  3
ACAD_TABLESTYLE
350
8FE
  3
ACDBHEADERROUNDTRIPXREC
350
3F08
  3
AcDbVariableDictionary
350
82
  3
AcmDictionary
350
45
  3
AMG
350
2B
  3
AMGSNAPSETTINGS
350
2026
  3
DWGPROPS
350
3F07
  0
DICTIONARY
  5
E05
330
2
100
AcDbDictionary
280
     1
281
     1
  3
ACAD_LAYERFILTERS
360
E57
  3
ACAD_LAYERSTATES
360
E80
  3
ACLYDICTIONARY
360
E56
  3
AMLAYER_GROUPCOLORS
360
1991
  0
DICTIONARY
  5
7D
330
1F
100
AcDbDictionary
280
     1
281
     1
  3
ACAD_SORTENTS
360
19C4
  0
DICTIONARY
  5
8FD
102
{ACAD_REACTORS
330
C
102
}
330
C
100
AcDbDictionary
281
     1
  0
DICTIONARY
  5
D
102
{ACAD_REACTORS
330
C
102
}
330
C
100
AcDbDictionary
281
     1
  0
DICTIONARY
  5
1A
102
{ACAD_REACTORS
330
C
102
}
330
C
100
AcDbDictionary
281
     1
  3
Layout1
350
1E
  3
Layout2
350
26
  3
Model
350
22
  0
DICTIONARY
  5
8FC
102
{ACAD_REACTORS
330
C
102
}
330
C
100
AcDbDictionary
281
     1
  0
DICTIONARY
  5
17
102
{ACAD_REACTORS
330
C
102
}
330
C
100
AcDbDictionary
281
     1
  3
Standard
350
18
  0
DICTIONARY
  5
19
102
{ACAD_REACTORS
330
C
102
}
330
C
100
AcDbDictionary
281
     1
  0
ACDBDICTIONARYWDFLT
  5
E
102
{ACAD_REACTORS
330
C
102
}
330
C
100
AcDbDictionary
281
     1
  3
Normal
350
F
100
AcDbDictionaryWithDefault
340
F
  0
DICTIONARY
  5
8FE
102
{ACAD_REACTORS
330
C
102
}
330
C
100
AcDbDictionary
281
     1
  3
Standard
350
8FF
  0
DICTIONARY
  5
3F08
102
{ACAD_REACTORS
330
C
102
}
330
C
100
AcDbDictionary
281
     1
  0
DICTIONARY
  5
82
102
{ACAD_REACTORS
330
C
102
}
330
C
100
AcDbDictionary
281
     1
  3
CTABLESTYLE
350
972
  3
DIMASSOC
350
85
  3
HIDETEXT
350
84
  3
INDEXCTL
350
83
  3
PROJECTNAME
350
973
  0
DICTIONARY
  5
45
102
{ACAD_REACTORS
330
C
102
}
330
C
100
AcDbDictionary
281
     1
  3
AcmStdDictionary
350
4A
  3
AMDTSECTSYM_ARROWCOLOR
350
90B
  0
DICTIONARY
  5
2B
102
{ACAD_REACTORS
330
C
102
}
330
C
100
AcDbDictionary
281
     1
  0
DICTIONARY
  5
2026
102
{ACAD_REACTORS
330
C
102
}
330
C
100
AcDbDictionary
281
     1
  0
XRECORD
  5
3F07
102
{ACAD_REACTORS
330
C
102
}
330
C
100
AcDbXrecord
280
     1
  1
DWGPROPS COOKIE
  2

  3

  4

  6

  7

  8

  9

300
AmdtFileType=84
301
=
302
=
303
=
304
=
305
=
306
=
307
=
308
=
309
=
 40
0.428290925925926
 41
2453021.369367211
 42
2453805.582755891
  1

 90
        1
  0
DICTIONARY
  5
E57
102
{ACAD_REACTORS
330
E05
102
}
330
E05
100
AcDbDictionary
281
     1
  0
DICTIONARY
  5
E80
102
{ACAD_REACTORS
330
E05
102
}
330
E05
100
AcDbDictionary
281
     1
  0
DICTIONARY
  5
E56
102
{ACAD_REACTORS
330
E05
102
}
330
E05
100
AcDbDictionary
281
     1
1001
ACAD
1000
<All
  0
DICTIONARY
  5
1991
102
{ACAD_REACTORS
330
E05
102
}
330
E05
100
AcDbDictionary
280
     1
281
     1
  0
SORTENTSTABLE
  5
19C4
102
{ACAD_REACTORS
330
7D
102
}
330
7D
100
AcDbSortentsTable
330
1F
331
AE3
  5
AE3
  0
LAYOUT
  5
1E
102
{ACAD_XDICTIONARY
360
3F09
102
}
102
{ACAD_REACTORS
330
1A
102
}
330
1A
100
AcDbPlotSettings
  1

  2
自動 RD 上的 Epson Stylus Photo 750 單色
  4

  6

 40
0.0
 41
0.0
 42
0.0
 43
0.0
 44
0.0
 45
0.0
 46
0.0
 47
0.0
 48
0.0
 49
0.0
140
0.0
141
0.0
142
1.0
143
1.0
 70
   688
 72
     0
 73
     0
 74
     5
  7
彩色出圖.ctb
 75
    16
147
1.0
148
0.0
149
0.0
100
AcDbLayout
  1
Layout1
 70
     1
 71
     1
 10
0.0
 20
0.0
 11
420.0
 21
297.0
 12
0.0
 22
0.0
 32
0.0
 14
1.000000000000000E+20
 24
1.000000000000000E+20
 34
1.000000000000000E+20
 15
-1.000000000000000E+20
 25
-1.000000000000000E+20
 35
-1.000000000000000E+20
146
0.0
 13
0.0
 23
0.0
 33
0.0
 16
1.0
 26
0.0
 36
0.0
 17
0.0
 27
1.0
 37
0.0
 76
     0
330
1B
  0
LAYOUT
  5
26
102
{ACAD_XDICTIONARY
360
3F0D
102
}
102
{ACAD_REACTORS
330
1A
102
}
330
1A
100
AcDbPlotSettings
  1

  2
自動 RD 上的 Epson Stylus Photo 750 單色
  4

  6

 40
0.0
 41
0.0
 42
0.0
 43
0.0
 44
0.0
 45
0.0
 46
0.0
 47
0.0
 48
0.0
 49
0.0
140
0.0
141
0.0
142
1.0
143
1.0
 70
   688
 72
     0
 73
     0
 74
     5
  7
彩色出圖.ctb
 75
    16
147
1.0
148
0.0
149
0.0
100
AcDbLayout
  1
Layout2
 70
     1
 71
     2
 10
0.0
 20
0.0
 11
12.0
 21
9.0
 12
0.0
 22
0.0
 32
0.0
 14
0.0
 24
0.0
 34
0.0
 15
0.0
 25
0.0
 35
0.0
146
0.0
 13
0.0
 23
0.0
 33
0.0
 16
1.0
 26
0.0
 36
0.0
 17
0.0
 27
1.0
 37
0.0
 76
     0
330
23
  0
LAYOUT
  5
22
102
{ACAD_XDICTIONARY
360
3F0B
102
}
102
{ACAD_REACTORS
330
1A
102
}
330
1A
100
AcDbPlotSettings
  1

  2
自動 RD 上的 Epson Stylus Photo 750 單色
  4
A4
  6

 40
3.757083177566528
 41
14.7637300491333
 42
3.757080078125
 43
3.757080078125
 44
209.9733276367187
 45
296.9683227539062
 46
7.54
 47
0.0
 48
0.0
 49
0.0
140
0.0
141
0.0
142
1.0
143
1.817317462545654
 70
 11956
 72
     1
 73
     0
 74
     1
  7
彩色出圖.ctb
 75
     0
147
0.5502615919395967
148
-125.5654918467224
149
222.8859553785132
100
AcDbLayout
  1
Model
 70
     1
 71
     0
 10
0.0
 20
0.0
 11
12.0
 21
9.0
 12
0.0
 22
0.0
 32
0.0
 14
0.0
 24
0.0
 34
0.0
 15
0.0
 25
0.0
 35
0.0
146
0.0
 13
0.0
 23
0.0
 33
0.0
 16
1.0
 26
0.0
 36
0.0
 17
0.0
 27
1.0
 37
0.0
 76
     0
330
1F
  0
MLINESTYLE
  5
18
102
{ACAD_REACTORS
330
17
102
}
330
17
100
AcDbMlineStyle
  2
STANDARD
 70
     0
  3

 62
   256
 51
90.0
 52
90.0
 71
     2
 49
0.5
 62
   256
  6
BYLAYER
 49
-0.5
 62
   256
  6
BYLAYER
  0
ACDBPLACEHOLDER
  5
F
102
{ACAD_REACTORS
330
E
102
}
330
E
  0
TABLESTYLE
  5
8FF
102
{ACAD_REACTORS
330
8FE
102
}
330
8FE
100
AcDbTableStyle
  3
Standard
 70
     0
 71
     0
 40
1.5
 41
1.5
280
     0
281
     0
  7
STANDARD
140
4.5
170
     2
 62
     0
 63
     7
283
     0
274
    -2
284
     1
 64
     0
275
    -2
285
     1
 65
     0
276
    -2
286
     1
 66
     0
277
    -2
287
     1
 67
     0
278
    -2
288
     1
 68
     0
279
    -2
289
     1
 69
     0
  7
STANDARD
140
6.0
170
     5
 62
     0
 63
     7
283
     0
274
    -2
284
     1
 64
     0
275
    -2
285
     1
 65
     0
276
    -2
286
     1
 66
     0
277
    -2
287
     1
 67
     0
278
    -2
288
     1
 68
     0
279
    -2
289
     1
 69
     0
  7
STANDARD
140
4.5
170
     5
 62
     0
 63
     7
283
     0
274
    -2
284
     1
 64
     0
275
    -2
285
     1
 65
     0
276
    -2
286
     1
 66
     0
277
    -2
287
     1
 67
     0
278
    -2
288
     1
 68
     0
279
    -2
289
     1
 69
     0
  0
DICTIONARYVAR
  5
972
102
{ACAD_REACTORS
330
82
102
}
330
82
100
DictionaryVariables
280
     0
  1
STANDARD
  0
DICTIONARYVAR
  5
85
102
{ACAD_REACTORS
330
82
102
}
330
82
100
DictionaryVariables
280
     0
  1
2
  0
DICTIONARYVAR
  5
84
102
{ACAD_REACTORS
330
82
102
}
330
82
100
DictionaryVariables
280
     0
  1
1
  0
DICTIONARYVAR
  5
83
102
{ACAD_REACTORS
330
82
102
}
330
82
100
DictionaryVariables
280
     0
  1
0
  0
DICTIONARYVAR
  5
973
102
{ACAD_REACTORS
330
82
102
}
330
82
100
DictionaryVariables
280
     0
  1

  0
DICTIONARY
  5
4A
102
{ACAD_REACTORS
330
45
102
}
330
45
100
AcDbDictionary
281
     1
  0
XRECORD
  5
90B
102
{ACAD_REACTORS
330
45
102
}
330
45
100
AcDbXrecord
280
     1
 90
-1023410169
  0
DICTIONARY
  5
3F09
330
1E
100
AcDbDictionary
280
     1
281
     1
  3
ACAD_XREC_ROUNDTRIP
360
3F0A
  0
DICTIONARY
  5
3F0D
330
26
100
AcDbDictionary
280
     1
281
     1
  3
ACAD_XREC_ROUNDTRIP
360
3F0E
  0
DICTIONARY
  5
3F0B
330
22
100
AcDbDictionary
280
     1
281
     1
  3
ACAD_XREC_ROUNDTRIP
360
3F0C
  0
XRECORD
  5
3F0A
102
{ACAD_REACTORS
330
3F09
102
}
330
3F09
100
AcDbXrecord
280
     1
102
SHADEPLOT
 70
     0
102
SHADEPLOTRESLEVEL
 70
     2
102
SHADEPLOTCUSTOMDPI
 70
   300
  0
XRECORD
  5
3F0E
102
{ACAD_REACTORS
330
3F0D
102
}
330
3F0D
100
AcDbXrecord
280
     1
102
SHADEPLOT
 70
     0
102
SHADEPLOTRESLEVEL
 70
     2
102
SHADEPLOTCUSTOMDPI
 70
   300
  0
XRECORD
  5
3F0C
102
{ACAD_REACTORS
330
3F0B
102
}
330
3F0B
100
AcDbXrecord
280
     1
102
SHADEPLOT
 70
     0
102
SHADEPLOTRESLEVEL
 70
     2
102
SHADEPLOTCUSTOMDPI
 70
   300
  0
ENDSEC
  0
EOF
